osu file format v14

[General]
AudioFilename: audio.mp3
AudioLeadIn: 0
PreviewTime: 43430
Countdown: 0
SampleSet: Soft
StackLeniency: 0.7
Mode: 2
LetterboxInBreaks: 0
WidescreenStoryboard: 0

[Editor]
Bookmarks: 64001,66744,98716,154601
DistanceSpacing: 1.4
BeatDivisor: 4
GridSize: 8
TimelineZoom: 2.899999

[Metadata]
Title:Tokyo (Innovaderz Remix)
TitleUnicode:Tokyo (Innovaderz Remix)
Artist:DJ Ozawa
ArtistUnicode:DJ Ozawa
Creator:Ascendance
Version:TokyOverdose [2016]
Source:
Tags:dnb lanturn mbomb -_magic_bomb_- magic bomb californian darknessofblue fii -wwwww kaitlin zirox sorcerer tomthewizard toybot Yumeno Himiko exam examination gero tenshichan [superstar] hi_hello CLSW crystal crystalseed tasuke912 boberofdarkness bodom koliron deif spectator qoot8123 julie prophecy nofool skylish onosakihito ozzyozrock nardo nardoxyribonucleic raiden nwolf backfire chromoxx saika -saika- lop fawx
BeatmapID:923470
BeatmapSetID:427801

[Difficulty]
HPDrainRate:7
CircleSize:4.3
OverallDifficulty:9.4
ApproachRate:9.4
SliderMultiplier:1.92
SliderTickRate:2

[Events]
//Background and Video events
0,0,"Cities_Color_of_the_night_city_058372_.jpg",0,0
//Break Periods
//Storyboard Layer 0 (Background)
//Storyboard Layer 1 (Fail)
//Storyboard Layer 2 (Pass)
//Storyboard Layer 3 (Foreground)
//Storyboard Sound Samples

[TimingPoints]
916,342.857142857143,4,2,11,50,1,0
916,-133.333333333333,4,2,11,50,0,0
6316,-133.333333333333,4,2,11,50,0,0
6401,-133.333333333333,4,2,11,50,0,0
6916,-133.333333333333,4,2,11,50,0,0
7430,-133.333333333333,4,2,11,50,0,0
8801,-133.333333333333,4,2,11,50,0,0
9058,-133.333333333333,4,2,11,50,0,0
9144,-133.333333333333,4,2,11,50,0,0
11887,-133.333333333333,4,2,11,50,0,0
12401,-133.333333333333,4,2,11,50,0,0
12916,-133.333333333333,4,2,11,50,0,0
14287,-133.333333333333,4,2,11,50,0,0
17373,-133.333333333333,4,2,11,50,0,0
17887,-133.333333333333,4,2,11,50,0,0
18401,-133.333333333333,4,2,11,50,0,0
19773,-133.333333333333,4,2,11,50,0,0
22858,-100,4,3,11,50,0,0
33830,-100,4,1,11,60,0,0
44801,-100,4,1,0,70,0,1
66744,-100,4,1,14,60,0,0
67601,-100,4,1,14,50,0,0
67773,-100,4,1,14,40,0,0
68116,-100,4,1,14,60,0,0
68973,-100,4,1,14,50,0,0
69144,-100,4,1,14,40,0,0
69487,-100,4,1,14,60,0,0
70344,-100,4,1,14,50,0,0
70516,-100,4,1,14,40,0,0
70858,-100,4,1,14,60,0,0
71716,-100,4,1,14,50,0,0
71887,-100,4,1,14,40,0,0
72230,-100,4,1,14,60,0,0
72573,-100,4,1,14,60,0,0
73087,-100,4,1,14,50,0,0
73259,-100,4,1,14,40,0,0
73601,-100,4,1,14,60,0,0
74459,-100,4,1,14,50,0,0
74630,-100,4,1,14,40,0,0
74973,-100,4,1,14,60,0,0
75830,-100,4,1,14,50,0,0
76002,-100,4,1,14,40,0,0
76344,-100,4,1,14,60,0,0
77202,-100,4,1,14,50,0,0
77373,-100,4,1,14,40,0,0
77716,-100,4,1,13,60,0,0
88001,-100,4,1,0,60,0,0
88173,-100,4,1,0,30,0,0
88258,-100,4,1,0,60,0,0
88430,-100,4,1,0,30,0,0
88516,-100,4,1,0,60,0,0
88687,-100,4,1,14,60,0,0
89544,-100,4,1,14,50,0,0
89716,-100,4,1,14,40,0,0
90058,-100,4,1,14,60,0,0
90916,-100,4,1,14,50,0,0
91087,-100,4,1,14,40,0,0
91430,-100,4,1,14,60,0,0
92287,-100,4,1,14,50,0,0
92459,-100,4,1,14,40,0,0
92801,-100,4,1,14,60,0,0
93659,-100,4,1,14,50,0,0
93830,-100,4,1,14,40,0,0
94173,-100,4,1,14,60,0,0
95030,-100,4,1,14,50,0,0
95202,-100,4,1,14,40,0,0
95544,-100,4,1,14,60,0,0
96402,-100,4,1,14,50,0,0
96573,-100,4,1,14,40,0,0
96916,-100,4,1,14,60,0,0
97773,-100,4,1,14,50,0,0
97945,-100,4,1,14,40,0,0
98287,-100,4,1,14,60,0,0
99145,-100,4,1,14,50,0,0
99316,-100,4,1,14,40,0,0
99658,-100,4,1,13,60,0,1
108744,-100,4,1,13,30,0,1
108830,-100,4,1,13,60,0,1
109001,-100,4,1,13,30,0,1
109087,-100,4,1,13,60,0,1
109944,-100,4,1,13,50,0,1
110630,-100,4,2,12,40,0,0
110973,-100,4,2,12,50,0,0
111658,-100,4,2,12,40,0,0
111830,-100,4,2,12,30,0,0
112001,-100,4,2,12,40,0,0
112344,-100,4,2,12,50,0,0
113030,-100,4,2,12,40,0,0
113201,-100,4,2,12,30,0,0
113373,-100,4,2,12,40,0,0
113716,-100,4,2,12,50,0,0
114401,-100,4,2,12,40,0,0
114573,-100,4,2,12,30,0,0
114744,-100,4,2,12,40,0,0
115087,-100,4,2,12,50,0,0
115773,-100,4,2,12,40,0,0
115944,-100,4,2,12,30,0,0
116116,-100,4,2,12,40,0,0
116458,-100,4,2,12,50,0,0
116801,-100,4,2,12,50,0,0
117144,-100,4,2,12,40,0,0
117316,-100,4,2,12,30,0,0
117487,-100,4,2,12,40,0,0
117830,-100,4,2,12,50,0,0
118516,-100,4,2,12,40,0,0
118687,-100,4,2,12,30,0,0
118858,-100,4,2,12,40,0,0
119201,-100,4,2,12,50,0,0
119887,-100,4,2,12,40,0,0
120058,-100,4,2,12,30,0,0
120230,-100,4,2,12,40,0,0
120573,-100,4,2,12,50,0,0
121601,-100,4,2,11,50,0,0
143544,-100,4,1,11,60,0,0
154516,-100,4,1,11,60,0,1
154601,-100,4,1,11,60,0,0

[HitObjects]
48,144,744,5,8,0:0:0:0:
432,160,916,6,0,P|480:192|448:272,1,144.000005493164,0|2,0:0|0:0,0:0:0:0:
304,224,1601,2,0,P|272:288|336:320,1,144.000005493164,2|2,0:0|0:0,0:0:0:0:
64,256,2116,2,0,B|16:224|80:192|208:160|16:80|16:80|192:80,1,432.000016479493,2|0,0:0|0:0,0:0:0:0:
448,80,3316,6,0,P|480:139|436:190,1,144.000005493164,2|10,0:0|0:0,0:0:0:0:
320,192,4001,1,0,0:0:0:0:
208,192,4173,2,0,L|64:192,1,144.000005493164,2|0,0:0|0:0,0:0:0:0:
176,96,4687,2,0,L|320:96,1,144.000005493164,0|2,0:0|0:0,0:0:0:0:
400,96,5116,1,0,0:0:0:0:
480,96,5201,2,0,P|496:128|432:208,1,144.000005493164,0|2,0:0|0:0,0:0:0:0:
128,208,5716,5,2,0:0:0:0:
224,160,5887,2,0,L|256:144,1,36.0000013732911,0|2,0:0|0:0,0:0:0:0:
64,64,6230,2,0,L|32:112,1,36.0000013732911,2|0,0:0|0:0,0:0:0:0:
352,96,6401,6,0,P|384:144|352:224,1,144.000005493164,6|2,0:0|0:0,0:0:0:0:
176,32,6916,2,0,P|144:96|192:160,1,144.000005493164,0|0,0:0|0:0,0:0:0:0:
256,160,7430,2,0,P|288:224|240:288,1,144.000005493164,2|2,0:0|0:0,0:0:0:0:
160,288,7944,2,0,L|80:288,2,72.0000027465821,0|0|0,0:0|0:0|0:0,0:0:0:0:
256,288,8458,2,0,L|336:288,1,72.0000027465821,0|0,0:0|0:0,0:0:0:0:
192,80,8801,6,0,P|176:128|224:192,1,108.000004119873,2|0,0:0|0:0,0:0:0:0:
464,128,9144,2,0,P|496:176|432:256,1,144.000005493164,10|0,0:0|0:0,0:0:0:0:
304,240,9658,2,0,P|272:288|336:336,1,144.000005493164,2|0,0:0|0:0,0:0:0:0:
480,336,10173,2,0,L|384:336,1,72.0000027465821,0|0,0:0|0:0,0:0:0:0:
80,336,10516,6,0,L|8:336,2,72.0000027465821,2|0|2,0:0|0:0|0:0,0:0:0:0:
208,256,11030,2,0,L|240:240,1,36.0000013732911,2|0,0:0|0:0,0:0:0:0:
112,176,11287,2,0,L|80:160,1,36.0000013732911,0|2,0:0|0:0,0:0:0:0:
352,128,11544,2,0,L|432:128,1,72.0000027465821,2|2,0:0|0:0,0:0:0:0:
144,96,11887,6,0,P|112:128|160:208,1,144.000005493164,6|2,0:0|0:0,0:0:0:0:
336,208,12401,2,0,P|368:240|304:288,1,144.000005493164,0|0,0:0|0:0,0:0:0:0:
224,288,12916,2,0,L|368:288,1,144.000005493164,2|0,0:0|0:0,0:0:0:0:
464,288,13430,1,0,0:0:0:0:
368,288,13601,1,0,0:0:0:0:
272,288,13773,2,0,L|224:288,2,36.0000013732911,0|0|0,0:0|0:0|0:0,0:0:0:0:
368,288,14116,1,0,0:0:0:0:
112,256,14287,6,0,P|80:192|112:160,1,108.000004119873,2|0,0:0|0:0,0:0:0:0:
320,144,14630,2,0,L|432:48,1,144.000005493164,10|0,0:0|0:0,0:0:0:0:
256,80,15144,2,0,L|368:176,1,144.000005493164,2|0,0:0|0:0,0:0:0:0:
272,192,15658,2,0,L|192:192,1,72.0000027465821,0|0,0:0|0:0,0:0:0:0:
80,192,16001,6,0,L|32:192,2,36.0000013732911,2|0|0,0:0|0:0|0:0,0:0:0:0:
160,192,16344,2,0,L|240:192,1,72.0000027465821,0|2,0:0|0:0,0:0:0:0:
480,192,16687,1,2,0:0:0:0:
320,144,16858,2,0,L|272:144,1,36.0000013732911,0|2,0:0|0:0,0:0:0:0:
464,144,17201,1,2,0:0:0:0:
80,80,17373,6,0,P|48:128|96:192,1,144.000005493164,6|2,0:0|0:0,0:0:0:0:
272,192,17887,2,0,P|304:224|240:304,1,144.000005493164,0|0,0:0|0:0,0:0:0:0:
176,304,18401,2,0,P|144:272|208:192,1,144.000005493164,2|2,0:0|0:0,0:0:0:0:
288,192,18916,1,0,0:0:0:0:
176,192,19087,1,0,0:0:0:0:
48,192,19258,1,0,0:0:0:0:
96,192,19344,1,0,0:0:0:0:
144,192,19430,1,0,0:0:0:0:
288,192,19601,1,0,0:0:0:0:
176,192,19773,6,0,L|48:192,1,108.000004119873,2|0,0:0|0:0,0:0:0:0:
368,80,20116,2,0,P|400:128|352:208,1,144.000005493164,10|0,0:0|0:0,0:0:0:0:
208,208,20630,2,0,P|176:256|224:320,1,144.000005493164,2|0,0:0|0:0,0:0:0:0:
336,320,21144,2,0,L|416:320,1,72.0000027465821,0|0,0:0|0:0,0:0:0:0:
128,96,21487,6,0,P|80:128|144:192,1,144.000005493164,2|2,0:0|0:0,0:0:0:0:
240,192,22001,2,0,L|288:192,1,36.0000013732911,2|0,0:0|0:0,0:0:0:0:
144,128,22258,2,0,L|96:128,1,36.0000013732911,0|2,0:0|0:0,0:0:0:0:
464,128,22516,2,0,L|368:128,1,72.0000027465821,2|2,0:0|0:0,0:0:0:0:
80,128,22858,6,0,L|48:224,1,96,12|2,0:0|0:0,0:0:0:0:
160,224,23201,1,0,0:0:0:0:
272,224,23373,2,0,L|224:320,1,96,8|2,0:0|0:0,0:0:0:0:
336,320,23716,1,8,0:0:0:0:
192,320,23887,2,0,L|128:320,2,48,2|0|8,0:0|0:0|0:0,0:0:0:0:
496,320,24230,6,0,L|400:320,1,96,2|8,0:0|0:0,0:0:0:0:
272,320,24573,1,0,0:0:0:0:
160,208,24744,2,0,L|256:208,1,96,8|2,0:0|0:0,0:0:0:0:
0,208,25087,1,0,0:0:0:0:
144,80,25258,1,8,0:0:0:0:
176,128,25344,1,0,0:0:0:0:
96,160,25430,1,8,0:0:0:0:
64,208,25516,1,0,0:0:0:0:
336,256,25601,6,0,L|432:256,1,96,8|2,0:0|0:0,0:0:0:0:
256,256,25944,1,0,0:0:0:0:
176,256,26116,2,0,L|80:256,1,96,8|2,0:0|0:0,0:0:0:0:
368,256,26458,2,0,L|416:256,2,48,0|2|8,0:0|0:0|0:0,0:0:0:0:
272,256,26801,1,8,0:0:0:0:
0,256,26973,6,0,L|48:256,1,48,8|0,0:0|0:0,0:0:0:0:
208,256,27144,1,2,0:0:0:0:
336,256,27316,1,0,0:0:0:0:
272,256,27487,2,0,L|224:256,1,48,8|0,0:0|0:0,0:0:0:0:
64,256,27658,1,2,0:0:0:0:
176,256,27916,6,0,L|224:256,1,48,2|8,0:0|0:0,0:0:0:0:
464,176,28087,2,0,L|416:176,1,48,0|8,0:0|0:0,0:0:0:0:
352,176,28258,1,0,0:0:0:0:
96,176,28344,6,0,L|48:176,1,48,8|0,0:0|0:0,0:0:0:0:
256,176,28516,1,2,0:0:0:0:
176,176,28687,2,0,L|80:176,1,96,8|2,0:0|0:0,0:0:0:0:
320,176,29030,1,2,0:0:0:0:
176,80,29201,2,0,L|128:112,1,48,2|2,0:0|0:0,0:0:0:0:
192,160,29373,2,0,L|256:160,1,48,8|0,0:0|0:0,0:0:0:0:
176,240,29544,2,0,L|128:272,1,48,8|0,0:0|0:0,0:0:0:0:
368,288,29716,6,0,L|448:288,1,48,8|0,0:0|0:0,0:0:0:0:
208,288,29887,1,2,0:0:0:0:
32,288,30230,2,0,L|96:288,1,48,8|0,0:0|0:0,0:0:0:0:
224,288,30401,1,2,0:0:0:0:
352,288,30658,6,0,L|304:288,1,48,2|8,0:0|0:0,0:0:0:0:
80,288,30830,2,0,L|144:288,1,48,0|8,0:0|0:0,0:0:0:0:
416,288,31087,5,8,0:0:0:0:
288,288,31258,2,0,L|224:288,2,48,2|0|8,0:0|0:0|0:0,0:0:0:0:
128,288,31601,1,2,0:0:0:0:
416,288,31773,1,2,0:0:0:0:
288,224,31944,2,0,L|224:224,1,48,2|2,0:0|0:0,0:0:0:0:
288,160,32116,2,0,L|336:160,1,48,8|0,0:0|0:0,0:0:0:0:
64,160,32287,1,8,0:0:0:0:
144,160,32458,5,8,0:0:0:0:
288,160,32544,1,0,0:0:0:0:
464,160,32630,1,2,0:0:0:0:
352,160,32973,1,8,0:0:0:0:
176,160,33059,1,0,0:0:0:0:
32,160,33145,1,2,0:0:0:0:
128,160,33401,1,2,0:0:0:0:
416,160,33487,5,8,0:0:0:0:
464,208,33573,1,0,0:0:0:0:
448,272,33658,1,8,0:0:0:0:
384,288,33744,1,0,0:0:0:0:
64,128,33830,6,0,L|32:240,1,96,12|2,0:0|0:0,0:0:0:0:
208,224,34173,1,8,0:0:0:0:
112,128,34344,2,0,L|80:240,1,96,6|2,0:0|0:0,0:0:0:0:
256,224,34687,1,2,0:0:0:0:
16,224,34858,2,0,L|128:224,1,96,8|2,0:0|0:0,0:0:0:0:
384,224,35201,6,0,L|496:224,1,96,12|2,0:0|0:0,0:0:0:0:
304,224,35544,1,8,0:0:0:0:
80,224,35716,2,0,L|208:224,1,96,6|6,0:0|0:0,0:0:0:0:
32,224,36058,1,2,0:0:0:0:
352,224,36230,2,0,L|400:224,2,48,8|0|2,0:0|0:0|0:0,0:0:0:0:
80,128,36573,5,12,0:0:0:0:
16,240,36744,1,2,0:0:0:0:
128,288,36916,1,8,0:0:0:0:
400,192,37087,1,6,0:0:0:0:
464,304,37258,1,2,0:0:0:0:
352,352,37430,1,2,0:0:0:0:
96,352,37601,2,0,L|48:352,2,48,8|0|2,0:0|0:0|0:0,0:0:0:0:
416,96,37944,5,12,0:0:0:0:
352,208,38115,1,2,0:0:0:0:
464,256,38287,1,8,0:0:0:0:
192,272,38458,2,0,L|128:272,2,48,6|0|6,0:0|0:0|0:0,0:0:0:0:
352,272,38716,2,0,L|416:272,1,48,0|0,0:0|0:0,0:0:0:0:
144,176,38887,2,0,L|96:176,1,48,2|8,0:0|0:0,0:0:0:0:
336,96,39058,2,0,L|384:96,1,48,0|2,0:0|0:0,0:0:0:0:
80,64,39316,5,12,0:0:0:0:
96,112,39487,1,8,0:0:0:0:
112,160,39658,1,8,0:0:0:0:
128,208,39830,1,14,0:0:0:0:
208,208,40001,1,12,0:0:0:0:
288,208,40173,1,8,0:0:0:0:
368,208,40344,1,4,0:0:0:0:
448,208,40516,1,2,0:0:0:0:
208,48,40687,5,12,0:0:0:0:
192,80,40858,1,8,0:0:0:0:
176,112,41030,1,8,0:0:0:0:
160,144,41201,1,14,0:0:0:0:
80,144,41373,1,12,0:0:0:0:
160,144,41544,1,8,0:0:0:0:
240,144,41716,1,4,0:0:0:0:
320,144,41887,1,2,0:0:0:0:
80,144,42058,5,8,0:0:0:0:
48,192,42144,1,0,0:0:0:0:
64,256,42230,1,8,0:0:0:0:
112,288,42316,1,0,0:0:0:0:
176,272,42401,1,8,0:0:0:0:
208,224,42487,1,0,0:0:0:0:
176,176,42573,1,8,0:0:0:0:
112,176,42658,1,0,0:0:0:0:
432,144,42744,5,8,0:0:0:0:
464,192,42830,1,0,0:0:0:0:
448,256,42916,1,8,0:0:0:0:
400,288,43002,1,0,0:0:0:0:
336,272,43087,1,8,0:0:0:0:
304,224,43173,1,0,0:0:0:0:
336,176,43259,1,0,0:0:0:0:
400,176,43344,1,0,0:0:0:0:
16,336,43430,5,8,0:0:0:0:
128,336,43773,1,0,0:0:0:0:
240,336,44116,1,0,0:0:0:0:
352,336,44458,1,0,0:0:0:0:
464,336,44630,2,0,L|464:304,3,24,4|0|0|0,0:0|0:0|0:0|0:0,0:0:0:0:
112,96,44801,5,12,0:0:0:0:
64,96,44887,1,0,0:0:0:0:
16,96,44973,1,0,0:0:0:0:
64,96,45058,1,0,0:0:0:0:
336,96,45144,1,8,0:0:0:0:
208,144,45316,5,0,0:0:0:0:
176,192,45401,1,0,0:0:0:0:
192,256,45487,1,0,0:0:0:0:
240,304,45573,1,0,0:0:0:0:
304,288,45658,1,8,0:0:0:0:
240,304,45744,1,0,0:0:0:0:
64,272,45830,1,8,0:0:0:0:
208,272,46001,6,0,L|256:272,1,48,0|0,0:0|0:0,0:0:0:0:
320,272,46173,1,8,0:0:0:0:
368,224,46258,1,0,0:0:0:0:
352,160,46344,1,0,0:0:0:0:
288,128,46430,1,0,0:0:0:0:
96,128,46516,1,8,0:0:0:0:
208,128,46687,6,0,L|240:176,1,48,0|0,0:0|0:0,0:0:0:0:
176,176,46858,2,0,L|144:240,1,48,0|0,0:0|0:0,0:0:0:0:
224,208,47030,2,0,L|256:256,1,48,8|0,0:0|0:0,0:0:0:0:
448,240,47201,1,8,0:0:0:0:
336,320,47373,6,0,L|272:320,1,48,0|0,0:0|0:0,0:0:0:0:
224,320,47544,1,8,0:0:0:0:
192,272,47630,1,0,0:0:0:0:
240,224,47716,1,0,0:0:0:0:
304,224,47801,1,0,0:0:0:0:
64,224,47887,1,8,0:0:0:0:
160,224,48058,6,0,L|208:224,1,48,0|0,0:0|0:0,0:0:0:0:
160,176,48230,2,0,L|96:176,1,48,0|0,0:0|0:0,0:0:0:0:
48,176,48401,2,0,L|96:176,1,48,8|0,0:0|0:0,0:0:0:0:
336,176,48573,1,8,0:0:0:0:
448,176,48744,6,0,L|400:176,1,48,0|0,0:0|0:0,0:0:0:0:
176,176,48916,1,8,0:0:0:0:
144,224,49001,1,0,0:0:0:0:
192,272,49087,1,0,0:0:0:0:
256,272,49173,1,0,0:0:0:0:
320,272,49258,1,8,0:0:0:0:
368,320,49344,1,0,0:0:0:0:
320,368,49430,1,0,0:0:0:0:
256,368,49516,1,0,0:0:0:0:
64,352,49601,5,0,0:0:0:0:
16,304,49687,1,0,0:0:0:0:
16,240,49773,1,8,0:0:0:0:
64,192,49858,1,0,0:0:0:0:
368,208,49944,1,8,0:0:0:0:
416,160,50030,1,0,0:0:0:0:
416,96,50116,1,0,0:0:0:0:
368,48,50201,1,0,0:0:0:0:
160,48,50287,6,0,L|96:48,2,48,10|0|0,0:0|0:0|0:0,0:0:0:0:
304,48,50630,1,8,0:0:0:0:
64,128,50801,2,0,P|16:208|96:288,1,192,2|8,0:0|0:0,0:0:0:0:
320,288,51316,1,8,0:0:0:0:
368,240,51401,1,0,0:0:0:0:
416,192,51487,1,0,0:0:0:0:
464,144,51573,1,0,0:0:0:0:
208,144,51658,5,10,0:0:0:0:
144,112,51744,1,0,0:0:0:0:
80,80,51830,1,0,0:0:0:0:
352,80,52001,1,8,0:0:0:0:
32,192,52173,2,0,L|192:64,1,192,2|8,0:0|0:0,0:0:0:0:
240,64,52601,1,0,0:0:0:0:
416,64,52687,1,8,0:0:0:0:
448,128,52773,1,0,0:0:0:0:
432,192,52858,1,0,0:0:0:0:
384,224,52944,1,0,0:0:0:0:
96,128,53030,5,10,0:0:0:0:
64,176,53116,1,0,0:0:0:0:
80,240,53201,1,0,0:0:0:0:
144,256,53287,1,0,0:0:0:0:
352,272,53373,2,0,L|416:272,1,48,8|0,0:0|0:0,0:0:0:0:
160,192,53544,2,0,L|96:192,1,48,0|0,0:0|0:0,0:0:0:0:
368,64,53716,5,2,0:0:0:0:
400,112,53801,1,0,0:0:0:0:
384,176,53887,1,8,0:0:0:0:
320,208,53973,1,0,0:0:0:0:
128,224,54058,2,0,L|64:224,1,48,8|0,0:0|0:0,0:0:0:0:
400,144,54230,2,0,L|464:144,1,48,0|0,0:0|0:0,0:0:0:0:
144,128,54401,6,0,L|96:128,2,48,10|0|0,0:0|0:0|0:0,0:0:0:0:
272,128,54744,1,8,0:0:0:0:
400,128,54916,2,0,L|448:128,2,48,8|0|2,0:0|0:0|0:0,0:0:0:0:
144,128,55258,2,0,L|240:128,1,96,8|8,0:0|0:0,0:0:0:0:
192,128,55516,1,0,0:0:0:0:
144,176,55601,1,8,0:0:0:0:
192,208,55644,1,0,0:0:0:0:
224,224,55687,1,0,0:0:0:0:
256,240,55730,1,0,0:0:0:0:
400,256,55773,5,12,0:0:0:0:
448,208,55858,1,0,0:0:0:0:
416,160,55944,1,0,0:0:0:0:
352,160,56030,1,0,0:0:0:0:
80,160,56116,1,8,0:0:0:0:
208,256,56287,5,0,0:0:0:0:
256,208,56373,1,0,0:0:0:0:
208,160,56459,1,0,0:0:0:0:
144,160,56545,1,0,0:0:0:0:
96,112,56630,1,8,0:0:0:0:
144,64,56716,1,0,0:0:0:0:
416,64,56801,1,8,0:0:0:0:
272,48,56973,5,0,0:0:0:0:
240,96,57058,1,0,0:0:0:0:
256,160,57144,1,8,0:0:0:0:
304,192,57230,1,0,0:0:0:0:
224,192,57316,1,0,0:0:0:0:
160,192,57401,1,0,0:0:0:0:
432,192,57487,1,8,0:0:0:0:
304,192,57658,5,0,0:0:0:0:
240,192,57744,1,0,0:0:0:0:
144,192,57830,1,0,0:0:0:0:
112,240,57916,1,0,0:0:0:0:
128,304,58001,1,8,0:0:0:0:
176,336,58087,1,0,0:0:0:0:
416,352,58173,1,8,0:0:0:0:
304,352,58344,6,0,L|256:352,2,48,0|0|8,0:0|0:0|0:0,0:0:0:0:
368,352,58601,2,0,L|416:352,2,48,0|0|0,0:0|0:0|0:0,0:0:0:0:
144,352,58858,1,8,0:0:0:0:
288,112,59030,5,0,0:0:0:0:
240,176,59116,1,0,0:0:0:0:
192,240,59201,1,0,0:0:0:0:
240,176,59287,1,0,0:0:0:0:
288,112,59373,1,8,0:0:0:0:
336,48,59458,1,0,0:0:0:0:
80,64,59544,1,8,0:0:0:0:
208,64,59716,6,0,L|256:64,1,48,0|0,0:0|0:0,0:0:0:0:
416,64,59887,1,8,0:0:0:0:
448,112,59973,1,0,0:0:0:0:
432,176,60058,1,0,0:0:0:0:
368,192,60144,1,0,0:0:0:0:
224,192,60230,2,0,L|176:192,1,48,8|0,0:0|0:0,0:0:0:0:
128,256,60401,2,0,L|176:256,1,48,0|0,0:0|0:0,0:0:0:0:
336,256,60573,6,0,L|384:256,1,48,0|0,0:0|0:0,0:0:0:0:
80,176,60744,2,0,L|32:176,1,48,8|0,0:0|0:0,0:0:0:0:
208,96,60916,2,0,L|272:96,1,48,8|0,0:0|0:0,0:0:0:0:
304,160,61087,2,0,L|256:160,1,48,0|0,0:0|0:0,0:0:0:0:
112,160,61258,6,0,L|64:160,2,48,10|0|0,0:0|0:0|0:0,0:0:0:0:
384,160,61601,1,8,0:0:0:0:
112,160,61773,2,0,P|64:208|144:288,1,192,2|8,0:0|0:0,0:0:0:0:
368,288,62287,1,8,0:0:0:0:
416,240,62373,1,0,0:0:0:0:
416,176,62458,1,0,0:0:0:0:
368,128,62544,1,0,0:0:0:0:
144,128,62630,5,10,0:0:0:0:
80,128,62716,1,0,0:0:0:0:
144,128,62801,1,0,0:0:0:0:
416,128,62973,1,8,0:0:0:0:
96,128,63144,2,0,P|32:176|96:240,1,192,2|8,0:0|0:0,0:0:0:0:
176,240,63573,5,0,0:0:0:0:
240,240,63658,1,8,0:0:0:0:
304,240,63744,1,0,0:0:0:0:
368,240,63830,1,0,0:0:0:0:
432,240,63916,1,0,0:0:0:0:
200,240,64001,6,0,L|184:192,1,48
248,192,64173,2,0,L|264:144,1,48
72,120,64344,1,0,0:0:0:0:
26,120,64429,1,0,0:0:0:0:
5,80,64515,1,0,0:0:0:0:
33,43,64601,1,0,0:0:0:0:
360,48,64687,6,0,L|440:72,1,48
360,48,64858,2,0,L|304:48,1,48
464,152,65030,1,0,0:0:0:0:
496,185,65115,1,0,0:0:0:0:
503,232,65201,1,0,0:0:0:0:
482,274,65287,1,0,0:0:0:0:
224,248,65373,6,0,L|192:200,1,48
272,192,65544,2,0,L|288:128,1,48
112,128,65716,2,0,L|48:128,1,48
384,80,65887,2,0,L|432:80,1,48
216,40,66058,6,0,L|176:96,1,48
272,72,66230,2,0,L|240:120,1,48
408,159,66401,1,0,0:0:0:0:
450,177,66486,1,0,0:0:0:0:
464,222,66572,1,0,0:0:0:0:
439,261,66658,1,0,0:0:0:0:
160,80,66744,6,0,L|48:80,1,96,12|0,0:2|0:0,0:0:0:0:
400,80,67087,1,8,0:0:0:0:
288,80,67258,1,0,0:0:0:0:
16,160,67430,2,0,L|80:160,1,48,2|0,0:0|0:0,0:0:0:0:
240,160,67601,2,0,L|176:160,1,48,10|0,0:0|0:0,0:0:0:0:
16,224,67773,2,0,L|64:224,1,48,10|0,0:0|0:0,0:0:0:0:
256,224,67944,2,0,L|304:224,1,48,0|0,0:0|0:0,0:0:0:0:
448,160,68116,6,0,P|496:208|400:256,1,192,12|8,0:0|0:0,0:0:0:0:
112,272,68630,1,0,0:0:0:0:
384,272,68801,2,0,L|432:272,1,48,2|0,0:0|0:0,0:0:0:0:
272,176,68973,2,0,L|224:176,1,48,10|0,0:0|0:0,0:0:0:0:
384,128,69144,2,0,L|432:128,1,48,10|0,0:0|0:0,0:0:0:0:
208,80,69316,2,0,L|160:80,1,48,0|0,0:0|0:0,0:0:0:0:
368,48,69487,5,8,0:0:0:0:
416,160,69658,1,0,0:0:0:0:
368,272,69830,1,8,0:0:0:0:
80,272,70001,1,0,0:0:0:0:
208,272,70173,2,0,L|256:272,1,48,2|0,0:0|0:0,0:0:0:0:
208,208,70344,2,0,L|160:208,1,48,10|0,0:0|0:0,0:0:0:0:
208,208,70516,2,0,L|256:208,1,48,10|0,0:0|0:0,0:0:0:0:
208,144,70687,2,0,L|160:144,1,48,0|0,0:0|0:0,0:0:0:0:
384,64,70858,6,0,P|448:128|368:176,1,192,12|8,0:0|0:0,0:0:0:0:
80,176,71373,1,0,0:0:0:0:
352,176,71544,2,0,L|304:176,1,48,2|0,0:0|0:0,0:0:0:0:
96,176,71716,1,10,0:0:0:0:
64,240,71801,1,0,0:0:0:0:
112,288,71887,1,10,0:0:0:0:
176,288,71973,1,0,0:0:0:0:
352,288,72058,2,0,L|400:288,1,48,0|0,0:0|0:0,0:0:0:0:
160,208,72230,5,12,0:2:0:0:
140,201,72258,1,0,0:0:0:0:
120,191,72287,1,0,0:0:0:0:
104,176,72316,1,0,0:0:0:0:
98,156,72344,1,0,0:0:0:0:
108,137,72373,1,0,0:0:0:0:
123,123,72401,1,0,0:0:0:0:
143,118,72430,1,0,0:0:0:0:
163,116,72458,1,0,0:0:0:0:
184,116,72487,1,0,0:0:0:0:
205,117,72516,1,0,0:0:0:0:
225,118,72544,1,0,0:0:0:0:
384,128,72573,5,8,0:0:0:0:
496,128,72744,1,0,0:0:0:0:
192,80,72916,1,2,0:0:0:0:
128,176,73087,1,10,0:0:0:0:
176,288,73258,1,10,0:0:0:0:
304,272,73430,1,0,0:0:0:0:
112,80,73601,6,0,P|64:160|144:224,1,192,12|8,0:0|0:0,0:0:0:0:
368,224,74116,1,0,0:0:0:0:
192,224,74287,2,0,L|144:224,1,48,2|0,0:0|0:0,0:0:0:0:
320,128,74458,2,0,L|384:128,1,48,10|0,0:0|0:0,0:0:0:0:
160,96,74630,2,0,L|96:96,1,48,10|0,0:0|0:0,0:0:0:0:
384,64,74801,2,0,L|448:64,1,48,0|0,0:0|0:0,0:0:0:0:
144,48,74973,5,8,0:0:0:0:
115,61,75016,1,0,0:0:0:0:
90,79,75058,1,0,0:0:0:0:
71,104,75101,1,0,0:0:0:0:
63,134,75144,1,0,0:0:0:0:
68,164,75187,1,0,0:0:0:0:
86,188,75230,1,0,0:0:0:0:
110,207,75273,1,0,0:0:0:0:
352,160,75316,5,8,0:0:0:0:
381,173,75359,1,0,0:0:0:0:
406,191,75401,1,0,0:0:0:0:
425,216,75444,1,0,0:0:0:0:
433,246,75487,1,0,0:0:0:0:
428,276,75530,1,0,0:0:0:0:
410,300,75573,1,0,0:0:0:0:
386,319,75616,1,0,0:0:0:0:
144,256,75658,5,2,0:0:0:0:
48,208,75744,1,0,0:0:0:0:
48,128,75830,1,10,0:0:0:0:
144,96,75916,1,0,0:0:0:0:
368,48,76001,1,10,0:0:0:0:
397,61,76044,1,0,0:0:0:0:
422,79,76086,1,0,0:0:0:0:
441,104,76129,1,0,0:0:0:0:
449,134,76172,1,0,0:0:0:0:
444,164,76215,1,0,0:0:0:0:
426,188,76258,1,0,0:0:0:0:
402,207,76301,1,0,0:0:0:0:
16,208,76344,5,8,0:0:0:0:
96,208,76516,2,0,L|144:208,2,48,0|0|8,0:0|0:0|0:0,0:0:0:0:
352,208,76858,1,0,0:0:0:0:
416,208,76944,1,0,0:0:0:0:
480,208,77030,1,2,0:0:0:0:
80,208,77201,1,10,0:0:0:0:
160,208,77373,2,0,L|224:208,1,48,10|0,0:0|0:0,0:0:0:0:
464,112,77544,2,0,L|400:112,1,48,0|0,0:0|0:0,0:0:0:0:
96,112,77716,5,12,0:0:0:0:
352,112,77887,2,0,L|416:112,1,48
352,160,78058,2,0,L|304:160,1,48,8|0,0:0|0:0,0:0:0:0:
56,248,78230,6,0,L|104:248,1,48
56,248,78401,2,0,L|-8:248,1,48
208,248,78573,2,0,L|272:248,1,48,8|0,0:0|0:0,0:0:0:0:
408,112,78744,2,0,L|472:112,1,48,8|0,0:0|0:0,0:0:0:0:
112,224,78916,2,0,L|64:224,1,48
456,160,79087,6,0,L|520:160,1,48,8|0,0:0|0:0,0:0:0:0:
96,144,79258,2,0,L|48:144,1,48
96,144,79430,2,0,L|144:144,1,48,8|0,0:0|0:0,0:0:0:0:
464,80,79601,2,0,L|384:80,1,48,2|0,0:0|0:0,0:0:0:0:
368,144,79773,6,0,L|416:144,1,48,2|0,0:0|0:0,0:0:0:0:
464,208,79944,2,0,L|416:208,1,48,10|0,0:0|0:0,0:0:0:0:
32,224,80116,2,0,L|80:224,1,48,10|0,0:0|0:0,0:0:0:0:
352,224,80287,2,0,L|304:224,1,48
80,160,80458,6,0,L|48:112,1,48,8|0,0:0|0:0,0:0:0:0:
128,112,80630,2,0,L|176:112,1,48
128,112,80801,2,0,L|80:112,1,48,8|0,0:0|0:0,0:0:0:0:
256,112,80973,2,0,L|320:112,1,48,2|0,0:0|0:0,0:0:0:0:
464,112,81144,6,0,L|512:112,1,48,2|0,0:0|0:0,0:0:0:0:
464,176,81316,2,0,L|416:176,1,48,10|0,0:0|0:0,0:0:0:0:
128,176,81487,2,0,L|80:176,1,48,10|0,0:0|0:0,0:0:0:0:
248,176,81658,2,0,L|296:176,1,48
112,112,81830,6,0,L|64:112,1,48,8|0,0:0|0:0,0:0:0:0:
416,112,82001,2,0,L|480:112,1,48,0|0,0:0|0:0,0:0:0:0:
96,176,82173,2,0,L|48:176,1,48,8|0,0:0|0:0,0:0:0:0:
96,176,82344,2,0,L|144:176,1,48,2|0,0:0|0:0,0:0:0:0:
440,184,82516,6,0,L|392:184,1,48,2|0,0:0|0:0,0:0:0:0:
208,240,82687,2,0,P|160:240|160:240,1,48,10|0,0:0|0:0,0:0:0:0:
208,176,82858,2,0,L|256:176,1,48,10|0,0:0|0:0,0:0:0:0:
400,96,83030,2,0,L|464:96,1,48,2|0,0:0|0:0,0:0:0:0:
48,80,83201,6,0,L|0:80,1,48,8|0,0:0|0:0,0:0:0:0:
48,128,83373,2,0,L|96:128,1,48,0|0,0:0|0:0,0:0:0:0:
256,128,83544,1,8,0:0:0:0:
448,144,83630,2,0,L|512:144,1,48
448,144,83801,2,0,L|400:144,1,48
48,144,83973,2,0,L|0:144,2,48,0|8|0,0:0|0:0|0:0,0:0:0:0:
304,64,84230,5,10,0:0:0:0:
336,112,84316,1,0,0:0:0:0:
320,176,84401,1,2,0:0:0:0:
256,192,84487,1,0,0:0:0:0:
64,192,84573,6,0,L|0:192,1,48,8|0,0:0|0:0,0:0:0:0:
400,192,84744,2,0,L|448:192,1,48,0|0,0:0|0:0,0:0:0:0:
192,144,84916,2,0,L|176:96,1,48,8|0,0:0|0:0,0:0:0:0:
240,96,85087,2,0,L|272:32,1,48,2|0,0:0|0:0,0:0:0:0:
48,64,85258,5,2,0:0:0:0:
0,112,85344,1,0,0:0:0:0:
0,176,85430,1,10,0:0:0:0:
48,208,85516,1,0,0:0:0:0:
272,256,85601,2,0,L|336:256,1,48,10|0,0:0|0:0,0:0:0:0:
160,160,85773,2,0,L|112:160,1,48,0|0,0:0|0:0,0:0:0:0:
368,160,85944,5,8,0:0:0:0:
464,160,86116,1,0,0:0:0:0:
208,160,86287,2,0,L|160:160,2,48,8|0|2,0:0|0:0|0:0,0:0:0:0:
80,160,86630,1,2,0:0:0:0:
48,208,86716,1,0,0:0:0:0:
64,272,86801,1,10,0:0:0:0:
128,288,86887,1,0,0:0:0:0:
368,288,86973,2,0,L|416:288,1,48,10|0,0:0|0:0,0:0:0:0:
128,192,87144,2,0,L|80:192,1,48,0|0,0:0|0:0,0:0:0:0:
400,64,87316,5,12,0:0:0:0:
464,144,87430,1,0,0:0:0:0:
400,224,87544,1,0,0:0:0:0:
128,48,87658,1,8,0:0:0:0:
32,144,87773,1,0,0:0:0:0:
128,224,87887,1,0,0:0:0:0:
416,128,88001,6,0,L|449:217,1,96,12|8,0:0|0:0,0:0:0:0:
160,144,88258,2,0,L|118:281,1,144,8|8,0:0|0:0,0:0:0:0:
368,272,88687,6,0,P|400:224|304:128,1,192,12|8,0:2|0:0,0:0:0:0:
160,128,89201,1,0,0:0:0:0:
400,64,89373,1,2,0:0:0:0:
498,146,89544,1,10,0:0:0:0:
485,260,89715,1,10,0:0:0:0:
364,305,89887,1,0,0:0:0:0:
96,160,90058,6,0,P|48:208|144:288,1,192,12|8,0:0|0:0,0:0:0:0:
224,304,90573,1,0,0:0:0:0:
464,128,90744,2,0,L|512:128,1,48,2|0,0:0|0:0,0:0:0:0:
464,128,90915,2,0,L|416:128,1,48,10|0,0:0|0:0,0:0:0:0:
128,128,91087,2,0,L|80:128,1,48,10|0,0:0|0:0,0:0:0:0:
32,128,91258,2,0,L|80:128,1,48,0|0,0:0|0:0,0:0:0:0:
320,128,91430,5,8,0:0:0:0:
384,240,91601,1,0,0:0:0:0:
320,336,91773,1,8,0:0:0:0:
192,304,91944,1,0,0:0:0:0:
448,192,92116,6,0,L|512:192,2,48,2|0|10,0:0|0:0|0:0,0:0:0:0:
128,192,92458,2,0,L|80:64,1,96,10|0,0:0|0:0,0:0:0:0:
352,80,92801,6,0,P|384:128|304:224,1,192,12|8,0:0|0:0,0:0:0:0:
160,224,93316,1,0,0:0:0:0:
400,224,93487,5,2,0:0:0:0:
512,224,93658,1,10,0:0:0:0:
384,224,93830,1,10,0:0:0:0:
256,224,94001,1,0,0:0:0:0:
0,224,94173,6,0,L|208:224,1,192,12|8,0:2|0:0,0:0:0:0:
352,224,94687,1,0,0:0:0:0:
96,224,94858,2,0,L|48:176,1,48,2|0,0:0|0:0,0:0:0:0:
160,160,95030,2,0,L|208:112,1,48,10|0,0:0|0:0,0:0:0:0:
96,224,95201,2,0,L|48:176,1,48,10|0,0:0|0:0,0:0:0:0:
160,160,95373,2,0,L|208:112,1,48,0|0,0:0|0:0,0:0:0:0:
0,80,95544,6,0,P|-16:144|112:192,1,192,12|8,0:0|0:0,0:0:0:0:
192,208,96058,1,0,0:0:0:0:
464,208,96230,2,0,L|512:208,1,48,2|0,0:0|0:0,0:0:0:0:
464,208,96401,2,0,L|384:208,1,48,10|0,0:0|0:0,0:0:0:0:
192,208,96573,2,0,L|144:208,1,48,10|0,0:0|0:0,0:0:0:0:
400,208,96744,2,0,L|448:208,1,48,0|0,0:0|0:0,0:0:0:0:
144,48,96916,5,8,0:0:0:0:
115,61,96959,1,0,0:0:0:0:
90,79,97001,1,0,0:0:0:0:
71,104,97044,1,0,0:0:0:0:
63,134,97087,1,0,0:0:0:0:
68,164,97130,1,0,0:0:0:0:
86,188,97173,1,0,0:0:0:0:
110,207,97216,1,0,0:0:0:0:
352,160,97259,5,8,0:0:0:0:
381,173,97302,1,0,0:0:0:0:
406,191,97344,1,0,0:0:0:0:
425,216,97387,1,0,0:0:0:0:
433,246,97430,1,0,0:0:0:0:
428,276,97473,1,0,0:0:0:0:
410,300,97516,1,0,0:0:0:0:
386,319,97559,1,0,0:0:0:0:
144,256,97601,5,2,0:0:0:0:
48,208,97687,1,0,0:0:0:0:
48,128,97773,1,10,0:0:0:0:
144,96,97859,1,0,0:0:0:0:
368,48,97944,1,10,0:0:0:0:
397,61,97987,1,0,0:0:0:0:
422,79,98029,1,0,0:0:0:0:
441,104,98072,1,0,0:0:0:0:
449,134,98115,1,0,0:0:0:0:
444,164,98158,1,0,0:0:0:0:
426,188,98201,1,0,0:0:0:0:
402,207,98244,1,0,0:0:0:0:
96,208,98287,5,8,0:0:0:0:
368,208,98458,2,0,L|416:208,2,48,0|0|8,0:0|0:0|0:0,0:0:0:0:
128,208,98800,1,0,0:0:0:0:
64,208,98886,1,0,0:0:0:0:
0,208,98972,1,2,0:0:0:0:
432,208,99143,1,10,0:0:0:0:
320,208,99315,2,0,L|256:208,1,48,10|0,0:0|0:0,0:0:0:0:
64,96,99487,2,0,L|144:96,1,48,0|0,0:0|0:0,0:0:0:0:
416,96,99658,5,12,0:0:0:0:
432,160,99744,1,0,0:0:0:0:
400,224,99830,1,0,0:0:0:0:
336,240,99916,1,0,0:0:0:0:
144,224,100001,1,8,0:0:0:0:
96,192,100087,1,0,0:0:0:0:
320,144,100173,1,2,0:0:0:0:
368,96,100258,1,0,0:0:0:0:
96,96,100344,5,2,0:0:0:0:
64,160,100430,1,0,0:0:0:0:
80,224,100516,1,10,0:0:0:0:
144,256,100601,1,0,0:0:0:0:
416,112,100687,1,10,0:0:0:0:
448,160,100773,1,0,0:0:0:0:
416,208,100858,1,0,0:0:0:0:
352,208,100944,1,0,0:0:0:0:
128,208,101030,5,8,0:0:0:0:
80,160,101116,1,0,0:0:0:0:
320,176,101201,1,0,0:0:0:0:
352,128,101287,1,0,0:0:0:0:
96,112,101373,2,0,L|32:112,1,48,8|0,0:0|0:0,0:0:0:0:
368,112,101544,2,0,L|416:112,1,48,2|0,0:0|0:0,0:0:0:0:
144,112,101716,5,2,0:0:0:0:
112,160,101801,1,0,0:0:0:0:
128,224,101887,1,10,0:0:0:0:
192,240,101973,1,0,0:0:0:0:
352,240,102058,2,0,L|416:240,1,48,10|0,0:0|0:0,0:0:0:0:
96,240,102230,2,0,L|32:240,1,48,0|0,0:0|0:0,0:0:0:0:
272,240,102401,5,8,0:0:0:0:
304,192,102487,1,0,0:0:0:0:
288,128,102573,1,0,0:0:0:0:
224,112,102658,1,0,0:0:0:0:
64,112,102744,2,0,L|0:112,1,48,10|0,0:0|0:0,0:0:0:0:
384,128,102916,2,0,L|448:128,1,48,0|0,0:0|0:0,0:0:0:0:
224,112,103087,5,0,0:0:0:0:
192,160,103173,1,0,0:0:0:0:
240,208,103258,1,8,0:0:0:0:
288,240,103344,1,0,0:0:0:0:
112,288,103430,2,0,L|64:288,1,48,10|0,0:0|0:0,0:0:0:0:
400,304,103601,2,0,L|448:304,1,48,0|0,0:0|0:0,0:0:0:0:
240,304,103773,5,8,0:0:0:0:
192,256,103858,1,0,0:0:0:0:
384,176,103944,1,0,0:0:0:0:
400,128,104030,1,0,0:0:0:0:
80,48,104116,1,10,0:0:0:0:
64,112,104201,1,0,0:0:0:0:
96,160,104287,1,2,0:0:0:0:
160,176,104373,1,0,0:0:0:0:
432,64,104458,5,0,0:0:0:0:
496,128,104544,1,0,0:0:0:0:
496,240,104630,1,8,0:0:0:0:
416,288,104716,1,0,0:0:0:0:
192,48,104801,1,10,0:0:0:0:
160,96,104887,1,0,0:0:0:0:
176,160,104973,1,2,0:0:0:0:
240,176,105058,1,0,0:0:0:0:
448,160,105144,6,0,L|368:288,1,144,8|0,0:0|0:0,0:0:0:0:
64,176,105487,2,0,L|160:288,1,144,10|0,0:0|0:0,0:0:0:0:
368,160,105830,2,0,L|208:160,1,144,2|0,0:0|0:0,0:0:0:0:
464,96,106173,2,0,L|464:256,1,144,10|0,0:0|0:0,0:0:0:0:
192,96,106516,6,0,P|160:144|240:208,1,144,8|0,0:0|0:0,0:0:0:0:
400,208,106858,2,0,L|304:336,1,144,10|0,0:0|0:0,0:0:0:0:
64,224,107201,2,0,L|224:224,1,144,2|0,0:0|0:0,0:0:0:0:
416,128,107544,2,0,L|272:112,1,144,10|0,0:0|0:0,0:0:0:0:
80,96,107887,6,0,L|32:96,1,48,8|0,0:0|0:0,0:0:0:0:
384,96,108058,2,0,L|448:96,1,48,2|0,0:0|0:0,0:0:0:0:
128,96,108230,2,0,L|80:96,1,48,8|0,0:0|0:0,0:0:0:0:
336,96,108401,2,0,L|384:96,1,48,2|0,0:0|0:0,0:0:0:0:
128,176,108573,6,0,L|240:256,1,96,8|0,0:0|0:0,0:0:0:0:
352,192,108830,2,0,L|192:240,1,144,8|8,0:0|0:0,0:0:0:0:
480,112,109258,2,0,P|496:176|384:240,1,192,12|8,0:0|0:0,0:0:0:0:
224,224,109773,1,2,0:0:0:0:
464,224,109944,5,8,0:0:0:0:
512,112,110116,1,2,0:0:0:0:
416,32,110287,1,8,0:0:0:0:
288,64,110458,1,2,0:0:0:0:
32,128,110630,6,0,L|192:256,1,192,4|0,0:0|0:0,0:0:0:0:
304,240,111144,1,0,0:0:0:0:
48,64,111316,5,2,0:0:0:0:
0,176,111487,1,2,0:0:0:0:
64,288,111658,1,2,0:0:0:0:
192,272,111830,1,2,0:0:0:0:
464,272,112001,5,0,0:0:0:0:
336,272,112173,1,0,0:0:0:0:
208,272,112344,1,0,0:0:0:0:
336,272,112516,1,0,0:0:0:0:
80,64,112687,5,2,0:0:0:0:
16,176,112858,1,2,0:0:0:0:
80,272,113030,1,2,0:0:0:0:
208,288,113201,1,2,0:0:0:0:
512,288,113373,6,0,L|400:288,2,96,4|0|0,0:0|0:0|0:0,0:0:0:0:
144,288,113887,1,0,0:0:0:0:
448,32,114058,1,2,0:0:0:0:
496,144,114230,1,2,0:0:0:0:
432,256,114401,1,2,0:0:0:0:
304,224,114573,1,2,0:0:0:0:
32,208,114744,6,0,L|128:208,2,96,0|0|0,0:0|0:0|0:0,0:0:0:0:
304,208,115258,1,0,0:0:0:0:
16,80,115430,1,2,0:0:0:0:
112,160,115601,1,2,0:0:0:0:
144,288,115773,1,2,0:0:0:0:
32,352,115944,1,2,0:0:0:0:
304,368,116116,5,0,0:0:0:0:
384,272,116287,1,0,0:0:0:0:
400,144,116458,1,0,0:0:0:0:
320,48,116630,1,0,0:0:0:0:
48,160,116801,1,2,0:0:0:0:
176,160,116973,1,2,0:0:0:0:
48,160,117144,1,2,0:0:0:0:
336,160,117316,1,2,0:0:0:0:
48,160,117487,5,0,0:0:0:0:
0,272,117658,1,0,0:0:0:0:
80,368,117830,1,0,0:0:0:0:
192,320,118001,1,0,0:0:0:0:
96,320,118173,2,0,L|192:320,2,96,2|2|2,0:0|0:0|0:0,0:0:0:0:
256,192,118687,1,2,0:0:0:0:
0,192,118858,6,0,L|96:192,1,96,4|0,0:0|0:0,0:0:0:0:
256,192,119201,1,0,0:0:0:0:
160,192,119373,1,0,0:0:0:0:
464,80,119544,1,2,0:0:0:0:
512,192,119716,1,2,0:0:0:0:
464,304,119887,1,2,0:0:0:0:
336,272,120058,1,2,0:0:0:0:
80,96,120230,6,0,L|32:192,1,96,0|0,0:0|0:0,0:0:0:0:
208,176,120573,2,0,L|256:272,1,96,0|0,0:0|0:0,0:0:0:0:
80,288,120916,2,0,L|-16:288,2,96,2|2|2,0:0|0:0|0:0,0:0:0:0:
384,288,121430,1,10,0:0:0:0:
112,80,121601,6,0,P|80:144|144:240,1,192,6|2,0:0|0:0,0:0:0:0:
368,192,122287,2,0,P|384:256|288:336,1,192,2|2,0:0|0:0,0:0:0:0:
16,240,122801,2,0,P|128:240|16:96,1,384,2|0,0:0|0:0,0:0:0:0:
144,80,123658,6,0,L|272:80,2,96,0|0|2,0:0|0:0|0:0,0:0:0:0:
32,80,124173,1,0,0:0:0:0:
336,80,124344,6,0,P|400:128|320:176,1,192,10|0,0:0|0:0,0:0:0:0:
80,176,124858,2,0,P|48:224|144:288,1,192,2|0,0:0|0:0,0:0:0:0:
368,288,125373,2,0,L|208:288,1,144,0|0,0:0|0:0,0:0:0:0:
64,288,125716,2,0,L|16:288,2,48,2|0|0,0:0|0:0|0:0,0:0:0:0:
160,288,126058,1,0,0:0:0:0:
288,288,126230,1,2,0:0:0:0:
16,288,126401,5,2,0:0:0:0:
352,288,126573,2,0,L|416:288,1,48,0|2,0:0|0:0,0:0:0:0:
160,192,126830,2,0,L|112:192,1,48,0|2,0:0|0:0,0:0:0:0:
352,64,127087,6,0,P|384:128|320:240,1,192,6|2,0:0|0:0,0:0:0:0:
64,128,127601,2,0,P|32:208|112:288,1,192,0|0,0:0|0:0,0:0:0:0:
224,256,128116,2,0,P|272:304|176:336,1,192,2|2,0:0|0:0,0:0:0:0:
96,352,128630,5,0,0:0:0:0:
32,256,128801,1,0,0:0:0:0:
96,144,128973,1,0,0:0:0:0:
192,80,129144,2,0,L|288:80,2,96,0|0|2,0:0|0:0|0:0,0:0:0:0:
64,80,129658,1,0,0:0:0:0:
368,64,129830,6,0,P|416:112|352:208,1,192,10|0,0:0|0:0,0:0:0:0:
112,192,130344,2,0,P|64:240|160:304,1,192,2|0,0:0|0:0,0:0:0:0:
288,320,130858,2,0,L|192:320,1,96,0|0,0:0|0:0,0:0:0:0:
464,320,131201,5,2,0:0:0:0:
192,320,131544,2,0,L|288:320,1,96,2|2,0:0|0:0,0:0:0:0:
112,256,131887,2,0,L|64:256,2,48,0|0|2,0:0|0:0|0:0,0:0:0:0:
208,256,132230,2,0,L|304:256,1,96,2|2,0:0|0:0,0:0:0:0:
64,80,132573,6,0,P|32:144|144:224,1,192,6|2,0:0|0:0,0:0:0:0:
432,160,133087,2,0,P|480:208|400:288,1,192,0|0,0:0|0:0,0:0:0:0:
240,256,133601,2,0,P|208:320|320:352,1,192,2|0,0:0|0:0,0:0:0:0:
160,368,134116,5,0,0:0:0:0:
64,288,134287,1,0,0:0:0:0:
80,160,134458,1,0,0:0:0:0:
192,96,134630,2,0,L|288:96,2,96,0|0|2,0:0|0:0|0:0,0:0:0:0:
48,96,135144,1,0,0:0:0:0:
336,96,135316,6,0,P|384:144|304:256,1,192,10|0,0:0|0:0,0:0:0:0:
96,208,135830,2,0,P|64:272|176:320,1,192,2|0,0:0|0:0,0:0:0:0:
256,336,136344,2,0,L|128:336,1,96,0|0,0:0|0:0,0:0:0:0:
304,272,136687,2,0,L|368:272,2,48,2|0|0,0:0|0:0|0:0,0:0:0:0:
192,272,137030,2,0,L|80:272,1,96,0|2,0:0|0:0,0:0:0:0:
432,272,137373,5,2,0:0:0:0:
192,272,137544,2,0,L|128:272,1,48,0|2,0:0|0:0,0:0:0:0:
400,192,137801,2,0,L|464:192,1,48,0|2,0:0|0:0,0:0:0:0:
128,96,138058,6,0,P|96:160|192:224,1,192,6|2,0:0|0:0,0:0:0:0:
448,144,138573,2,0,P|496:192|400:272,1,192,0|0,0:0|0:0,0:0:0:0:
272,272,139087,2,0,L|384:272,1,96,2|2,0:0|0:0,0:0:0:0:
272,272,139430,5,2,0:0:0:0:
192,176,139601,1,0,0:0:0:0:
240,64,139773,1,0,0:0:0:0:
368,64,139944,1,0,0:0:0:0:
240,64,140116,1,0,0:0:0:0:
352,112,140287,1,0,0:0:0:0:
368,240,140458,1,2,0:0:0:0:
256,304,140630,1,0,0:0:0:0:
0,304,140801,6,0,L|144:160,1,192,10|0,0:0|0:0,0:0:0:0:
432,64,141316,2,0,P|464:128|368:224,1,192,2|0,0:0|0:0,0:0:0:0:
208,176,141830,2,0,L|288:256,1,96,0|0,0:0|0:0,0:0:0:0:
48,272,142173,6,0,P|16:208|96:128,1,192,2|2,0:0|0:0,0:0:0:0:
192,320,142687,2,0,L|288:320,1,96,2|0,0:0|0:0,0:0:0:0:
48,256,143030,2,0,L|-16:256,2,48,2|0|2,0:0|0:0|0:0,0:0:0:0:
384,256,143373,1,2,0:0:0:0:
144,64,143544,6,0,L|112:192,1,96,12|2,0:0|0:0,0:0:0:0:
352,192,143887,1,8,0:0:0:0:
64,192,144058,2,0,L|128:272,1,96,6|2,0:0|0:0,0:0:0:0:
352,192,144401,1,2,0:0:0:0:
96,192,144573,2,0,L|0:192,1,96,8|2,0:0|0:0,0:0:0:0:
368,192,144916,6,0,L|464:192,1,96,12|2,0:0|0:0,0:0:0:0:
224,192,145258,1,8,0:0:0:0:
512,112,145430,2,0,L|416:112,1,96,6|6,0:0|0:0,0:0:0:0:
80,112,145773,1,2,0:0:0:0:
352,112,145944,2,0,L|256:112,1,96,8|2,0:0|0:0,0:0:0:0:
512,112,146287,6,0,L|432:176,1,96,12|2,0:0|0:0,0:0:0:0:
128,176,146630,1,8,0:0:0:0:
384,176,146801,2,0,L|448:256,1,96,6|2,0:0|0:0,0:0:0:0:
128,176,147144,1,2,0:0:0:0:
368,128,147316,2,0,L|464:64,1,96,8|2,0:0|0:0,0:0:0:0:
96,96,147658,6,0,L|16:176,1,96,12|2,0:0|0:0,0:0:0:0:
320,176,148001,1,8,0:0:0:0:
48,192,148173,2,0,L|144:192,2,96,6|6|0,0:0|0:0|0:0,0:0:0:0:
320,192,148687,2,0,L|448:192,1,96,8|2,0:0|0:0,0:0:0:0:
64,80,149030,5,12,0:0:0:0:
0,144,149201,1,8,0:0:0:0:
16,224,149373,1,8,0:0:0:0:
96,256,149544,1,14,0:0:0:0:
384,80,149716,5,12,0:0:0:0:
448,144,149887,1,8,0:0:0:0:
432,224,150059,1,4,0:0:0:0:
352,256,150230,1,2,0:0:0:0:
64,192,150401,5,12,0:0:0:0:
144,240,150573,1,8,0:0:0:0:
224,288,150744,1,8,0:0:0:0:
304,336,150916,1,14,0:0:0:0:
48,320,151087,5,12,0:0:0:0:
0,240,151258,1,8,0:0:0:0:
16,160,151430,1,4,0:0:0:0:
96,112,151601,1,2,0:0:0:0:
416,112,151773,6,0,L|464:112,1,48,8|0,0:0|0:0,0:0:0:0:
224,112,151944,2,0,L|160:112,1,48,8|0,0:0|0:0,0:0:0:0:
224,112,152116,2,0,L|272:112,1,48,8|0,0:0|0:0,0:0:0:0:
64,112,152287,2,0,L|0:112,1,48,8|0,0:0|0:0,0:0:0:0:
304,112,152458,5,8,0:0:0:0:
352,160,152544,1,0,0:0:0:0:
352,224,152630,1,8,0:0:0:0:
288,256,152716,1,0,0:0:0:0:
64,224,152801,1,8,0:0:0:0:
128,240,152887,1,0,0:0:0:0:
192,256,152973,1,0,0:0:0:0:
256,272,153058,1,0,0:0:0:0:
496,272,153144,5,8,0:0:0:0:
384,272,153487,1,0,0:0:0:0:
272,272,153830,1,4,0:0:0:0:
144,272,154173,1,2,0:0:0:0:
272,272,154344,2,0,L|336:272,1,48,4|0,0:0|0:0,0:0:0:0:
32,272,154516,5,4,0:0:0:0:
