osu file format v14

[General]
AudioFilename: audio.mp3
AudioLeadIn: 0
PreviewTime: 43430
Countdown: 0
SampleSet: Soft
StackLeniency: 0.7
Mode: 2
LetterboxInBreaks: 0
WidescreenStoryboard: 0

[Editor]
DistanceSpacing: 0.6
BeatDivisor: 8
GridSize: 16
TimelineZoom: 1.400006

[Metadata]
Title:Tokyo (Innovaderz Remix)
TitleUnicode:Tokyo (Innovaderz Remix)
Artist:DJ Ozawa
ArtistUnicode:DJ Ozawa
Creator:Ascendance
Version:Spec's Overdose
Source:
Tags:dnb lanturn mbomb -_magic_bomb_- magic bomb californian darknessofblue fii -wwwww kaitlin zirox sorcerer tomthewizard toybot Yumeno Himiko exam examination gero tenshichan [superstar] hi_hello CLSW crystal crystalseed tasuke912 boberofdarkness bodom koliron deif spectator qoot8123 julie prophecy nofool skylish onosakihito ozzyozrock nardo nardoxyribonucleic raiden nwolf backfire chromoxx saika -saika- lop fawx
BeatmapID:942441
BeatmapSetID:427801

[Difficulty]
HPDrainRate:7
CircleSize:4
OverallDifficulty:9.3
ApproachRate:9.3
SliderMultiplier:2
SliderTickRate:2

[Events]
//Background and Video events
0,0,"Cities_Color_of_the_night_city_058372_.jpg",0,0
//Break Periods
2,110830,120876
//Storyboard Layer 0 (Background)
//Storyboard Layer 1 (Fail)
//Storyboard Layer 2 (Pass)
//Storyboard Layer 3 (Foreground)
//Storyboard Sound Samples

[TimingPoints]
916,342.857142857143,4,2,11,50,1,0
916,-133.333333333333,4,2,11,50,0,0
22858,-133.333333333333,4,1,13,50,0,0
33830,-100,4,1,11,50,0,0
44801,-100,4,1,11,70,0,1
66744,-100,4,1,14,60,0,0
67601,-100,4,1,14,50,0,0
67773,-100,4,1,14,40,0,0
68116,-100,4,1,14,60,0,0
68458,-100,4,1,14,60,0,0
68973,-100,4,1,14,50,0,0
69144,-100,4,1,14,40,0,0
69487,-100,4,1,14,60,0,0
70344,-100,4,1,14,50,0,0
70516,-100,4,1,14,40,0,0
70858,-100,4,1,14,60,0,0
71201,-100,4,1,14,60,0,0
71716,-100,4,1,14,50,0,0
71887,-100,4,1,14,40,0,0
72230,-100,4,1,14,60,0,0
73087,-100,4,1,14,50,0,0
73259,-100,4,1,14,40,0,0
73601,-100,4,1,14,60,0,0
73944,-100,4,1,14,60,0,0
74459,-100,4,1,14,50,0,0
74630,-100,4,1,14,40,0,0
74973,-100,4,1,14,60,0,0
75830,-100,4,1,14,50,0,0
76002,-100,4,1,14,40,0,0
76344,-100,4,1,14,60,0,0
77202,-100,4,1,14,50,0,0
77373,-100,4,1,14,40,0,0
77716,-100,4,1,13,60,0,0
88001,-100,4,1,11,60,0,0
88173,-100,4,1,11,30,0,0
88258,-100,4,1,11,60,0,0
88430,-100,4,1,11,30,0,0
88516,-100,4,1,11,60,0,0
88687,-100,4,1,14,60,0,0
89544,-100,4,1,14,50,0,0
89716,-100,4,1,14,40,0,0
90058,-100,4,1,14,60,0,0
90401,-100,4,1,14,60,0,0
90916,-100,4,1,14,50,0,0
91087,-100,4,1,14,40,0,0
91430,-100,4,1,14,60,0,0
92287,-100,4,1,14,50,0,0
92459,-100,4,1,14,40,0,0
92801,-100,4,1,14,60,0,0
93144,-100,4,1,14,60,0,0
93659,-100,4,1,14,50,0,0
93830,-100,4,1,14,40,0,0
94173,-100,4,1,14,60,0,0
95030,-100,4,1,14,50,0,0
95202,-100,4,1,14,40,0,0
95544,-100,4,1,14,60,0,0
95887,-100,4,1,14,60,0,0
96402,-100,4,1,14,50,0,0
96573,-100,4,1,14,40,0,0
96916,-100,4,1,14,60,0,0
97773,-100,4,1,14,50,0,0
97945,-100,4,1,14,40,0,0
98287,-100,4,1,14,60,0,0
99145,-100,4,1,14,50,0,0
99316,-100,4,1,14,40,0,0
99658,-100,4,1,13,60,0,0
108744,-100,4,1,13,30,0,0
108830,-100,4,1,13,60,0,0
109001,-100,4,1,13,30,0,0
109087,-100,4,1,13,60,0,0
109944,-100,4,1,13,50,0,0
110630,-133.333333333333,4,2,12,40,0,0
110973,-133.333333333333,4,2,12,50,0,0
111658,-133.333333333333,4,2,12,40,0,0
111830,-133.333333333333,4,2,12,30,0,0
112001,-133.333333333333,4,2,12,40,0,0
112344,-133.333333333333,4,2,12,50,0,0
113030,-133.333333333333,4,2,12,40,0,0
113201,-133.333333333333,4,2,12,30,0,0
113373,-133.333333333333,4,2,12,40,0,0
113716,-133.333333333333,4,2,12,50,0,0
114401,-133.333333333333,4,2,12,40,0,0
114573,-133.333333333333,4,2,12,30,0,0
114744,-133.333333333333,4,2,12,40,0,0
115087,-133.333333333333,4,2,12,50,0,0
115773,-133.333333333333,4,2,12,40,0,0
115944,-133.333333333333,4,2,12,30,0,0
116116,-133.333333333333,4,2,12,40,0,0
116458,-133.333333333333,4,2,12,50,0,0
117144,-133.333333333333,4,2,12,40,0,0
117316,-133.333333333333,4,2,12,30,0,0
117487,-133.333333333333,4,2,12,40,0,0
117830,-133.333333333333,4,2,12,50,0,0
118516,-133.333333333333,4,2,12,40,0,0
118687,-133.333333333333,4,2,12,30,0,0
118858,-133.333333333333,4,2,12,40,0,0
119201,-133.333333333333,4,2,12,50,0,0
119887,-133.333333333333,4,2,12,40,0,0
120058,-133.333333333333,4,2,12,30,0,0
120230,-133.333333333333,4,2,12,40,0,0
120573,-133.333333333333,4,2,12,50,0,0
121601,-133.333333333333,4,2,11,50,0,0
143544,-100,4,1,11,60,0,0
154516,-100,4,1,11,60,0,1
154558,-100,4,1,11,60,0,0

[HitObjects]
80,144,744,5,0,1:0:0:0:
388,297,915,2,0,P|438:207|373:141,1,200,0|2,1:0|0:0,0:0:0:0:
82,284,1601,2,0,P|41:232|86:166,1,150.000005722046,2|0,0:0|0:0,0:0:0:0:
197,189,2116,1,0,0:0:0:0:
314,281,2287,2,0,P|391:233|276:106,1,300.000011444092,2|0,0:0|0:0,0:0:0:0:
134,189,3316,1,0,0:0:0:0:
430,284,3658,6,0,P|471:232|426:166,1,150.000005722046,2|0,0:0|0:0,0:0:0:0:
300,176,4173,2,0,L|274:92,1,75.0000028610231,0|2,0:0|0:0,0:0:0:0:
472,222,4687,1,0,0:0:0:0:
237,297,5030,2,0,L|222:248,2,37.5000014305115,2|0|0,0:0|0:0|0:0,0:0:0:0:
357,224,5544,1,0,0:0:0:0:
182,202,5716,2,0,L|139:106,1,75.0000028610231
377,183,5973,2,0,P|422:126|390:88,1,112.500004291535,2|0,0:0|0:0,0:0:0:0:
124,297,6401,6,0,L|92:120,1,150.000005722046,0|2,1:0|0:0,0:0:0:0:
430,284,7087,2,0,P|471:232|426:166,1,150.000005722046,2|0,0:0|0:0,0:0:0:0:
315,189,7602,1,0,0:0:0:0:
198,281,7773,2,0,P|121:233|236:106,1,300.000011444092,2|0,0:0|0:0,0:0:0:0:
440,186,8801,1,0,0:0:0:0:
237,277,9144,5,0,0:0:0:0:
120,331,9316,2,0,P|76:267|123:210,1,150.000005722046,2|0,0:0|0:0,0:0:0:0:
247,186,9830,2,0,P|291:122|244:65,1,150.000005722046,2|0,0:0|0:0,0:0:0:0:
392,331,10516,2,0,P|436:267|389:210,1,150.000005722046,2|0,0:0|0:0,0:0:0:0:
252,268,11030,2,0,L|222:146,1,112.500004291535
406,124,11373,2,0,L|419:48,1,75.0000028610231,0|2,0:0|0:0,0:0:0:0:
184,345,11887,6,0,L|356:326,1,150.000005722046,0|2,1:0|0:0,0:0:0:0:
131,263,12573,2,0,P|90:211|135:145,1,150.000005722046,2|0,0:0|0:0,0:0:0:0:
254,187,13087,1,0,0:0:0:0:
372,262,13258,2,0,P|452:209|348:75,1,300.000011444092,2|0,0:0|0:0,0:0:0:0:
83,149,14287,1,0,0:0:0:0:
290,307,14630,6,0,P|357:240|265:170,1,225.000008583069
151,222,15316,2,0,L|116:69,1,150.000005722046,2|0,0:0|0:0,0:0:0:0:
364,301,16001,2,0,L|379:252,2,37.5000014305115,2|0|0,0:0|0:0|0:0,0:0:0:0:
244,228,16515,1,0,0:0:0:0:
419,206,16687,2,0,L|462:110,1,75.0000028610231
224,187,16944,2,0,P|179:130|211:92,1,112.500004291535,2|0,0:0|0:0,0:0:0:0:
449,322,17373,6,0,P|489:272|419:230,1,150.000005722046,0|2,1:0|0:0,0:0:0:0:
231,157,18058,1,2,0:0:0:0:
400,303,18401,2,0,L|420:216,1,75.0000028610231
136,334,18744,2,0,P|41:225|168:148,1,300.000011444092,2|0,0:0|0:0,0:0:0:0:
374,224,19773,1,0,0:0:0:0:
101,74,20116,6,0,L|204:52,1,75.0000028610231,2|0,0:0|0:0,0:0:0:0:
411,74,20630,2,0,L|308:52,1,75.0000028610231,2|0,0:0|0:0,0:0:0:0:
114,88,21144,1,0,0:0:0:0:
339,278,21487,2,0,P|381:238|319:177,1,150.000005722046,2|0,0:0|0:0,0:0:0:0:
175,232,22001,2,0,L|158:106,1,112.500004291535,2|0,0:0|0:0,0:0:0:0:
354,82,22344,2,0,L|365:-3,1,75.0000028610231,0|2,0:0|0:0,0:0:0:0:
68,159,22858,6,0,L|141:179,1,75.0000028610231,0|2,0:0|0:0,0:0:0:0:
295,266,23201,1,0,0:0:0:0:
310,186,23373,1,0,0:0:0:0:
199,204,23544,1,2,0:0:0:0:
184,124,23716,1,0,0:0:0:0:
322,162,23887,1,0,0:0:0:0:
337,242,24059,1,2,0:0:0:0:
24,171,24230,2,0,L|50:80,1,75.0000028610231,0|2,0:0|0:0,0:0:0:0:
214,218,24744,5,0,0:0:0:0:
350,323,24916,2,0,L|361:196,1,112.500004291535
187,189,25258,2,0,L|174:106,1,75.0000028610231,0|2,0:0|0:0,0:0:0:0:
325,189,25601,2,0,L|338:106,1,75.0000028610231,0|2,0:0|0:0,0:0:0:0:
214,218,26116,5,0,0:0:0:0:
350,323,26288,2,0,L|361:196,1,112.500004291535
187,189,26630,2,0,L|174:106,1,75.0000028610231,0|2,0:0|0:0,0:0:0:0:
345,153,26973,5,0,0:0:0:0:
363,57,27144,1,2,0:0:0:0:
74,311,27487,1,0,0:0:0:0:
225,362,27658,2,0,L|236:235,1,112.500004291535
62,228,28000,2,0,L|49:145,1,75.0000028610231,0|2,0:0|0:0,0:0:0:0:
204,175,28344,6,0,L|297:169,1,75.0000028610231
418,76,28687,2,0,L|344:81,1,75.0000028610231
190,67,29030,1,0,0:0:0:0:
86,122,29201,1,0,0:0:0:0:
86,122,29287,1,0,0:0:0:0:
86,122,29373,1,0,0:0:0:0:
202,175,29544,1,0,0:0:0:0:
458,169,29716,6,0,L|468:85,1,75.0000028610231,0|2,0:0|0:0,0:0:0:0:
214,218,30230,1,0,0:0:0:0:
350,323,30402,2,0,L|361:196,1,112.500004291535
187,189,30744,2,0,L|174:106,1,75.0000028610231,0|2,0:0|0:0,0:0:0:0:
342,127,31087,6,0,L|423:119,1,75.0000028610231,0|2,0:0|0:0,0:0:0:0:
264,203,31430,2,0,L|183:195,1,75.0000028610231
51,156,31773,1,0,0:0:0:0:
200,116,31944,1,0,0:0:0:0:
208,79,32030,1,0,0:0:0:0:
217,42,32116,1,0,0:0:0:0:
55,59,32287,1,0,0:0:0:0:
432,320,32458,6,0,L|448:224,1,75.0000028610231,0|2,0:0|0:0,0:0:0:0:
264,236,32973,1,0,0:0:0:0:
136,316,33144,2,0,P|113:273|117:202,1,112.500004291535
296,152,33487,2,0,L|356:144,1,37.5000014305115,2|0,0:0|0:0,0:0:0:0:
172,105,33658,1,0,0:0:0:0:
32,96,33830,6,0,L|144:80,1,100,0|0,0:0|1:0,0:0:0:0:
288,192,34173,2,0,L|176:176,1,100,0|0,0:0|1:0,0:0:0:0:
30,291,34516,1,0,0:0:0:0:
168,245,34687,2,0,L|231:244,2,50
374,341,35201,6,0,L|400:240,1,100
245,199,35544,1,0,0:0:0:0:
105,137,35716,1,0,0:0:0:0:
91,110,35801,1,0,0:0:0:0:
77,73,35887,1,0,0:0:0:0:
377,123,36058,2,0,L|486:107,1,100
200,298,36573,6,0,L|94:282,1,100
239,200,36916,1,0,0:0:0:0:
75,180,37087,1,0,0:0:0:0:
203,158,37258,2,0,L|97:142,1,100
379,72,37601,1,0,0:0:0:0:
192,336,37944,6,0,L|208:224,1,100
70,190,38287,2,0,L|54:78,1,100
230,156,38630,1,0,0:0:0:0:
352,67,38801,1,0,0:0:0:0:
213,16,38973,1,0,0:0:0:0:
213,16,39058,1,0,0:0:0:0:
213,16,39144,1,0,0:0:0:0:
95,325,39316,6,0,L|65:214,1,100
435,278,39658,2,0,L|465:167,1,100
89,142,40001,2,0,L|59:31,1,100
427,94,40344,2,0,P|376:82|292:83,1,100
160,208,40687,6,0,L|271:191,1,100
71,343,41030,2,0,P|48:280|52:227,1,100
441,343,41373,2,0,P|464:280|460:227,1,100
284,183,41716,2,0,L|186:199,1,100
58,323,42058,6,0,L|45:249,1,50
232,287,42230,2,0,L|240:216,1,50
135,193,42401,2,0,L|203:177,1,50
371,79,42573,2,0,L|315:67,1,50
120,215,42744,6,2,L|107:141,1,50
294,179,42916,2,0,L|302:108,1,50
97,302,43087,5,0,0:0:0:0:
77,286,43130,1,0,0:0:0:0:
64,264,43173,1,0,0:0:0:0:
58,239,43216,1,0,0:0:0:0:
61,214,43258,1,0,0:0:0:0:
70,190,43301,1,0,0:0:0:0:
89,173,43344,1,0,0:0:0:0:
111,162,43387,1,0,0:0:0:0:
383,242,43430,1,0,0:0:0:0:
111,343,44801,6,0,L|84:232,1,100
401,343,45144,2,0,L|428:232,1,100,8|0,0:0|0:0,0:0:0:0:
262,186,45487,1,0,0:0:0:0:
418,127,45658,1,0,0:0:0:0:
418,127,45744,1,0,0:0:0:0:
418,127,45830,1,8,0:0:0:0:
249,57,46001,1,0,0:0:0:0:
403,212,46173,6,0,L|304:190,1,100
151,245,46516,1,8,0:0:0:0:
323,325,46687,2,0,L|399:310,2,50
153,229,47030,1,0,0:0:0:0:
348,198,47201,2,0,L|371:85,1,100,8|0,0:0|0:0,0:0:0:0:
73,336,47544,6,0,L|188:318,1,100
306,221,47887,1,8,0:0:0:0:
139,182,48058,1,0,0:0:0:0:
116,137,48144,1,0,0:0:0:0:
94,91,48230,1,0,0:0:0:0:
275,147,48401,1,0,0:0:0:0:
120,279,48573,2,0,P|173:265|231:263,1,100,8|0,0:0|0:0,0:0:0:0:
464,183,48916,6,0,L|479:73,1,100
123,304,49258,2,0,L|108:194,1,100,8|0,0:0|0:0,0:0:0:0:
275,231,49601,1,0,0:0:0:0:
323,218,49687,1,0,0:0:0:0:
371,206,49773,1,0,0:0:0:0:
129,116,49944,2,0,L|233:92,1,100,8|0,0:0|0:0,0:0:0:0:
392,349,50287,6,0,L|418:235,1,100,2|0,0:0|0:0,0:0:0:0:
200,226,50544,2,0,P|177:197|164:161,1,50,0|8,0:0|0:0,0:0:0:0:
336,383,50801,2,0,L|396:282,1,100,2|0,0:3|0:3,0:3:0:0:
192,207,51058,2,0,P|179:172|178:134,1,50,0|0,0:3|1:3,0:3:0:0:
388,211,51316,2,0,L|518:188,1,100,8|0,0:0|0:0,0:0:0:0:
120,349,51658,6,0,L|94:235,1,100
312,226,51915,2,0,P|335:197|348:161,1,50,0|8,0:0|0:0,0:0:0:0:
175,383,52172,2,0,L|115:282,1,100,0|0,0:3|0:3,0:3:0:0:
319,207,52429,2,0,P|332:172|333:134,1,50,0|0,0:3|0:3,0:3:0:0:
124,211,52687,2,0,L|-6:188,1,100,8|0,0:0|0:0,0:0:0:0:
324,234,53030,5,0,0:0:0:0:
475,170,53201,1,0,0:0:0:0:
324,234,53373,1,8,0:0:0:0:
475,170,53544,1,0,0:0:0:0:
188,234,53716,1,0,0:0:0:0:
37,170,53887,1,0,0:0:0:0:
188,234,54059,1,8,0:0:0:0:
37,170,54230,1,0,0:0:0:0:
400,80,54401,5,0,0:0:0:0:
96,288,54916,1,0,0:0:0:0:
436,340,55087,2,0,L|456:230,1,100
99,268,55430,5,0,0:0:0:0:
80,250,55473,1,0,0:0:0:0:
66,228,55516,1,0,0:0:0:0:
61,203,55558,1,0,0:0:0:0:
64,178,55601,1,0,0:0:0:0:
78,157,55644,1,0,0:0:0:0:
97,141,55687,1,0,0:0:0:0:
120,132,55730,1,0,0:0:0:0:
365,238,55773,6,0,L|467:222,1,100,4|0,0:3|0:0,0:0:0:0:
339,159,56116,2,0,L|237:143,1,100,8|0,0:0|0:0,0:0:0:0:
88,268,56458,1,0,0:0:0:0:
198,211,56630,1,0,0:0:0:0:
66,167,56801,1,8,0:0:0:0:
208,112,56973,1,0,0:0:0:0:
382,187,57144,6,0,L|355:80,1,100
203,148,57487,1,8,0:0:0:0:
408,319,57658,1,0,0:0:0:0:
387,273,57744,1,0,0:0:0:0:
367,226,57830,1,0,0:0:0:0:
197,225,58001,1,0,0:0:0:0:
333,126,58173,1,8,0:0:0:0:
186,56,58344,1,0,0:0:0:0:
474,157,58516,6,0,L|349:139,1,100
236,213,58858,1,8,0:0:0:0:
96,312,59030,1,0,0:0:0:0:
61,275,59116,1,0,0:0:0:0:
49,226,59201,1,0,0:0:0:0:
68,179,59287,1,0,0:0:0:0:
113,157,59373,1,0,0:0:0:0:
281,99,59544,2,0,L|166:86,1,100,8|0,0:0|0:0,0:0:0:0:
470,164,59887,5,0,1:0:0:0:
343,193,60058,1,0,0:0:0:0:
216,222,60230,1,8,0:0:0:0:
373,307,60401,2,0,L|442:303,2,50
120,208,60744,1,0,0:0:0:0:
292,105,60916,2,0,L|186:93,1,100,8|0,0:0|0:0,0:0:0:0:
27,250,61258,6,0,P|15:188|65:142,1,100
188,218,61516,2,0,L|222:163,1,50,0|8,0:0|0:0,0:0:0:0:
21,195,61773,2,0,P|23:131|82:98,1,100
208,208,62031,2,0,L|254:162,1,50
79,141,62287,2,0,L|15:37,1,100,8|0,0:0|0:0,0:0:0:0:
485,250,62630,6,0,P|497:188|447:142,1,100
324,218,62888,2,0,L|290:163,1,50,0|8,0:0|0:0,0:0:0:0:
491,195,63145,2,0,P|488:131|429:98,1,100
304,208,63403,2,0,L|258:162,1,50
433,141,63658,2,0,L|497:37,1,100,8|0,0:0|0:0,0:0:0:0:
124,341,64001,6,0,L|102:236,1,100
257,259,64344,2,0,L|257:152,1,100,8|0,0:0|0:0,0:0:0:0:
388,341,64687,2,0,L|410:236,1,100
305,205,65030,1,8,0:0:0:0:
448,127,65201,1,0,0:0:0:0:
320,72,65373,6,0,L|264:59,3,50
153,245,65716,1,0,0:0:0:0:
118,209,65801,1,0,0:0:0:0:
107,159,65887,1,0,0:0:0:0:
129,114,65973,1,0,0:0:0:0:
378,160,66058,6,0,L|322:147,3,50
125,301,66401,1,0,0:0:0:0:
90,265,66486,1,0,0:0:0:0:
79,215,66572,1,0,0:0:0:0:
101,170,66658,1,0,0:0:0:0:
362,289,66744,6,0,P|397:211|323:199,1,150
281,190,67087,1,0,0:0:0:0:
153,120,67258,1,0,0:0:0:0:
305,303,67430,2,0,L|320:190,1,100
173,237,67773,2,0,L|158:124,1,100
335,189,68116,6,0,P|357:131|275:79,1,150
97,197,68458,2,0,L|116:93,1,100
253,159,68801,2,0,L|313:147,1,50
466,74,68973,1,0,0:0:0:0:
337,258,69144,2,0,L|270:244,1,50
129,181,69316,2,0,L|191:173,1,50
356,202,69487,6,0,L|376:104,1,100
229,368,69830,2,0,L|209:270,1,100
344,196,70173,1,0,0:0:0:0:
218,123,70344,1,0,0:0:0:0:
380,172,70516,6,0,P|407:119|315:95,1,150
132,172,70858,2,0,P|105:119|197:95,1,150
236,117,71201,2,0,L|346:105,1,100
466,49,71544,2,0,L|457:229,1,150
193,329,71887,6,0,L|385:306,1,150
64,254,72230,6,0,P|20:191|81:135,1,150
137,160,72573,2,0,L|236:150,1,100
393,79,72916,2,0,L|294:69,1,100
148,125,73258,2,0,P|126:185|185:236,1,150
364,125,73601,6,0,P|386:185|327:236,1,150
247,297,73944,2,0,L|353:315,1,100
474,200,74287,2,0,L|408:209,1,50
236,119,74458,1,0,0:0:0:0:
128,224,74630,2,0,L|112:160,1,50
272,112,74801,2,0,L|298:23,1,50
90,356,74973,6,0,P|52:311|136:276,1,150
176,288,75316,2,0,L|274:302,1,100
454,253,75658,1,0,0:0:0:0:
312,175,75830,1,0,0:0:0:0:
462,132,76001,1,0,0:0:0:0:
302,79,76173,1,0,0:0:0:0:
58,209,76344,5,0,0:0:0:0:
398,80,76516,1,0,0:0:0:0:
114,224,76858,2,0,L|98:144,4,50
256,192,77373,5,0,0:0:0:0:
108,253,77544,1,0,0:0:0:0:
115,239,77587,1,0,0:0:0:0:
124,227,77630,1,0,0:0:0:0:
136,217,77673,1,0,0:0:0:0:
436,299,77716,5,0,0:0:0:0:
436,299,77887,1,0,0:0:0:0:
80,176,78058,5,0,0:0:0:0:
80,176,78230,1,0,0:0:0:0:
389,78,78401,5,0,0:0:0:0:
389,78,78573,1,0,0:0:0:0:
205,121,78744,5,0,0:0:0:0:
205,121,78916,1,0,0:0:0:0:
437,224,79087,5,0,0:0:0:0:
437,224,79258,1,0,0:0:0:0:
255,346,79430,5,0,0:0:0:0:
255,346,79601,1,0,0:0:0:0:
70,206,79773,1,0,0:0:0:0:
70,206,79944,5,0,0:0:0:0:
341,145,80116,1,0,0:0:0:0:
166,139,80287,2,0,L|165:80,1,50
396,243,80458,5,0,0:0:0:0:
396,243,80630,1,0,0:0:0:0:
132,347,80801,1,0,0:0:0:0:
132,347,80973,5,0,0:0:0:0:
473,155,81144,1,0,0:0:0:0:
473,155,81316,5,0,0:0:0:0:
322,74,81487,1,0,0:0:0:0:
322,74,81658,1,0,0:0:0:0:
66,209,81830,5,0,0:0:0:0:
66,209,82001,1,0,0:0:0:0:
322,74,82173,1,0,0:0:0:0:
162,126,82344,2,0,L|161:62,1,50
389,205,82516,5,0,0:0:0:0:
389,205,82687,1,0,0:0:0:0:
136,324,82858,5,0,0:0:0:0:
136,324,83030,1,0,0:0:0:0:
444,303,83201,5,0,0:0:0:0:
282,243,83373,1,0,0:0:0:0:
121,170,83544,1,0,0:0:0:0:
455,217,83716,5,0,0:0:0:0:
293,157,83888,1,0,0:0:0:0:
132,84,84059,1,0,0:0:0:0:
467,117,84230,5,0,0:0:0:0:
467,117,84401,1,0,0:0:0:0:
169,336,84573,5,0,0:0:0:0:
324,265,84744,1,0,0:0:0:0:
45,117,84916,5,0,0:0:0:0:
45,117,85087,1,0,0:0:0:0:
192,193,85258,2,0,L|191:135,3,50
467,117,85601,5,0,0:0:0:0:
467,117,85772,1,0,0:0:0:0:
160,336,85944,5,0,0:0:0:0:
160,336,86116,1,0,0:0:0:0:
352,48,86287,5,0,0:0:0:0:
352,48,86459,1,0,0:0:0:0:
42,195,86630,5,0,0:0:0:0:
42,195,86716,1,0,0:0:0:0:
42,195,86801,1,0,0:0:0:0:
469,202,86973,5,0,0:0:0:0:
469,202,87144,1,0,0:0:0:0:
133,121,87316,5,0,0:0:0:0:
133,121,87401,1,0,0:0:0:0:
133,121,87487,1,0,0:0:0:0:
379,121,87658,5,0,0:0:0:0:
379,121,87743,1,0,0:0:0:0:
379,121,87829,1,0,0:0:0:0:
192,64,88001,6,0,L|86:53,1,100
297,176,88258,2,0,L|403:165,1,100
151,282,88516,2,0,L|69:271,1,50
327,359,88687,6,0,P|372:309|287:266,1,150
248,271,89030,2,0,L|141:266,1,100
5,169,89373,1,0,0:0:0:0:
158,131,89544,1,0,0:0:0:0:
158,131,89630,1,0,0:0:0:0:
158,131,89716,1,0,0:0:0:0:
15,47,89887,1,0,0:0:0:0:
195,229,90058,6,0,P|221:172|146:143,1,150
2,190,90401,2,0,L|11:90,1,100
171,152,90744,2,0,L|223:139,1,50
384,192,90916,1,0,0:0:0:0:
478,123,91087,2,0,L|430:136,1,50
362,293,91258,2,0,L|310:280,1,50
89,333,91430,6,0,P|138:342|183:364,1,100
320,233,91773,1,0,0:0:0:0:
123,196,91944,2,0,L|67:195,2,50
247,123,92287,1,0,0:0:0:0:
398,177,92458,2,0,L|419:19,1,150
221,290,92801,6,0,P|176:244|217:174,1,150
295,184,93144,2,0,L|410:194,1,100
220,89,93487,2,0,L|56:70,1,150
46,168,93830,2,0,P|19:117|58:28,1,150
272,288,94173,6,0,P|299:237|260:148,1,150
194,149,94516,2,0,L|69:139,1,100
233,230,94858,1,0,0:0:0:0:
374,163,95030,1,0,0:0:0:0:
374,163,95116,1,0,0:0:0:0:
374,163,95201,1,0,0:0:0:0:
226,85,95373,1,0,0:0:0:0:
393,212,95544,6,0,P|425:161|345:123,1,150
190,237,95887,2,0,L|182:116,1,100
343,248,96230,2,0,L|355:172,1,50
187,126,96401,1,0,0:0:0:0:
75,274,96573,2,0,L|53:188,1,50
257,130,96744,2,0,L|279:44,1,50
65,153,96916,6,0,P|37:56|83:42,1,150
136,64,97258,2,0,L|240:59,1,100
402,153,97601,1,0,0:0:0:0:
258,74,97773,1,0,0:0:0:0:
18,215,97944,1,0,0:0:0:0:
220,335,98287,6,0,L|353:305,1,100
149,218,98544,1,0,0:0:0:0:
345,225,98801,2,0,P|363:169|360:115,1,100
167,225,99058,2,0,P|149:169|152:115,1,100
338,160,99316,1,0,0:0:0:0:
465,127,99487,6,0,L|474:87,3,25
167,328,99658,5,0,0:0:0:0:
130,293,99744,1,0,0:0:0:0:
115,244,99830,1,0,0:0:0:0:
139,199,99916,1,0,0:0:0:0:
337,129,100001,2,0,L|260:112,1,50
108,258,100173,5,0,0:0:0:0:
71,223,100259,1,0,0:0:0:0:
56,174,100345,1,0,0:0:0:0:
80,129,100431,1,0,0:0:0:0:
278,59,100516,2,0,L|201:42,1,50
28,157,100687,2,0,L|77:168,1,50
324,242,100858,2,0,L|275:252,1,50
67,280,101030,5,0,0:0:0:0:
30,245,101116,1,0,0:0:0:0:
15,196,101202,1,0,0:0:0:0:
39,151,101288,1,0,0:0:0:0:
211,200,101373,2,0,L|285:191,1,50
409,329,101544,5,0,0:0:0:0:
446,294,101630,1,0,0:0:0:0:
461,245,101716,1,0,0:0:0:0:
437,200,101802,1,0,0:0:0:0:
265,249,101887,2,0,L|191:240,1,50
397,103,102058,2,0,L|471:94,1,50
220,37,102230,2,0,L|146:28,1,50
368,304,102401,6,0,L|384:224,1,50
144,240,102573,2,0,L|128:160,1,50
368,176,102744,2,0,L|448:160,3,50
159,152,103087,6,0,L|143:72,1,50
383,88,103259,2,0,L|399:8,1,50
159,24,103430,2,0,L|79:8,3,50
352,320,103773,6,0,L|435:303,1,50
160,240,103944,2,0,L|111:250,1,50
379,175,104116,2,0,L|462:158,1,50
192,80,104287,2,0,L|143:90,1,50
413,250,104458,5,0,0:0:0:0:
448,215,104544,1,0,0:0:0:0:
455,165,104630,1,0,0:0:0:0:
427,123,104716,1,0,0:0:0:0:
168,192,104801,1,0,0:0:0:0:
133,157,104887,1,0,0:0:0:0:
126,107,104973,1,0,0:0:0:0:
154,65,105059,1,0,0:0:0:0:
385,303,105144,6,0,L|403:230,3,50
182,227,105487,2,0,L|160:122,1,100
466,190,105830,5,0,0:0:0:0:
391,180,105916,1,0,0:0:0:0:
317,171,106001,1,0,0:0:0:0:
242,162,106087,1,0,0:0:0:0:
167,153,106173,1,0,0:0:0:0:
93,144,106258,1,0,0:0:0:0:
18,135,106344,1,0,0:0:0:0:
428,325,106516,5,0,0:0:0:0:
469,298,106601,1,0,0:0:0:0:
477,248,106687,1,0,0:0:0:0:
450,205,106773,1,0,0:0:0:0:
241,243,106858,2,0,L|130:214,1,100
18,135,107201,5,0,0:0:0:0:
93,125,107287,1,0,0:0:0:0:
167,116,107372,1,0,0:0:0:0:
242,107,107458,1,0,0:0:0:0:
317,98,107544,1,0,0:0:0:0:
391,89,107629,1,0,0:0:0:0:
466,80,107715,1,0,0:0:0:0:
176,342,107887,6,0,L|92:317,1,50
304,263,108058,2,0,L|375:248,1,50
166,190,108230,2,0,L|101:173,1,50
206,124,108401,2,0,L|261:107,1,50
67,59,108573,6,0,L|13:42,2,50
262,126,108830,2,0,L|316:109,2,50
47,138,109087,1,0,0:0:0:0:
448,224,109258,1,0,0:0:0:0:
169,304,109944,6,0,L|101:288,2,50
332,302,110287,2,0,L|400:286,2,50
14,159,110630,1,0,0:0:0:0:
80,144,121430,5,0,1:0:0:0:
384,304,121601,2,0,P|425:248|370:197,1,150.000005722046,0|2,1:0|0:0,0:0:0:0:
82,284,122287,2,0,P|41:232|86:166,1,150.000005722046,2|0,0:0|0:0,0:0:0:0:
197,189,122802,1,0,0:0:0:0:
314,281,122973,2,0,P|391:233|276:106,1,300.000011444092,2|0,0:0|0:0,0:0:0:0:
134,189,124002,1,0,0:0:0:0:
430,284,124344,6,0,P|471:232|426:166,1,150.000005722046,2|0,0:0|0:0,0:0:0:0:
300,176,124859,2,0,L|274:92,1,75.0000028610231,0|2,0:0|0:0,0:0:0:0:
472,222,125373,1,0,0:0:0:0:
236,296,125716,2,0,L|171:294,2,37.5000014305115,2|0|0,0:0|0:0|0:0,0:0:0:0:
357,224,126230,1,0,0:0:0:0:
182,202,126402,2,0,L|139:106,1,75.0000028610231
377,183,126659,2,0,P|422:126|390:88,1,112.500004291535,2|0,0:0|0:0,0:0:0:0:
124,297,127087,6,0,L|92:120,1,150.000005722046,0|2,1:0|0:0,0:0:0:0:
430,284,127773,2,0,P|471:232|426:166,1,150.000005722046,2|0,0:0|0:0,0:0:0:0:
315,189,128288,1,0,0:0:0:0:
198,281,128459,2,0,P|121:233|236:106,1,300.000011444092,2|0,0:0|0:0,0:0:0:0:
440,186,129487,1,0,0:0:0:0:
237,277,129830,5,0,0:0:0:0:
120,331,130002,2,0,P|76:267|123:210,1,150.000005722046,2|0,0:0|0:0,0:0:0:0:
247,186,130516,2,0,P|291:122|244:65,1,150.000005722046,2|0,0:0|0:0,0:0:0:0:
392,331,131202,2,0,P|436:267|389:210,1,150.000005722046,2|0,0:0|0:0,0:0:0:0:
252,268,131716,2,0,L|222:146,1,112.500004291535
406,124,132059,2,0,L|419:48,1,75.0000028610231,0|2,0:0|0:0,0:0:0:0:
184,345,132573,6,0,L|356:326,1,150.000005722046,0|2,1:0|0:0,0:0:0:0:
131,263,133259,2,0,P|90:211|135:145,1,150.000005722046,2|0,0:0|0:0,0:0:0:0:
254,187,133773,1,0,0:0:0:0:
372,262,133944,2,0,P|452:209|348:75,1,300.000011444092,2|0,0:0|0:0,0:0:0:0:
83,149,134973,1,0,0:0:0:0:
290,307,135316,6,0,P|357:240|265:170,1,225.000008583069
151,222,136002,2,0,L|116:69,1,150.000005722046,2|0,0:0|0:0,0:0:0:0:
364,301,136687,2,0,L|419:300,2,37.5000014305115,2|0|0,0:0|0:0|0:0,0:0:0:0:
244,228,137201,1,0,0:0:0:0:
419,206,137373,2,0,L|462:110,1,75.0000028610231
224,187,137630,2,0,P|179:130|211:92,1,112.500004291535,2|0,0:0|0:0,0:0:0:0:
449,322,138059,6,0,P|489:272|419:230,1,150.000005722046,0|2,1:0|0:0,0:0:0:0:
231,157,138744,1,2,0:0:0:0:
400,303,139087,2,0,L|420:216,1,75.0000028610231
136,334,139430,2,0,P|41:225|168:148,1,300.000011444092,2|0,0:0|0:0,0:0:0:0:
374,224,140459,1,0,0:0:0:0:
101,74,140802,6,0,L|204:52,1,75.0000028610231,2|0,0:0|0:0,0:0:0:0:
411,74,141316,2,0,L|308:52,1,75.0000028610231,2|0,0:0|0:0,0:0:0:0:
114,88,141830,1,0,0:0:0:0:
339,278,142173,2,0,P|381:238|319:177,1,150.000005722046,2|0,0:0|0:0,0:0:0:0:
175,232,142687,2,0,L|158:106,1,112.500004291535,2|0,0:0|0:0,0:0:0:0:
354,81,143030,2,0,L|363:0,1,75.0000028610231,0|2,0:0|0:0,0:0:0:0:
71,337,143544,5,0,0:0:0:0:
251,243,143887,1,0,0:0:0:0:
26,171,144230,1,0,0:0:0:0:
248,73,144573,1,0,0:0:0:0:
441,337,144916,5,0,0:0:0:0:
261,243,145259,1,0,0:0:0:0:
486,171,145602,1,0,0:0:0:0:
264,73,145945,1,0,0:0:0:0:
65,332,146287,5,0,0:0:0:0:
266,248,146630,1,0,0:0:0:0:
447,52,146973,1,0,0:0:0:0:
246,136,147316,1,0,0:0:0:0:
464,288,147658,6,0,L|480:80,1,200
48,288,148344,2,0,L|32:80,1,200
266,283,149030,6,0,L|380:266,1,100
238,203,149373,2,0,L|132:184,1,100
295,140,149716,1,0,0:0:0:0:
416,108,149887,1,0,0:0:0:0:
295,140,150058,1,0,0:0:0:0:
416,108,150230,1,0,0:0:0:0:
256,64,150401,6,0,L|155:38,1,100
25,107,150744,1,0,0:0:0:0:
352,192,150916,2,0,L|237:166,1,100
110,232,151258,1,0,0:0:0:0:
395,316,151430,2,0,L|531:295,1,100
114,302,151773,5,0,0:0:0:0:
80,265,151858,1,0,0:0:0:0:
72,215,151944,1,0,0:0:0:0:
106,178,152030,1,0,0:0:0:0:
398,200,152116,6,0,L|448:209,1,50
106,197,152287,2,0,L|57:206,1,50
428,338,152458,6,0,L|379:293,1,50
77,335,152629,2,0,L|126:290,1,50
302,358,152801,5,0,0:0:0:0:
300,342,152844,1,0,0:0:0:0:
298,326,152887,1,0,0:0:0:0:
210,358,152973,2,0,L|217:299,1,50
481,194,153144,5,0,0:0:0:0:
405,250,154344,6,0,L|412:208,3,25
83,103,154516,1,0,0:0:0:0:
