osu file format v14

[General]
AudioFilename: audio.mp3
AudioLeadIn: 0
PreviewTime: 43430
Countdown: 0
SampleSet: Normal
StackLeniency: 0.7
Mode: 1
LetterboxInBreaks: 0
WidescreenStoryboard: 0

[Editor]
Bookmarks: 154516
DistanceSpacing: 1
BeatDivisor: 4
GridSize: 32
TimelineZoom: 2.400001

[Metadata]
Title:Tokyo (Innovaderz Remix)
TitleUnicode:Tokyo (Innovaderz Remix)
Artist:DJ Ozawa
ArtistUnicode:DJ Ozawa
Creator:Ascendance
Version:Skylish's Oni
Source:
Tags:dnb lanturn mbomb -_magic_bomb_- magic bomb californian darknessofblue fii -wwwww kaitlin zirox sorcerer tomthewizard toybot Yumeno Himiko exam examination gero tenshichan [superstar] hi_hello CLSW crystal crystalseed tasuke912 boberofdarkness bodom koliron deif spectator qoot8123 julie prophecy nofool skylish onosakihito ozzyozrock nardo nardoxyribonucleic raiden nwolf backfire chromoxx saika -saika- lop fawx
BeatmapID:940781
BeatmapSetID:427801

[Difficulty]
HPDrainRate:5
CircleSize:5
OverallDifficulty:5.5
ApproachRate:7
SliderMultiplier:1.4
SliderTickRate:1

[Events]
//Background and Video events
0,0,"Cities_Color_of_the_night_city_058372_.jpg",0,0
//Break Periods
//Storyboard Layer 0 (Background)
//Storyboard Layer 1 (Fail)
//Storyboard Layer 2 (Pass)
//Storyboard Layer 3 (Foreground)
//Storyboard Sound Samples

[TimingPoints]
916,342.857142857143,4,1,0,50,1,0
22858,-100,4,1,0,60,0,0
28344,-100,4,1,0,65,0,0
31087,-100,4,1,0,70,0,0
33830,-95.2380952380952,4,1,0,75,0,0
39316,-90.9090909090909,4,1,0,75,0,0
42058,-86.9565217391304,4,1,0,75,0,0
44801,-90.9090909090909,4,1,0,80,0,1
66401,-92.5925925925926,4,1,0,80,0,1
66487,-94.3396226415094,4,1,0,80,0,1
66573,-96.1538461538461,4,1,0,80,0,1
66658,-98.0392156862745,4,1,0,80,0,1
66744,-100,4,1,0,80,0,0
77544,-98.0392156862745,4,1,0,80,0,0
77601,-97.0873786407767,4,1,0,80,0,0
77658,-96.1538461538461,4,1,0,80,0,0
77716,-95.2380952380952,4,1,0,85,0,0
88258,-98.0392156862745,4,1,0,85,0,0
88516,-99.009900990099,4,1,0,85,0,0
88687,-100,4,1,0,80,0,0
99487,-96.1538461538461,4,1,0,80,0,0
99544,-94.3396226415094,4,1,0,80,0,0
99601,-92.5925925925926,4,1,0,80,0,0
99658,-90.9090909090909,4,1,0,80,0,1
110373,-95.2380952380952,4,1,0,80,0,1
110630,-100,4,1,0,65,0,0
121601,-100,4,1,0,50,0,0
143544,-95.2380952380952,4,1,0,70,0,0
149030,-90.9090909090909,4,1,0,70,0,0
151773,-86.9565217391304,4,1,0,70,0,0
154516,-100,4,1,0,70,0,0

[HitObjects]
256,192,744,5,8,0:0:0:0:
256,192,915,1,4,0:0:0:0:
256,192,1258,1,0,0:0:0:0:
256,192,1601,1,8,0:0:0:0:
256,192,1944,1,0,0:0:0:0:
256,192,2116,1,8,0:0:0:0:
256,192,3316,1,0,0:0:0:0:
256,192,3658,1,8,0:0:0:0:
288,224,4173,1,8,0:0:0:0:
256,192,4687,1,0,0:0:0:0:
256,160,5030,1,0,0:0:0:0:
256,160,5116,1,8,0:0:0:0:
256,160,5201,1,0,0:0:0:0:
256,160,5544,1,0,0:0:0:0:
256,160,5716,1,8,0:0:0:0:
256,160,5887,1,0,0:0:0:0:
256,160,5973,1,8,0:0:0:0:
256,160,6058,1,8,0:0:0:0:
256,160,6230,1,8,0:0:0:0:
256,160,6401,1,4,0:0:0:0:
256,192,6744,1,0,0:0:0:0:
256,192,7087,1,8,0:0:0:0:
256,192,7430,1,0,0:0:0:0:
256,192,7602,1,8,0:0:0:0:
256,192,8802,1,0,0:0:0:0:
256,192,9144,1,8,0:0:0:0:
288,224,9659,1,8,0:0:0:0:
256,192,10173,1,0,0:0:0:0:
256,192,10516,1,8,0:0:0:0:
256,192,10858,1,0,0:0:0:0:
224,192,11030,1,8,0:0:0:0:
224,192,11201,1,0,0:0:0:0:
224,192,11287,1,8,0:0:0:0:
224,192,11373,1,0,0:0:0:0:
224,192,11544,1,8,0:0:0:0:
256,160,11887,1,12,0:0:0:0:
256,192,12230,1,0,0:0:0:0:
256,192,12573,1,8,0:0:0:0:
256,192,12916,1,0,0:0:0:0:
256,192,13088,1,8,0:0:0:0:
256,192,14287,1,0,0:0:0:0:
256,192,14629,1,8,0:0:0:0:
288,224,15144,1,8,0:0:0:0:
256,192,15658,1,0,0:0:0:0:
256,192,16001,1,0,0:0:0:0:
256,160,16087,1,8,0:0:0:0:
256,160,16173,1,0,0:0:0:0:
288,192,16516,1,0,0:0:0:0:
288,192,16687,1,8,0:0:0:0:
288,192,16858,1,0,0:0:0:0:
288,192,16944,1,8,0:0:0:0:
288,192,17030,1,8,0:0:0:0:
320,192,17201,1,0,0:0:0:0:
320,192,17373,1,4,0:0:0:0:
256,192,17716,1,0,0:0:0:0:
256,192,18058,1,8,0:0:0:0:
256,192,18401,1,0,0:0:0:0:
256,192,18573,1,8,0:0:0:0:
256,192,19773,1,0,0:0:0:0:
256,192,20116,1,8,0:0:0:0:
256,192,20630,1,8,0:0:0:0:
256,192,21144,1,0,0:0:0:0:
256,192,21487,1,8,0:0:0:0:
256,192,21830,1,0,0:0:0:0:
256,192,22001,1,8,0:0:0:0:
256,192,22173,1,0,0:0:0:0:
256,192,22258,1,0,0:0:0:0:
256,192,22344,1,8,0:0:0:0:
256,192,22430,1,0,0:0:0:0:
256,192,22516,1,8,0:0:0:0:
256,224,22858,1,4,0:0:0:0:
256,192,23030,1,8,0:0:0:0:
256,192,23373,1,8,0:0:0:0:
256,192,23544,1,8,0:0:0:0:
256,192,23801,1,8,0:0:0:0:
256,192,23887,1,8,0:0:0:0:
256,192,24058,1,8,0:0:0:0:
256,192,24230,1,0,0:0:0:0:
256,192,24401,1,8,0:0:0:0:
256,224,24744,1,4,0:0:0:0:
256,192,24916,1,8,0:0:0:0:
256,192,25173,1,8,0:0:0:0:
256,192,25259,1,8,0:0:0:0:
256,192,25430,1,8,0:0:0:0:
256,192,25602,1,0,0:0:0:0:
256,192,25773,1,8,0:0:0:0:
256,192,25944,1,8,0:0:0:0:
256,224,26116,1,4,0:0:0:0:
256,192,26288,1,8,0:0:0:0:
256,192,26458,1,8,0:0:0:0:
256,192,26545,1,8,0:0:0:0:
256,192,26631,1,8,0:0:0:0:
256,192,26802,1,8,0:0:0:0:
256,192,26974,1,0,0:0:0:0:
256,192,27145,1,8,0:0:0:0:
256,224,27487,1,4,0:0:0:0:
256,192,27659,1,8,0:0:0:0:
256,192,27887,1,0,0:0:0:0:
256,192,27944,1,8,0:0:0:0:
256,192,28001,1,8,0:0:0:0:
256,192,28058,1,0,0:0:0:0:
256,192,28173,1,8,0:0:0:0:
256,192,28345,1,0,0:0:0:0:
256,192,28516,1,8,0:0:0:0:
256,192,28687,1,0,0:0:0:0:
256,224,28858,1,4,0:0:0:0:
256,192,29030,1,8,0:0:0:0:
256,192,29200,1,8,0:0:0:0:
256,192,29287,1,8,0:0:0:0:
256,192,29373,1,0,0:0:0:0:
256,192,29544,1,8,0:0:0:0:
256,192,29716,1,0,0:0:0:0:
256,192,29887,1,8,0:0:0:0:
256,224,30230,1,4,0:0:0:0:
256,192,30402,1,8,0:0:0:0:
256,192,30572,1,8,0:0:0:0:
256,192,30659,1,0,0:0:0:0:
256,192,30745,1,8,0:0:0:0:
256,192,30916,1,8,0:0:0:0:
256,192,31088,1,0,0:0:0:0:
256,192,31259,1,8,0:0:0:0:
256,192,31430,1,8,0:0:0:0:
256,224,31601,1,4,0:0:0:0:
256,192,31773,1,8,0:0:0:0:
256,192,31944,1,8,0:0:0:0:
256,192,32030,1,8,0:0:0:0:
256,192,32116,1,0,0:0:0:0:
256,192,32287,1,8,0:0:0:0:
256,192,32459,1,0,0:0:0:0:
256,192,32630,1,8,0:0:0:0:
256,224,32973,1,4,0:0:0:0:
256,192,33145,1,8,0:0:0:0:
256,192,33373,1,8,0:0:0:0:
256,192,33430,1,8,0:0:0:0:
256,192,33487,1,0,0:0:0:0:
256,192,33544,1,8,0:0:0:0:
256,192,33659,1,8,0:0:0:0:
256,192,33830,5,4,0:0:0:0:
256,192,34001,1,8,0:0:0:0:
256,192,34344,1,4,0:0:0:0:
256,192,34516,1,4,0:0:0:0:
256,192,34687,1,8,0:0:0:0:
256,160,35030,1,0,0:0:0:0:
256,160,35201,1,4,0:0:0:0:
256,160,35373,1,8,0:0:0:0:
256,192,35716,1,4,0:0:0:0:
256,192,35887,1,4,0:0:0:0:
256,192,36058,1,8,0:0:0:0:
256,192,36401,1,0,0:0:0:0:
256,192,36572,1,4,0:0:0:0:
256,192,36743,1,8,0:0:0:0:
256,192,37087,1,4,0:0:0:0:
256,192,37258,1,4,0:0:0:0:
256,192,37429,1,8,0:0:0:0:
256,192,37773,1,0,0:0:0:0:
256,192,37944,1,4,0:0:0:0:
256,192,38116,1,12,0:0:0:0:
256,192,38287,1,0,0:0:0:0:
256,192,38458,1,4,0:0:0:0:
256,192,38630,1,12,0:0:0:0:
256,192,38801,1,0,0:0:0:0:
256,192,38887,1,0,0:0:0:0:
256,192,38973,1,8,0:0:0:0:
256,192,39030,1,8,0:0:0:0:
256,192,39087,1,0,0:0:0:0:
256,192,39144,1,8,0:0:0:0:
256,192,39316,1,4,0:0:0:0:
256,192,39487,1,8,0:0:0:0:
224,192,39830,1,12,0:0:0:0:
224,192,40001,1,0,0:0:0:0:
224,192,40173,1,0,0:0:0:0:
224,192,40344,1,12,0:0:0:0:
224,192,40687,1,12,0:0:0:0:
224,192,40858,1,8,0:0:0:0:
224,192,41201,1,12,0:0:0:0:
224,192,41373,1,0,0:0:0:0:
224,192,41544,1,0,0:0:0:0:
224,192,41716,1,12,0:0:0:0:
224,192,42058,1,12,0:0:0:0:
224,192,42230,1,8,0:0:0:0:
224,192,42401,1,8,0:0:0:0:
224,192,42573,1,8,0:0:0:0:
224,192,42744,1,8,0:0:0:0:
224,192,42830,1,8,0:0:0:0:
224,192,42916,1,0,0:0:0:0:
224,192,43001,1,0,0:0:0:0:
224,192,43087,1,8,0:0:0:0:
224,192,43173,1,8,0:0:0:0:
224,192,43258,1,0,0:0:0:0:
224,192,43344,1,0,0:0:0:0:
224,192,43430,1,12,0:0:0:0:
288,192,44630,5,8,0:0:0:0:
288,192,44801,1,4,0:0:0:0:
256,192,44973,1,0,0:0:0:0:
256,192,45144,1,8,0:0:0:0:
256,192,45316,1,8,0:0:0:0:
256,192,45487,1,0,0:0:0:0:
256,192,45573,1,0,0:0:0:0:
256,192,45658,1,0,0:0:0:0:
256,192,45830,1,8,0:0:0:0:
256,192,46173,1,0,0:0:0:0:
256,192,46344,1,0,0:0:0:0:
256,192,46516,1,8,0:0:0:0:
256,192,46687,1,0,0:0:0:0:
256,192,46773,1,8,0:0:0:0:
256,192,46858,1,0,0:0:0:0:
256,192,46944,1,8,0:0:0:0:
256,192,47030,1,0,0:0:0:0:
256,192,47201,1,8,0:0:0:0:
256,192,47544,1,0,0:0:0:0:
256,192,47716,1,0,0:0:0:0:
256,192,47887,1,8,0:0:0:0:
256,192,48058,1,8,0:0:0:0:
256,192,48144,1,0,0:0:0:0:
256,192,48230,1,0,0:0:0:0:
256,192,48401,1,0,0:0:0:0:
256,192,48573,1,8,0:0:0:0:
256,192,48916,1,0,0:0:0:0:
224,192,49087,1,0,0:0:0:0:
256,192,49173,1,0,0:0:0:0:
256,192,49258,1,8,0:0:0:0:
224,192,49430,1,8,0:0:0:0:
224,192,49516,1,8,0:0:0:0:
224,192,49601,1,0,0:0:0:0:
224,192,49687,1,0,0:0:0:0:
256,192,49773,1,0,0:0:0:0:
256,192,49944,1,8,0:0:0:0:
256,192,50287,1,4,0:0:0:0:
256,192,50630,1,8,0:0:0:0:
256,192,50801,1,4,0:0:0:0:
256,192,50973,1,4,0:0:0:0:
256,192,51144,1,0,0:0:0:0:
256,192,51316,1,8,0:0:0:0:
256,192,51658,1,4,0:0:0:0:
256,192,52001,1,8,0:0:0:0:
256,192,52173,1,12,0:0:0:0:
256,192,52344,1,12,0:0:0:0:
256,192,52516,1,0,0:0:0:0:
256,192,52687,1,8,0:0:0:0:
256,192,53030,1,0,0:0:0:0:
256,192,53201,1,0,0:0:0:0:
256,192,53373,1,8,0:0:0:0:
256,192,53458,1,0,0:0:0:0:
256,192,53544,1,0,0:0:0:0:
256,192,53716,1,8,0:0:0:0:
256,192,53887,1,0,0:0:0:0:
256,192,53973,1,0,0:0:0:0:
256,192,54058,1,8,0:0:0:0:
256,192,54230,1,8,0:0:0:0:
256,192,54401,1,0,0:0:0:0:
256,192,54573,1,0,0:0:0:0:
256,192,54658,1,0,0:0:0:0:
256,192,54744,1,0,0:0:0:0:
256,192,54916,1,8,0:0:0:0:
256,192,55087,1,0,0:0:0:0:
256,192,55173,1,0,0:0:0:0:
256,192,55258,1,0,0:0:0:0:
256,192,55430,1,8,0:0:0:0:
256,192,55601,1,0,0:0:0:0:
256,192,55658,1,0,0:0:0:0:
256,192,55716,1,0,0:0:0:0:
256,192,55773,1,8,0:0:0:0:
256,192,55944,1,0,0:0:0:0:
256,192,56030,1,0,0:0:0:0:
256,192,56116,1,8,0:0:0:0:
224,192,56287,1,0,0:0:0:0:
224,192,56458,1,0,0:0:0:0:
224,192,56544,1,0,0:0:0:0:
224,192,56630,1,0,0:0:0:0:
224,192,56801,1,8,0:0:0:0:
224,192,57144,1,0,0:0:0:0:
224,192,57316,1,0,0:0:0:0:
224,192,57401,1,0,0:0:0:0:
224,192,57487,1,8,0:0:0:0:
224,192,57658,1,0,0:0:0:0:
224,192,57744,1,0,0:0:0:0:
224,192,57830,1,0,0:0:0:0:
224,192,57916,1,8,0:0:0:0:
224,192,58001,1,0,0:0:0:0:
224,192,58173,1,8,0:0:0:0:
256,192,58516,1,0,0:0:0:0:
256,192,58687,1,0,0:0:0:0:
256,192,58773,1,0,0:0:0:0:
256,192,58858,1,8,0:0:0:0:
256,192,59030,1,0,0:0:0:0:
256,192,59201,1,8,0:0:0:0:
256,192,59287,1,8,0:0:0:0:
256,192,59373,1,0,0:0:0:0:
256,192,59458,1,0,0:0:0:0:
256,192,59544,1,8,0:0:0:0:
256,192,59887,1,0,0:0:0:0:
256,192,60058,1,0,0:0:0:0:
256,192,60144,1,0,0:0:0:0:
256,192,60230,1,8,0:0:0:0:
256,192,60401,1,0,0:0:0:0:
256,192,60487,1,0,0:0:0:0:
256,192,60573,1,8,0:0:0:0:
256,192,60658,1,8,0:0:0:0:
256,192,60744,1,0,0:0:0:0:
256,192,60916,1,8,0:0:0:0:
256,192,61258,1,4,0:0:0:0:
256,192,61601,1,8,0:0:0:0:
256,192,61772,1,4,0:0:0:0:
256,192,61944,1,4,0:0:0:0:
256,192,62115,1,0,0:0:0:0:
256,192,62287,1,8,0:0:0:0:
256,192,62629,1,4,0:0:0:0:
256,192,62972,1,8,0:0:0:0:
256,192,63144,1,12,0:0:0:0:
256,192,63315,1,12,0:0:0:0:
256,192,63487,1,0,0:0:0:0:
256,192,63658,1,8,0:0:0:0:
256,192,64001,1,0,0:0:0:0:
256,192,64087,1,0,0:0:0:0:
256,192,64173,1,0,0:0:0:0:
256,192,64258,1,0,0:0:0:0:
256,192,64344,1,8,0:0:0:0:
256,192,64430,1,0,0:0:0:0:
256,192,64516,1,0,0:0:0:0:
256,192,64687,1,8,0:0:0:0:
256,192,64773,1,8,0:0:0:0:
256,192,64858,1,0,0:0:0:0:
256,192,64944,1,0,0:0:0:0:
256,192,65030,1,8,0:0:0:0:
256,192,65116,1,8,0:0:0:0:
256,192,65201,1,0,0:0:0:0:
256,192,65373,1,8,0:0:0:0:
256,192,65458,1,8,0:0:0:0:
256,192,65544,1,8,0:0:0:0:
256,192,65630,1,0,0:0:0:0:
256,192,65716,1,0,0:0:0:0:
256,192,65801,1,0,0:0:0:0:
256,192,65887,1,8,0:0:0:0:
256,192,66058,1,0,0:0:0:0:
256,192,66144,1,0,0:0:0:0:
256,192,66230,1,0,0:0:0:0:
256,192,66316,1,0,0:0:0:0:
256,192,66401,1,8,0:0:0:0:
256,160,66487,1,8,0:0:0:0:
256,192,66573,1,8,0:0:0:0:
256,192,66658,1,8,0:0:0:0:
256,192,66744,1,4,0:0:0:0:
256,192,66916,1,0,0:0:0:0:
256,192,67087,1,8,0:0:0:0:
256,192,67430,1,8,0:0:0:0:
256,192,67601,1,0,0:0:0:0:
256,192,67773,1,8,0:0:0:0:
256,192,67944,1,0,0:0:0:0:
256,192,68116,1,0,0:0:0:0:
256,192,68458,1,8,0:0:0:0:
256,192,68630,1,0,0:0:0:0:
256,192,68801,1,8,0:0:0:0:
256,192,68973,1,0,0:0:0:0:
256,192,69144,1,8,0:0:0:0:
256,192,69316,1,0,0:0:0:0:
256,192,69487,1,0,0:0:0:0:
256,192,69658,1,0,0:0:0:0:
256,192,69829,1,8,0:0:0:0:
256,192,70001,1,0,0:0:0:0:
256,192,70173,1,8,0:0:0:0:
256,192,70344,1,0,0:0:0:0:
256,192,70515,1,8,0:0:0:0:
256,192,70687,1,0,0:0:0:0:
256,192,70858,1,0,0:0:0:0:
256,192,71200,1,8,0:0:0:0:
224,192,71373,1,0,0:0:0:0:
224,192,71544,1,8,0:0:0:0:
256,192,71715,1,0,0:0:0:0:
256,192,71886,1,8,0:0:0:0:
256,192,72058,1,0,0:0:0:0:
256,192,72230,1,4,0:0:0:0:
256,192,72401,1,0,0:0:0:0:
256,192,72572,1,8,0:0:0:0:
256,192,72744,1,0,0:0:0:0:
256,192,72916,1,8,0:0:0:0:
256,192,73087,1,0,0:0:0:0:
256,192,73258,1,8,0:0:0:0:
256,192,73430,1,8,0:0:0:0:
256,192,73601,1,0,0:0:0:0:
256,192,73687,1,0,0:0:0:0:
256,192,73773,1,0,0:0:0:0:
256,192,73943,1,8,0:0:0:0:
256,192,74116,1,0,0:0:0:0:
256,192,74287,1,8,0:0:0:0:
256,192,74458,1,0,0:0:0:0:
256,192,74629,1,8,0:0:0:0:
256,192,74801,1,8,0:0:0:0:
256,192,74973,1,0,0:0:0:0:
256,192,75144,1,0,0:0:0:0:
256,192,75315,1,8,0:0:0:0:
256,192,75487,1,0,0:0:0:0:
256,192,75658,1,8,0:0:0:0:
256,192,75830,1,0,0:0:0:0:
256,192,76001,1,8,0:0:0:0:
256,192,76173,1,8,0:0:0:0:
256,192,76344,1,4,0:0:0:0:
256,192,76516,1,0,0:0:0:0:
256,192,76687,1,8,0:0:0:0:
256,192,76858,1,0,0:0:0:0:
256,192,77030,1,8,0:0:0:0:
256,192,77201,1,0,0:0:0:0:
256,192,77373,1,8,0:0:0:0:
256,192,77544,1,8,0:0:0:0:
256,192,77601,1,8,0:0:0:0:
256,192,77658,1,0,0:0:0:0:
256,192,77716,1,0,0:0:0:0:
256,192,77887,1,0,0:0:0:0:
256,192,78058,1,8,0:0:0:0:
256,192,78230,1,0,0:0:0:0:
256,192,78401,1,0,0:0:0:0:
256,192,78573,1,0,0:0:0:0:
256,192,78744,1,8,0:0:0:0:
256,192,78916,1,0,0:0:0:0:
256,192,79001,1,8,0:0:0:0:
256,192,79087,1,0,0:0:0:0:
256,192,79258,1,0,0:0:0:0:
256,192,79430,1,8,0:0:0:0:
256,192,79601,1,8,0:0:0:0:
256,192,79773,1,8,0:0:0:0:
256,192,79944,1,0,0:0:0:0:
256,192,80116,1,8,0:0:0:0:
256,192,80287,1,8,0:0:0:0:
256,192,80373,1,0,0:0:0:0:
256,192,80458,1,8,0:0:0:0:
256,192,80630,1,0,0:0:0:0:
256,192,80801,1,8,0:0:0:0:
256,192,80973,1,0,0:0:0:0:
256,192,81144,1,8,0:0:0:0:
256,192,81316,1,0,0:0:0:0:
256,192,81487,1,8,0:0:0:0:
256,192,81658,1,0,0:0:0:0:
256,192,81744,1,8,0:0:0:0:
256,192,81830,1,0,0:0:0:0:
256,192,82001,1,0,0:0:0:0:
256,192,82173,1,8,0:0:0:0:
256,192,82344,1,0,0:0:0:0:
256,192,82430,1,8,0:0:0:0:
256,192,82516,1,0,0:0:0:0:
256,192,82687,1,0,0:0:0:0:
256,192,82858,1,8,0:0:0:0:
256,192,83030,1,0,0:0:0:0:
256,192,83116,1,0,0:0:0:0:
256,192,83201,1,8,0:0:0:0:
256,192,83373,1,0,0:0:0:0:
256,192,83544,1,8,0:0:0:0:
256,192,83716,1,0,0:0:0:0:
256,192,83887,1,0,0:0:0:0:
256,192,83973,1,0,0:0:0:0:
256,192,84058,1,0,0:0:0:0:
256,192,84230,1,8,0:0:0:0:
256,192,84401,1,0,0:0:0:0:
256,192,84573,1,0,0:0:0:0:
256,192,84744,1,8,0:0:0:0:
256,192,84916,1,8,0:0:0:0:
256,192,85087,1,8,0:0:0:0:
256,192,85258,1,8,0:0:0:0:
256,192,85344,1,0,0:0:0:0:
256,192,85430,1,0,0:0:0:0:
256,192,85601,1,8,0:0:0:0:
256,192,85773,1,8,0:0:0:0:
256,192,85944,1,0,0:0:0:0:
256,192,86116,1,8,0:0:0:0:
256,192,86287,1,8,0:0:0:0:
256,192,86458,1,8,0:0:0:0:
256,192,86630,1,8,0:0:0:0:
256,192,86716,1,0,0:0:0:0:
256,192,86801,1,0,0:0:0:0:
256,192,86973,1,8,0:0:0:0:
256,192,87144,1,0,0:0:0:0:
256,192,87316,1,0,0:0:0:0:
256,192,87430,1,0,0:0:0:0:
256,192,87544,1,8,0:0:0:0:
256,192,87658,1,0,0:0:0:0:
256,192,87773,1,8,0:0:0:0:
256,192,87887,1,0,0:0:0:0:
256,192,88001,1,12,0:0:0:0:
256,192,88258,1,12,0:0:0:0:
256,192,88516,1,12,0:0:0:0:
256,192,88687,5,4,0:0:0:0:
256,192,89030,1,8,0:0:0:0:
256,192,89201,1,0,0:0:0:0:
256,192,89373,1,8,0:0:0:0:
256,192,89544,1,0,0:0:0:0:
256,192,89716,1,8,0:0:0:0:
256,192,89887,1,0,0:0:0:0:
256,192,90058,1,0,0:0:0:0:
256,192,90401,1,8,0:0:0:0:
256,192,90573,1,0,0:0:0:0:
256,192,90744,1,8,0:0:0:0:
256,192,90916,1,0,0:0:0:0:
256,192,91087,1,8,0:0:0:0:
256,192,91258,1,0,0:0:0:0:
256,192,91430,1,0,0:0:0:0:
256,192,91773,1,8,0:0:0:0:
256,192,91944,1,0,0:0:0:0:
256,192,92116,1,8,0:0:0:0:
256,192,92287,1,0,0:0:0:0:
256,192,92458,1,8,0:0:0:0:
256,192,92630,1,8,0:0:0:0:
256,192,92801,1,0,0:0:0:0:
256,192,92973,1,0,0:0:0:0:
256,192,93144,1,8,0:0:0:0:
256,192,93316,1,0,0:0:0:0:
256,192,93487,1,8,0:0:0:0:
256,192,93658,1,0,0:0:0:0:
256,192,93830,1,8,0:0:0:0:
256,192,94001,1,8,0:0:0:0:
256,192,94173,1,4,0:0:0:0:
256,192,94516,1,8,0:0:0:0:
256,192,94687,1,0,0:0:0:0:
256,160,94858,1,8,0:0:0:0:
256,160,95030,1,0,0:0:0:0:
256,160,95201,1,8,0:0:0:0:
256,160,95373,1,0,0:0:0:0:
256,160,95544,1,0,0:0:0:0:
256,160,95716,1,0,0:0:0:0:
256,160,95887,1,8,0:0:0:0:
256,160,96058,1,0,0:0:0:0:
256,160,96230,1,8,0:0:0:0:
256,160,96401,1,0,0:0:0:0:
256,160,96573,1,8,0:0:0:0:
256,160,96744,1,0,0:0:0:0:
256,192,96916,1,0,0:0:0:0:
256,192,97001,1,0,0:0:0:0:
256,192,97087,1,0,0:0:0:0:
256,192,97259,1,8,0:0:0:0:
256,192,97430,1,0,0:0:0:0:
256,192,97602,1,8,0:0:0:0:
256,192,97773,1,0,0:0:0:0:
256,192,97944,1,8,0:0:0:0:
256,192,98116,1,8,0:0:0:0:
256,192,98287,1,4,0:0:0:0:
224,192,98544,1,0,0:0:0:0:
224,192,98630,1,8,0:0:0:0:
256,192,98801,1,4,0:0:0:0:
224,192,98973,1,8,0:0:0:0:
224,192,99058,1,8,0:0:0:0:
224,192,99144,1,0,0:0:0:0:
224,192,99316,1,8,0:0:0:0:
224,192,99487,1,0,0:0:0:0:
224,192,99544,1,0,0:0:0:0:
224,192,99601,1,0,0:0:0:0:
224,192,99658,1,0,0:0:0:0:
224,192,99830,1,0,0:0:0:0:
224,192,100001,1,8,0:0:0:0:
224,192,100173,1,0,0:0:0:0:
224,192,100258,1,0,0:0:0:0:
224,192,100344,1,8,0:0:0:0:
224,192,100516,1,0,0:0:0:0:
224,192,100687,1,8,0:0:0:0:
224,192,100773,1,8,0:0:0:0:
224,192,100858,1,0,0:0:0:0:
224,192,101030,1,0,0:0:0:0:
224,192,101201,1,0,0:0:0:0:
224,192,101373,1,8,0:0:0:0:
224,192,101544,1,0,0:0:0:0:
224,192,101630,1,0,0:0:0:0:
224,192,101716,1,8,0:0:0:0:
224,192,101887,1,0,0:0:0:0:
224,192,102058,1,8,0:0:0:0:
224,192,102144,1,8,0:0:0:0:
224,192,102230,1,0,0:0:0:0:
224,192,102316,1,0,0:0:0:0:
224,192,102401,1,8,0:0:0:0:
224,192,102573,1,0,0:0:0:0:
224,192,102744,1,8,0:0:0:0:
224,192,102830,1,8,0:0:0:0:
224,192,102916,1,0,0:0:0:0:
224,192,103087,1,0,0:0:0:0:
224,192,103258,1,0,0:0:0:0:
224,192,103430,1,8,0:0:0:0:
224,192,103516,1,8,0:0:0:0:
224,192,103601,1,0,0:0:0:0:
224,192,103773,1,0,0:0:0:0:
224,192,103944,1,0,0:0:0:0:
224,192,104116,1,8,0:0:0:0:
224,192,104201,1,0,0:0:0:0:
224,192,104287,1,0,0:0:0:0:
224,192,104458,1,0,0:0:0:0:
224,192,104629,1,0,0:0:0:0:
224,192,104801,1,8,0:0:0:0:
224,192,104886,1,0,0:0:0:0:
224,192,104972,1,0,0:0:0:0:
224,192,105144,1,4,0:0:0:0:
224,192,105316,1,0,0:0:0:0:
224,192,105487,1,8,0:0:0:0:
224,192,105658,1,0,0:0:0:0:
224,192,105830,1,8,0:0:0:0:
224,192,105887,1,8,0:0:0:0:
224,192,105944,1,0,0:0:0:0:
224,192,106001,1,0,0:0:0:0:
224,192,106087,1,8,0:0:0:0:
224,192,106173,1,0,0:0:0:0:
224,192,106258,1,0,0:0:0:0:
224,192,106344,1,8,0:0:0:0:
224,192,106516,1,12,0:0:0:0:
224,192,106687,1,0,0:0:0:0:
224,192,106858,1,8,0:0:0:0:
224,192,107030,1,0,0:0:0:0:
224,192,107201,1,8,0:0:0:0:
224,192,107258,1,0,0:0:0:0:
224,192,107316,1,0,0:0:0:0:
224,192,107373,1,8,0:0:0:0:
224,192,107458,1,8,0:0:0:0:
224,192,107544,1,0,0:0:0:0:
224,160,107630,1,8,0:0:0:0:
224,160,107716,1,0,0:0:0:0:
224,192,107887,1,4,0:0:0:0:
224,192,108058,1,0,0:0:0:0:
224,192,108230,1,8,0:0:0:0:
224,192,108401,1,0,0:0:0:0:
224,192,108573,1,12,0:0:0:0:
256,192,108830,1,4,0:0:0:0:
256,192,109087,1,12,0:0:0:0:
256,192,109258,1,12,0:0:0:0:
256,192,109430,1,0,0:0:0:0:
256,192,109601,1,8,0:0:0:0:
256,192,109773,1,0,0:0:0:0:
256,192,109944,1,8,0:0:0:0:
256,192,110030,1,8,0:0:0:0:
256,192,110116,1,0,0:0:0:0:
256,192,110201,1,0,0:0:0:0:
256,192,110287,1,8,0:0:0:0:
256,192,110458,1,0,0:0:0:0:
256,192,110630,5,4,0:0:0:0:
256,192,110973,1,0,0:0:0:0:
256,192,111144,1,0,0:0:0:0:
256,192,111316,1,8,0:0:0:0:
256,192,111487,1,0,0:0:0:0:
256,192,111658,1,8,0:0:0:0:
256,192,111830,1,0,0:0:0:0:
256,192,112001,1,0,0:0:0:0:
256,192,112088,1,0,0:0:0:0:
256,192,112173,1,0,0:0:0:0:
256,192,112345,1,0,0:0:0:0:
256,192,112516,1,0,0:0:0:0:
256,192,112688,1,8,0:0:0:0:
256,192,112859,1,0,0:0:0:0:
256,192,113030,1,8,0:0:0:0:
256,192,113202,1,0,0:0:0:0:
256,192,113373,1,0,0:0:0:0:
256,192,113545,1,8,0:0:0:0:
256,192,113716,1,0,0:0:0:0:
256,192,113887,1,0,0:0:0:0:
256,192,114059,1,8,0:0:0:0:
256,192,114230,1,0,0:0:0:0:
256,192,114402,1,8,0:0:0:0:
256,192,114573,1,8,0:0:0:0:
256,192,114745,1,0,0:0:0:0:
256,192,114831,1,0,0:0:0:0:
256,192,114916,1,0,0:0:0:0:
256,192,115088,1,0,0:0:0:0:
256,192,115259,1,0,0:0:0:0:
256,192,115431,5,8,0:0:0:0:
256,192,115602,1,0,0:0:0:0:
256,192,115774,1,8,0:0:0:0:
256,192,115945,1,8,0:0:0:0:
256,192,116116,1,0,0:0:0:0:
256,192,116458,1,0,0:0:0:0:
256,192,116629,1,0,0:0:0:0:
256,192,116801,1,8,0:0:0:0:
256,192,116972,1,0,0:0:0:0:
256,192,117143,1,8,0:0:0:0:
256,192,117315,1,0,0:0:0:0:
256,192,117486,1,0,0:0:0:0:
256,192,117830,1,0,0:0:0:0:
256,192,118001,1,0,0:0:0:0:
256,192,118173,1,8,0:0:0:0:
256,192,118344,1,0,0:0:0:0:
256,192,118515,1,8,0:0:0:0:
256,192,118687,1,0,0:0:0:0:
256,192,118858,1,0,0:0:0:0:
256,192,119201,1,0,0:0:0:0:
256,192,119372,1,0,0:0:0:0:
256,192,119544,1,8,0:0:0:0:
256,192,119715,1,0,0:0:0:0:
256,192,119887,1,8,0:0:0:0:
256,192,120058,1,8,0:0:0:0:
256,192,120230,1,0,0:0:0:0:
256,192,120573,1,0,0:0:0:0:
256,192,120744,1,0,0:0:0:0:
256,192,120916,1,8,0:0:0:0:
256,192,121087,1,0,0:0:0:0:
256,192,121259,1,8,0:0:0:0:
256,192,121430,1,8,0:0:0:0:
256,192,121601,5,4,0:0:0:0:
256,192,121944,1,0,0:0:0:0:
256,192,122287,1,8,0:0:0:0:
256,192,122630,1,0,0:0:0:0:
256,192,122802,1,8,0:0:0:0:
256,192,124002,1,8,0:0:0:0:
256,192,124344,1,8,0:0:0:0:
288,224,124859,1,8,0:0:0:0:
256,192,125373,1,0,0:0:0:0:
256,160,125716,1,0,0:0:0:0:
256,160,125802,1,8,0:0:0:0:
256,160,125887,1,0,0:0:0:0:
256,160,126230,1,0,0:0:0:0:
256,160,126402,1,8,0:0:0:0:
256,160,126573,1,0,0:0:0:0:
256,160,126659,1,8,0:0:0:0:
256,160,126744,1,8,0:0:0:0:
256,160,126916,1,8,0:0:0:0:
256,160,127087,1,4,0:0:0:0:
256,192,127430,1,0,0:0:0:0:
256,192,127773,1,8,0:0:0:0:
256,192,128116,1,0,0:0:0:0:
256,192,128288,1,8,0:0:0:0:
256,192,129487,1,8,0:0:0:0:
256,192,129830,1,8,0:0:0:0:
288,224,130345,1,8,0:0:0:0:
256,192,130859,1,0,0:0:0:0:
256,192,131202,1,8,0:0:0:0:
256,192,131544,1,0,0:0:0:0:
224,192,131716,1,8,0:0:0:0:
224,192,131887,1,0,0:0:0:0:
224,192,131973,1,8,0:0:0:0:
224,192,132059,1,0,0:0:0:0:
224,192,132230,1,8,0:0:0:0:
256,160,132573,1,12,0:0:0:0:
256,192,132916,1,0,0:0:0:0:
256,192,133259,1,8,0:0:0:0:
256,192,133602,1,0,0:0:0:0:
256,192,133774,1,8,0:0:0:0:
256,192,134973,1,8,0:0:0:0:
256,192,135315,1,8,0:0:0:0:
288,224,135830,1,8,0:0:0:0:
256,192,136344,1,0,0:0:0:0:
256,192,136687,1,0,0:0:0:0:
256,160,136773,1,8,0:0:0:0:
256,160,136859,1,0,0:0:0:0:
288,192,137202,1,0,0:0:0:0:
288,192,137373,1,8,0:0:0:0:
288,192,137544,1,0,0:0:0:0:
288,192,137630,1,8,0:0:0:0:
288,192,137716,1,8,0:0:0:0:
320,192,137887,1,0,0:0:0:0:
320,192,138059,1,4,0:0:0:0:
256,192,138402,1,0,0:0:0:0:
256,192,138744,1,8,0:0:0:0:
256,192,139087,1,0,0:0:0:0:
256,192,139259,1,8,0:0:0:0:
256,192,140459,1,8,0:0:0:0:
256,192,140802,1,8,0:0:0:0:
256,192,141316,1,8,0:0:0:0:
256,192,141830,1,0,0:0:0:0:
256,192,142173,1,8,0:0:0:0:
256,192,142516,1,0,0:0:0:0:
256,192,142687,1,8,0:0:0:0:
256,192,142859,1,0,0:0:0:0:
256,192,142944,1,0,0:0:0:0:
256,192,143030,1,8,0:0:0:0:
256,192,143116,1,0,0:0:0:0:
256,192,143202,1,8,0:0:0:0:
256,224,143544,1,4,0:0:0:0:
256,192,143716,1,8,0:0:0:0:
256,192,144058,1,12,0:0:0:0:
256,192,144916,1,12,0:0:0:0:
256,192,145086,1,8,0:0:0:0:
256,224,145429,1,4,0:0:0:0:
256,192,146286,1,4,0:0:0:0:
256,192,146458,1,8,0:0:0:0:
256,224,146801,1,4,0:0:0:0:
256,192,147658,1,4,0:0:0:0:
256,192,147829,1,8,0:0:0:0:
256,224,148172,1,4,0:0:0:0:
256,192,149030,1,4,0:0:0:0:
256,192,149201,1,8,0:0:0:0:
256,224,149543,1,4,0:0:0:0:
256,192,149716,1,4,0:0:0:0:
256,192,150058,1,4,0:0:0:0:
256,192,150401,1,4,0:0:0:0:
256,192,150573,1,8,0:0:0:0:
256,224,150916,1,4,0:0:0:0:
256,192,151087,1,4,0:0:0:0:
256,192,151258,1,8,0:0:0:0:
256,192,151430,1,4,0:0:0:0:
256,192,151772,1,4,0:0:0:0:
256,192,151944,1,8,0:0:0:0:
256,192,152116,1,8,0:0:0:0:
256,192,152287,1,0,0:0:0:0:
256,192,152458,1,8,0:0:0:0:
256,192,152544,1,8,0:0:0:0:
224,192,152630,1,8,0:0:0:0:
224,192,152716,1,8,0:0:0:0:
224,192,152801,1,0,0:0:0:0:
224,192,152887,1,0,0:0:0:0:
224,192,152973,1,0,0:0:0:0:
224,192,153058,1,0,0:0:0:0:
256,192,153144,1,12,0:0:0:0:
224,192,154344,1,8,0:0:0:0:
224,192,154516,1,4,0:0:0:0:
