osu file format v14

[General]
AudioFilename: audio.mp3
AudioLeadIn: 0
PreviewTime: 43430
Countdown: 0
SampleSet: Normal
StackLeniency: 0.7
Mode: 1
LetterboxInBreaks: 0
WidescreenStoryboard: 0

[Editor]
Bookmarks: 11887,22858,33830,55773,72230,76344,87316,88001,94173,98716,105144,127087,138058,143544,149030
DistanceSpacing: 0.6
BeatDivisor: 4
GridSize: 16
TimelineZoom: 3.199999

[Metadata]
Title:Tokyo (Innovaderz Remix)
TitleUnicode:Tokyo (Innovaderz Remix)
Artist:DJ Ozawa
ArtistUnicode:DJ Ozawa
Creator:Ascendance
Version:Raiden's Ura Oni
Source:
Tags:dnb lanturn mbomb -_magic_bomb_- magic bomb californian darknessofblue fii -wwwww kaitlin zirox sorcerer tomthewizard toybot Yumeno Himiko exam examination gero tenshichan [superstar] hi_hello CLSW crystal crystalseed tasuke912 boberofdarkness bodom koliron deif spectator qoot8123 julie prophecy nofool skylish onosakihito ozzyozrock nardo nardoxyribonucleic raiden nwolf backfire chromoxx saika -saika- lop fawx
BeatmapID:938529
BeatmapSetID:427801

[Difficulty]
HPDrainRate:6
CircleSize:2
OverallDifficulty:6.4
ApproachRate:10
SliderMultiplier:1.4
SliderTickRate:1

[Events]
//Background and Video events
0,0,"Cities_Color_of_the_night_city_058372_.jpg",0,0
//Break Periods
//Storyboard Layer 0 (Background)
//Storyboard Layer 1 (Fail)
//Storyboard Layer 2 (Pass)
//Storyboard Layer 3 (Foreground)
//Storyboard Sound Samples

[TimingPoints]
916,342.857142857143,4,1,0,80,1,0
44801,-100,4,1,0,80,0,1
66744,-100,4,1,0,90,0,0
98201,-90.9090909090909,4,1,0,90,0,0
99658,-90.9090909090909,4,1,0,80,0,1
110630,-100,4,1,0,80,0,0
110716,-100,4,1,0,10,0,0
121344,-133.333333333333,4,1,0,70,0,0
143458,-117.647058823529,4,1,0,80,0,0
148944,-105.263157894737,4,1,0,80,0,0
150316,-103.092783505155,4,1,0,80,0,0
151687,-100,4,1,0,80,0,0
154516,-100,4,1,0,80,0,0
156316,-100,4,1,0,60,0,0
156444,-100,4,1,0,55,0,0
156530,-100,4,1,0,50,0,0
156616,-100,4,1,0,45,0,0
156701,-100,4,1,0,40,0,0
156787,-100,4,1,0,35,0,0
156873,-100,4,1,0,30,0,0
156958,-100,4,1,0,25,0,0
157044,-100,4,1,0,20,0,0
157130,-100,4,1,0,15,0,0
157216,-100,4,1,0,10,0,0

[HitObjects]
138,85,744,5,0,0:0:0:0:
184,283,915,1,4,0:0:0:0:
381,241,1258,1,8,0:0:0:0:
424,289,1601,1,8,0:0:0:0:
424,289,1944,1,8,0:0:0:0:
424,289,2116,1,8,0:0:0:0:
408,286,3316,1,8,0:0:0:0:
408,286,3658,1,8,0:0:0:0:
401,283,4173,1,8,0:0:0:0:
401,283,4344,1,8,0:0:0:0:
400,283,4601,1,8,0:0:0:0:
401,283,4687,1,8,0:0:0:0:
401,283,5030,1,8,0:0:0:0:
401,283,5116,1,8,0:0:0:0:
401,283,5201,1,8,0:0:0:0:
400,283,5544,1,8,0:0:0:0:
401,283,5716,1,8,0:0:0:0:
401,283,5887,1,8,0:0:0:0:
401,283,5973,1,8,0:0:0:0:
401,283,6058,1,8,0:0:0:0:
389,278,6230,1,8,0:0:0:0:
414,296,6401,5,8,0:0:0:0:
414,296,6916,1,8,0:0:0:0:
414,296,7430,1,8,0:0:0:0:
414,296,7601,1,8,0:0:0:0:
414,296,7773,1,8,0:0:0:0:
404,296,8801,1,8,0:0:0:0:
404,296,9144,1,8,0:0:0:0:
404,296,9658,1,8,0:0:0:0:
404,296,9830,1,8,0:0:0:0:
404,296,10173,1,8,0:0:0:0:
404,296,10516,1,8,0:0:0:0:
396,281,10858,1,8,0:0:0:0:
396,281,11030,1,8,0:0:0:0:
383,276,11287,1,8,0:0:0:0:
383,276,11373,1,8,0:0:0:0:
378,272,11544,1,8,0:0:0:0:
357,262,11887,5,8,0:0:0:0:
361,244,12401,1,8,0:0:0:0:
353,250,12916,1,8,0:0:0:0:
353,250,13087,1,8,0:0:0:0:
353,250,13258,1,8,0:0:0:0:
353,250,14287,1,8,0:0:0:0:
353,250,14630,1,8,0:0:0:0:
353,250,15144,1,8,0:0:0:0:
353,250,15316,1,8,0:0:0:0:
353,250,15573,1,8,0:0:0:0:
353,250,15658,1,8,0:0:0:0:
353,250,16001,1,8,0:0:0:0:
353,250,16087,1,8,0:0:0:0:
353,250,16173,1,8,0:0:0:0:
353,250,16516,1,8,0:0:0:0:
353,250,16687,1,8,0:0:0:0:
353,250,16858,1,8,0:0:0:0:
353,250,16944,1,8,0:0:0:0:
353,250,17201,1,8,0:0:0:0:
353,250,17373,1,8,0:0:0:0:
353,250,17716,1,8,0:0:0:0:
353,250,17887,1,8,0:0:0:0:
360,239,18401,1,8,0:0:0:0:
360,239,18573,1,8,0:0:0:0:
360,239,18744,1,8,0:0:0:0:
360,239,19773,1,8,0:0:0:0:
360,239,20116,1,8,0:0:0:0:
333,221,20630,1,8,0:0:0:0:
333,221,20801,1,8,0:0:0:0:
373,244,21144,1,8,0:0:0:0:
373,244,21487,1,8,0:0:0:0:
321,252,21830,1,8,0:0:0:0:
398,251,22001,1,8,0:0:0:0:
393,247,22258,1,8,0:0:0:0:
393,247,22344,1,8,0:0:0:0:
393,247,22430,1,8,0:0:0:0:
393,247,22516,1,8,0:0:0:0:
132,256,22858,5,4,0:0:0:0:
353,255,23201,1,8,0:0:0:0:
94,70,23373,1,0,0:0:0:0:
321,236,23544,1,8,0:0:0:0:
318,229,23716,1,8,0:0:0:0:
94,70,23887,1,0,0:0:0:0:
300,237,24058,1,8,0:0:0:0:
94,70,24230,1,0,0:0:0:0:
364,237,24401,1,8,0:0:0:0:
143,87,24573,1,0,0:0:0:0:
143,87,24744,1,0,0:0:0:0:
409,252,24916,1,8,0:0:0:0:
353,242,25173,1,8,0:0:0:0:
353,242,25258,1,8,0:0:0:0:
368,247,25430,1,8,0:0:0:0:
135,70,25601,1,0,0:0:0:0:
411,276,25773,1,8,0:0:0:0:
113,83,25944,1,0,0:0:0:0:
113,83,26116,1,0,0:0:0:0:
392,288,26287,1,8,0:0:0:0:
159,118,26458,1,0,0:0:0:0:
436,329,26544,1,8,0:0:0:0:
159,118,26630,1,0,0:0:0:0:
389,302,26801,1,8,0:0:0:0:
113,83,26973,1,0,0:0:0:0:
380,274,27144,1,8,0:0:0:0:
134,110,27487,1,0,0:0:0:0:
397,289,27658,1,8,0:0:0:0:
367,273,27916,1,8,0:0:0:0:
367,273,28001,1,8,0:0:0:0:
373,255,28173,1,8,0:0:0:0:
126,85,28258,1,0,0:0:0:0:
373,255,28344,1,8,0:0:0:0:
134,110,28516,1,0,0:0:0:0:
135,104,28687,1,0,0:0:0:0:
380,270,28858,1,8,0:0:0:0:
380,270,29030,1,8,0:0:0:0:
342,233,29201,1,8,0:0:0:0:
342,233,29287,1,8,0:0:0:0:
342,233,29373,1,8,0:0:0:0:
124,115,29544,1,0,0:0:0:0:
396,303,29716,1,8,0:0:0:0:
307,265,29887,1,8,0:0:0:0:
307,265,30230,1,8,0:0:0:0:
307,265,30401,1,8,0:0:0:0:
307,265,30658,1,8,0:0:0:0:
307,265,30744,1,8,0:0:0:0:
293,254,30916,1,8,0:0:0:0:
134,148,31087,1,0,0:0:0:0:
103,123,31258,1,0,0:0:0:0:
87,118,31430,1,0,0:0:0:0:
316,291,31601,1,8,0:0:0:0:
106,150,31773,1,0,0:0:0:0:
106,150,31944,1,0,0:0:0:0:
331,305,32030,1,8,0:0:0:0:
89,139,32116,1,0,0:0:0:0:
89,139,32201,1,0,0:0:0:0:
394,325,32287,1,8,0:0:0:0:
349,325,32373,1,8,0:0:0:0:
394,316,32458,1,8,0:0:0:0:
376,297,32630,1,8,0:0:0:0:
376,297,32973,1,8,0:0:0:0:
376,297,33144,1,8,0:0:0:0:
349,277,33401,1,8,0:0:0:0:
349,274,33487,1,8,0:0:0:0:
349,274,33573,1,8,0:0:0:0:
349,274,33658,1,8,0:0:0:0:
118,259,33830,5,4,0:0:0:0:
347,268,34001,1,8,0:0:0:0:
363,267,34087,1,8,0:0:0:0:
120,76,34173,1,0,0:0:0:0:
338,122,34344,1,12,0:0:0:0:
338,122,34516,1,12,0:0:0:0:
120,76,34687,1,0,0:0:0:0:
364,284,34858,1,8,0:0:0:0:
349,261,34944,1,8,0:0:0:0:
364,279,35030,1,8,0:0:0:0:
338,122,35201,1,12,0:0:0:0:
109,87,35373,1,0,0:0:0:0:
109,87,35544,1,0,0:0:0:0:
338,122,35716,1,12,0:0:0:0:
338,122,35887,1,12,0:0:0:0:
109,87,36058,1,0,0:0:0:0:
109,87,36144,1,0,0:0:0:0:
374,282,36230,1,8,0:0:0:0:
88,63,36401,1,0,0:0:0:0:
338,122,36573,1,12,0:0:0:0:
356,268,36744,1,8,0:0:0:0:
347,245,36830,1,8,0:0:0:0:
63,86,36916,1,0,0:0:0:0:
338,122,37087,1,12,0:0:0:0:
338,122,37258,1,12,0:0:0:0:
63,86,37430,1,0,0:0:0:0:
361,259,37516,1,8,0:0:0:0:
65,78,37601,1,0,0:0:0:0:
64,78,37687,1,0,0:0:0:0:
318,256,37773,1,8,0:0:0:0:
338,122,37944,1,12,0:0:0:0:
350,265,38116,1,8,0:0:0:0:
83,95,38201,1,0,0:0:0:0:
36,86,38287,1,0,0:0:0:0:
338,122,38458,1,12,0:0:0:0:
338,122,38630,1,12,0:0:0:0:
76,87,38801,1,0,0:0:0:0:
106,125,38887,1,0,0:0:0:0:
106,125,38973,1,0,0:0:0:0:
106,125,39058,1,0,0:0:0:0:
356,290,39144,1,8,0:0:0:0:
338,122,39316,1,12,0:0:0:0:
113,134,39487,1,0,0:0:0:0:
117,135,39573,1,0,0:0:0:0:
322,256,39658,1,8,0:0:0:0:
338,122,39830,1,12,0:0:0:0:
338,122,40001,1,12,0:0:0:0:
87,96,40173,1,0,0:0:0:0:
338,122,40344,1,12,0:0:0:0:
87,96,40516,1,0,0:0:0:0:
338,122,40687,1,12,0:0:0:0:
87,96,40858,1,0,0:0:0:0:
87,96,40944,1,0,0:0:0:0:
87,96,41030,1,0,0:0:0:0:
338,122,41201,1,12,0:0:0:0:
338,122,41373,1,12,0:0:0:0:
95,97,41544,1,0,0:0:0:0:
338,122,41716,1,12,0:0:0:0:
109,95,41887,1,0,0:0:0:0:
398,292,42058,1,8,0:0:0:0:
86,125,42144,1,0,0:0:0:0:
70,127,42230,1,0,0:0:0:0:
69,126,42316,1,0,0:0:0:0:
384,294,42401,1,8,0:0:0:0:
99,108,42487,1,0,0:0:0:0:
387,291,42573,1,8,0:0:0:0:
123,95,42658,1,0,0:0:0:0:
378,278,42744,1,8,0:0:0:0:
353,275,42830,1,8,0:0:0:0:
99,108,42916,1,0,0:0:0:0:
99,108,43001,1,0,0:0:0:0:
397,279,43087,1,8,0:0:0:0:
395,250,43144,1,8,0:0:0:0:
395,250,43201,1,8,0:0:0:0:
395,250,43258,1,8,0:0:0:0:
395,250,43316,1,8,0:0:0:0:
395,250,43373,1,8,0:0:0:0:
110,110,43430,1,0,0:0:0:0:
371,256,44630,1,8,0:0:0:0:
100,250,44801,5,4,0:0:0:0:
111,110,44973,1,0,0:0:0:0:
350,247,45144,1,8,0:0:0:0:
137,124,45316,1,0,0:0:0:0:
151,116,45401,1,0,0:0:0:0:
151,116,45487,1,0,0:0:0:0:
389,335,45573,1,8,0:0:0:0:
184,131,45658,1,0,0:0:0:0:
356,299,45830,1,8,0:0:0:0:
356,299,46001,1,8,0:0:0:0:
346,292,46087,1,8,0:0:0:0:
173,103,46173,1,0,0:0:0:0:
169,114,46344,1,0,0:0:0:0:
396,348,46516,1,8,0:0:0:0:
333,254,46687,1,8,0:0:0:0:
117,67,46773,1,0,0:0:0:0:
117,67,46858,1,0,0:0:0:0:
377,297,46944,1,8,0:0:0:0:
153,111,47030,1,0,0:0:0:0:
153,110,47116,1,0,0:0:0:0:
362,282,47201,1,8,0:0:0:0:
89,40,47287,1,0,0:0:0:0:
349,287,47373,1,8,0:0:0:0:
349,287,47458,1,8,0:0:0:0:
91,75,47544,1,0,0:0:0:0:
98,88,47716,1,0,0:0:0:0:
380,269,47887,1,8,0:0:0:0:
135,87,48058,1,0,0:0:0:0:
144,92,48144,1,0,0:0:0:0:
142,92,48230,1,0,0:0:0:0:
343,279,48316,1,8,0:0:0:0:
133,122,48401,1,0,0:0:0:0:
367,265,48573,1,8,0:0:0:0:
163,132,48744,1,0,0:0:0:0:
163,132,48830,1,0,0:0:0:0:
162,132,48916,1,0,0:0:0:0:
149,107,49087,1,0,0:0:0:0:
363,263,49258,1,8,0:0:0:0:
340,253,49430,1,8,0:0:0:0:
160,73,49516,1,0,0:0:0:0:
169,119,49601,1,0,0:0:0:0:
167,119,49687,1,0,0:0:0:0:
167,119,49858,1,0,0:0:0:0:
398,286,49944,1,8,0:0:0:0:
69,127,50030,1,0,0:0:0:0:
174,132,50116,1,0,0:0:0:0:
398,286,50201,1,8,0:0:0:0:
169,119,50287,1,0,0:0:0:0:
104,81,50458,1,0,0:0:0:0:
104,81,50544,1,0,0:0:0:0:
458,345,50630,1,8,0:0:0:0:
96,88,50801,1,0,0:0:0:0:
458,276,50973,1,8,0:0:0:0:
173,124,51058,1,0,0:0:0:0:
173,124,51144,1,0,0:0:0:0:
170,94,51230,1,0,0:0:0:0:
428,278,51316,1,8,0:0:0:0:
191,131,51401,1,0,0:0:0:0:
451,317,51487,1,8,0:0:0:0:
443,294,51573,1,8,0:0:0:0:
129,85,51658,1,0,0:0:0:0:
180,95,51830,1,0,0:0:0:0:
385,239,52001,1,8,0:0:0:0:
328,252,52173,1,8,0:0:0:0:
328,252,52258,1,8,0:0:0:0:
165,104,52344,1,0,0:0:0:0:
165,104,52430,1,0,0:0:0:0:
165,104,52516,1,0,0:0:0:0:
401,263,52601,1,8,0:0:0:0:
202,132,52687,1,0,0:0:0:0:
133,145,52773,1,0,0:0:0:0:
385,307,52858,1,8,0:0:0:0:
409,303,52944,1,8,0:0:0:0:
132,79,53030,1,0,0:0:0:0:
116,106,53201,1,0,0:0:0:0:
401,263,53373,1,8,0:0:0:0:
133,145,53544,1,0,0:0:0:0:
300,236,53630,1,8,0:0:0:0:
134,138,53716,1,0,0:0:0:0:
396,285,53801,1,8,0:0:0:0:
135,129,53887,1,0,0:0:0:0:
135,129,53973,1,0,0:0:0:0:
340,273,54058,1,8,0:0:0:0:
111,123,54144,1,0,0:0:0:0:
364,303,54230,1,8,0:0:0:0:
355,273,54401,1,8,0:0:0:0:
116,107,54573,1,0,0:0:0:0:
116,107,54658,1,0,0:0:0:0:
113,107,54744,1,0,0:0:0:0:
113,107,54830,1,0,0:0:0:0:
364,274,54916,1,8,0:0:0:0:
118,126,55087,1,0,0:0:0:0:
118,126,55173,1,0,0:0:0:0:
118,126,55258,1,0,0:0:0:0:
118,126,55344,1,0,0:0:0:0:
361,293,55430,1,8,0:0:0:0:
113,99,55601,1,0,0:0:0:0:
113,99,55658,1,0,0:0:0:0:
113,99,55716,1,0,0:0:0:0:
113,99,55773,1,0,0:0:0:0:
111,110,55944,1,0,0:0:0:0:
350,247,56115,1,8,0:0:0:0:
137,124,56287,1,0,0:0:0:0:
151,116,56372,1,0,0:0:0:0:
151,116,56458,1,0,0:0:0:0:
389,335,56544,1,8,0:0:0:0:
184,131,56629,1,0,0:0:0:0:
131,139,56716,1,0,0:0:0:0:
356,299,56801,1,8,0:0:0:0:
356,299,56972,1,8,0:0:0:0:
346,292,57058,1,8,0:0:0:0:
173,103,57144,1,0,0:0:0:0:
169,114,57315,1,0,0:0:0:0:
396,348,57487,1,8,0:0:0:0:
142,112,57573,1,0,0:0:0:0:
333,254,57658,1,8,0:0:0:0:
117,67,57744,1,0,0:0:0:0:
117,67,57829,1,0,0:0:0:0:
377,297,57915,1,8,0:0:0:0:
153,111,58001,1,0,0:0:0:0:
153,110,58087,1,0,0:0:0:0:
362,282,58172,1,8,0:0:0:0:
349,287,58344,1,8,0:0:0:0:
349,287,58429,1,8,0:0:0:0:
91,75,58515,1,0,0:0:0:0:
98,88,58687,1,0,0:0:0:0:
380,269,58858,1,8,0:0:0:0:
135,87,59029,1,0,0:0:0:0:
144,92,59115,1,0,0:0:0:0:
142,92,59201,1,0,0:0:0:0:
343,279,59287,1,8,0:0:0:0:
133,122,59372,1,0,0:0:0:0:
143,106,59458,1,0,0:0:0:0:
367,265,59544,1,8,0:0:0:0:
163,132,59715,1,0,0:0:0:0:
345,241,59801,1,8,0:0:0:0:
162,132,59887,1,0,0:0:0:0:
149,107,60058,1,0,0:0:0:0:
363,263,60229,1,8,0:0:0:0:
340,253,60401,1,8,0:0:0:0:
335,258,60487,1,8,0:0:0:0:
169,119,60572,1,0,0:0:0:0:
167,119,60658,1,0,0:0:0:0:
167,119,60829,1,0,0:0:0:0:
398,286,60915,1,8,0:0:0:0:
69,127,61001,1,0,0:0:0:0:
380,266,61087,1,8,0:0:0:0:
398,286,61172,1,8,0:0:0:0:
169,119,61258,1,0,0:0:0:0:
104,81,61429,1,0,0:0:0:0:
104,81,61515,1,0,0:0:0:0:
458,345,61601,1,8,0:0:0:0:
96,88,61772,1,0,0:0:0:0:
458,276,61944,1,8,0:0:0:0:
173,124,62029,1,0,0:0:0:0:
173,124,62115,1,0,0:0:0:0:
170,94,62201,1,0,0:0:0:0:
428,278,62287,1,8,0:0:0:0:
191,131,62372,1,0,0:0:0:0:
451,317,62458,1,8,0:0:0:0:
443,294,62544,1,8,0:0:0:0:
129,85,62629,1,0,0:0:0:0:
180,95,62801,1,0,0:0:0:0:
385,239,62972,1,8,0:0:0:0:
328,252,63144,1,8,0:0:0:0:
328,252,63229,1,8,0:0:0:0:
165,104,63315,1,0,0:0:0:0:
432,287,63401,1,8,0:0:0:0:
165,104,63487,1,0,0:0:0:0:
202,132,63658,1,0,0:0:0:0:
133,145,63744,1,0,0:0:0:0:
385,307,63829,1,8,0:0:0:0:
409,303,63915,1,8,0:0:0:0:
132,79,64001,1,0,0:0:0:0:
116,106,64172,1,0,0:0:0:0:
401,263,64344,1,8,0:0:0:0:
133,145,64515,1,0,0:0:0:0:
300,236,64601,1,8,0:0:0:0:
134,138,64687,1,0,0:0:0:0:
396,285,64772,1,8,0:0:0:0:
135,129,64858,1,0,0:0:0:0:
135,129,64944,1,0,0:0:0:0:
340,273,65029,1,8,0:0:0:0:
111,123,65115,1,0,0:0:0:0:
364,303,65201,1,8,0:0:0:0:
355,273,65372,1,8,0:0:0:0:
116,107,65544,1,0,0:0:0:0:
116,107,65629,1,0,0:0:0:0:
406,302,65715,1,8,0:0:0:0:
113,107,65801,1,0,0:0:0:0:
364,274,65887,1,8,0:0:0:0:
426,298,65973,1,8,0:0:0:0:
386,273,66058,1,8,0:0:0:0:
389,274,66144,1,8,0:0:0:0:
118,126,66229,1,0,0:0:0:0:
118,126,66315,1,0,0:0:0:0:
361,293,66401,1,8,0:0:0:0:
364,274,66487,1,8,0:0:0:0:
376,274,66573,1,8,0:0:0:0:
109,101,66658,1,0,0:0:0:0:
337,261,66744,1,8,0:0:0:0:
126,115,66916,1,0,0:0:0:0:
126,115,67001,1,0,0:0:0:0:
126,115,67087,1,0,0:0:0:0:
126,115,67258,1,0,0:0:0:0:
359,267,67430,1,8,0:0:0:0:
120,123,67601,1,0,0:0:0:0:
350,265,67773,1,8,0:0:0:0:
349,265,67858,1,8,0:0:0:0:
180,168,67944,1,0,0:0:0:0:
386,285,68030,1,8,0:0:0:0:
119,131,68116,1,0,0:0:0:0:
119,141,68287,1,0,0:0:0:0:
352,276,68458,1,8,0:0:0:0:
151,146,68630,1,0,0:0:0:0:
151,146,68716,1,0,0:0:0:0:
151,146,68801,1,0,0:0:0:0:
150,145,68973,1,0,0:0:0:0:
364,261,69144,1,8,0:0:0:0:
138,121,69230,1,0,0:0:0:0:
322,245,69316,1,8,0:0:0:0:
322,245,69401,1,8,0:0:0:0:
133,116,69487,1,0,0:0:0:0:
87,105,69658,1,0,0:0:0:0:
330,239,69830,1,8,0:0:0:0:
144,126,70001,1,0,0:0:0:0:
144,126,70087,1,0,0:0:0:0:
144,126,70173,1,0,0:0:0:0:
144,126,70344,1,0,0:0:0:0:
440,288,70516,1,8,0:0:0:0:
434,310,70601,1,8,0:0:0:0:
356,273,70687,1,8,0:0:0:0:
356,273,70773,1,8,0:0:0:0:
89,117,70858,1,0,0:0:0:0:
130,107,71030,1,0,0:0:0:0:
343,242,71201,1,8,0:0:0:0:
158,116,71373,1,0,0:0:0:0:
158,116,71458,1,0,0:0:0:0:
150,121,71544,1,0,0:0:0:0:
150,121,71716,1,0,0:0:0:0:
447,275,71887,1,8,0:0:0:0:
447,275,71973,1,8,0:0:0:0:
164,136,72058,1,0,0:0:0:0:
182,301,72230,5,4,0:0:0:0:
160,98,72401,1,0,0:0:0:0:
438,328,72573,1,8,0:0:0:0:
153,101,72744,1,0,0:0:0:0:
153,101,72830,1,0,0:0:0:0:
422,297,72916,1,8,0:0:0:0:
422,297,73001,1,8,0:0:0:0:
122,114,73087,1,0,0:0:0:0:
418,285,73173,1,8,0:0:0:0:
389,259,73258,1,8,0:0:0:0:
209,161,73344,1,0,0:0:0:0:
423,327,73430,1,8,0:0:0:0:
378,286,73516,1,8,0:0:0:0:
130,113,73601,1,0,0:0:0:0:
122,114,73773,1,0,0:0:0:0:
353,258,73944,1,8,0:0:0:0:
150,96,74116,1,0,0:0:0:0:
150,96,74201,1,0,0:0:0:0:
359,261,74287,1,8,0:0:0:0:
133,101,74373,1,0,0:0:0:0:
391,332,74458,1,8,0:0:0:0:
381,290,74544,1,8,0:0:0:0:
369,278,74630,1,8,0:0:0:0:
126,93,74716,1,0,0:0:0:0:
367,303,74801,1,8,0:0:0:0:
354,275,74887,1,8,0:0:0:0:
151,127,74973,1,0,0:0:0:0:
130,85,75144,1,0,0:0:0:0:
386,269,75316,1,8,0:0:0:0:
103,99,75487,1,0,0:0:0:0:
105,96,75573,1,0,0:0:0:0:
340,262,75658,1,8,0:0:0:0:
354,275,75744,1,8,0:0:0:0:
139,99,75830,1,0,0:0:0:0:
115,122,75916,1,0,0:0:0:0:
373,323,76001,1,8,0:0:0:0:
149,95,76087,1,0,0:0:0:0:
385,285,76173,1,8,0:0:0:0:
384,287,76344,1,8,0:0:0:0:
136,90,76516,1,0,0:0:0:0:
184,77,76601,1,0,0:0:0:0:
124,99,76687,1,0,0:0:0:0:
401,284,76858,1,8,0:0:0:0:
96,103,77030,1,0,0:0:0:0:
96,104,77116,1,0,0:0:0:0:
96,104,77201,1,0,0:0:0:0:
367,232,77373,1,8,0:0:0:0:
161,87,77544,1,0,0:0:0:0:
161,87,77601,1,0,0:0:0:0:
161,87,77658,1,0,0:0:0:0:
161,87,77716,1,0,0:0:0:0:
186,96,77887,1,0,0:0:0:0:
380,257,78058,1,8,0:0:0:0:
140,109,78230,1,0,0:0:0:0:
140,109,78316,1,0,0:0:0:0:
140,109,78401,1,0,0:0:0:0:
140,109,78573,1,0,0:0:0:0:
378,289,78744,1,8,0:0:0:0:
140,128,78830,1,0,0:0:0:0:
344,240,78916,1,8,0:0:0:0:
344,240,79001,1,8,0:0:0:0:
111,90,79087,1,0,0:0:0:0:
136,125,79258,1,0,0:0:0:0:
342,263,79430,1,8,0:0:0:0:
116,113,79601,1,0,0:0:0:0:
116,113,79687,1,0,0:0:0:0:
149,121,79773,1,0,0:0:0:0:
149,121,79858,1,0,0:0:0:0:
394,276,79944,1,8,0:0:0:0:
380,285,80116,1,8,0:0:0:0:
378,285,80287,1,8,0:0:0:0:
378,285,80373,1,8,0:0:0:0:
82,83,80458,1,0,0:0:0:0:
105,97,80630,1,0,0:0:0:0:
416,284,80801,1,8,0:0:0:0:
138,135,80973,1,0,0:0:0:0:
138,135,81058,1,0,0:0:0:0:
138,135,81144,1,0,0:0:0:0:
138,135,81316,1,0,0:0:0:0:
390,303,81487,1,8,0:0:0:0:
151,134,81573,1,0,0:0:0:0:
176,143,81658,1,0,0:0:0:0:
399,302,81744,1,8,0:0:0:0:
113,112,81830,1,0,0:0:0:0:
113,112,82001,1,0,0:0:0:0:
387,275,82173,1,8,0:0:0:0:
398,318,82344,1,8,0:0:0:0:
398,315,82430,1,8,0:0:0:0:
93,101,82516,1,0,0:0:0:0:
93,101,82601,1,0,0:0:0:0:
135,123,82687,1,0,0:0:0:0:
380,339,82858,1,8,0:0:0:0:
378,336,83030,1,8,0:0:0:0:
373,323,83116,1,8,0:0:0:0:
93,101,83201,1,0,0:0:0:0:
100,109,83373,1,0,0:0:0:0:
397,330,83544,1,8,0:0:0:0:
74,109,83716,1,0,0:0:0:0:
74,109,83801,1,0,0:0:0:0:
74,109,83887,1,0,0:0:0:0:
74,109,83973,1,0,0:0:0:0:
74,109,84058,1,0,0:0:0:0:
435,350,84230,1,8,0:0:0:0:
338,291,84316,1,8,0:0:0:0:
125,132,84401,1,0,0:0:0:0:
360,291,84487,1,8,0:0:0:0:
125,132,84573,1,0,0:0:0:0:
125,132,84744,1,0,0:0:0:0:
402,319,84916,1,8,0:0:0:0:
376,267,85087,1,8,0:0:0:0:
113,65,85173,1,0,0:0:0:0:
408,271,85258,1,8,0:0:0:0:
409,272,85344,1,8,0:0:0:0:
113,94,85430,1,0,0:0:0:0:
113,94,85516,1,0,0:0:0:0:
345,247,85601,1,8,0:0:0:0:
356,282,85773,1,8,0:0:0:0:
383,279,85858,1,8,0:0:0:0:
127,136,85944,1,0,0:0:0:0:
107,140,86116,1,0,0:0:0:0:
412,307,86287,1,8,0:0:0:0:
383,285,86458,1,8,0:0:0:0:
95,116,86544,1,0,0:0:0:0:
369,281,86630,1,8,0:0:0:0:
369,281,86716,1,8,0:0:0:0:
86,98,86801,1,0,0:0:0:0:
427,305,86973,1,8,0:0:0:0:
345,274,87144,1,8,0:0:0:0:
411,295,87316,1,8,0:0:0:0:
88,76,87430,1,0,0:0:0:0:
114,107,87544,1,0,0:0:0:0:
410,295,87658,1,8,0:0:0:0:
64,42,87773,1,0,0:0:0:0:
194,118,87887,1,0,0:0:0:0:
380,106,88001,1,12,0:0:0:0:
380,106,88258,1,12,0:0:0:0:
380,106,88516,1,12,0:0:0:0:
131,263,88687,1,4,0:0:0:0:
106,128,88858,1,0,0:0:0:0:
356,269,89030,1,8,0:0:0:0:
107,114,89201,1,0,0:0:0:0:
107,114,89287,1,0,0:0:0:0:
404,285,89373,1,8,0:0:0:0:
153,107,89458,1,0,0:0:0:0:
378,282,89544,1,8,0:0:0:0:
152,81,89630,1,0,0:0:0:0:
366,270,89716,1,8,0:0:0:0:
347,254,89801,1,8,0:0:0:0:
101,90,89887,1,0,0:0:0:0:
351,253,89973,1,8,0:0:0:0:
160,122,90058,1,0,0:0:0:0:
154,118,90230,1,0,0:0:0:0:
381,231,90401,1,8,0:0:0:0:
397,250,90573,1,8,0:0:0:0:
129,76,90658,1,0,0:0:0:0:
351,253,90744,1,8,0:0:0:0:
351,253,90830,1,8,0:0:0:0:
150,105,90916,1,0,0:0:0:0:
150,105,91001,1,0,0:0:0:0:
391,298,91087,1,8,0:0:0:0:
151,115,91173,1,0,0:0:0:0:
151,115,91258,1,0,0:0:0:0:
398,278,91344,1,8,0:0:0:0:
156,125,91430,1,0,0:0:0:0:
169,72,91601,1,0,0:0:0:0:
365,220,91773,1,8,0:0:0:0:
395,269,91944,1,8,0:0:0:0:
129,76,92029,1,0,0:0:0:0:
397,261,92115,1,8,0:0:0:0:
378,233,92201,1,8,0:0:0:0:
365,228,92287,1,8,0:0:0:0:
150,105,92372,1,0,0:0:0:0:
391,298,92458,1,8,0:0:0:0:
151,115,92544,1,0,0:0:0:0:
151,115,92629,1,0,0:0:0:0:
398,278,92715,1,8,0:0:0:0:
156,125,92801,1,0,0:0:0:0:
147,126,92973,1,0,0:0:0:0:
391,298,93144,1,8,0:0:0:0:
129,76,93316,1,0,0:0:0:0:
395,269,93401,1,8,0:0:0:0:
430,317,93487,1,8,0:0:0:0:
131,82,93573,1,0,0:0:0:0:
365,228,93659,1,8,0:0:0:0:
150,105,93744,1,0,0:0:0:0:
391,298,93830,1,8,0:0:0:0:
380,262,93916,1,8,0:0:0:0:
151,115,94001,1,0,0:0:0:0:
131,263,94173,5,4,0:0:0:0:
106,128,94344,1,0,0:0:0:0:
356,269,94516,1,8,0:0:0:0:
107,114,94687,1,0,0:0:0:0:
107,114,94773,1,0,0:0:0:0:
404,285,94859,1,8,0:0:0:0:
153,107,94944,1,0,0:0:0:0:
378,282,95030,1,8,0:0:0:0:
152,81,95116,1,0,0:0:0:0:
366,270,95202,1,8,0:0:0:0:
347,254,95287,1,8,0:0:0:0:
101,90,95373,1,0,0:0:0:0:
351,253,95459,1,8,0:0:0:0:
160,122,95544,1,0,0:0:0:0:
154,118,95716,1,0,0:0:0:0:
381,231,95887,1,8,0:0:0:0:
397,250,96059,1,8,0:0:0:0:
129,76,96144,1,0,0:0:0:0:
351,253,96230,1,8,0:0:0:0:
351,253,96316,1,8,0:0:0:0:
150,105,96402,1,0,0:0:0:0:
150,105,96487,1,0,0:0:0:0:
391,298,96573,1,8,0:0:0:0:
151,115,96659,1,0,0:0:0:0:
151,115,96744,1,0,0:0:0:0:
398,278,96830,1,8,0:0:0:0:
156,125,96916,1,0,0:0:0:0:
169,72,97087,1,0,0:0:0:0:
365,220,97259,1,8,0:0:0:0:
395,269,97430,1,8,0:0:0:0:
129,76,97515,1,0,0:0:0:0:
397,261,97601,1,8,0:0:0:0:
378,233,97687,1,8,0:0:0:0:
365,228,97773,1,8,0:0:0:0:
150,105,97858,1,0,0:0:0:0:
391,298,97944,1,8,0:0:0:0:
378,277,98030,1,8,0:0:0:0:
151,115,98115,1,0,0:0:0:0:
333,276,98287,1,8,0:0:0:0:
120,93,98458,1,0,0:0:0:0:
120,93,98544,1,0,0:0:0:0:
120,93,98630,1,0,0:0:0:0:
401,288,98801,1,8,0:0:0:0:
126,103,98973,1,0,0:0:0:0:
384,285,99058,1,8,0:0:0:0:
40,83,99230,1,0,0:0:0:0:
371,291,99316,1,8,0:0:0:0:
133,93,99487,1,0,0:0:0:0:
133,93,99544,1,0,0:0:0:0:
133,93,99601,1,0,0:0:0:0:
356,236,99658,1,8,0:0:0:0:
347,306,99744,1,8,0:0:0:0:
342,303,99830,1,8,0:0:0:0:
143,144,99916,1,0,0:0:0:0:
318,250,100001,1,8,0:0:0:0:
138,124,100087,1,0,0:0:0:0:
364,304,100173,1,8,0:0:0:0:
364,304,100258,1,8,0:0:0:0:
364,304,100344,1,8,0:0:0:0:
133,119,100430,1,0,0:0:0:0:
350,292,100516,1,8,0:0:0:0:
124,113,100601,1,0,0:0:0:0:
369,283,100687,1,8,0:0:0:0:
105,82,100744,1,0,0:0:0:0:
105,82,100801,1,0,0:0:0:0:
393,281,100858,1,8,0:0:0:0:
387,290,100944,1,8,0:0:0:0:
155,134,101030,1,0,0:0:0:0:
151,135,101116,1,0,0:0:0:0:
384,290,101201,1,8,0:0:0:0:
136,137,101287,1,0,0:0:0:0:
395,299,101373,1,8,0:0:0:0:
402,297,101458,1,8,0:0:0:0:
116,112,101544,1,0,0:0:0:0:
407,317,101630,1,8,0:0:0:0:
349,267,101716,1,8,0:0:0:0:
349,267,101801,1,8,0:0:0:0:
75,88,101887,1,0,0:0:0:0:
75,88,101973,1,0,0:0:0:0:
385,253,102058,1,8,0:0:0:0:
385,253,102116,1,8,0:0:0:0:
116,107,102173,1,0,0:0:0:0:
396,262,102230,1,8,0:0:0:0:
369,263,102316,1,8,0:0:0:0:
136,103,102401,1,0,0:0:0:0:
344,234,102487,1,8,0:0:0:0:
365,230,102573,1,8,0:0:0:0:
157,112,102658,1,0,0:0:0:0:
388,306,102744,1,8,0:0:0:0:
383,285,102801,1,8,0:0:0:0:
383,285,102858,1,8,0:0:0:0:
162,128,102916,1,0,0:0:0:0:
410,293,103001,1,8,0:0:0:0:
151,110,103087,1,0,0:0:0:0:
151,110,103173,1,0,0:0:0:0:
371,299,103258,1,8,0:0:0:0:
157,119,103344,1,0,0:0:0:0:
445,330,103430,1,8,0:0:0:0:
427,323,103516,1,8,0:0:0:0:
155,122,103601,1,0,0:0:0:0:
420,281,103687,1,8,0:0:0:0:
130,130,103773,1,0,0:0:0:0:
130,130,103858,1,0,0:0:0:0:
425,290,103944,1,8,0:0:0:0:
132,141,104030,1,0,0:0:0:0:
402,265,104116,1,8,0:0:0:0:
404,261,104173,1,8,0:0:0:0:
404,261,104230,1,8,0:0:0:0:
210,111,104287,1,0,0:0:0:0:
391,266,104373,1,8,0:0:0:0:
124,105,104458,1,0,0:0:0:0:
124,105,104544,1,0,0:0:0:0:
383,275,104630,1,8,0:0:0:0:
167,139,104716,1,0,0:0:0:0:
399,250,104801,1,8,0:0:0:0:
393,250,104858,1,8,0:0:0:0:
390,250,104916,1,8,0:0:0:0:
84,82,104973,1,0,0:0:0:0:
404,310,105058,1,8,0:0:0:0:
131,131,105144,5,0,0:0:0:0:
140,87,105230,1,0,0:0:0:0:
358,268,105316,1,8,0:0:0:0:
117,114,105401,1,0,0:0:0:0:
350,254,105487,1,8,0:0:0:0:
424,305,105573,1,8,0:0:0:0:
424,294,105658,1,8,0:0:0:0:
140,117,105744,1,0,0:0:0:0:
418,288,105830,1,8,0:0:0:0:
401,271,105887,1,8,0:0:0:0:
400,270,105944,1,8,0:0:0:0:
97,114,106001,1,0,0:0:0:0:
368,281,106087,1,8,0:0:0:0:
117,114,106173,1,0,0:0:0:0:
117,114,106258,1,0,0:0:0:0:
432,296,106344,1,8,0:0:0:0:
97,114,106430,1,0,0:0:0:0:
348,270,106516,1,8,0:0:0:0:
153,116,106601,1,0,0:0:0:0:
153,116,106687,1,0,0:0:0:0:
153,116,106773,1,0,0:0:0:0:
409,293,106858,1,8,0:0:0:0:
79,94,106944,1,0,0:0:0:0:
79,94,107030,1,0,0:0:0:0:
375,252,107116,1,8,0:0:0:0:
164,110,107201,1,0,0:0:0:0:
418,283,107258,1,8,0:0:0:0:
418,283,107316,1,8,0:0:0:0:
118,116,107373,1,0,0:0:0:0:
407,279,107458,1,8,0:0:0:0:
189,143,107544,1,0,0:0:0:0:
160,112,107630,1,0,0:0:0:0:
397,283,107716,1,8,0:0:0:0:
389,267,107801,1,8,0:0:0:0:
198,159,107887,1,0,0:0:0:0:
432,300,107973,1,8,0:0:0:0:
118,116,108058,1,0,0:0:0:0:
467,308,108144,1,8,0:0:0:0:
153,119,108230,1,0,0:0:0:0:
149,116,108316,1,0,0:0:0:0:
396,261,108401,1,8,0:0:0:0:
160,112,108487,1,0,0:0:0:0:
411,285,108573,1,8,0:0:0:0:
91,135,108658,1,0,0:0:0:0:
367,267,108744,1,8,0:0:0:0:
156,138,108830,1,0,0:0:0:0:
384,279,108916,1,8,0:0:0:0:
384,279,109001,1,8,0:0:0:0:
168,139,109087,1,0,0:0:0:0:
384,279,109173,1,8,0:0:0:0:
387,292,109258,1,8,0:0:0:0:
123,95,109430,1,0,0:0:0:0:
406,276,109601,1,8,0:0:0:0:
116,106,109773,1,0,0:0:0:0:
387,314,109944,1,8,0:0:0:0:
113,114,110116,1,0,0:0:0:0:
113,114,110201,1,0,0:0:0:0:
350,292,110287,1,8,0:0:0:0:
350,292,110373,1,8,0:0:0:0:
93,109,110458,1,0,0:0:0:0:
98,311,110630,5,4,0:0:0:0:
256,192,110801,12,0,121258,0:0:0:0:
138,85,121430,5,0,0:0:0:0:
184,283,121601,1,4,0:0:0:0:
381,241,121944,1,8,0:0:0:0:
424,289,122287,1,8,0:0:0:0:
424,289,122630,1,8,0:0:0:0:
424,289,122802,1,8,0:0:0:0:
408,286,124002,1,8,0:0:0:0:
408,286,124344,1,8,0:0:0:0:
401,283,124859,1,8,0:0:0:0:
401,283,125030,1,8,0:0:0:0:
400,283,125287,1,8,0:0:0:0:
401,283,125373,1,8,0:0:0:0:
401,283,125716,1,8,0:0:0:0:
401,283,125802,1,8,0:0:0:0:
401,283,125887,1,8,0:0:0:0:
400,283,126230,1,8,0:0:0:0:
401,283,126402,1,8,0:0:0:0:
401,283,126573,1,8,0:0:0:0:
401,283,126659,5,8,0:0:0:0:
401,283,126744,1,8,0:0:0:0:
389,278,126916,1,8,0:0:0:0:
414,296,127087,5,8,0:0:0:0:
343,271,127430,1,8,0:0:0:0:
328,237,127601,1,8,0:0:0:0:
309,243,128116,1,8,0:0:0:0:
309,240,128287,1,8,0:0:0:0:
309,240,128458,1,8,0:0:0:0:
291,210,129487,1,8,0:0:0:0:
291,210,129830,1,8,0:0:0:0:
291,210,130344,1,8,0:0:0:0:
291,210,130516,1,8,0:0:0:0:
293,230,130858,1,8,0:0:0:0:
293,230,131201,1,8,0:0:0:0:
314,232,131544,1,8,0:0:0:0:
314,232,131716,1,8,0:0:0:0:
314,232,131973,1,8,0:0:0:0:
314,232,132058,1,8,0:0:0:0:
347,257,132144,5,8,0:0:0:0:
347,257,132230,1,8,0:0:0:0:
347,257,132573,1,8,0:0:0:0:
384,248,133087,1,8,0:0:0:0:
374,247,133601,1,8,0:0:0:0:
374,247,133773,1,8,0:0:0:0:
374,247,133944,1,8,0:0:0:0:
384,270,134973,1,8,0:0:0:0:
384,270,135316,1,8,0:0:0:0:
384,270,135830,1,8,0:0:0:0:
384,270,136001,1,8,0:0:0:0:
384,270,136344,1,8,0:0:0:0:
384,270,136687,1,8,0:0:0:0:
384,270,136773,1,8,0:0:0:0:
384,270,136858,1,8,0:0:0:0:
384,270,137201,1,8,0:0:0:0:
384,270,137373,1,8,0:0:0:0:
384,270,137544,1,8,0:0:0:0:
384,270,137630,1,8,0:0:0:0:
384,270,137716,1,8,0:0:0:0:
384,270,137887,1,8,0:0:0:0:
384,270,138058,1,8,0:0:0:0:
400,279,138573,1,8,0:0:0:0:
384,283,139087,1,8,0:0:0:0:
384,283,139258,1,8,0:0:0:0:
384,283,139430,1,8,0:0:0:0:
380,285,140458,1,8,0:0:0:0:
380,285,140801,1,8,0:0:0:0:
380,285,141316,1,8,0:0:0:0:
380,285,141487,1,8,0:0:0:0:
380,285,141830,1,8,0:0:0:0:
380,285,142173,1,8,0:0:0:0:
380,285,142516,1,8,0:0:0:0:
380,285,142687,1,8,0:0:0:0:
364,278,142944,1,8,0:0:0:0:
364,278,143030,1,8,0:0:0:0:
364,278,143116,1,8,0:0:0:0:
364,278,143201,1,8,0:0:0:0:
384,283,143544,5,8,0:0:0:0:
125,116,143716,1,0,0:0:0:0:
377,252,144058,1,8,0:0:0:0:
382,242,144230,1,8,0:0:0:0:
320,219,144573,5,8,0:0:0:0:
113,91,144744,1,0,0:0:0:0:
364,245,144916,1,8,0:0:0:0:
116,105,145087,1,0,0:0:0:0:
364,245,145430,1,8,0:0:0:0:
354,245,145601,1,8,0:0:0:0:
91,134,145944,1,0,0:0:0:0:
91,134,146116,1,0,0:0:0:0:
458,328,146287,1,8,0:0:0:0:
111,101,146458,1,0,0:0:0:0:
365,257,146801,1,8,0:0:0:0:
365,257,146972,1,8,0:0:0:0:
142,86,147316,1,0,0:0:0:0:
142,86,147487,1,0,0:0:0:0:
457,334,147658,1,8,0:0:0:0:
120,96,147830,1,0,0:0:0:0:
448,263,148173,1,8,0:0:0:0:
448,263,148344,1,8,0:0:0:0:
132,121,148687,1,0,0:0:0:0:
124,115,148858,1,0,0:0:0:0:
375,104,149030,1,12,0:0:0:0:
117,104,149201,1,0,0:0:0:0:
126,98,149373,1,0,0:0:0:0:
369,265,149544,1,8,0:0:0:0:
375,252,149716,1,8,0:0:0:0:
121,98,149887,1,0,0:0:0:0:
121,98,149973,1,0,0:0:0:0:
341,296,150058,1,8,0:0:0:0:
126,98,150230,1,0,0:0:0:0:
369,256,150401,1,8,0:0:0:0:
115,79,150573,1,0,0:0:0:0:
121,98,150658,1,0,0:0:0:0:
115,77,150744,1,0,0:0:0:0:
389,239,150916,1,8,0:0:0:0:
389,239,151087,1,8,0:0:0:0:
131,95,151258,1,0,0:0:0:0:
133,93,151344,1,0,0:0:0:0:
354,268,151430,1,8,0:0:0:0:
107,105,151601,1,0,0:0:0:0:
367,268,151773,1,8,0:0:0:0:
136,117,151858,1,0,0:0:0:0:
136,114,151944,1,0,0:0:0:0:
136,114,152030,1,0,0:0:0:0:
390,272,152116,1,8,0:0:0:0:
371,263,152201,1,8,0:0:0:0:
98,83,152287,1,0,0:0:0:0:
98,83,152373,1,0,0:0:0:0:
389,278,152458,1,8,0:0:0:0:
389,278,152544,1,8,0:0:0:0:
380,278,152630,1,8,0:0:0:0:
380,277,152716,1,8,0:0:0:0:
100,92,152801,5,0,0:0:0:0:
100,92,152858,1,0,0:0:0:0:
100,92,152916,1,0,0:0:0:0:
100,92,152973,1,0,0:0:0:0:
100,92,153030,1,0,0:0:0:0:
100,92,153087,1,0,0:0:0:0:
417,308,153144,1,8,0:0:0:0:
381,290,154344,1,8,0:0:0:0:
100,250,154516,5,4,0:0:0:0:
111,110,154688,1,0,0:0:0:0:
350,247,154859,1,8,0:0:0:0:
137,124,155031,1,0,0:0:0:0:
151,116,155116,1,0,0:0:0:0:
151,116,155202,1,0,0:0:0:0:
389,335,155288,1,8,0:0:0:0:
184,131,155373,1,0,0:0:0:0:
356,299,155545,1,8,0:0:0:0:
356,299,155716,1,8,0:0:0:0:
346,292,155802,1,8,0:0:0:0:
173,103,155888,1,0,0:0:0:0:
169,114,156059,1,0,0:0:0:0:
396,348,156231,1,8,0:0:0:0:
333,254,156402,1,8,0:0:0:0:
117,67,156488,1,0,0:0:0:0:
117,67,156573,1,0,0:0:0:0:
377,297,156659,1,8,0:0:0:0:
153,111,156745,1,0,0:0:0:0:
153,110,156831,1,0,0:0:0:0:
362,282,156916,1,8,0:0:0:0:
89,40,157002,1,0,0:0:0:0:
349,287,157088,1,8,0:0:0:0:
349,287,157173,1,8,0:0:0:0:
256,192,157258,12,0,158630,0:0:0:0:
