osu file format v14

[General]
AudioFilename: audio.mp3
AudioLeadIn: 0
PreviewTime: 43430
Countdown: 0
SampleSet: None
StackLeniency: 0.7
Mode: 1
LetterboxInBreaks: 0
WidescreenStoryboard: 0

[Editor]
Bookmarks: 154516
DistanceSpacing: 0.5
BeatDivisor: 4
GridSize: 32
TimelineZoom: 1.4

[Metadata]
Title:Tokyo (Innovaderz Remix)
TitleUnicode:Tokyo (Innovaderz Remix)
Artist:DJ Ozawa
ArtistUnicode:DJ Ozawa
Creator:Ascendance
Version:Ozzy's Muzukashii
Source:
Tags:dnb lanturn mbomb -_magic_bomb_- magic bomb californian darknessofblue fii -wwwww kaitlin zirox sorcerer tomthewizard toybot Yumeno Himiko exam examination gero tenshichan [superstar] hi_hello CLSW crystal crystalseed tasuke912 boberofdarkness bodom koliron deif spectator qoot8123 julie prophecy nofool skylish onosakihito ozzyozrock nardo nardoxyribonucleic raiden nwolf backfire chromoxx saika -saika- lop fawx
BeatmapID:1012391
BeatmapSetID:427801

[Difficulty]
HPDrainRate:5
CircleSize:3
OverallDifficulty:4.5
ApproachRate:8
SliderMultiplier:1.4
SliderTickRate:1

[Events]
//Background and Video events
0,0,"Cities_Color_of_the_night_city_058372_.jpg",0,0
//Break Periods
2,110830,120851
//Storyboard Layer 0 (Background)
//Storyboard Layer 1 (Fail)
//Storyboard Layer 2 (Pass)
//Storyboard Layer 3 (Foreground)
//Storyboard Sound Samples

[TimingPoints]
916,342.857142857143,4,1,0,80,1,0
44801,-100,4,1,0,80,0,1
66744,-100,4,1,0,80,0,0
99658,-100,4,1,0,80,0,1
110630,-100,4,1,0,80,0,0
110973,-125,4,1,0,50,0,0
121601,-100,4,1,0,50,0,0
143544,-100,4,1,0,80,0,0

[HitObjects]
128,64,915,5,4,0:0:0:0:
416,288,1258,1,8,0:0:0:0:
128,320,1601,1,0,0:0:0:0:
128,320,1944,1,0,0:0:0:0:
384,288,2116,1,8,0:0:0:0:
384,288,3316,1,8,0:0:0:0:
384,288,3658,1,8,0:0:0:0:
160,320,4173,1,0,0:0:0:0:
160,320,4344,1,0,0:0:0:0:
384,288,4687,1,8,0:0:0:0:
192,320,5030,1,0,0:0:0:0:
192,320,5201,1,0,0:0:0:0:
224,320,5544,1,0,0:0:0:0:
352,320,5716,1,8,0:0:0:0:
384,288,5973,1,8,0:0:0:0:
192,320,6230,1,0,0:0:0:0:
128,320,6401,1,0,0:0:0:0:
416,288,6744,1,8,0:0:0:0:
128,320,7087,1,0,0:0:0:0:
128,320,7430,1,0,0:0:0:0:
384,288,7602,1,8,0:0:0:0:
384,288,8802,1,8,0:0:0:0:
384,288,9144,1,8,0:0:0:0:
160,320,9659,1,0,0:0:0:0:
160,320,9830,1,0,0:0:0:0:
384,288,10173,1,8,0:0:0:0:
192,320,10516,1,0,0:0:0:0:
192,320,10858,1,0,0:0:0:0:
224,320,11030,1,0,0:0:0:0:
352,320,11373,1,8,0:0:0:0:
384,288,11544,1,8,0:0:0:0:
128,320,11887,1,0,0:0:0:0:
416,288,12230,1,8,0:0:0:0:
128,320,12573,1,0,0:0:0:0:
128,320,12916,1,0,0:0:0:0:
384,288,13088,1,8,0:0:0:0:
384,288,14288,1,8,0:0:0:0:
384,288,14630,1,8,0:0:0:0:
160,320,15145,1,0,0:0:0:0:
160,320,15316,1,0,0:0:0:0:
384,288,15659,1,8,0:0:0:0:
192,320,16002,1,0,0:0:0:0:
192,320,16173,1,0,0:0:0:0:
224,320,16516,1,0,0:0:0:0:
352,320,16688,1,8,0:0:0:0:
384,288,16945,1,8,0:0:0:0:
192,320,17202,1,0,0:0:0:0:
128,320,17373,1,0,0:0:0:0:
416,288,17716,1,8,0:0:0:0:
128,320,18059,1,0,0:0:0:0:
128,320,18402,1,0,0:0:0:0:
384,288,18574,1,8,0:0:0:0:
384,288,19774,1,8,0:0:0:0:
384,288,20116,1,8,0:0:0:0:
160,320,20631,1,0,0:0:0:0:
160,320,20802,1,0,0:0:0:0:
384,288,21145,1,8,0:0:0:0:
192,320,21488,1,0,0:0:0:0:
192,320,21830,1,0,0:0:0:0:
224,320,22002,1,0,0:0:0:0:
352,320,22344,1,8,0:0:0:0:
384,288,22516,1,8,0:0:0:0:
96,96,22858,1,4,0:0:0:0:
384,288,23544,1,8,0:0:0:0:
384,288,23887,1,8,0:0:0:0:
384,288,24230,1,8,0:0:0:0:
384,288,24401,1,8,0:0:0:0:
384,288,24916,1,8,0:0:0:0:
384,288,25258,1,8,0:0:0:0:
384,288,25601,1,8,0:0:0:0:
384,288,25773,1,8,0:0:0:0:
384,288,26287,1,8,0:0:0:0:
384,288,26630,1,8,0:0:0:0:
384,288,26973,1,8,0:0:0:0:
384,288,27144,1,8,0:0:0:0:
384,288,27658,1,8,0:0:0:0:
384,288,28001,1,8,0:0:0:0:
384,288,28344,1,8,0:0:0:0:
384,288,28516,1,8,0:0:0:0:
384,288,29030,1,8,0:0:0:0:
384,288,29373,1,8,0:0:0:0:
384,288,29716,1,8,0:0:0:0:
384,288,29887,1,0,0:0:0:0:
384,288,30401,1,8,0:0:0:0:
384,288,30744,1,8,0:0:0:0:
384,288,31087,1,8,0:0:0:0:
384,288,31258,1,8,0:0:0:0:
384,288,31773,1,8,0:0:0:0:
384,288,32116,1,8,0:0:0:0:
384,288,32458,1,8,0:0:0:0:
384,288,32630,1,8,0:0:0:0:
384,288,33144,1,8,0:0:0:0:
384,288,33487,1,8,0:0:0:0:
384,96,33830,1,12,0:0:0:0:
384,96,34344,1,12,0:0:0:0:
384,96,34516,1,12,0:0:0:0:
96,96,35201,1,4,0:0:0:0:
384,96,35715,1,12,0:0:0:0:
384,96,35887,1,12,0:0:0:0:
384,96,36573,1,12,0:0:0:0:
384,96,37087,1,12,0:0:0:0:
384,96,37259,1,12,0:0:0:0:
96,96,37944,1,4,0:0:0:0:
384,96,38458,1,12,0:0:0:0:
384,96,38630,1,12,0:0:0:0:
384,96,39316,1,12,0:0:0:0:
384,96,39830,1,12,0:0:0:0:
384,96,40001,1,12,0:0:0:0:
384,96,40344,1,12,0:0:0:0:
384,96,40687,1,12,0:0:0:0:
384,96,41201,1,12,0:0:0:0:
384,96,41372,1,12,0:0:0:0:
384,96,41715,1,12,0:0:0:0:
384,128,42058,1,12,0:0:0:0:
384,128,42230,1,12,0:0:0:0:
384,128,42401,1,12,0:0:0:0:
384,128,42573,1,12,0:0:0:0:
384,128,42744,1,12,0:0:0:0:
384,128,42916,1,12,0:0:0:0:
384,128,43087,1,12,0:0:0:0:
384,128,43258,1,12,0:0:0:0:
96,288,44801,1,0,0:0:0:0:
352,256,45144,1,8,0:0:0:0:
128,288,45316,1,0,0:0:0:0:
128,288,45487,1,0,0:0:0:0:
128,288,45658,1,0,0:0:0:0:
384,256,45830,1,8,0:0:0:0:
128,256,46173,1,0,0:0:0:0:
384,256,46516,1,8,0:0:0:0:
160,224,47030,1,0,0:0:0:0:
352,256,47201,1,8,0:0:0:0:
96,288,47544,1,0,0:0:0:0:
352,256,47887,1,8,0:0:0:0:
128,288,48059,1,0,0:0:0:0:
128,288,48230,1,0,0:0:0:0:
128,288,48401,1,0,0:0:0:0:
384,256,48573,1,8,0:0:0:0:
128,256,48916,1,0,0:0:0:0:
384,256,49259,1,8,0:0:0:0:
160,224,49773,1,0,0:0:0:0:
352,256,49944,1,8,0:0:0:0:
160,288,50287,1,0,0:0:0:0:
352,256,50630,1,8,0:0:0:0:
160,256,50801,1,0,0:0:0:0:
160,256,50973,1,0,0:0:0:0:
320,256,51316,1,8,0:0:0:0:
352,256,51658,1,8,0:0:0:0:
160,288,52001,1,0,0:0:0:0:
320,256,52173,1,8,0:0:0:0:
320,256,52344,1,8,0:0:0:0:
160,288,52687,1,0,0:0:0:0:
256,192,53030,12,0,54058,0:0:0:0:
416,256,54401,5,8,0:0:0:0:
128,288,54744,1,0,0:0:0:0:
416,256,54916,1,8,0:0:0:0:
160,288,55087,1,0,0:0:0:0:
160,288,55258,1,0,0:0:0:0:
416,256,55430,1,8,0:0:0:0:
96,288,55773,1,0,0:0:0:0:
352,256,56116,1,8,0:0:0:0:
448,320,56288,1,8,0:0:0:0:
128,288,56459,1,0,0:0:0:0:
128,288,56630,1,0,0:0:0:0:
384,256,56802,1,8,0:0:0:0:
128,256,57145,1,0,0:0:0:0:
384,256,57488,1,8,0:0:0:0:
160,224,58002,1,0,0:0:0:0:
352,256,58173,1,8,0:0:0:0:
96,288,58516,1,0,0:0:0:0:
352,256,58859,1,8,0:0:0:0:
352,256,59031,1,8,0:0:0:0:
128,288,59202,1,0,0:0:0:0:
128,288,59373,1,0,0:0:0:0:
384,256,59545,1,8,0:0:0:0:
128,256,59888,1,0,0:0:0:0:
384,256,60231,1,8,0:0:0:0:
160,224,60745,1,0,0:0:0:0:
352,256,60916,1,8,0:0:0:0:
160,288,61259,1,0,0:0:0:0:
352,256,61602,1,8,0:0:0:0:
160,256,61773,1,0,0:0:0:0:
160,256,61945,1,0,0:0:0:0:
320,256,62288,1,8,0:0:0:0:
352,256,62630,1,8,0:0:0:0:
160,288,62973,1,0,0:0:0:0:
320,256,63145,1,8,0:0:0:0:
320,256,63316,1,8,0:0:0:0:
160,288,63659,1,0,0:0:0:0:
256,192,64002,12,0,65030,0:0:0:0:
64,288,65373,6,0,L|512:288,1,420
160,288,66744,1,0,0:0:0:0:
352,288,67087,1,8,0:0:0:0:
160,288,67258,1,0,0:0:0:0:
160,288,67601,1,0,0:0:0:0:
320,288,67773,1,8,0:0:0:0:
320,288,67944,1,8,0:0:0:0:
160,288,68116,1,0,0:0:0:0:
352,288,68458,1,8,0:0:0:0:
128,288,68973,1,0,0:0:0:0:
320,288,69144,1,8,0:0:0:0:
160,288,69487,1,0,0:0:0:0:
352,288,69830,1,8,0:0:0:0:
160,288,70001,1,0,0:0:0:0:
160,288,70344,1,0,0:0:0:0:
320,288,70516,1,8,0:0:0:0:
320,288,70687,1,8,0:0:0:0:
160,288,70859,1,0,0:0:0:0:
352,288,71201,1,8,0:0:0:0:
128,288,71716,1,0,0:0:0:0:
320,288,71887,1,8,0:0:0:0:
96,64,72230,1,4,0:0:0:0:
352,288,72573,1,8,0:0:0:0:
160,288,72744,1,0,0:0:0:0:
160,288,73087,1,0,0:0:0:0:
320,288,73259,1,8,0:0:0:0:
320,288,73430,1,8,0:0:0:0:
160,288,73602,1,0,0:0:0:0:
352,288,73944,1,8,0:0:0:0:
128,288,74459,1,0,0:0:0:0:
320,288,74630,1,8,0:0:0:0:
160,288,74973,1,0,0:0:0:0:
352,288,75316,1,8,0:0:0:0:
160,288,75487,1,0,0:0:0:0:
160,288,75658,1,0,0:0:0:0:
352,288,75830,1,8,0:0:0:0:
320,288,76002,1,8,0:0:0:0:
384,288,76344,1,8,0:0:0:0:
128,224,76516,1,0,0:0:0:0:
384,256,76687,1,8,0:0:0:0:
96,288,76858,1,0,0:0:0:0:
128,288,77202,1,0,0:0:0:0:
320,288,77373,1,8,0:0:0:0:
96,96,77716,1,4,0:0:0:0:
352,256,78230,1,8,0:0:0:0:
352,256,78401,1,8,0:0:0:0:
352,256,78573,1,8,0:0:0:0:
352,256,78744,1,8,0:0:0:0:
96,256,78916,1,0,0:0:0:0:
96,256,79087,1,0,0:0:0:0:
384,256,79601,1,8,0:0:0:0:
384,256,79773,1,8,0:0:0:0:
384,256,79944,1,8,0:0:0:0:
384,256,80116,1,8,0:0:0:0:
32,320,80287,1,0,0:0:0:0:
96,320,80458,1,0,0:0:0:0:
384,256,80973,1,8,0:0:0:0:
384,256,81144,1,8,0:0:0:0:
384,256,81316,1,8,0:0:0:0:
160,256,81487,1,0,0:0:0:0:
160,256,81658,1,0,0:0:0:0:
160,256,81830,1,0,0:0:0:0:
384,256,82173,1,8,0:0:0:0:
192,288,82516,1,0,0:0:0:0:
160,288,83201,1,0,0:0:0:0:
160,288,83373,1,0,0:0:0:0:
352,224,83544,1,8,0:0:0:0:
160,288,83716,1,0,0:0:0:0:
160,288,83887,1,0,0:0:0:0:
320,224,84058,1,8,0:0:0:0:
192,288,84230,1,0,0:0:0:0:
352,224,84573,1,8,0:0:0:0:
192,256,84744,1,0,0:0:0:0:
352,224,84916,1,8,0:0:0:0:
352,224,85087,1,8,0:0:0:0:
192,256,85258,1,0,0:0:0:0:
192,256,85430,1,0,0:0:0:0:
320,224,85601,1,8,0:0:0:0:
352,224,85944,1,8,0:0:0:0:
192,256,86115,1,0,0:0:0:0:
352,224,86287,1,8,0:0:0:0:
352,224,86458,1,8,0:0:0:0:
192,256,86629,1,0,0:0:0:0:
192,256,86801,1,0,0:0:0:0:
320,224,86972,1,8,0:0:0:0:
160,288,87316,1,0,0:0:0:0:
352,224,87658,1,8,0:0:0:0:
160,288,88001,1,0,0:0:0:0:
160,288,88258,1,0,0:0:0:0:
160,288,88516,1,0,0:0:0:0:
96,96,88687,1,4,0:0:0:0:
352,288,89030,1,8,0:0:0:0:
160,288,89201,1,0,0:0:0:0:
160,288,89544,1,0,0:0:0:0:
320,288,89716,1,8,0:0:0:0:
320,288,89887,1,8,0:0:0:0:
160,288,90059,1,0,0:0:0:0:
352,288,90401,1,8,0:0:0:0:
128,288,90916,1,0,0:0:0:0:
320,288,91087,1,8,0:0:0:0:
160,288,91430,1,0,0:0:0:0:
352,288,91773,1,8,0:0:0:0:
160,288,91944,1,0,0:0:0:0:
160,288,92287,1,0,0:0:0:0:
320,288,92459,1,8,0:0:0:0:
320,288,92630,1,8,0:0:0:0:
160,288,92802,1,0,0:0:0:0:
352,288,93144,1,8,0:0:0:0:
128,288,93659,1,0,0:0:0:0:
320,288,93830,1,8,0:0:0:0:
96,64,94173,1,4,0:0:0:0:
352,288,94516,1,8,0:0:0:0:
160,288,94687,1,0,0:0:0:0:
160,288,95030,1,0,0:0:0:0:
320,288,95202,1,8,0:0:0:0:
320,288,95373,1,8,0:0:0:0:
160,288,95545,1,0,0:0:0:0:
352,288,95887,1,8,0:0:0:0:
128,288,96402,1,0,0:0:0:0:
320,288,96573,1,8,0:0:0:0:
160,288,96916,1,0,0:0:0:0:
352,288,97259,1,8,0:0:0:0:
320,288,97430,1,8,0:0:0:0:
128,256,97601,1,0,0:0:0:0:
128,320,97773,1,0,0:0:0:0:
320,288,97945,1,8,0:0:0:0:
384,288,98287,1,8,0:0:0:0:
128,224,98459,1,0,0:0:0:0:
384,256,98630,1,8,0:0:0:0:
96,288,98801,1,0,0:0:0:0:
320,288,99316,1,8,0:0:0:0:
96,288,99658,1,0,0:0:0:0:
352,256,99830,1,8,0:0:0:0:
352,256,100001,1,8,0:0:0:0:
128,288,100173,1,0,0:0:0:0:
320,256,100344,1,8,0:0:0:0:
320,256,100516,1,8,0:0:0:0:
128,288,100687,1,0,0:0:0:0:
128,288,101030,1,0,0:0:0:0:
352,256,101201,1,8,0:0:0:0:
352,256,101373,1,8,0:0:0:0:
160,288,101544,1,0,0:0:0:0:
320,256,101716,1,8,0:0:0:0:
320,256,101887,1,8,0:0:0:0:
128,288,102058,1,0,0:0:0:0:
416,256,102401,1,8,0:0:0:0:
416,256,102573,1,8,0:0:0:0:
96,288,102744,1,0,0:0:0:0:
96,288,102916,1,0,0:0:0:0:
320,288,103087,1,8,0:0:0:0:
320,288,103258,1,8,0:0:0:0:
96,288,103430,1,0,0:0:0:0:
96,288,103601,1,0,0:0:0:0:
320,256,103773,1,8,0:0:0:0:
320,256,103944,1,8,0:0:0:0:
128,256,104116,1,0,0:0:0:0:
128,256,104287,1,0,0:0:0:0:
288,288,104458,1,8,0:0:0:0:
288,288,104630,1,8,0:0:0:0:
128,288,104801,1,0,0:0:0:0:
128,288,104973,1,0,0:0:0:0:
102,297,105144,1,0,0:0:0:0:
350,237,105487,1,8,0:0:0:0:
116,292,105658,1,0,0:0:0:0:
116,292,105830,1,0,0:0:0:0:
116,292,105916,1,0,0:0:0:0:
116,292,106001,1,0,0:0:0:0:
362,266,106173,1,8,0:0:0:0:
132,272,106516,1,0,0:0:0:0:
354,279,106858,1,8,0:0:0:0:
170,297,107030,1,0,0:0:0:0:
162,295,107201,1,0,0:0:0:0:
162,295,107287,1,0,0:0:0:0:
162,295,107373,1,0,0:0:0:0:
361,273,107544,1,8,0:0:0:0:
170,297,107887,1,0,0:0:0:0:
170,297,108058,1,0,0:0:0:0:
170,297,108230,1,0,0:0:0:0:
170,297,108401,1,0,0:0:0:0:
170,297,108573,1,0,0:0:0:0:
170,297,108830,1,0,0:0:0:0:
168,295,109087,1,0,0:0:0:0:
256,192,109258,12,0,110630,0:0:0:0:
128,64,121601,5,4,0:0:0:0:
416,288,121944,1,8,0:0:0:0:
128,320,122287,1,0,0:0:0:0:
128,320,122630,1,0,0:0:0:0:
384,288,122802,1,8,0:0:0:0:
384,288,124002,1,8,0:0:0:0:
384,288,124344,1,8,0:0:0:0:
160,320,124859,1,0,0:0:0:0:
160,320,125030,1,0,0:0:0:0:
384,288,125373,1,8,0:0:0:0:
192,320,125716,1,0,0:0:0:0:
192,320,125887,1,0,0:0:0:0:
224,320,126230,1,0,0:0:0:0:
352,320,126402,1,8,0:0:0:0:
384,288,126659,1,8,0:0:0:0:
192,320,126916,1,0,0:0:0:0:
128,320,127087,1,0,0:0:0:0:
416,288,127430,1,8,0:0:0:0:
128,320,127773,1,0,0:0:0:0:
128,320,128116,1,0,0:0:0:0:
384,288,128288,1,8,0:0:0:0:
384,288,129488,1,8,0:0:0:0:
384,288,129830,1,8,0:0:0:0:
160,320,130345,1,0,0:0:0:0:
160,320,130516,1,0,0:0:0:0:
384,288,130859,1,8,0:0:0:0:
192,320,131202,1,0,0:0:0:0:
192,320,131544,1,0,0:0:0:0:
224,320,131716,1,0,0:0:0:0:
352,320,132059,1,8,0:0:0:0:
384,288,132230,1,8,0:0:0:0:
128,320,132573,1,0,0:0:0:0:
416,288,132916,1,8,0:0:0:0:
128,320,133259,1,0,0:0:0:0:
128,320,133602,1,0,0:0:0:0:
384,288,133774,1,8,0:0:0:0:
384,288,134974,1,8,0:0:0:0:
384,288,135316,1,8,0:0:0:0:
160,320,135831,1,0,0:0:0:0:
160,320,136002,1,0,0:0:0:0:
384,288,136345,1,8,0:0:0:0:
192,320,136688,1,0,0:0:0:0:
192,320,136859,1,0,0:0:0:0:
224,320,137202,1,0,0:0:0:0:
352,320,137374,1,8,0:0:0:0:
384,288,137631,1,8,0:0:0:0:
192,320,137888,1,0,0:0:0:0:
128,320,138059,1,0,0:0:0:0:
416,288,138402,1,8,0:0:0:0:
128,320,138745,1,0,0:0:0:0:
128,320,139088,1,0,0:0:0:0:
384,288,139260,1,8,0:0:0:0:
384,288,140460,1,8,0:0:0:0:
384,288,140802,1,8,0:0:0:0:
160,320,141317,1,0,0:0:0:0:
160,320,141488,1,0,0:0:0:0:
384,288,141831,1,8,0:0:0:0:
192,320,142174,1,0,0:0:0:0:
192,320,142516,1,0,0:0:0:0:
224,320,142688,1,0,0:0:0:0:
352,320,143030,1,8,0:0:0:0:
384,288,143202,1,8,0:0:0:0:
400,118,143544,1,12,0:0:0:0:
400,118,144058,1,12,0:0:0:0:
400,118,144229,1,12,0:0:0:0:
81,150,144915,1,4,0:0:0:0:
96,96,145430,1,4,0:0:0:0:
96,96,145601,1,4,0:0:0:0:
366,100,146287,1,12,0:0:0:0:
366,100,146801,1,12,0:0:0:0:
366,100,146973,1,12,0:0:0:0:
162,134,147658,1,4,0:0:0:0:
162,134,148173,1,4,0:0:0:0:
162,134,148344,1,4,0:0:0:0:
387,116,149030,1,12,0:0:0:0:
387,116,149544,1,12,0:0:0:0:
387,116,149716,1,12,0:0:0:0:
387,116,150058,1,12,0:0:0:0:
128,124,150401,1,4,0:0:0:0:
128,124,150916,1,4,0:0:0:0:
128,124,151087,1,4,0:0:0:0:
128,124,151430,1,4,0:0:0:0:
100,283,151773,1,0,0:0:0:0:
107,289,151944,1,0,0:0:0:0:
107,289,152116,1,0,0:0:0:0:
107,289,152287,1,0,0:0:0:0:
107,289,152458,1,0,0:0:0:0:
136,305,152544,1,0,0:0:0:0:
136,305,152630,1,0,0:0:0:0:
70,274,152801,2,0,L|240:274,1,140
35,113,154516,1,4,0:0:0:0:
