osu file format v14

[General]
AudioFilename: audio.mp3
AudioLeadIn: 0
PreviewTime: 43430
Countdown: 0
SampleSet: Normal
StackLeniency: 0.7
Mode: 1
LetterboxInBreaks: 0
WidescreenStoryboard: 0

[Editor]
Bookmarks: 915,6401,11887,17373,22858,33830,55773,66744,77716,88687,99658,110630,121601,143544,154516
DistanceSpacing: 0.5
BeatDivisor: 4
GridSize: 32
TimelineZoom: 1.400006

[Metadata]
Title:Tokyo (Innovaderz Remix)
TitleUnicode:Tokyo (Innovaderz Remix)
Artist:DJ Ozawa
ArtistUnicode:DJ Ozawa
Creator:Ascendance
Version:Ono's Oni
Source:
Tags:dnb lanturn mbomb -_magic_bomb_- magic bomb californian darknessofblue fii -wwwww kaitlin zirox sorcerer tomthewizard toybot Yumeno Himiko exam examination gero tenshichan [superstar] hi_hello CLSW crystal crystalseed tasuke912 boberofdarkness bodom koliron deif spectator qoot8123 julie prophecy nofool skylish onosakihito ozzyozrock nardo nardoxyribonucleic raiden nwolf backfire chromoxx saika -saika- lop fawx
BeatmapID:955649
BeatmapSetID:427801

[Difficulty]
HPDrainRate:5
CircleSize:2
OverallDifficulty:4
ApproachRate:4
SliderMultiplier:1.39999976287842
SliderTickRate:1

[Events]
//Background and Video events
0,0,"Cities_Color_of_the_night_city_058372_.jpg",0,0
//Break Periods
2,110830,114796
//Storyboard Layer 0 (Background)
//Storyboard Layer 1 (Fail)
//Storyboard Layer 2 (Pass)
//Storyboard Layer 3 (Foreground)
//Storyboard Sound Samples

[TimingPoints]
916,342.857142857143,4,1,0,60,1,0
44801,-100,4,1,0,60,0,1
66744,-100,4,1,0,80,0,0
99658,-100,4,1,0,60,0,1
110630,-100,4,1,0,60,0,0
115773,-200,4,1,0,60,0,0
121258,-100,4,1,0,60,0,0
143544,-90.9090909090909,4,1,0,60,0,0
146287,-83.3333333333333,4,1,0,60,0,0
149030,-76.9230769230769,4,1,0,60,0,0
150401,-71.4285714285714,4,1,0,60,0,0
151773,-66.6666666666667,4,1,0,60,0,0
154344,-50,4,1,0,60,0,0

[HitObjects]
256,192,744,5,0,0:0:0:0:
256,192,915,1,4,0:0:0:0:
256,192,3658,1,0,0:0:0:0:
256,192,4173,1,0,0:0:0:0:
256,192,4687,5,8,0:0:0:0:
256,192,5030,5,0,0:0:0:0:
256,192,5373,5,8,0:0:0:0:
256,192,5544,5,0,0:0:0:0:
256,192,5887,5,8,0:0:0:0:
256,192,6058,1,8,0:0:0:0:
256,192,6401,5,4,0:0:0:0:
256,192,9144,5,0,0:0:0:0:
256,192,9658,1,0,0:0:0:0:
256,192,10173,5,8,0:0:0:0:
256,192,10516,5,0,0:0:0:0:
256,192,10687,1,0,0:0:0:0:
256,192,10858,5,8,0:0:0:0:
256,192,11030,5,0,0:0:0:0:
256,192,11373,5,8,0:0:0:0:
256,192,11544,1,8,0:0:0:0:
256,192,11887,5,4,0:0:0:0:
256,192,12401,1,0,0:0:0:0:
256,192,12916,1,0,0:0:0:0:
256,192,13258,1,0,0:0:0:0:
256,192,13773,1,0,0:0:0:0:
256,192,14630,1,0,0:0:0:0:
256,192,15144,1,0,0:0:0:0:
256,192,15658,1,0,0:0:0:0:
256,192,16001,1,0,0:0:0:0:
256,192,16516,1,0,0:0:0:0:
256,192,16687,5,8,0:0:0:0:
256,192,16858,5,0,0:0:0:0:
256,192,16944,5,8,0:0:0:0:
256,192,17116,5,0,0:0:0:0:
256,192,17201,5,8,0:0:0:0:
256,192,17373,5,4,0:0:0:0:
256,192,17887,1,0,0:0:0:0:
256,192,18401,1,0,0:0:0:0:
256,192,18744,1,0,0:0:0:0:
256,192,19258,1,0,0:0:0:0:
256,192,20116,1,0,0:0:0:0:
256,192,20630,1,0,0:0:0:0:
256,192,21144,1,0,0:0:0:0:
256,192,21487,1,0,0:0:0:0:
256,192,21830,1,0,0:0:0:0:
256,192,22001,5,8,0:0:0:0:
256,192,22173,5,0,0:0:0:0:
256,192,22344,5,8,0:0:0:0:
256,192,22430,5,0,0:0:0:0:
256,192,22516,5,8,0:0:0:0:
256,192,22858,5,4,0:0:0:0:
256,192,23030,5,8,0:0:0:0:
256,192,23373,1,8,0:0:0:0:
256,192,23544,1,8,0:0:0:0:
256,192,23887,1,8,0:0:0:0:
256,192,24230,5,8,0:0:0:0:
256,192,24401,1,8,0:0:0:0:
256,192,24744,1,8,0:0:0:0:
256,192,24916,1,8,0:0:0:0:
256,192,25173,1,8,0:0:0:0:
256,192,25258,1,8,0:0:0:0:
256,192,25430,1,8,0:0:0:0:
256,192,25601,1,8,0:0:0:0:
256,192,25687,1,8,0:0:0:0:
256,192,25773,1,8,0:0:0:0:
256,192,26116,1,8,0:0:0:0:
256,192,26287,1,8,0:0:0:0:
256,192,26458,1,8,0:0:0:0:
256,192,26544,1,8,0:0:0:0:
256,192,26630,1,8,0:0:0:0:
256,192,26801,1,8,0:0:0:0:
256,192,26973,1,8,0:0:0:0:
256,192,27144,1,8,0:0:0:0:
256,192,27487,1,8,0:0:0:0:
256,192,27658,1,8,0:0:0:0:
256,192,27916,1,8,0:0:0:0:
256,192,28001,1,8,0:0:0:0:
256,192,28173,1,8,0:0:0:0:
256,192,28344,1,8,0:0:0:0:
256,192,28430,1,8,0:0:0:0:
256,192,28516,1,8,0:0:0:0:
256,192,28687,1,8,0:0:0:0:
256,192,28858,1,8,0:0:0:0:
256,192,28944,1,8,0:0:0:0:
256,192,29030,1,8,0:0:0:0:
256,192,29287,1,8,0:0:0:0:
256,192,29373,1,8,0:0:0:0:
256,192,29544,1,8,0:0:0:0:
256,192,29716,1,8,0:0:0:0:
256,192,29887,1,8,0:0:0:0:
256,192,30230,1,8,0:0:0:0:
256,192,30401,1,8,0:0:0:0:
256,192,30658,1,8,0:0:0:0:
256,192,30744,1,8,0:0:0:0:
256,192,30916,1,8,0:0:0:0:
256,192,31087,1,8,0:0:0:0:
256,192,31173,1,8,0:0:0:0:
256,192,31258,1,8,0:0:0:0:
256,192,31430,1,8,0:0:0:0:
256,192,31601,1,8,0:0:0:0:
256,192,31687,1,8,0:0:0:0:
256,192,31773,1,8,0:0:0:0:
256,192,31944,1,8,0:0:0:0:
256,192,32030,1,8,0:0:0:0:
256,192,32116,1,8,0:0:0:0:
256,192,32287,1,8,0:0:0:0:
256,192,32458,1,8,0:0:0:0:
256,192,32630,1,8,0:0:0:0:
256,192,32973,1,8,0:0:0:0:
256,192,33144,1,8,0:0:0:0:
256,192,33401,1,8,0:0:0:0:
256,192,33487,1,8,0:0:0:0:
256,192,33658,1,8,0:0:0:0:
256,192,33830,5,4,0:0:0:0:
256,192,34001,5,8,0:0:0:0:
256,192,34173,1,8,0:0:0:0:
256,192,34344,5,0,0:0:0:0:
256,192,34516,1,0,0:0:0:0:
256,192,34687,5,8,0:0:0:0:
256,192,34858,5,8,0:0:0:0:
256,192,34944,1,8,0:0:0:0:
256,192,35030,1,8,0:0:0:0:
256,192,35201,5,0,0:0:0:0:
256,192,35373,5,8,0:0:0:0:
256,192,35544,1,8,0:0:0:0:
256,192,35716,5,0,0:0:0:0:
256,192,35887,1,0,0:0:0:0:
256,192,36058,5,8,0:0:0:0:
256,192,36144,1,8,0:0:0:0:
256,192,36230,1,8,0:0:0:0:
256,192,36316,1,8,0:0:0:0:
256,192,36401,1,8,0:0:0:0:
256,192,36573,5,0,0:0:0:0:
256,192,36744,5,8,0:0:0:0:
256,192,36916,1,8,0:0:0:0:
256,192,37087,5,0,0:0:0:0:
256,192,37258,1,0,0:0:0:0:
256,192,37430,5,8,0:0:0:0:
256,192,37601,1,8,0:0:0:0:
256,192,37687,1,8,0:0:0:0:
256,192,37773,1,8,0:0:0:0:
256,192,37944,5,0,0:0:0:0:
256,192,38116,5,8,0:0:0:0:
256,192,38287,1,8,0:0:0:0:
256,192,38458,5,0,0:0:0:0:
256,192,38630,1,0,0:0:0:0:
256,192,38801,5,8,0:0:0:0:
256,192,38887,1,8,0:0:0:0:
256,192,38973,1,8,0:0:0:0:
256,192,39058,1,8,0:0:0:0:
256,192,39144,1,8,0:0:0:0:
256,192,39230,1,8,0:0:0:0:
256,192,39316,5,0,0:0:0:0:
256,192,39487,5,8,0:0:0:0:
256,192,39658,1,8,0:0:0:0:
256,192,39830,5,0,0:0:0:0:
256,192,40001,1,0,0:0:0:0:
256,192,40173,5,8,0:0:0:0:
256,192,40344,5,0,0:0:0:0:
256,192,40516,5,8,0:0:0:0:
256,192,40687,5,0,0:0:0:0:
256,192,40858,5,8,0:0:0:0:
256,192,41030,1,8,0:0:0:0:
256,192,41201,5,0,0:0:0:0:
256,192,41373,1,0,0:0:0:0:
256,192,41544,5,8,0:0:0:0:
256,192,41716,5,0,0:0:0:0:
256,192,41887,5,8,0:0:0:0:
256,192,42058,5,0,0:0:0:0:
256,192,42230,1,0,0:0:0:0:
256,192,42401,1,0,0:0:0:0:
256,192,42573,1,0,0:0:0:0:
256,192,42744,1,0,0:0:0:0:
256,192,42830,1,0,0:0:0:0:
256,192,42916,1,0,0:0:0:0:
256,192,43001,1,0,0:0:0:0:
256,192,43087,12,0,44116,0:0:0:0:
256,192,44801,5,4,0:0:0:0:
256,192,45144,5,8,0:0:0:0:
256,192,45316,5,0,0:0:0:0:
256,192,45401,1,0,0:0:0:0:
256,192,45573,1,0,0:0:0:0:
256,192,45658,1,0,0:0:0:0:
256,192,45830,5,8,0:0:0:0:
256,192,46001,5,0,0:0:0:0:
256,192,46173,1,0,0:0:0:0:
256,192,46344,1,0,0:0:0:0:
256,192,46516,5,8,0:0:0:0:
256,192,46687,5,0,0:0:0:0:
256,192,46773,1,0,0:0:0:0:
256,192,46944,1,0,0:0:0:0:
256,192,47030,1,0,0:0:0:0:
256,192,47201,5,8,0:0:0:0:
256,192,47287,1,8,0:0:0:0:
256,192,47373,1,8,0:0:0:0:
256,192,47458,1,8,0:0:0:0:
256,192,47544,5,0,0:0:0:0:
256,192,47716,1,0,0:0:0:0:
256,192,47887,5,8,0:0:0:0:
256,192,48058,5,0,0:0:0:0:
256,192,48144,1,0,0:0:0:0:
256,192,48316,1,0,0:0:0:0:
256,192,48401,1,0,0:0:0:0:
256,192,48573,5,8,0:0:0:0:
256,192,48744,5,0,0:0:0:0:
256,192,48916,1,0,0:0:0:0:
256,192,49087,5,8,0:0:0:0:
256,192,49173,1,8,0:0:0:0:
256,192,49258,5,0,0:0:0:0:
256,192,49430,5,8,0:0:0:0:
256,192,49601,5,0,0:0:0:0:
256,192,49687,5,8,0:0:0:0:
256,192,49858,1,8,0:0:0:0:
256,192,49944,5,0,0:0:0:0:
256,192,50030,1,0,0:0:0:0:
256,192,50116,5,8,0:0:0:0:
256,192,50287,5,4,0:0:0:0:
256,192,50630,5,8,0:0:0:0:
256,192,50801,5,4,0:0:0:0:
256,192,50973,1,4,0:0:0:0:
256,192,51316,5,8,0:0:0:0:
256,192,51401,1,8,0:0:0:0:
256,192,51487,1,8,0:0:0:0:
256,192,51658,5,4,0:0:0:0:
256,192,52001,5,8,0:0:0:0:
256,192,52173,5,4,0:0:0:0:
256,192,52344,1,4,0:0:0:0:
256,192,52516,1,0,0:0:0:0:
256,192,52687,5,8,0:0:0:0:
256,192,52773,1,8,0:0:0:0:
256,192,52858,1,8,0:0:0:0:
256,192,53030,5,0,0:0:0:0:
256,192,53116,1,0,0:0:0:0:
256,192,53201,1,0,0:0:0:0:
256,192,53287,1,0,0:0:0:0:
256,192,53373,5,8,0:0:0:0:
256,192,53544,5,0,0:0:0:0:
256,192,53716,5,8,0:0:0:0:
256,192,53801,1,8,0:0:0:0:
256,192,53887,1,8,0:0:0:0:
256,192,53973,1,8,0:0:0:0:
256,192,54058,5,0,0:0:0:0:
256,192,54230,5,8,0:0:0:0:
256,192,54401,1,8,0:0:0:0:
256,192,54573,5,0,0:0:0:0:
256,192,54744,1,0,0:0:0:0:
256,192,54916,5,8,0:0:0:0:
256,192,55087,5,0,0:0:0:0:
256,192,55258,1,0,0:0:0:0:
256,192,55430,5,8,0:0:0:0:
256,192,55601,1,8,0:0:0:0:
256,192,55773,5,0,0:0:0:0:
256,192,55858,1,0,0:0:0:0:
256,192,55944,1,0,0:0:0:0:
256,192,56116,1,0,0:0:0:0:
256,192,56287,1,0,0:0:0:0:
256,192,56373,1,0,0:0:0:0:
256,192,56458,1,0,0:0:0:0:
256,192,56544,1,0,0:0:0:0:
256,192,56630,5,0,0:0:0:0:
256,192,56801,5,8,0:0:0:0:
256,192,56973,1,8,0:0:0:0:
256,192,57144,5,0,0:0:0:0:
256,192,57229,1,0,0:0:0:0:
256,192,57315,1,0,0:0:0:0:
256,192,57487,1,0,0:0:0:0:
256,192,57658,1,0,0:0:0:0:
256,192,57744,1,0,0:0:0:0:
256,192,57830,1,0,0:0:0:0:
256,192,57916,1,0,0:0:0:0:
256,192,58001,5,8,0:0:0:0:
256,192,58173,1,8,0:0:0:0:
256,192,58344,1,8,0:0:0:0:
256,192,58516,5,0,0:0:0:0:
256,192,58601,1,0,0:0:0:0:
256,192,58687,1,0,0:0:0:0:
256,192,58859,1,0,0:0:0:0:
256,192,59030,1,0,0:0:0:0:
256,192,59116,1,0,0:0:0:0:
256,192,59201,5,0,0:0:0:0:
256,192,59373,1,0,0:0:0:0:
256,192,59544,1,0,0:0:0:0:
256,192,59630,1,0,0:0:0:0:
256,192,59716,1,0,0:0:0:0:
256,192,59887,1,0,0:0:0:0:
256,192,59973,1,0,0:0:0:0:
256,192,60058,1,0,0:0:0:0:
256,192,60230,1,0,0:0:0:0:
256,192,60401,1,0,0:0:0:0:
256,192,60487,1,0,0:0:0:0:
256,192,60573,1,0,0:0:0:0:
256,192,60744,1,0,0:0:0:0:
256,192,60916,5,8,0:0:0:0:
256,192,61001,1,8,0:0:0:0:
256,192,61087,1,8,0:0:0:0:
256,192,61258,5,4,0:0:0:0:
256,192,61430,1,0,0:0:0:0:
256,192,61601,5,8,0:0:0:0:
256,192,61773,5,4,0:0:0:0:
256,192,61944,1,4,0:0:0:0:
256,192,62116,5,8,0:0:0:0:
256,192,62287,1,8,0:0:0:0:
256,192,62458,1,8,0:0:0:0:
256,192,62630,5,4,0:0:0:0:
256,192,62801,1,0,0:0:0:0:
256,192,62973,5,8,0:0:0:0:
256,192,63144,5,4,0:0:0:0:
256,192,63316,5,12,0:0:0:0:
256,192,63487,5,0,0:0:0:0:
256,192,63658,5,8,0:0:0:0:
256,192,63830,1,8,0:0:0:0:
256,192,64001,5,4,0:0:0:0:
256,192,64173,5,8,0:0:0:0:
256,192,64258,1,8,0:0:0:0:
256,192,64344,1,8,0:0:0:0:
256,192,64430,1,8,0:0:0:0:
256,192,64516,1,8,0:0:0:0:
256,192,64687,5,4,0:0:0:0:
256,192,64858,5,8,0:0:0:0:
256,192,64944,1,8,0:0:0:0:
256,192,65030,1,8,0:0:0:0:
256,192,65116,1,8,0:0:0:0:
256,192,65201,1,8,0:0:0:0:
256,192,65373,5,4,0:0:0:0:
256,192,65544,5,8,0:0:0:0:
256,192,65630,1,8,0:0:0:0:
256,192,65716,1,8,0:0:0:0:
256,192,65801,1,8,0:0:0:0:
256,192,65887,1,8,0:0:0:0:
256,192,65973,1,8,0:0:0:0:
256,192,66058,5,0,0:0:0:0:
256,192,66144,1,0,0:0:0:0:
256,192,66230,1,0,0:0:0:0:
256,192,66401,5,8,0:0:0:0:
256,192,66573,1,8,0:0:0:0:
256,192,66744,5,4,0:0:0:0:
256,192,67087,5,8,0:0:0:0:
256,192,67258,5,0,0:0:0:0:
256,192,67430,5,8,0:0:0:0:
256,192,67601,1,8,0:0:0:0:
256,192,67773,5,0,0:0:0:0:
256,192,67944,5,8,0:0:0:0:
256,192,68116,5,4,0:0:0:0:
256,192,68458,5,0,0:0:0:0:
256,192,68630,5,8,0:0:0:0:
256,192,68801,5,0,0:0:0:0:
256,192,68973,5,8,0:0:0:0:
256,192,69144,1,8,0:0:0:0:
256,192,69316,5,0,0:0:0:0:
256,192,69487,5,8,0:0:0:0:
256,192,69830,5,8,0:0:0:0:
256,192,70001,5,0,0:0:0:0:
256,192,70173,5,8,0:0:0:0:
256,192,70344,1,8,0:0:0:0:
256,192,70516,5,0,0:0:0:0:
256,192,70687,5,8,0:0:0:0:
256,192,70859,5,4,0:0:0:0:
256,192,71201,5,0,0:0:0:0:
256,192,71373,5,8,0:0:0:0:
256,192,71544,5,0,0:0:0:0:
256,192,71716,5,8,0:0:0:0:
256,192,71887,1,8,0:0:0:0:
256,192,72059,5,0,0:0:0:0:
256,192,72230,5,12,0:0:0:0:
256,192,72573,1,8,0:0:0:0:
256,192,72744,5,0,0:0:0:0:
256,192,72916,5,8,0:0:0:0:
256,192,73001,1,8,0:0:0:0:
256,192,73087,1,8,0:0:0:0:
256,192,73259,5,0,0:0:0:0:
256,192,73430,5,8,0:0:0:0:
256,192,73602,5,4,0:0:0:0:
256,192,73944,5,0,0:0:0:0:
256,192,74116,5,8,0:0:0:0:
256,192,74287,5,0,0:0:0:0:
256,192,74459,5,8,0:0:0:0:
256,192,74544,1,8,0:0:0:0:
256,192,74630,1,8,0:0:0:0:
256,192,74802,5,0,0:0:0:0:
256,192,74973,5,8,0:0:0:0:
256,192,75316,5,8,0:0:0:0:
256,192,75487,5,0,0:0:0:0:
256,192,75659,5,8,0:0:0:0:
256,192,75744,1,8,0:0:0:0:
256,192,75830,1,8,0:0:0:0:
256,192,76002,5,0,0:0:0:0:
256,192,76173,5,8,0:0:0:0:
256,192,76345,5,0,0:0:0:0:
256,192,76516,1,0,0:0:0:0:
256,192,76858,1,0,0:0:0:0:
256,192,77030,1,0,0:0:0:0:
256,192,77373,5,8,0:0:0:0:
256,192,77544,5,0,0:0:0:0:
256,192,77601,1,0,0:0:0:0:
256,192,77658,1,0,0:0:0:0:
256,192,77716,1,0,0:0:0:0:
256,192,77887,5,8,0:0:0:0:
256,192,78230,1,8,0:0:0:0:
256,192,78401,1,8,0:0:0:0:
256,192,78573,5,0,0:0:0:0:
256,192,78744,5,8,0:0:0:0:
256,192,78916,1,8,0:0:0:0:
256,192,79001,1,8,0:0:0:0:
256,192,79087,5,0,0:0:0:0:
256,192,79258,5,8,0:0:0:0:
256,192,79430,1,8,0:0:0:0:
256,192,79601,1,8,0:0:0:0:
256,192,79687,1,8,0:0:0:0:
256,192,79773,1,8,0:0:0:0:
256,192,79944,5,0,0:0:0:0:
256,192,80116,5,8,0:0:0:0:
256,192,80287,1,8,0:0:0:0:
256,192,80458,5,0,0:0:0:0:
256,192,80630,5,8,0:0:0:0:
256,192,80973,1,8,0:0:0:0:
256,192,81144,1,8,0:0:0:0:
256,192,81316,5,0,0:0:0:0:
256,192,81487,5,8,0:0:0:0:
256,192,81658,1,8,0:0:0:0:
256,192,81744,1,8,0:0:0:0:
256,192,81830,5,0,0:0:0:0:
256,192,82001,5,8,0:0:0:0:
256,192,82173,1,8,0:0:0:0:
256,192,82344,1,8,0:0:0:0:
256,192,82430,1,8,0:0:0:0:
256,192,82516,5,0,0:0:0:0:
256,192,82601,5,8,0:0:0:0:
256,192,82687,5,8,0:0:0:0:
256,192,82858,5,0,0:0:0:0:
256,192,83030,1,8,0:0:0:0:
256,192,83116,1,8,0:0:0:0:
256,192,83201,5,0,0:0:0:0:
256,192,83373,1,8,0:0:0:0:
256,192,83544,1,8,0:0:0:0:
256,192,83716,1,8,0:0:0:0:
256,192,83801,1,8,0:0:0:0:
256,192,83887,1,8,0:0:0:0:
256,192,84058,5,0,0:0:0:0:
256,192,84230,5,8,0:0:0:0:
256,192,84316,1,8,0:0:0:0:
256,192,84401,1,8,0:0:0:0:
256,192,84573,5,0,0:0:0:0:
256,192,84744,5,8,0:0:0:0:
256,192,84916,1,8,0:0:0:0:
256,192,85087,1,8,0:0:0:0:
256,192,85173,1,8,0:0:0:0:
256,192,85258,1,8,0:0:0:0:
256,192,85344,1,8,0:0:0:0:
256,192,85430,5,0,0:0:0:0:
256,192,85601,5,8,0:0:0:0:
256,192,85773,1,8,0:0:0:0:
256,192,85944,5,0,0:0:0:0:
256,192,86116,5,8,0:0:0:0:
256,192,86287,1,8,0:0:0:0:
256,192,86373,1,8,0:0:0:0:
256,192,86458,1,8,0:0:0:0:
256,192,86630,1,8,0:0:0:0:
256,192,86801,5,0,0:0:0:0:
256,192,86973,1,8,0:0:0:0:
256,192,87144,1,8,0:0:0:0:
256,192,87316,5,0,0:0:0:0:
256,192,87430,5,8,0:0:0:0:
256,192,87544,1,8,0:0:0:0:
256,192,87658,1,0,0:0:0:0:
256,192,87773,1,8,0:0:0:0:
256,192,87887,1,8,0:0:0:0:
256,192,88001,5,4,0:0:0:0:
256,192,88258,5,12,0:0:0:0:
256,192,88516,1,12,0:0:0:0:
256,192,88687,5,4,0:0:0:0:
256,192,89201,1,0,0:0:0:0:
256,192,89373,5,8,0:0:0:0:
256,192,89544,1,8,0:0:0:0:
256,192,89716,1,8,0:0:0:0:
256,192,89887,1,8,0:0:0:0:
256,192,90058,5,0,0:0:0:0:
256,192,90573,1,0,0:0:0:0:
256,192,90744,5,8,0:0:0:0:
256,192,90916,1,8,0:0:0:0:
256,192,91087,1,8,0:0:0:0:
256,192,91258,5,0,0:0:0:0:
256,192,91430,1,0,0:0:0:0:
256,192,91944,1,0,0:0:0:0:
256,192,92116,5,8,0:0:0:0:
256,192,92287,1,8,0:0:0:0:
256,192,92458,5,0,0:0:0:0:
256,192,92630,1,0,0:0:0:0:
256,192,92801,1,0,0:0:0:0:
256,192,93316,1,0,0:0:0:0:
256,192,93487,5,8,0:0:0:0:
256,192,93658,5,0,0:0:0:0:
256,192,93830,1,0,0:0:0:0:
256,192,94001,1,0,0:0:0:0:
256,192,94173,1,0,0:0:0:0:
256,192,94687,1,0,0:0:0:0:
256,192,94858,5,8,0:0:0:0:
256,192,95030,1,8,0:0:0:0:
256,192,95201,5,0,0:0:0:0:
256,192,95373,1,0,0:0:0:0:
256,192,95544,1,0,0:0:0:0:
256,192,96058,1,0,0:0:0:0:
256,192,96230,5,8,0:0:0:0:
256,192,96401,1,8,0:0:0:0:
256,192,96573,1,8,0:0:0:0:
256,192,96744,5,0,0:0:0:0:
256,192,96916,1,0,0:0:0:0:
256,192,97430,1,0,0:0:0:0:
256,192,97601,5,8,0:0:0:0:
256,192,97773,1,8,0:0:0:0:
256,192,97944,1,8,0:0:0:0:
256,192,98116,1,8,0:0:0:0:
256,192,98287,5,4,0:0:0:0:
256,192,98544,5,8,0:0:0:0:
256,192,98630,5,0,0:0:0:0:
256,192,98801,5,12,0:0:0:0:
256,192,99058,5,0,0:0:0:0:
256,192,99144,5,8,0:0:0:0:
256,192,99316,5,0,0:0:0:0:
256,192,99487,5,8,0:0:0:0:
256,192,99658,5,0,0:0:0:0:
256,192,99744,5,8,0:0:0:0:
256,192,99830,1,8,0:0:0:0:
256,192,100001,1,8,0:0:0:0:
256,192,100173,5,0,0:0:0:0:
256,192,100258,5,8,0:0:0:0:
256,192,100344,1,8,0:0:0:0:
256,192,100516,1,8,0:0:0:0:
256,192,100687,5,0,0:0:0:0:
256,192,100773,1,0,0:0:0:0:
256,192,100858,5,8,0:0:0:0:
256,192,100944,1,8,0:0:0:0:
256,192,101030,5,0,0:0:0:0:
256,192,101116,5,8,0:0:0:0:
256,192,101201,1,8,0:0:0:0:
256,192,101373,1,8,0:0:0:0:
256,192,101544,5,0,0:0:0:0:
256,192,101630,5,8,0:0:0:0:
256,192,101716,1,8,0:0:0:0:
256,192,101887,1,8,0:0:0:0:
256,192,101973,1,8,0:0:0:0:
256,192,102058,5,0,0:0:0:0:
256,192,102144,1,0,0:0:0:0:
256,192,102230,5,8,0:0:0:0:
256,192,102316,1,8,0:0:0:0:
256,192,102401,5,0,0:0:0:0:
256,192,102487,5,8,0:0:0:0:
256,192,102573,1,8,0:0:0:0:
256,192,102744,5,0,0:0:0:0:
256,192,102830,1,0,0:0:0:0:
256,192,102916,5,8,0:0:0:0:
256,192,103087,5,0,0:0:0:0:
256,192,103173,5,8,0:0:0:0:
256,192,103258,1,8,0:0:0:0:
256,192,103430,5,0,0:0:0:0:
256,192,103516,1,0,0:0:0:0:
256,192,103601,5,8,0:0:0:0:
256,192,103773,5,0,0:0:0:0:
256,192,103858,1,0,0:0:0:0:
256,192,103944,5,8,0:0:0:0:
256,192,104030,1,8,0:0:0:0:
256,192,104116,5,0,0:0:0:0:
256,192,104201,1,0,0:0:0:0:
256,192,104287,5,8,0:0:0:0:
256,192,104373,1,8,0:0:0:0:
256,192,104458,5,0,0:0:0:0:
256,192,104544,1,0,0:0:0:0:
256,192,104630,5,8,0:0:0:0:
256,192,104716,1,8,0:0:0:0:
256,192,104801,5,0,0:0:0:0:
256,192,104973,5,8,0:0:0:0:
256,192,105144,5,4,0:0:0:0:
256,192,105316,5,8,0:0:0:0:
256,192,105401,1,8,0:0:0:0:
256,192,105487,5,0,0:0:0:0:
256,192,105658,5,8,0:0:0:0:
256,192,105744,1,8,0:0:0:0:
256,192,105830,5,0,0:0:0:0:
256,192,105916,5,8,0:0:0:0:
256,192,106001,1,8,0:0:0:0:
256,192,106087,1,8,0:0:0:0:
256,192,106173,5,0,0:0:0:0:
256,192,106258,5,8,0:0:0:0:
256,192,106344,1,8,0:0:0:0:
256,192,106516,5,4,0:0:0:0:
256,192,106687,5,8,0:0:0:0:
256,192,106773,1,8,0:0:0:0:
256,192,106858,5,0,0:0:0:0:
256,192,107030,5,8,0:0:0:0:
256,192,107116,1,8,0:0:0:0:
256,192,107201,5,0,0:0:0:0:
256,192,107287,5,8,0:0:0:0:
256,192,107373,1,8,0:0:0:0:
256,192,107458,1,8,0:0:0:0:
256,192,107544,5,0,0:0:0:0:
256,192,107630,1,0,0:0:0:0:
256,192,107716,5,8,0:0:0:0:
256,192,107887,5,4,0:0:0:0:
256,192,108058,5,8,0:0:0:0:
256,192,108144,1,8,0:0:0:0:
256,192,108230,5,0,0:0:0:0:
256,192,108401,5,8,0:0:0:0:
256,192,108573,5,4,0:0:0:0:
256,192,108830,1,4,0:0:0:0:
256,192,109087,1,4,0:0:0:0:
256,192,109258,6,4,L|96:192,3,140
256,192,110630,5,4,0:0:0:0:
256,192,116116,5,0,0:0:0:0:
256,192,116287,1,0,0:0:0:0:
256,192,116630,1,0,0:0:0:0:
256,192,116801,5,8,0:0:0:0:
256,192,117487,5,0,0:0:0:0:
256,192,118858,1,0,0:0:0:0:
256,192,119030,1,0,0:0:0:0:
256,192,119373,1,0,0:0:0:0:
256,192,119544,5,8,0:0:0:0:
256,192,120230,5,0,0:0:0:0:
256,192,121430,1,0,0:0:0:0:
256,192,121601,1,4,0:0:0:0:
256,192,124344,1,0,0:0:0:0:
256,192,124687,5,8,0:0:0:0:
256,192,124859,5,0,0:0:0:0:
256,192,125373,5,8,0:0:0:0:
256,192,125716,5,0,0:0:0:0:
256,192,126059,5,8,0:0:0:0:
256,192,126230,5,0,0:0:0:0:
256,192,126573,5,8,0:0:0:0:
256,192,126744,1,8,0:0:0:0:
256,192,127087,5,4,0:0:0:0:
256,192,129830,5,0,0:0:0:0:
256,192,130173,5,8,0:0:0:0:
256,192,130344,5,0,0:0:0:0:
256,192,130859,5,8,0:0:0:0:
256,192,131202,5,0,0:0:0:0:
256,192,131373,1,0,0:0:0:0:
256,192,131544,5,8,0:0:0:0:
256,192,131716,5,0,0:0:0:0:
256,192,132059,5,8,0:0:0:0:
256,192,132230,1,8,0:0:0:0:
256,192,132573,5,4,0:0:0:0:
256,192,133087,1,0,0:0:0:0:
256,192,133602,1,0,0:0:0:0:
256,192,133944,1,0,0:0:0:0:
256,192,134459,1,0,0:0:0:0:
256,192,135316,1,0,0:0:0:0:
256,192,135830,1,0,0:0:0:0:
256,192,136344,1,0,0:0:0:0:
256,192,136687,1,0,0:0:0:0:
256,192,137202,1,0,0:0:0:0:
256,192,137373,5,8,0:0:0:0:
256,192,137544,5,0,0:0:0:0:
256,192,137630,5,8,0:0:0:0:
256,192,137802,5,0,0:0:0:0:
256,192,137887,5,8,0:0:0:0:
256,192,138059,5,4,0:0:0:0:
256,192,138573,1,0,0:0:0:0:
256,192,139087,1,0,0:0:0:0:
256,192,139430,1,0,0:0:0:0:
256,192,139944,1,0,0:0:0:0:
256,192,140802,1,0,0:0:0:0:
256,192,141316,1,0,0:0:0:0:
256,192,141830,1,0,0:0:0:0:
256,192,142173,1,0,0:0:0:0:
256,192,142516,5,0,0:0:0:0:
256,192,142687,5,8,0:0:0:0:
256,192,142859,5,0,0:0:0:0:
256,192,143030,5,8,0:0:0:0:
256,192,143116,5,0,0:0:0:0:
256,192,143202,5,8,0:0:0:0:
256,192,143544,5,4,0:0:0:0:
256,192,144058,5,12,0:0:0:0:
256,192,144230,1,12,0:0:0:0:
256,192,144916,5,4,0:0:0:0:
256,192,145430,5,12,0:0:0:0:
256,192,146287,5,4,0:0:0:0:
256,192,146801,5,12,0:0:0:0:
256,192,146973,1,12,0:0:0:0:
256,192,147658,5,4,0:0:0:0:
256,192,148173,5,12,0:0:0:0:
256,192,149030,5,4,0:0:0:0:
256,192,149201,1,0,0:0:0:0:
256,192,149373,1,0,0:0:0:0:
256,192,149544,5,12,0:0:0:0:
256,192,149716,1,12,0:0:0:0:
256,192,149887,5,0,0:0:0:0:
256,192,150058,5,12,0:0:0:0:
256,192,150230,5,0,0:0:0:0:
256,192,150401,1,4,0:0:0:0:
256,192,150573,1,0,0:0:0:0:
256,192,150744,1,0,0:0:0:0:
256,192,150916,5,12,0:0:0:0:
256,192,151087,1,12,0:0:0:0:
256,192,151258,5,0,0:0:0:0:
256,192,151430,5,12,0:0:0:0:
256,192,151601,5,0,0:0:0:0:
256,192,151773,5,0,0:0:0:0:
256,192,151858,5,8,0:0:0:0:
256,192,151944,5,0,0:0:0:0:
256,192,152030,5,8,0:0:0:0:
256,192,152116,5,0,0:0:0:0:
256,192,152201,5,8,0:0:0:0:
256,192,152287,5,0,0:0:0:0:
256,192,152373,5,8,0:0:0:0:
256,192,152458,5,0,0:0:0:0:
256,192,152544,5,8,0:0:0:0:
256,192,152630,5,0,0:0:0:0:
256,192,152716,5,8,0:0:0:0:
256,192,152801,5,0,0:0:0:0:
256,192,152887,5,8,0:0:0:0:
256,192,152973,5,0,0:0:0:0:
256,192,153058,5,8,0:0:0:0:
256,192,153144,5,0,0:0:0:0:
256,192,154344,5,8,0:0:0:0:
256,192,154516,5,4,0:0:0:0:
