osu file format v14

[General]
AudioFilename: audio.mp3
AudioLeadIn: 0
PreviewTime: 43430
Countdown: 0
SampleSet: None
StackLeniency: 0.7
Mode: 1
LetterboxInBreaks: 0
WidescreenStoryboard: 0

[Editor]
Bookmarks: 154516
DistanceSpacing: 0.5
BeatDivisor: 4
GridSize: 32
TimelineZoom: 1.4

[Metadata]
Title:Tokyo (Innovaderz Remix)
TitleUnicode:Tokyo (Innovaderz Remix)
Artist:DJ Ozawa
ArtistUnicode:DJ Ozawa
Creator:Ascendance
Version:Nofool's Oni
Source:
Tags:dnb lanturn mbomb -_magic_bomb_- magic bomb californian darknessofblue fii -wwwww kaitlin zirox sorcerer tomthewizard toybot Yumeno Himiko exam examination gero tenshichan [superstar] hi_hello CLSW crystal crystalseed tasuke912 boberofdarkness bodom koliron deif spectator qoot8123 julie prophecy nofool skylish onosakihito ozzyozrock nardo nardoxyribonucleic raiden nwolf backfire chromoxx saika -saika- lop fawx
BeatmapID:949700
BeatmapSetID:427801

[Difficulty]
HPDrainRate:5
CircleSize:3
OverallDifficulty:5
ApproachRate:8
SliderMultiplier:1.4
SliderTickRate:1

[Events]
//Background and Video events
0,0,"Cities_Color_of_the_night_city_058372_.jpg",0,0
//Break Periods
2,110830,120851
//Storyboard Layer 0 (Background)
//Storyboard Layer 1 (Fail)
//Storyboard Layer 2 (Pass)
//Storyboard Layer 3 (Foreground)
//Storyboard Sound Samples

[TimingPoints]
916,342.857142857143,4,1,0,80,1,0
916,-100,4,1,0,50,0,0
22773,-100,4,1,0,80,0,0
22944,-100,4,1,0,50,0,0
33830,-100,4,1,0,70,0,0
39316,-100,4,1,0,50,0,0
44801,-100,4,1,0,80,0,1
66744,-100,4,1,0,80,0,0
77716,-100,4,1,0,70,0,0
87316,-100,4,1,0,80,0,0
88687,-100,4,1,0,80,0,0
99658,-100,4,1,0,80,0,1
110630,-100,4,1,0,80,0,0
110973,-125,4,1,0,50,0,0
121601,-100,4,1,0,50,0,0
143544,-100,4,1,0,70,0,0
149030,-100,4,1,0,80,0,0

[HitObjects]
256,192,915,12,0,3316,0:0:0:0:
256,192,3658,5,8,0:0:0:0:
256,192,3830,1,8,0:0:0:0:
256,192,6401,5,0,0:0:0:0:
256,192,6916,1,0,0:0:0:0:
256,192,7430,1,0,0:0:0:0:
256,192,9144,1,8,0:0:0:0:
256,192,9316,1,8,0:0:0:0:
256,192,11887,1,0,0:0:0:0:
256,192,12401,1,0,0:0:0:0:
256,192,12916,1,0,0:0:0:0:
256,192,14630,1,8,0:0:0:0:
256,192,14801,1,8,0:0:0:0:
256,192,17373,1,0,0:0:0:0:
256,192,17887,1,0,0:0:0:0:
256,192,18401,1,0,0:0:0:0:
256,192,20116,1,8,0:0:0:0:
256,192,20287,1,8,0:0:0:0:
256,192,22858,1,4,0:0:0:0:
256,192,23544,1,8,0:0:0:0:
256,192,23716,1,8,0:0:0:0:
256,192,23887,1,8,0:0:0:0:
256,192,24230,1,0,0:0:0:0:
256,192,24401,1,8,0:0:0:0:
256,192,24744,1,0,0:0:0:0:
256,192,24916,1,8,0:0:0:0:
256,192,25258,1,0,0:0:0:0:
256,192,25601,12,0,33487,0:0:0:0:
256,192,33830,5,8,0:0:0:0:
256,192,34173,1,0,0:0:0:0:
256,192,34344,1,8,0:0:0:0:
256,192,34516,1,8,0:0:0:0:
256,192,35201,1,0,0:0:0:0:
256,192,35544,1,0,0:0:0:0:
256,192,35716,1,8,0:0:0:0:
256,192,35887,1,8,0:0:0:0:
256,192,36573,5,8,0:0:0:0:
256,192,36916,1,0,0:0:0:0:
256,192,37087,1,8,0:0:0:0:
256,192,37259,1,8,0:0:0:0:
256,192,37944,1,0,0:0:0:0:
256,192,38287,1,0,0:0:0:0:
256,192,38459,1,8,0:0:0:0:
256,192,38630,1,8,0:0:0:0:
256,192,39316,1,8,0:0:0:0:
256,192,39487,1,0,0:0:0:0:
256,192,39658,1,0,0:0:0:0:
256,192,39830,1,8,0:0:0:0:
256,192,40001,1,0,0:0:0:0:
256,192,40173,1,0,0:0:0:0:
256,192,40344,1,8,0:0:0:0:
256,192,40516,1,0,0:0:0:0:
256,192,40687,1,8,0:0:0:0:
256,192,40858,1,0,0:0:0:0:
256,192,41030,1,0,0:0:0:0:
256,192,41201,1,8,0:0:0:0:
256,192,41373,1,0,0:0:0:0:
256,192,41544,1,0,0:0:0:0:
256,192,41716,1,8,0:0:0:0:
256,192,41887,1,0,0:0:0:0:
256,192,42058,2,0,L|416:192,4,140
256,192,44801,1,4,0:0:0:0:
256,192,45144,1,8,0:0:0:0:
256,192,45316,1,0,0:0:0:0:
256,192,45401,1,0,0:0:0:0:
256,192,45487,1,0,0:0:0:0:
256,192,45658,1,0,0:0:0:0:
256,192,45830,1,8,0:0:0:0:
256,192,46173,1,0,0:0:0:0:
256,192,46344,1,0,0:0:0:0:
256,192,46516,1,8,0:0:0:0:
256,192,46687,1,0,0:0:0:0:
256,192,47030,1,0,0:0:0:0:
256,192,47201,1,8,0:0:0:0:
256,192,47544,1,0,0:0:0:0:
256,192,47887,1,8,0:0:0:0:
256,192,48058,1,0,0:0:0:0:
256,192,48144,1,0,0:0:0:0:
256,192,48230,1,0,0:0:0:0:
256,192,48401,1,0,0:0:0:0:
256,192,48573,1,8,0:0:0:0:
256,192,48916,1,0,0:0:0:0:
256,192,49087,1,0,0:0:0:0:
256,192,49258,1,8,0:0:0:0:
256,192,49430,1,0,0:0:0:0:
224,192,49773,1,0,0:0:0:0:
256,192,49944,1,8,0:0:0:0:
256,192,50287,1,0,0:0:0:0:
256,192,50373,1,0,0:0:0:0:
256,192,50458,1,0,0:0:0:0:
256,192,50630,1,8,0:0:0:0:
256,192,50801,1,8,0:0:0:0:
256,192,50887,1,8,0:0:0:0:
256,192,50973,1,8,0:0:0:0:
256,192,51144,1,0,0:0:0:0:
256,192,51316,1,8,0:0:0:0:
256,192,51658,1,0,0:0:0:0:
256,192,51744,1,0,0:0:0:0:
256,192,51830,1,0,0:0:0:0:
256,192,52001,1,8,0:0:0:0:
256,192,52173,1,8,0:0:0:0:
256,192,52258,1,8,0:0:0:0:
256,192,52344,1,0,0:0:0:0:
256,192,52516,1,0,0:0:0:0:
256,192,52687,1,8,0:0:0:0:
256,192,53030,12,0,54058,0:0:0:0:
256,192,54401,5,8,0:0:0:0:
256,192,54573,1,0,0:0:0:0:
256,192,54744,1,0,0:0:0:0:
256,192,54916,1,8,0:0:0:0:
256,192,55087,1,0,0:0:0:0:
256,192,55258,1,0,0:0:0:0:
256,192,55430,1,8,0:0:0:0:
256,192,55601,1,0,0:0:0:0:
256,192,55658,1,0,0:0:0:0:
256,192,55716,1,0,0:0:0:0:
256,192,55773,1,0,0:0:0:0:
256,192,56116,1,8,0:0:0:0:
256,192,56458,1,0,0:0:0:0:
256,192,56630,1,0,0:0:0:0:
256,192,56801,1,8,0:0:0:0:
256,192,56973,1,0,0:0:0:0:
256,192,57058,1,0,0:0:0:0:
256,192,57144,1,0,0:0:0:0:
256,192,57316,1,0,0:0:0:0:
256,192,57487,1,8,0:0:0:0:
256,192,57658,1,0,0:0:0:0:
256,192,58001,1,0,0:0:0:0:
256,192,58173,1,8,0:0:0:0:
256,192,58516,1,0,0:0:0:0:
256,192,58858,1,8,0:0:0:0:
256,192,59201,1,0,0:0:0:0:
256,192,59373,1,0,0:0:0:0:
256,192,59544,1,8,0:0:0:0:
256,192,59716,1,0,0:0:0:0:
256,192,59801,1,0,0:0:0:0:
256,192,59887,1,0,0:0:0:0:
256,192,60058,1,0,0:0:0:0:
256,192,60230,1,8,0:0:0:0:
256,192,60401,1,0,0:0:0:0:
256,192,60744,1,0,0:0:0:0:
256,192,60916,1,8,0:0:0:0:
256,192,61258,1,0,0:0:0:0:
256,192,61344,1,0,0:0:0:0:
256,192,61430,1,0,0:0:0:0:
256,192,61601,1,8,0:0:0:0:
256,192,61773,1,0,0:0:0:0:
256,192,61858,1,0,0:0:0:0:
256,192,61944,1,0,0:0:0:0:
256,192,62116,1,0,0:0:0:0:
256,192,62287,1,8,0:0:0:0:
256,192,62630,1,0,0:0:0:0:
256,192,62716,1,0,0:0:0:0:
256,192,62801,1,0,0:0:0:0:
256,192,62973,1,8,0:0:0:0:
256,192,63144,1,8,0:0:0:0:
256,192,63230,1,8,0:0:0:0:
256,192,63316,1,8,0:0:0:0:
256,192,63487,1,0,0:0:0:0:
256,192,63658,1,8,0:0:0:0:
256,192,64001,12,0,65030,0:0:0:0:
256,192,65373,6,0,L|416:192,3,140
480,192,66744,1,4,0:0:0:0:
480,192,67087,1,8,0:0:0:0:
480,192,67430,1,0,0:0:0:0:
480,192,67601,1,0,0:0:0:0:
480,192,67773,1,8,0:0:0:0:
480,192,68116,1,0,0:0:0:0:
480,192,68201,1,0,0:0:0:0:
480,192,68287,1,0,0:0:0:0:
480,192,68458,1,8,0:0:0:0:
480,192,68630,1,0,0:0:0:0:
480,192,68973,1,0,0:0:0:0:
480,192,69144,1,8,0:0:0:0:
480,192,69487,1,0,0:0:0:0:
480,192,69830,1,8,0:0:0:0:
480,192,70173,1,0,0:0:0:0:
480,192,70344,1,0,0:0:0:0:
480,192,70516,1,8,0:0:0:0:
480,192,70687,1,0,0:0:0:0:
480,192,70859,1,0,0:0:0:0:
480,192,70944,1,0,0:0:0:0:
480,192,71030,1,0,0:0:0:0:
480,192,71201,1,8,0:0:0:0:
480,192,71373,1,0,0:0:0:0:
480,192,71716,1,0,0:0:0:0:
480,192,71887,1,8,0:0:0:0:
480,192,72230,1,4,0:0:0:0:
480,192,72573,1,8,0:0:0:0:
480,192,72916,1,0,0:0:0:0:
480,192,73087,1,0,0:0:0:0:
480,192,73259,1,8,0:0:0:0:
480,192,73602,1,0,0:0:0:0:
480,192,73687,1,0,0:0:0:0:
480,192,73773,1,0,0:0:0:0:
480,192,73944,1,8,0:0:0:0:
480,192,74116,1,0,0:0:0:0:
480,192,74459,1,0,0:0:0:0:
480,192,74630,1,8,0:0:0:0:
256,192,74973,12,0,76001,0:0:0:0:
256,192,76344,5,8,0:0:0:0:
256,192,76516,1,0,0:0:0:0:
256,192,76858,1,0,0:0:0:0:
256,192,76944,1,0,0:0:0:0:
256,192,77030,1,0,0:0:0:0:
256,192,77201,1,0,0:0:0:0:
256,192,77373,1,8,0:0:0:0:
256,192,77544,5,0,0:0:0:0:
256,192,77601,1,0,0:0:0:0:
256,192,77658,1,0,0:0:0:0:
256,192,77716,1,0,0:0:0:0:
256,192,78058,1,8,0:0:0:0:
256,192,78230,1,0,0:0:0:0:
256,192,78401,1,0,0:0:0:0:
256,192,78573,1,0,0:0:0:0:
256,192,78744,1,8,0:0:0:0:
256,192,78916,1,0,0:0:0:0:
256,192,79001,1,0,0:0:0:0:
256,192,79087,1,0,0:0:0:0:
256,192,79430,1,8,0:0:0:0:
256,192,79601,1,0,0:0:0:0:
256,192,79773,1,0,0:0:0:0:
256,192,79944,1,0,0:0:0:0:
256,192,80116,1,8,0:0:0:0:
256,192,80287,1,8,0:0:0:0:
256,192,80373,1,8,0:0:0:0:
256,192,80458,1,0,0:0:0:0:
256,192,80801,1,8,0:0:0:0:
256,192,80973,1,0,0:0:0:0:
256,192,81144,1,0,0:0:0:0:
256,192,81316,1,0,0:0:0:0:
256,192,81487,1,8,0:0:0:0:
256,192,81658,1,0,0:0:0:0:
256,192,81744,1,8,0:0:0:0:
256,192,81830,1,0,0:0:0:0:
256,192,82173,1,8,0:0:0:0:
256,192,82344,1,0,0:0:0:0:
256,192,82430,1,8,0:0:0:0:
256,192,82516,1,0,0:0:0:0:
256,192,82858,1,8,0:0:0:0:
256,192,83201,1,0,0:0:0:0:
256,192,83373,1,0,0:0:0:0:
256,192,83544,1,8,0:0:0:0:
256,192,83716,1,0,0:0:0:0:
256,192,83887,1,0,0:0:0:0:
256,192,84058,1,8,0:0:0:0:
256,192,84144,1,8,0:0:0:0:
256,192,84230,1,8,0:0:0:0:
256,192,84573,1,0,0:0:0:0:
256,192,84744,1,0,0:0:0:0:
256,192,84916,1,8,0:0:0:0:
256,192,85087,1,0,0:0:0:0:
256,192,85258,1,0,0:0:0:0:
256,192,85430,1,0,0:0:0:0:
256,192,85516,1,0,0:0:0:0:
256,192,85601,1,8,0:0:0:0:
256,192,85944,1,0,0:0:0:0:
256,192,86116,1,0,0:0:0:0:
256,192,86287,1,8,0:0:0:0:
256,192,86458,1,0,0:0:0:0:
256,192,86630,1,0,0:0:0:0:
256,192,86716,1,8,0:0:0:0:
256,192,86801,1,0,0:0:0:0:
256,192,86973,1,8,0:0:0:0:
256,192,87316,1,4,0:0:0:0:
256,192,88001,1,12,0:0:0:0:
256,192,88258,1,12,0:0:0:0:
256,192,88516,1,12,0:0:0:0:
480,192,88687,1,4,0:0:0:0:
480,192,89030,1,8,0:0:0:0:
480,192,89373,1,0,0:0:0:0:
480,192,89544,1,0,0:0:0:0:
480,192,89716,1,8,0:0:0:0:
480,192,90059,1,0,0:0:0:0:
480,192,90144,1,0,0:0:0:0:
480,192,90230,1,0,0:0:0:0:
480,192,90401,1,8,0:0:0:0:
480,192,90573,1,0,0:0:0:0:
480,192,90916,1,0,0:0:0:0:
480,192,91087,1,8,0:0:0:0:
480,192,91430,1,0,0:0:0:0:
480,192,91773,1,8,0:0:0:0:
480,192,92116,1,0,0:0:0:0:
480,192,92287,1,0,0:0:0:0:
480,192,92459,1,8,0:0:0:0:
480,192,92630,1,0,0:0:0:0:
480,192,92802,1,0,0:0:0:0:
480,192,92887,1,0,0:0:0:0:
480,192,92973,1,0,0:0:0:0:
480,192,93144,1,8,0:0:0:0:
480,192,93316,1,0,0:0:0:0:
480,192,93659,1,0,0:0:0:0:
480,192,93830,1,8,0:0:0:0:
480,192,94173,1,4,0:0:0:0:
480,192,94516,1,8,0:0:0:0:
480,192,94859,1,0,0:0:0:0:
480,192,95030,1,0,0:0:0:0:
480,192,95202,1,8,0:0:0:0:
480,192,95545,1,0,0:0:0:0:
480,192,95630,1,0,0:0:0:0:
480,192,95716,1,0,0:0:0:0:
480,192,95887,1,8,0:0:0:0:
480,192,96059,1,0,0:0:0:0:
480,192,96402,1,0,0:0:0:0:
480,192,96573,1,8,0:0:0:0:
256,192,96916,12,0,97944,0:0:0:0:
256,192,98287,5,8,0:0:0:0:
256,192,98459,1,0,0:0:0:0:
256,192,98801,1,0,0:0:0:0:
256,192,98887,1,0,0:0:0:0:
256,192,99058,1,0,0:0:0:0:
256,192,99144,1,0,0:0:0:0:
256,192,99316,1,8,0:0:0:0:
256,192,99487,5,0,0:0:0:0:
256,192,99544,1,0,0:0:0:0:
256,192,99601,1,0,0:0:0:0:
256,192,99659,1,0,0:0:0:0:
256,192,100001,1,8,0:0:0:0:
256,192,100173,1,0,0:0:0:0:
256,192,100258,1,0,0:0:0:0:
256,192,100344,1,8,0:0:0:0:
256,192,100516,1,0,0:0:0:0:
256,192,100687,1,8,0:0:0:0:
256,192,100858,1,0,0:0:0:0:
256,192,101030,1,0,0:0:0:0:
256,192,101373,1,8,0:0:0:0:
256,192,101544,1,0,0:0:0:0:
256,192,101630,1,0,0:0:0:0:
256,192,101716,1,8,0:0:0:0:
256,192,101887,1,0,0:0:0:0:
256,192,102058,1,8,0:0:0:0:
256,192,102230,1,8,0:0:0:0:
256,192,102401,1,0,0:0:0:0:
256,192,102744,1,8,0:0:0:0:
256,192,102916,1,8,0:0:0:0:
256,192,103001,1,8,0:0:0:0:
256,192,103087,1,0,0:0:0:0:
256,192,103258,1,0,0:0:0:0:
256,192,103430,1,8,0:0:0:0:
256,192,103773,2,0,L|416:192,3,140
256,192,105144,1,4,0:0:0:0:
256,192,105487,1,8,0:0:0:0:
256,192,105658,1,0,0:0:0:0:
256,192,105744,1,0,0:0:0:0:
256,192,105830,1,8,0:0:0:0:
256,192,105916,1,8,0:0:0:0:
256,192,106001,1,0,0:0:0:0:
256,192,106173,1,8,0:0:0:0:
256,192,106344,1,0,0:0:0:0:
256,192,106516,1,4,0:0:0:0:
256,192,106858,1,8,0:0:0:0:
256,192,107029,1,0,0:0:0:0:
256,192,107115,1,0,0:0:0:0:
256,192,107201,1,8,0:0:0:0:
256,192,107287,1,8,0:0:0:0:
256,192,107372,1,0,0:0:0:0:
256,192,107544,1,8,0:0:0:0:
256,192,107715,1,0,0:0:0:0:
256,192,107887,1,12,0:0:0:0:
256,192,108058,1,0,0:0:0:0:
256,192,108230,1,0,0:0:0:0:
256,192,108401,1,0,0:0:0:0:
256,192,108573,1,12,0:0:0:0:
256,192,108830,1,12,0:0:0:0:
256,192,109087,1,12,0:0:0:0:
256,192,109258,12,0,110630,0:0:0:0:
256,192,121601,12,0,124002,0:0:0:0:
256,192,124344,5,8,0:0:0:0:
256,192,124516,1,8,0:0:0:0:
256,192,127087,5,0,0:0:0:0:
256,192,127602,1,0,0:0:0:0:
256,192,128116,1,0,0:0:0:0:
256,192,129830,1,8,0:0:0:0:
256,192,130002,1,8,0:0:0:0:
256,192,132573,1,0,0:0:0:0:
256,192,133087,1,0,0:0:0:0:
256,192,133602,1,0,0:0:0:0:
256,192,135316,1,8,0:0:0:0:
256,192,135487,1,8,0:0:0:0:
256,192,138059,1,0,0:0:0:0:
256,192,138573,1,0,0:0:0:0:
256,192,139087,1,0,0:0:0:0:
256,192,140802,1,8,0:0:0:0:
256,192,140973,1,8,0:0:0:0:
256,192,143544,5,8,0:0:0:0:
256,192,143887,1,0,0:0:0:0:
256,192,144058,1,8,0:0:0:0:
256,192,144230,1,8,0:0:0:0:
256,192,144573,1,8,0:0:0:0:
256,192,144915,1,0,0:0:0:0:
256,192,145258,1,0,0:0:0:0:
256,192,145430,1,8,0:0:0:0:
256,192,145601,1,8,0:0:0:0:
256,192,145944,1,0,0:0:0:0:
256,192,146287,5,8,0:0:0:0:
256,192,146630,1,0,0:0:0:0:
256,192,146801,1,8,0:0:0:0:
256,192,146973,1,8,0:0:0:0:
256,192,147316,1,8,0:0:0:0:
256,192,147658,1,0,0:0:0:0:
256,192,148001,1,0,0:0:0:0:
256,192,148173,1,8,0:0:0:0:
256,192,148344,1,8,0:0:0:0:
256,192,148687,1,0,0:0:0:0:
256,192,149030,1,8,0:0:0:0:
256,192,149201,1,0,0:0:0:0:
256,192,149372,1,0,0:0:0:0:
256,192,149544,1,8,0:0:0:0:
256,192,149715,1,0,0:0:0:0:
256,192,149887,1,0,0:0:0:0:
256,192,150058,1,8,0:0:0:0:
256,192,150230,1,0,0:0:0:0:
256,192,150401,1,8,0:0:0:0:
256,192,150572,1,0,0:0:0:0:
256,192,150744,1,0,0:0:0:0:
256,192,150915,1,8,0:0:0:0:
256,192,151087,1,0,0:0:0:0:
256,192,151258,1,0,0:0:0:0:
256,192,151430,1,8,0:0:0:0:
256,192,151601,1,0,0:0:0:0:
256,192,151772,2,0,L|416:192,4,140
256,192,154516,1,4,0:0:0:0:
