osu file format v14

[General]
AudioFilename: audio.mp3
AudioLeadIn: 0
PreviewTime: 43430
Countdown: 0
SampleSet: None
StackLeniency: 0.7
Mode: 2
LetterboxInBreaks: 0
WidescreenStoryboard: 1

[Editor]
Bookmarks: 154601
DistanceSpacing: 1
BeatDivisor: 4
GridSize: 8
TimelineZoom: 1.1

[Metadata]
Title:Tokyo (Innovaderz Remix)
TitleUnicode:Tokyo (Innovaderz Remix)
Artist:DJ Ozawa
ArtistUnicode:DJ Ozawa
Creator:Ascendance
Version:Lanturn's Spoon
Source:
Tags:dnb lanturn mbomb -_magic_bomb_- magic bomb californian darknessofblue fii -wwwww kaitlin zirox sorcerer tomthewizard toybot Yumeno Himiko exam examination gero tenshichan [superstar] hi_hello CLSW crystal crystalseed tasuke912 boberofdarkness bodom koliron deif spectator qoot8123 julie prophecy nofool skylish onosakihito ozzyozrock nardo nardoxyribonucleic raiden nwolf backfire chromoxx saika -saika- lop fawx
BeatmapID:1028369
BeatmapSetID:427801

[Difficulty]
HPDrainRate:3
CircleSize:2
OverallDifficulty:5
ApproachRate:5
SliderMultiplier:1
SliderTickRate:1

[Events]
//Background and Video events
0,0,"Cities_Color_of_the_night_city_058372_.jpg",0,0
//Break Periods
2,111316,120230
//Storyboard Layer 0 (Background)
//Storyboard Layer 1 (Fail)
//Storyboard Layer 2 (Pass)
//Storyboard Layer 3 (Foreground)
//Storyboard Sound Samples

[TimingPoints]
916,342.857142857143,4,2,0,50,1,0
916,-133.333333333333,4,2,0,50,0,0
44801,-100,4,2,0,70,0,1
66744,-100,4,2,0,60,0,0
99316,-100,4,2,0,40,0,0
99658,-100,4,2,0,60,0,1
110630,-100,4,2,0,60,0,0
132573,-133.333333333333,4,2,0,50,0,0
143544,-100,4,2,0,60,0,0
154516,-100,4,2,0,60,0,1
154601,-100,4,2,0,60,0,0

[HitObjects]
256,264,915,5,4,0:0:0:0:
112,240,1601,2,0,B|144:184|144:184|192:160,1,112.500004291535,0|2,0:0|0:0,0:0:0:0:
408,192,3316,1,0,0:0:0:0:
320,192,3658,6,0,P|264:216|168:208,2,150.000005722046,2|0|2,0:0|0:0|0:0,0:0:0:0:
224,192,5716,1,0,0:0:0:0:
73,147,6401,5,2,0:0:0:0:
253,147,7087,2,0,B|285:91|285:91|333:67,1,112.500004291535,0|2,0:0|0:0,0:0:0:0:
424,192,8801,1,0,0:0:0:0:
336,192,9144,6,0,L|456:168,2,112.500004291535,2|0|0,0:0|0:0|0:0,0:0:0:0:
248,192,10516,2,0,L|128:168,2,112.500004291535,2|0|0,0:0|0:0|0:0,0:0:0:0:
168,224,11887,6,0,P|144:288|64:328,1,150.000005722046,2|0,0:0|0:0,0:0:0:0:
200,312,13087,1,2,0:0:0:0:
96,312,14287,1,0,0:0:0:0:
200,312,14630,6,0,P|272:272|352:288,1,150.000005722046,2|0,0:0|0:0,0:0:0:0:
160,272,16001,2,0,P|56:240|40:208,1,150.000005722046,2|0,0:0|0:0,0:0:0:0:
40,224,17373,5,2,0:0:0:0:
216,224,18058,2,0,P|296:232|328:216,1,112.500004291535,0|2,0:0|0:0,0:0:0:0:
112,208,19773,1,0,0:0:0:0:
184,264,20116,6,0,P|121:298|43:268,1,150.000005722046,2|0,0:0|0:0,0:0:0:0:
192,160,21487,2,0,L|304:96,2,112.500004291535,2|0|0,0:0|0:0|0:0,0:0:0:0:
256,192,22858,12,0,32458,0:0:0:0:
120,192,33830,5,4,0:0:0:0:
256,192,34344,2,0,L|304:192,1,37.5000014305115,4|4,0:0|0:0,0:0:0:0:
440,192,35201,2,0,L|336:264,2,112.500004291535,4|6|0,0:0|0:0|0:0,0:0:0:0:
382,192,36573,5,4,0:0:0:0:
247,192,37087,2,0,L|199:192,1,37.5000014305115,4|4,0:0|0:0,0:0:0:0:
29,192,37944,2,0,L|141:248,2,112.500004291535,4|4|0,0:0|0:0|0:0,0:0:0:0:
119,192,39316,6,0,L|119:109,1,75.0000028610231,4|0,0:0|0:0,0:0:0:0:
209,117,40001,2,0,L|209:194,1,75.0000028610231,4|0,0:0|0:0,0:0:0:0:
299,192,40687,2,0,L|299:109,1,75.0000028610231,4|0,0:0|0:0,0:0:0:0:
389,117,41373,2,0,L|389:208,1,75.0000028610231,4|0,0:0|0:0,0:0:0:0:
256,192,42058,12,2,43430,0:0:0:0:
280,272,44801,6,0,P|216:312|104:208,1,250,4|4,0:0|0:3,0:0:0:0:
103,211,45830,1,0,1:0:0:0:
203,211,46173,2,0,P|267:251|379:147,1,250,4|4,0:3|0:3,0:0:0:0:
379,150,47202,1,0,1:0:0:0:
280,80,47544,5,4,0:3:0:0:
368,128,47886,1,0,1:0:0:0:
230,80,48401,1,4,0:3:0:0:
280,80,48572,1,0,1:0:0:0:
180,80,48916,5,4,0:3:0:0:
96,128,49258,1,0,1:0:0:0:
230,80,49773,1,0,0:0:0:0:
180,80,49944,1,0,1:0:0:0:
230,80,50287,5,4,0:0:0:0:
80,80,50801,2,0,L|80:144,1,50,4|4,0:0|0:0,0:0:0:0:
168,184,51316,1,0,1:0:0:0:
256,136,51658,1,4,0:0:0:0:
405,136,52172,2,0,L|405:200,1,50,4|4,0:0|0:0,0:0:0:0:
312,232,52687,1,0,1:0:0:0:
224,176,53030,6,0,P|136:216|32:160,1,200,4|2,0:0|0:0,0:0:0:0:
224,176,54401,2,0,P|312:216|416:160,1,200,4|2,0:0|0:0,0:0:0:0:
280,272,55773,6,0,P|360:192|272:96,1,250,4|4,0:0|0:3,0:0:0:0:
291,98,56802,1,0,1:0:0:0:
191,98,57144,2,0,P|111:178|199:274,1,250,4|4,0:3|0:3,0:0:0:0:
179,271,58173,1,0,1:0:0:0:
280,272,58516,6,0,L|376:312,1,100,4|0,0:3|1:0,0:0:0:0:
478,204,59373,2,0,L|414:204,1,50,4|0,0:3|1:0,0:0:0:0:
327,204,59887,6,0,L|228:162,1,100,4|0,0:3|1:0,0:0:0:0:
128,271,60744,2,0,L|200:271,1,50,4|0,0:3|1:0,0:0:0:0:
280,264,61258,5,4,0:0:0:0:
430,264,61773,2,0,B|488:216|488:216|424:160,1,150,4|0,0:0|1:0,0:0:0:0:
331,166,62630,1,4,0:0:0:0:
181,166,63144,2,0,B|124:215|124:215|182:263,1,150,4|0,0:0|1:0,0:0:0:0:
282,263,64001,6,0,B|385:263|385:263|385:151,1,200,4|2,0:0|0:0,0:0:0:0:
184,166,65373,2,0,B|81:166|81:166|81:54,1,200,4|2,0:0|0:0,0:0:0:0:
208,224,66744,5,4,0:3:0:0:
352,88,67430,1,0,0:0:0:0:
208,224,68116,1,4,0:3:0:0:
56,88,68801,1,0,0:0:0:0:
208,224,69487,6,0,P|240:288|368:304,1,200,4|0,0:3|0:0,0:0:0:0:
208,176,70858,2,0,P|176:240|48:256,1,200,4|0,0:3|0:0,0:0:0:0:
200,120,72230,6,0,B|296:104|200:72|289:251|289:251|208:328,1,300,4|0,0:0|1:0,0:0:0:0:
316,319,73601,2,0,B|220:335|316:367|227:188|227:188|308:111,1,300,4|0,0:3|1:0,0:0:0:0:
400,176,74973,6,0,P|448:240|304:328,1,300,4|0,0:3|1:0,0:0:0:0:
207,328,76344,2,0,P|76:304|111:176,1,300,0|0,1:0|1:0,0:0:0:0:
208,192,77716,5,4,0:0:0:0:
407,192,78401,1,0,0:0:0:0:
208,192,79087,1,4,0:3:0:0:
407,192,79773,1,0,0:0:0:0:
208,192,80458,6,0,P|120:208|56:184,2,150,4|2|0,0:3|0:0|1:0,0:0:0:0:
312,192,81830,2,0,P|400:208|464:184,2,150,0|2|0,0:0|0:0|1:0,0:0:0:0:
256,104,83201,6,0,P|184:96|104:248,1,250,4|4,0:3|0:3,0:0:0:0:
98,229,84230,1,0,1:0:0:0:
198,229,84573,2,0,P|270:221|350:373,1,250,4|4,0:3|0:3,0:0:0:0:
355,354,85601,1,0,1:0:0:0:
440,304,85944,6,0,B|512:248|512:248|512:120|512:120|440:80,1,300,4|0,0:3|1:0,0:0:0:0:
355,354,87315,1,4,0:3:0:0:
216,200,88001,2,0,P|256:128|296:200,1,200,0|4,1:0|0:0,0:0:0:0:
152,296,89373,6,0,L|88:296,2,50,4|4|0,0:3|0:3|1:0,0:0:0:0:
256,128,90058,1,4,0:3:0:0:
360,296,90744,2,0,L|416:296,2,50,4|4|0,0:3|0:3|1:0,0:0:0:0:
256,296,91430,6,0,B|160:272|160:272|96:184,1,200,4|0,0:3|0:0,0:0:0:0:
256,296,92801,2,0,B|352:272|352:272|416:184,1,200,4|0,0:3|0:0,0:0:0:0:
224,128,94173,6,0,P|144:248|224:360,1,300,4|0,0:0|1:0,0:0:0:0:
325,352,95544,2,0,P|357:288|429:272,2,150,4|2|0,0:3|0:0|1:0,0:0:0:0:
425,352,96916,6,0,P|505:232|425:120,1,300,4|0,0:3|1:0,0:0:0:0:
324,119,98287,2,0,P|292:183|220:199,2,150,4|0|0,0:3|1:0|1:0,0:0:0:0:
248,88,99658,6,0,L|248:192,1,100,4|0,0:0|1:0,0:0:0:0:
144,232,100344,2,0,L|144:336,1,100,0|0,0:0|1:0,0:0:0:0:
248,238,101030,2,0,L|248:128,1,100,4|0,0:3|1:0,0:0:0:0:
352,240,101716,2,0,L|352:128,1,100,0|0,0:0|1:0,0:0:0:0:
246,86,102401,5,4,0:3:0:0:
106,87,103087,1,0,0:0:0:0:
246,86,103773,1,4,0:3:0:0:
387,86,104458,1,2,0:3:0:0:
256,48,105144,6,0,L|64:112,1,200,4|4,0:0|0:3,0:0:0:0:
256,160,106516,2,0,L|448:224,1,200,4|4,0:0|0:3,0:0:0:0:
256,264,107887,6,0,L|256:320,2,50,4|4|4,0:0|0:3|0:3,0:0:0:0:
343,216,108573,1,4,0:0:0:0:
168,216,109258,2,0,P|256:74|344:216,1,400,4|4,0:0|0:0,0:0:0:0:
256,192,121601,6,0,P|168:232|80:192,1,200,4|0,0:0|0:0,0:0:0:0:
200,104,122801,2,0,P|312:104|352:232,1,250,2|0,0:0|0:0,0:0:0:0:
208,304,124344,6,0,P|136:304|64:272,2,150,2|0|0,0:0|0:0|0:0,0:0:0:0:
308,304,125716,2,0,P|392:256|452:336,1,200,2|0,0:0|0:0,0:0:0:0:
256,192,127087,6,0,P|168:208|128:120,1,200,2|0,0:0|0:0,0:0:0:0:
280,128,128287,2,0,B|384:40|384:40|272:88|272:88|272:88,1,250,2|0,0:0|0:0,0:0:0:0:
440,136,129830,6,0,B|512:216|512:216|512:272,2,150,2|0|0,0:0|0:0|0:0,0:0:0:0:
339,136,131201,2,0,B|267:216|267:216|268:320,1,200,2|0,0:0|0:0,0:0:0:0:
215,167,132573,5,2,0:0:0:0:
96,264,133258,2,0,B|128:304|128:304|192:328,1,112.500004291535,0|2,0:0|0:0,0:0:0:0:
448,72,134973,1,0,0:0:0:0:
360,72,135316,6,0,P|416:106|360:152,1,150.000005722046,2|0,0:0|0:0,0:0:0:0:
192,152,136687,2,0,B|128:104|128:104|192:64,1,150.000005722046,2|0,0:0|0:0,0:0:0:0:
280,56,138058,6,0,B|352:56|352:56|424:112,1,150.000005722046,2|0,0:0|0:0,0:0:0:0:
280,144,139258,2,0,P|192:208|112:176,1,187.500007152558,2|0,0:0|0:0,0:0:0:0:
48,192,140801,6,0,P|128:280|168:288,1,150.000005722046,2|0,0:0|0:0,0:0:0:0:
296,240,142173,2,0,L|408:304,2,112.500004291535,2|0|2,0:0|0:0|0:0,0:0:0:0:
263,112,143544,5,4,0:0:0:0:
113,112,144058,1,4,0:0:0:0:
113,112,144230,1,4,0:0:0:0:
184,296,144916,1,4,0:0:0:0:
333,296,145430,1,4,0:0:0:0:
333,296,145601,1,4,0:0:0:0:
448,128,146287,5,4,0:0:0:0:
296,104,146801,2,0,L|224:104,1,50,4|4,0:0|0:0,0:0:0:0:
72,208,147658,1,4,0:0:0:0:
224,232,148172,2,0,L|296:232,1,50,4|4,0:0|0:0,0:0:0:0:
400,72,149030,6,0,P|432:152|392:216,1,150,4|4,0:0|0:0,0:0:0:0:
405,204,149716,1,4,0:0:0:0:
305,204,150058,1,4,0:0:0:0:
204,203,150401,2,0,P|172:283|212:347,1,150,4|4,0:0|0:0,0:0:0:0:
199,336,151087,1,4,0:0:0:0:
299,336,151429,1,4,0:0:0:0:
256,192,151773,12,2,153144,0:0:0:0:
256,104,154516,5,4,0:0:0:0:
