osu file format v14

[General]
AudioFilename: audio.mp3
AudioLeadIn: 0
PreviewTime: 43430
Countdown: 0
SampleSet: Normal
StackLeniency: 0.7
Mode: 2
LetterboxInBreaks: 0
WidescreenStoryboard: 1

[Editor]
Bookmarks: 22858,154601
DistanceSpacing: 2
BeatDivisor: 4
GridSize: 4
TimelineZoom: 2.899999

[Metadata]
Title:Tokyo (Innovaderz Remix)
TitleUnicode:Tokyo (Innovaderz Remix)
Artist:DJ Ozawa
ArtistUnicode:DJ Ozawa
Creator:Ascendance
Version:Hello's Ultra Rain
Source:
Tags:dnb lanturn mbomb -_magic_bomb_- magic bomb californian darknessofblue fii -wwwww kaitlin zirox sorcerer tomthewizard toybot Yumeno Himiko exam examination gero tenshichan [superstar] hi_hello CLSW crystal crystalseed tasuke912 boberofdarkness bodom koliron deif spectator qoot8123 julie prophecy nofool skylish onosakihito ozzyozrock nardo nardoxyribonucleic raiden nwolf backfire chromoxx saika -saika- lop fawx
BeatmapID:924847
BeatmapSetID:427801

[Difficulty]
HPDrainRate:6
CircleSize:4
OverallDifficulty:9.1
ApproachRate:9.1
SliderMultiplier:2.3
SliderTickRate:2

[Events]
//Background and Video events
0,0,"Cities_Color_of_the_night_city_058372_.jpg",0,0
//Break Periods
2,110830,120846
//Storyboard Layer 0 (Background)
//Storyboard Layer 1 (Fail)
//Storyboard Layer 2 (Pass)
//Storyboard Layer 3 (Foreground)
//Storyboard Sound Samples

[TimingPoints]
916,342.857142857143,4,2,11,40,1,0
22858,-100,4,3,11,50,0,0
33830,-100,4,1,13,70,0,0
39316,-100,4,1,11,70,0,0
43430,-100,4,1,14,70,0,0
44630,-100,4,1,11,70,0,0
44801,-100,4,2,0,60,0,1
44973,-100,4,1,11,80,0,1
55601,-100,4,1,12,40,0,1
55773,-100,4,1,12,80,0,1
55944,-100,4,1,11,80,0,1
60229,-100,4,1,12,40,0,1
60401,-100,4,1,12,50,0,1
60573,-100,4,1,12,60,0,1
60916,-100,4,1,12,80,0,1
61258,-100,4,1,11,80,0,1
65373,-100,4,1,12,80,0,1
66744,-100,4,2,14,100,0,0
66830,-100,4,1,14,80,0,0
72230,-100,4,2,0,100,0,0
72573,-100,4,1,14,80,0,0
75144,-100,4,1,12,80,0,0
78058,-100,4,1,11,80,0,0
88087,-100,4,1,11,5,0,0
88258,-100,4,1,11,80,0,0
88344,-100,4,1,11,5,0,0
88516,-100,4,1,11,80,0,0
88601,-100,4,2,11,5,0,0
88687,-100,4,1,0,80,0,0
88858,-100,4,1,14,80,0,0
94173,-100,4,1,0,100,0,0
94344,-100,4,1,14,80,0,0
96916,-100,4,1,12,80,0,0
99658,-100,4,2,0,90,0,1
99830,-100,4,1,11,60,0,1
103773,-100,4,1,12,60,0,1
105144,-100,4,1,11,60,0,1
107887,-100,4,1,12,60,0,1
108658,-100,4,2,12,5,0,1
108830,-100,4,1,12,60,0,1
108916,-100,4,2,12,5,0,1
109087,-100,4,1,12,60,0,1
109258,-100,4,1,12,80,0,1
110630,-100,4,2,0,60,0,0
121430,-100,4,1,12,90,0,0
121592,-100,4,2,11,60,0,0
121944,-100,4,2,11,60,0,0
127173,-100,4,2,11,5,0,0
127601,-100,4,2,11,60,0,0
127687,-100,4,2,11,5,0,0
128458,-100,4,2,11,60,0,0
138144,-100,4,2,11,5,0,0
138573,-100,4,2,11,60,0,0
138658,-100,4,2,11,5,0,0
139430,-100,4,2,11,60,0,0
143544,-100,4,2,0,90,0,0
143716,-100,4,1,13,80,0,0
149030,-100,4,1,11,80,0,0
153230,-100,4,2,0,5,0,0
154344,-100,4,1,14,90,0,0
154430,-100,4,1,14,5,0,0
154516,-100,4,2,11,60,0,1
154601,-100,4,2,0,60,0,0

[HitObjects]
104,316,744,5,0,0:0:0:0:
404,336,915,6,0,P|456:264|152:304,2,805,4|2|2,0:0|0:0|0:0,0:0:0:0:
172,320,3658,2,0,P|360:224|408:96,2,345,2|2|2,0:0|0:0|0:0,0:0:0:0:
408,312,5030,2,0,P|352:244|68:144,1,345,2|2,0:0|0:0,0:0:0:0:
224,116,5715,1,8,0:0:0:0:
104,128,5887,1,2,0:0:0:0:
128,96,5972,1,2,0:0:0:0:
152,64,6058,1,0,0:0:0:0:
48,56,6230,1,0,0:0:0:0:
368,336,6401,6,0,P|412:264|272:132,1,287.5,4|0,0:0|0:0,0:0:0:0:
224,188,6915,2,0,P|264:120|140:172,1,345,4|0,0:0|0:0,0:0:0:0:
360,344,7772,6,0,P|416:272|112:264,1,690,2|2,0:0|0:0,0:0:0:0:
280,316,9144,2,2,P|188:272|48:68,2,345
160,288,10515,2,0,P|268:204|376:160,1,230,2|0,0:0|0:0,0:0:0:0:
204,132,11030,1,2,0:0:0:0:
348,152,11287,1,2,0:0:0:0:
408,128,11372,1,0,0:0:0:0:
280,328,11544,2,0,P|200:244|156:156,1,172.5,2|0,0:0|0:0,0:0:0:0:
348,208,11887,6,0,P|424:160|520:20,1,230,4|0,0:0|0:0,0:0:0:0:
372,200,12401,2,0,P|276:168|108:-8,1,345,4|0,0:0|0:0,0:0:0:0:
308,100,13258,6,0,P|352:176|216:72,1,690,2|2,0:0|0:0,0:0:0:0:
388,320,14630,2,2,P|308:284|152:44,2,345
176,340,16001,2,2,P|268:232|472:144,1,345,2|0,0:0|0:0,0:0:0:0:
316,132,16687,1,10,0:0:0:0:
460,176,16858,1,2,0:0:0:0:
424,132,16944,1,2,0:0:0:0:
384,88,17030,1,2,0:0:0:0:
496,68,17201,1,2,0:0:0:0:
144,336,17372,6,0,P|100:264|240:132,1,287.5,4|0,0:0|0:0,0:0:0:0:
288,188,17886,2,0,P|248:120|372:172,1,345,4|0,0:0|0:0,0:0:0:0:
152,344,18743,6,0,P|96:272|400:264,1,690,2|2,0:0|0:0,0:0:0:0:
232,316,20115,2,2,P|324:272|464:68,2,345
352,288,21486,2,0,P|244:204|136:160,1,230,2|0,0:0|0:0,0:0:0:0:
308,132,22001,1,2,0:0:0:0:
164,152,22258,1,2,0:0:0:0:
104,128,22343,1,0,0:0:0:0:
356,252,22515,2,0,P|436:192|500:96,1,172.5,2|0,0:0|0:0,0:0:0:0:
152,280,22858,6,0,L|24:184,1,115,4|0,0:0|0:0,0:0:0:0:
264,348,23373,1,0,0:0:0:0:
184,320,23544,1,2,0:0:0:0:
140,232,23716,1,0,0:0:0:0:
176,144,23887,1,2,0:0:0:0:
268,100,24058,1,0,0:0:0:0:
360,84,24230,6,0,L|224:64,1,115,0|2,0:0|0:0,0:0:0:0:
328,52,24744,2,2,L|200:44,1,115,0|2,0:0|0:0,0:0:0:0:
356,24,25173,1,0,0:0:0:0:
144,104,25258,2,0,L|12:80,1,115,2|0,0:0|0:0,0:0:0:0:
324,196,25601,6,0,L|176:188,1,115,0|2,0:0|0:0,0:0:0:0:
360,240,26116,2,0,L|212:236,1,115,0|2,0:0|0:0,0:0:0:0:
388,280,26544,1,0,0:0:0:0:
176,308,26630,2,0,L|40:296,1,115,2|0,0:0|0:0,0:0:0:0:
416,240,26973,6,0,L|260:228,1,115,0|2,0:0|0:0,0:0:0:0:
444,196,27487,2,0,L|308:192,1,115,0|2,0:0|0:0,0:0:0:0:
472,152,27916,1,0,0:0:0:0:
208,144,28001,2,0,L|48:132,1,115,2|0,0:0|0:0,0:0:0:0:
352,336,28344,5,8,0:0:0:0:
240,304,28516,1,0,0:0:0:0:
208,208,28687,1,2,0:0:0:0:
288,132,28858,1,0,0:0:0:0:
388,112,29030,1,2,0:0:0:0:
260,88,29201,1,0,0:0:0:0:
312,76,29287,1,0,0:0:0:0:
368,64,29373,1,2,0:0:0:0:
232,40,29544,1,0,0:0:0:0:
88,88,29716,6,0,L|216:80,1,115,0|2,0:0|0:0,0:0:0:0:
64,132,30230,2,0,L|192:120,1,115,0|2,0:0|0:0,0:0:0:0:
48,184,30658,1,0,0:0:0:0:
320,212,30744,2,0,L|452:200,1,115,2|0,0:0|0:0,0:0:0:0:
152,280,31087,6,0,L|284:268,1,115,0|2,0:0|0:0,0:0:0:0:
136,320,31601,2,0,L|272:296,1,115,0|2,0:0|0:0,0:0:0:0:
76,280,32030,1,0,0:0:0:0:
372,240,32116,2,0,L|520:232,1,115,2|0,0:0|0:0,0:0:0:0:
200,172,32458,6,0,L|328:164,1,115,0|2,0:0|0:0,0:0:0:0:
156,132,32973,2,2,L|276:128,1,115,0|0,0:0|0:0,0:0:0:0:
104,84,33401,1,0,0:0:0:0:
376,84,33487,2,0,L|504:84,1,115,2|0,0:0|0:0,0:0:0:0:
108,288,33830,6,0,L|20:192,1,115,4|0,0:0|0:0,0:0:0:0:
320,196,34344,1,0,0:0:0:0:
60,296,34516,2,0,P|36:224|136:76,1,230,2|0,0:0|0:0,0:0:0:0:
404,288,35202,6,0,L|492:192,1,115
192,196,35716,1,0,0:0:0:0:
452,296,35888,2,0,P|476:224|376:76,1,230,2|0,0:0|0:0,0:0:0:0:
40,160,36573,6,0,L|152:100,1,115
392,152,37087,1,0,0:0:0:0:
84,288,37259,2,0,P|20:216|128:108,1,230,2|0,0:0|0:0,0:0:0:0:
440,212,37944,6,0,L|472:84,1,115
184,192,38459,1,0,0:0:0:0:
432,320,38630,2,0,P|464:240|344:140,1,230,2|0,0:0|0:0,0:0:0:0:
112,120,39316,5,8,0:0:0:0:
240,140,39487,1,0,0:0:0:0:
104,184,39659,1,0,0:0:0:0:
240,192,39830,1,8,0:0:0:0:
96,236,40002,1,0,0:0:0:0:
244,248,40173,1,0,0:0:0:0:
88,284,40344,1,8,0:0:0:0:
248,308,40516,1,0,0:0:0:0:
400,120,40687,5,8,0:0:0:0:
272,140,40858,1,0,0:0:0:0:
408,184,41030,1,0,0:0:0:0:
272,192,41201,1,8,0:0:0:0:
416,236,41373,1,0,0:0:0:0:
268,248,41544,1,0,0:0:0:0:
424,284,41715,1,8,0:0:0:0:
264,308,41887,1,0,0:0:0:0:
432,340,42059,5,8,0:0:0:0:
452,292,42144,1,0,0:0:0:0:
464,240,42230,1,8,0:0:0:0:
464,184,42316,1,0,0:0:0:0:
444,124,42402,5,8,0:0:0:0:
404,80,42487,1,0,0:0:0:0:
352,52,42573,1,8,0:0:0:0:
292,32,42659,1,0,0:0:0:0:
232,24,42744,5,8,0:0:0:0:
168,24,42830,1,0,0:0:0:0:
108,40,42916,1,8,0:0:0:0:
52,80,43002,1,0,0:0:0:0:
24,128,43087,5,8,0:0:0:0:
16,184,43173,1,8,0:0:0:0:
20,240,43259,1,8,0:0:0:0:
48,296,43344,1,8,0:0:0:0:
244,272,43430,2,0,P|296:224|80:268,1,805,2|8,0:0|0:0,0:0:0:0:
444,328,44801,6,0,P|460:248|348:144,1,230,4|8,0:0|0:0,0:0:0:0:
264,140,45316,2,0,L|388:108,1,115,2|0,0:0|0:0,0:0:0:0:
300,84,45573,1,0,0:0:0:0:
100,112,45658,2,0,L|208:48,1,115,0|8,0:0|0:0,0:0:0:0:
32,48,46001,1,0,0:0:0:0:
276,280,46173,6,0,L|36:244,1,230,0|8,0:0|0:0,0:0:0:0:
180,216,46687,2,0,L|60:156,1,115,2|0,0:0|0:0,0:0:0:0:
156,152,46944,1,0,0:0:0:0:
332,168,47030,2,0,L|436:120,1,115,0|8,0:0|0:0,0:0:0:0:
264,96,47373,1,0,0:0:0:0:
420,340,47544,6,0,P|436:300|320:176,1,230,2|8,0:0|0:0,0:0:0:0:
436,112,48058,2,0,L|316:92,1,115,2|0,0:0|0:0,0:0:0:0:
272,88,48316,1,0,0:0:0:0:
76,64,48401,2,0,L|200:48,1,115,0|8,0:0|0:0,0:0:0:0:
40,32,48744,1,0,0:0:0:0:
328,324,48916,6,0,P|408:248|440:168,1,172.5,4|0,0:0|0:0,0:0:0:0:
156,188,49258,1,8,0:0:0:0:
280,192,49430,2,0,P|332:152|384:52,1,172.5,4|0,0:0|0:0,0:0:0:0:
172,72,49773,1,0,0:0:0:0:
308,104,49944,2,0,L|308:36,3,57.5,8|0|0|0,0:0|0:0|0:0|0:0,0:0:0:0:
112,324,50287,6,0,P|84:232|132:168,1,172.5,8|0,0:0|0:0,0:0:0:0:
180,164,50630,1,2,0:0:0:0:
60,152,50801,2,0,L|296:128,1,230,8|2,0:0|0:0,0:0:0:0:
168,100,51316,1,8,0:0:0:0:
76,88,51401,1,0,0:0:0:0:
424,300,51658,6,0,P|456:232|388:148,1,172.5,10|0,0:0|0:0,0:0:0:0:
352,152,52001,1,2,0:0:0:0:
476,108,52173,2,0,L|236:92,1,230,8|2,0:0|0:0,0:0:0:0:
316,60,52687,1,8,0:0:0:0:
412,40,52773,1,0,0:0:0:0:
176,312,53030,6,0,P|120:232|228:152,1,230,0|8,0:0|0:0,0:0:0:0:
312,156,53544,1,2,0:0:0:0:
200,132,53716,1,0,0:0:0:0:
264,112,53801,1,0,0:0:0:0:
324,96,53887,1,0,0:0:0:0:
180,64,54058,1,10,0:0:0:0:
340,272,54230,1,0,0:0:0:0:
272,276,54316,1,0,0:0:0:0:
208,280,54401,6,0,P|148:232|240:148,1,230,8|0,0:0|0:0,0:0:0:0:
296,148,54830,1,0,0:0:0:0:
96,200,54916,2,0,P|68:144|176:48,1,230,8|2,0:0|0:0,0:0:0:0:
376,88,55430,2,0,L|424:48,1,57.5,8|0,0:0|0:0,0:0:0:0:
204,84,55601,2,0,L|160:32,1,57.5,8|8,0:0|0:0,0:0:0:0:
420,184,55773,1,4,0:0:0:0:
168,320,56116,5,8,0:0:0:0:
312,296,56287,2,0,L|180:276,1,115,2|0,0:0|0:0,0:0:0:0:
268,264,56544,1,0,0:0:0:0:
420,260,56630,2,0,L|340:152,1,115,0|8,0:0|0:0,0:0:0:0:
488,156,56973,1,0,0:0:0:0:
112,152,57144,6,0,L|368:116,1,230,0|8,0:0|0:0,0:0:0:0:
228,72,57658,2,0,L|104:36,1,115,2|0,0:0|0:0,0:0:0:0:
192,32,57916,1,0,0:0:0:0:
360,72,58001,2,0,L|476:36,1,115,0|8,0:0|0:0,0:0:0:0:
304,40,58344,1,0,0:0:0:0:
452,204,58516,6,0,L|176:160,1,230,0|8,0:0|0:0,0:0:0:0:
344,144,59030,2,0,L|188:124,1,115,2|0,0:0|0:0,0:0:0:0:
280,104,59287,1,0,0:0:0:0:
332,88,59373,1,0,0:0:0:0:
136,224,59544,2,0,P|100:152|212:56,1,230,8|0,0:0|0:0,0:0:0:0:
392,72,60058,5,2,0:0:0:0:
104,120,60230,2,0,L|200:208,1,115,12|0,0:0|0:0,0:0:0:0:
52,220,60573,1,8,0:0:0:0:
292,304,60744,1,2,0:0:0:0:
232,324,60830,1,2,0:0:0:0:
180,336,60916,2,0,L|116:204,1,115,8|0,0:0|0:0,0:0:0:0:
432,212,61258,6,0,P|484:164|428:80,1,172.5,2|0,0:0|0:0,0:0:0:0:
228,96,61601,1,8,0:0:0:0:
376,160,61773,2,0,L|148:100,1,230,2|0,0:0|0:0,0:0:0:0:
348,92,62287,2,0,L|480:52,1,115,8|0,0:0|0:0,0:0:0:0:
4,280,62630,6,0,L|224:240,1,172.5,2|0,0:0|0:0,0:0:0:0:
328,184,62973,1,8,0:0:0:0:
200,172,63144,2,2,L|436:128,1,230
264,104,63658,2,0,L|384:76,1,115,8|0,0:0|0:0,0:0:0:0:
124,336,64001,6,0,P|68:272|92:168,1,172.5,2|0,0:0|0:0,0:0:0:0:
128,160,64344,1,8,0:0:0:0:
272,164,64516,1,0,0:0:0:0:
180,120,64687,1,2,0:0:0:0:
244,104,64773,1,0,0:0:0:0:
304,84,64858,1,0,0:0:0:0:
188,52,65030,1,8,0:0:0:0:
64,24,65201,1,0,0:0:0:0:
440,324,65373,6,0,L|460:256,3,57.5,8|0|0|0,0:0|0:0|0:0|0:0,0:0:0:0:
272,328,65716,2,0,L|252:260,3,57.5,8|0|0|0,0:0|0:0|0:0|0:0,0:0:0:0:
72,324,66058,2,0,L|52:256,3,57.5,8|0|8|0,0:0|0:0|0:0|0:0,0:0:0:0:
336,320,66401,2,8,L|356:252,3,57.5
96,320,66744,6,0,P|64:240|148:180,1,172.5,4|0,0:0|0:0,0:0:0:0:
360,204,67087,1,10,0:0:0:0:
256,188,67258,1,0,0:0:0:0:
156,168,67430,1,0,0:0:0:0:
124,120,67516,1,0,0:0:0:0:
92,64,67601,1,0,0:0:0:0:
220,88,67773,1,8,0:0:0:0:
68,176,67944,1,0,0:0:0:0:
368,300,68116,6,0,L|292:188,1,115,4|0,0:0|0:0,0:0:0:0:
448,184,68458,2,0,L|496:76,1,115,10|0,0:0|0:0,0:0:0:0:
312,128,68801,1,0,0:0:0:0:
264,88,68887,1,0,0:0:0:0:
212,52,68973,1,0,0:0:0:0:
372,64,69144,1,8,0:0:0:0:
232,192,69316,1,0,0:0:0:0:
288,208,69401,1,0,0:0:0:0:
344,212,69487,6,0,L|404:100,1,115,4|0,0:0|0:0,0:0:0:0:
216,128,69830,1,10,0:0:0:0:
388,280,70001,1,0,0:0:0:0:
240,300,70173,1,0,0:0:0:0:
292,288,70258,1,0,0:0:0:0:
344,276,70344,1,0,0:0:0:0:
240,220,70516,2,0,L|380:176,1,115,8|0,0:0|0:0,0:0:0:0:
56,208,70858,6,0,L|8:80,1,115,4|0,0:0|0:0,0:0:0:0:
156,120,71201,1,10,0:0:0:0:
52,200,71373,1,0,0:0:0:0:
332,304,71544,2,0,L|396:120,1,172.5,2|0,0:0|0:0,0:0:0:0:
316,124,71887,1,10,0:0:0:0:
120,300,72058,1,8,0:0:0:0:
172,320,72144,1,0,0:0:0:0:
400,312,72230,6,0,P|452:264|504:144,1,172.5,4|0,0:0|0:0,0:0:0:0:
252,176,72573,1,10,0:0:0:0:
376,168,72744,2,0,L|264:120,1,115
212,108,73001,1,0,0:0:0:0:
152,96,73087,1,0,0:0:0:0:
296,68,73258,1,8,0:0:0:0:
136,44,73430,1,0,0:0:0:0:
372,224,73601,6,0,L|296:116,1,115,4|0,0:0|0:0,0:0:0:0:
444,192,73944,2,0,L|488:72,1,115,10|0,0:0|0:0,0:0:0:0:
320,224,74287,1,0,0:0:0:0:
376,204,74373,1,0,0:0:0:0:
428,164,74458,2,0,L|452:104,1,57.5
428,84,74630,2,0,L|352:56,1,57.5,8|0,0:0|0:0,0:0:0:0:
308,48,74801,2,0,L|220:36,1,57.5
456,300,74973,6,0,P|500:228|452:136,1,172.5,4|0,0:0|0:0,0:0:0:0:
160,152,75316,1,6,0:0:0:0:
300,152,75487,2,0,P|328:236|268:328,1,172.5,2|0,0:0|0:0,0:0:0:0:
124,316,75830,1,2,0:0:0:0:
280,328,76001,2,0,P|328:284|416:148,1,172.5,2|0,0:0|0:0,0:0:0:0:
72,216,76344,6,0,L|20:92,1,115,8|0,0:0|0:0,0:0:0:0:
172,112,76687,1,4,0:0:0:0:
440,248,76858,2,0,L|492:124,1,115,8|0,0:0|0:0,0:0:0:0:
340,152,77201,1,4,0:0:0:0:
88,328,77373,2,8,L|84:248,4,57.5,8|8|8|8|12,0:0|0:0|0:0|0:0|0:0,0:0:0:0:
192,344,77887,1,0,0:0:0:0:
444,312,78058,5,8,0:0:0:0:
324,288,78230,2,0,L|284:156,1,115,2|0,0:0|0:0,0:0:0:0:
424,216,78573,2,0,L|460:76,1,115,2|8,0:0|0:0,0:0:0:0:
288,108,78916,1,0,0:0:0:0:
416,196,79087,6,0,L|448:68,1,115,2|0,0:0|0:0,0:0:0:0:
264,232,79430,2,0,L|232:84,1,115,8|2,0:0|0:0,0:0:0:0:
400,140,79773,1,0,0:0:0:0:
272,196,79944,1,2,0:0:0:0:
400,224,80116,1,8,0:0:0:0:
292,284,80287,1,0,0:0:0:0:
424,320,80458,6,0,L|448:168,1,115,2|0,0:0|0:0,0:0:0:0:
296,328,80801,2,0,L|264:196,1,115,8|2,0:0|0:0,0:0:0:0:
416,176,81144,1,0,0:0:0:0:
280,144,81316,1,2,0:0:0:0:
408,96,81487,1,8,0:0:0:0:
280,60,81658,1,0,0:0:0:0:
336,52,81744,1,0,0:0:0:0:
392,36,81830,6,0,L|356:184,1,115,2|0,0:0|0:0,0:0:0:0:
232,184,82173,1,8,0:0:0:0:
348,244,82344,1,2,0:0:0:0:
284,264,82430,1,0,0:0:0:0:
220,280,82516,1,0,0:0:0:0:
156,296,82601,1,0,0:0:0:0:
96,304,82687,2,0,L|188:212,1,115,2|8,0:0|0:0,0:0:0:0:
304,188,83030,1,0,0:0:0:0:
44,196,83201,6,0,L|24:72,1,115,4|0,0:0|0:0,0:0:0:0:
172,128,83544,1,10,0:0:0:0:
456,264,83716,2,0,L|480:120,1,115,4|0,0:0|0:0,0:0:0:0:
336,172,84058,1,4,0:0:0:0:
448,132,84230,1,8,0:0:0:0:
320,104,84401,1,0,0:0:0:0:
436,216,84573,5,4,0:0:0:0:
384,204,84658,1,0,0:0:0:0:
328,184,84744,2,0,L|304:52,1,115,0|8,0:0|0:0,0:0:0:0:
448,68,85087,1,4,0:0:0:0:
208,232,85258,1,0,0:0:0:0:
272,208,85344,1,0,0:0:0:0:
328,176,85430,2,0,L|352:52,1,115,4|8,0:0|0:0,0:0:0:0:
52,68,85773,1,0,0:0:0:0:
208,344,85944,5,4,0:0:0:0:
96,344,86116,1,0,0:0:0:0:
224,288,86287,1,8,0:0:0:0:
112,272,86458,1,4,0:0:0:0:
256,224,86630,1,0,0:0:0:0:
192,232,86716,1,0,0:0:0:0:
128,236,86801,2,0,L|92:120,1,115,4|8,0:0|0:0,0:0:0:0:
256,132,87144,1,0,0:0:0:0:
120,128,87316,6,0,L|56:72,1,76.6666666666667,2|0,0:0|0:0,0:0:0:0:
132,100,87544,2,0,L|60:40,1,76.6666666666667,2|0,0:0|0:0,0:0:0:0:
152,68,87773,2,0,L|72:0,1,76.6666666666667,2|0,0:0|0:0,0:0:0:0:
268,160,88001,2,0,L|128:64,1,153.333333333333,2|0,0:0|0:0,0:0:0:0:
180,64,88287,2,0,L|312:48,1,115,8|0,0:0|0:0,0:0:0:0:
320,48,88516,2,0,L|240:124,1,76.6666666666667,2|0,0:0|0:0,0:0:0:0:
64,124,88687,5,4,0:0:0:0:
348,204,89030,2,0,L|432:92,1,115,8|0,0:0|0:0,0:0:0:0:
272,136,89373,2,0,L|172:72,1,115
352,84,89716,2,0,L|480:24,1,115,8|0,0:0|0:0,0:0:0:0:
112,328,90058,6,0,P|80:224|160:184,1,172.5,4|0,0:0|0:0,0:0:0:0:
316,200,90401,2,0,L|392:104,1,115,10|0,0:0|0:0,0:0:0:0:
248,152,90744,1,0,0:0:0:0:
300,112,90830,1,0,0:0:0:0:
332,60,90916,2,0,L|344:-12,1,57.5
324,12,91087,2,0,L|256:44,1,57.5,8|0,0:0|0:0,0:0:0:0:
196,48,91258,2,0,L|120:48,1,57.5
388,304,91430,6,0,P|460:180|476:136,1,172.5,4|0,0:0|0:0,0:0:0:0:
256,184,91773,2,0,L|360:136,1,115,10|0,0:0|0:0,0:0:0:0:
236,96,92116,1,0,0:0:0:0:
328,56,92287,1,0,0:0:0:0:
224,168,92458,1,8,0:0:0:0:
356,196,92630,1,0,0:0:0:0:
120,320,92801,6,0,L|304:232,1,172.5,4|0,0:0|0:0,0:0:0:0:
124,200,93144,2,0,L|24:124,1,115,10|0,0:0|0:0,0:0:0:0:
344,336,93487,2,0,P|376:280|424:160,1,172.5,2|0,0:0|0:0,0:0:0:0:
208,184,93830,1,8,0:0:0:0:
336,144,94087,1,8,0:0:0:0:
104,280,94173,6,0,P|52:208|0:108,1,172.5,4|0,0:0|0:0,0:0:0:0:
208,132,94516,2,0,L|256:12,1,115,10|0,0:0|0:0,0:0:0:0:
128,68,94858,1,0,0:0:0:0:
256,140,95030,1,0,0:0:0:0:
116,180,95201,1,8,0:0:0:0:
268,256,95373,1,0,0:0:0:0:
12,320,95544,6,0,L|196:288,1,172.5,4|0,0:0|0:0,0:0:0:0:
428,296,95887,2,0,L|480:168,1,115,10|0,0:0|0:0,0:0:0:0:
340,224,96230,1,0,0:0:0:0:
384,180,96316,1,0,0:0:0:0:
404,120,96401,1,0,0:0:0:0:
388,56,96487,1,0,0:0:0:0:
336,16,96573,1,8,0:0:0:0:
272,8,96658,1,0,0:0:0:0:
208,8,96744,1,0,0:0:0:0:
152,24,96830,1,0,0:0:0:0:
364,152,96916,6,0,L|452:68,1,115,12|0,0:0|0:0,0:0:0:0:
160,156,97258,2,0,L|32:64,1,115,8|0,0:0|0:0,0:0:0:0:
384,180,97601,2,0,L|472:96,1,115,8|0,0:0|0:0,0:0:0:0:
172,208,97943,2,0,L|44:116,1,115,8|0,0:0|0:0,0:0:0:0:
416,348,98287,6,0,P|448:272|484:152,1,172.5,2|0,0:0|0:0,0:0:0:0:
180,192,98630,1,8,0:0:0:0:
328,188,98801,2,0,P|360:120|292:48,1,172.5,2|0,0:0|0:0,0:0:0:0:
40,56,99144,1,8,0:0:0:0:
216,116,99316,1,2,0:0:0:0:
96,136,99487,2,0,L|96:220,1,57.5,2|0,0:0|0:0,0:0:0:0:
352,328,99658,5,4,0:0:0:0:
388,280,99744,1,0,0:0:0:0:
396,212,99830,1,0,0:0:0:0:
372,144,99916,1,8,0:0:0:0:
192,136,100001,1,8,0:0:0:0:
320,232,100173,1,0,0:0:0:0:
340,168,100258,1,0,0:0:0:0:
316,108,100344,1,0,0:0:0:0:
272,64,100430,1,0,0:0:0:0:
208,40,100516,1,8,0:0:0:0:
96,40,100687,1,2,0:0:0:0:
344,144,100858,1,4,0:0:0:0:
108,328,101030,5,0,0:0:0:0:
88,264,101116,1,0,0:0:0:0:
104,200,101201,1,0,0:0:0:0:
152,156,101287,1,8,0:0:0:0:
356,140,101373,1,8,0:0:0:0:
204,328,101544,1,0,0:0:0:0:
168,280,101630,1,0,0:0:0:0:
160,212,101716,1,0,0:0:0:0:
184,144,101802,1,0,0:0:0:0:
248,116,101887,1,8,0:0:0:0:
368,104,102058,1,2,0:0:0:0:
192,68,102230,1,4,0:0:0:0:
448,288,102401,6,0,L|448:204,4,57.5,0|0|0|8|8,0:0|0:0|0:0|0:0|0:0,0:0:0:0:
208,332,102916,1,0,0:0:0:0:
56,272,103087,2,0,L|56:172,4,57.5,0|0|8|0|2,0:0|0:0|0:0|0:0|0:0,0:0:0:0:
292,332,103601,1,4,0:0:0:0:
124,368,103773,5,8,0:0:0:0:
72,332,103858,1,8,0:0:0:0:
40,276,103943,1,8,0:0:0:0:
40,208,104029,1,8,0:0:0:0:
76,148,104115,1,8,0:0:0:0:
136,112,104201,1,8,0:0:0:0:
200,96,104286,1,8,0:0:0:0:
264,88,104373,1,8,0:0:0:0:
452,112,104458,6,0,L|452:32,3,57.5,8|0|8|0,0:0|0:0|0:0|0:0,0:0:0:0:
216,196,104801,2,8,L|216:112,3,57.5
448,328,105144,6,0,L|480:184,1,115,4|0,0:0|0:0,0:0:0:0:
200,284,105487,2,0,L|160:160,1,115,8|0,0:0|0:0,0:0:0:0:
304,320,105830,1,2,0:0:0:0:
244,296,105916,1,2,0:0:0:0:
224,232,106001,1,2,0:0:0:0:
232,168,106087,1,0,0:0:0:0:
280,132,106173,1,8,0:0:0:0:
332,112,106258,1,0,0:0:0:0:
388,100,106344,1,2,0:0:0:0:
224,152,106516,6,0,L|192:32,1,115,4|0,0:0|0:0,0:0:0:0:
332,212,106858,2,0,L|372:64,1,115,8|0,0:0|0:0,0:0:0:0:
208,320,107201,1,2,0:0:0:0:
268,296,107287,1,2,0:0:0:0:
288,232,107372,1,2,0:0:0:0:
280,168,107458,1,0,0:0:0:0:
232,132,107544,1,8,0:0:0:0:
180,112,107629,1,0,0:0:0:0:
124,100,107715,1,2,0:0:0:0:
332,308,107887,5,8,0:0:0:0:
204,264,108058,1,8,0:0:0:0:
344,212,108230,1,8,0:0:0:0:
200,180,108401,1,8,0:0:0:0:
352,128,108573,6,0,L|408:12,1,115,8|0,0:0|0:0,0:0:0:0:
148,176,108830,2,0,L|88:52,1,115,8|0,0:0|0:0,0:0:0:0:
328,200,109087,2,0,L|396:80,1,115,8|8,0:0|0:0,0:0:0:0:
404,152,109344,5,8,0:0:0:0:
408,208,109430,1,8,0:0:0:0:
388,268,109516,1,0,0:0:0:0:
348,312,109601,1,8,0:0:0:0:
288,336,109687,1,8,0:0:0:0:
220,348,109773,1,8,0:0:0:0:
156,336,109858,1,0,0:0:0:0:
104,296,109944,5,8,0:0:0:0:
60,248,110030,1,8,0:0:0:0:
40,184,110116,1,8,0:0:0:0:
44,120,110201,1,0,0:0:0:0:
80,64,110287,1,8,0:0:0:0:
136,32,110373,1,8,0:0:0:0:
200,16,110458,1,8,0:0:0:0:
264,16,110544,1,0,0:0:0:0:
480,32,110630,1,6,0:0:0:0:
408,316,121430,5,0,0:0:0:0:
108,336,121601,2,0,P|56:264|360:304,2,805,4|2|2,0:0|0:0|0:0,0:0:0:0:
340,320,124344,2,0,P|152:224|104:96,2,345,2|2|2,0:0|0:0|0:0,0:0:0:0:
104,312,125716,2,0,P|160:244|444:144,1,345,2|2,0:0|0:0,0:0:0:0:
288,116,126401,1,8,0:0:0:0:
408,128,126573,1,2,0:0:0:0:
384,96,126658,1,2,0:0:0:0:
360,64,126744,1,0,0:0:0:0:
464,56,126916,1,0,0:0:0:0:
144,336,127087,6,0,P|100:264|240:132,1,287.5,4|0,0:0|0:0,0:0:0:0:
288,188,127601,2,0,P|248:120|372:172,1,345,4|0,0:0|0:0,0:0:0:0:
152,344,128458,6,0,P|96:272|400:264,1,690,2|2,0:0|0:0,0:0:0:0:
232,316,129830,2,2,P|324:272|464:68,2,345
352,288,131201,2,0,P|244:204|136:160,1,230,2|0,0:0|0:0,0:0:0:0:
308,132,131716,1,2,0:0:0:0:
164,152,131973,1,2,0:0:0:0:
104,128,132058,1,0,0:0:0:0:
232,328,132230,2,0,P|312:244|356:156,1,172.5,2|0,0:0|0:0,0:0:0:0:
164,208,132573,6,0,P|88:160|-8:20,1,230,4|0,0:0|0:0,0:0:0:0:
140,200,133087,2,0,P|236:168|404:-8,1,345,4|0,0:0|0:0,0:0:0:0:
204,100,133944,2,0,P|160:176|296:72,1,690,2|2,0:0|0:0,0:0:0:0:
124,320,135316,2,2,P|204:284|360:44,2,345
336,340,136687,2,2,P|244:232|40:144,1,345,2|0,0:0|0:0,0:0:0:0:
196,132,137373,1,10,0:0:0:0:
52,176,137544,1,2,0:0:0:0:
88,132,137630,1,2,0:0:0:0:
128,88,137716,1,2,0:0:0:0:
16,68,137887,1,2,0:0:0:0:
368,336,138058,6,0,P|412:264|272:132,1,287.5,4|0,0:0|0:0,0:0:0:0:
224,188,138572,2,0,P|264:120|140:172,1,345,4|0,0:0|0:0,0:0:0:0:
360,344,139429,6,0,P|416:272|112:264,1,690,2|2,0:0|0:0,0:0:0:0:
280,316,140801,2,2,P|188:272|48:68,2,345
160,288,142172,2,0,P|268:204|376:160,1,230,2|0,0:0|0:0,0:0:0:0:
204,132,142687,1,2,0:0:0:0:
348,152,142944,1,2,0:0:0:0:
408,128,143029,1,0,0:0:0:0:
156,252,143201,2,0,P|76:192|12:96,1,172.5,2|0,0:0|0:0,0:0:0:0:
404,288,143544,6,0,L|492:192,1,115,4|0,0:0|0:0,0:0:0:0:
192,196,144058,1,0,0:0:0:0:
452,296,144230,2,0,P|476:224|376:76,1,230,2|0,0:0|0:0,0:0:0:0:
108,288,144916,6,0,L|20:192,1,115
320,196,145430,1,0,0:0:0:0:
60,296,145602,2,0,P|36:224|136:76,1,230,2|0,0:0|0:0,0:0:0:0:
472,160,146287,6,0,L|360:100,1,115
120,152,146801,1,0,0:0:0:0:
428,288,146973,2,0,P|492:216|384:108,1,230,2|0,0:0|0:0,0:0:0:0:
72,212,147658,6,0,L|40:84,1,115
328,192,148173,1,0,0:0:0:0:
80,320,148344,2,0,P|48:240|168:140,1,230,2|0,0:0|0:0,0:0:0:0:
400,120,149030,5,8,0:0:0:0:
272,140,149201,1,0,0:0:0:0:
408,184,149373,1,0,0:0:0:0:
272,192,149544,1,8,0:0:0:0:
416,236,149716,1,0,0:0:0:0:
268,248,149887,1,0,0:0:0:0:
424,284,150058,1,8,0:0:0:0:
264,308,150230,1,0,0:0:0:0:
112,120,150401,5,8,0:0:0:0:
240,140,150572,1,0,0:0:0:0:
104,184,150744,1,0,0:0:0:0:
240,192,150915,1,8,0:0:0:0:
96,236,151087,1,0,0:0:0:0:
244,248,151258,1,0,0:0:0:0:
88,284,151429,1,8,0:0:0:0:
248,308,151601,1,0,0:0:0:0:
80,340,151773,5,8,0:0:0:0:
60,292,151858,1,0,0:0:0:0:
48,240,151944,1,8,0:0:0:0:
48,184,152030,1,0,0:0:0:0:
68,124,152116,5,8,0:0:0:0:
108,80,152201,1,0,0:0:0:0:
160,52,152287,1,8,0:0:0:0:
220,32,152373,1,0,0:0:0:0:
280,24,152458,5,8,0:0:0:0:
344,24,152544,1,0,0:0:0:0:
404,40,152630,1,8,0:0:0:0:
460,80,152716,1,0,0:0:0:0:
488,128,152801,5,8,0:0:0:0:
496,184,152887,1,8,0:0:0:0:
492,240,152973,1,8,0:0:0:0:
464,296,153058,1,8,0:0:0:0:
128,356,153144,2,0,P|72:288|284:128,1,402.5,2|0,0:0|0:0,0:0:0:0:
484,148,153830,1,2,0:0:0:0:
136,292,154344,6,2,L|112:232,1,57.5
384,256,154516,1,4,0:0:0:0:
