osu file format v14

[General]
AudioFilename: audio.mp3
AudioLeadIn: 0
PreviewTime: 43430
Countdown: 0
SampleSet: Soft
StackLeniency: 0.7
Mode: 2
LetterboxInBreaks: 0
WidescreenStoryboard: 1

[Editor]
Bookmarks: 744,83201,154516
DistanceSpacing: 1.3
BeatDivisor: 4
GridSize: 8
TimelineZoom: 2

[Metadata]
Title:Tokyo (Innovaderz Remix)
TitleUnicode:Tokyo (Innovaderz Remix)
Artist:DJ Ozawa
ArtistUnicode:DJ Ozawa
Creator:Ascendance
Version:Geroscendance's Rain
Source:
Tags:dnb lanturn mbomb -_magic_bomb_- magic bomb californian darknessofblue fii -wwwww kaitlin zirox sorcerer tomthewizard toybot Yumeno Himiko exam examination gero tenshichan [superstar] hi_hello CLSW crystal crystalseed tasuke912 boberofdarkness bodom koliron deif spectator qoot8123 julie prophecy nofool skylish onosakihito ozzyozrock nardo nardoxyribonucleic raiden nwolf backfire chromoxx saika -saika- lop fawx
BeatmapID:972784
BeatmapSetID:427801

[Difficulty]
HPDrainRate:8
CircleSize:4
OverallDifficulty:8
ApproachRate:9
SliderMultiplier:1.92
SliderTickRate:2

[Events]
//Background and Video events
0,0,"Cities_Color_of_the_night_city_058372_.jpg",0,0
//Break Periods
2,116316,120830
//Storyboard Layer 0 (Background)
//Storyboard Layer 1 (Fail)
//Storyboard Layer 2 (Pass)
//Storyboard Layer 3 (Foreground)
//Storyboard Sound Samples

[TimingPoints]
916,342.857142857143,4,2,0,60,1,0
916,-200,4,2,0,60,0,0
6316,-133.333333333333,4,2,0,5,0,0
6401,-133.333333333333,4,2,0,65,0,0
6916,-133.333333333333,4,2,0,45,0,0
7430,-133.333333333333,4,2,0,25,0,0
8801,-133.333333333333,4,2,0,55,0,0
9058,-133.333333333333,4,2,0,5,0,0
9144,-133.333333333333,4,2,0,55,0,0
11887,-133.333333333333,4,2,0,65,0,0
12401,-133.333333333333,4,2,0,45,0,0
12916,-133.333333333333,4,2,0,25,0,0
14287,-133.333333333333,4,2,0,45,0,0
17373,-133.333333333333,4,2,0,65,0,0
17887,-133.333333333333,4,2,0,45,0,0
18401,-133.333333333333,4,2,0,25,0,0
19773,-133.333333333333,4,2,0,55,0,0
22858,-100,4,2,0,45,0,0
44801,-100,4,2,0,60,0,1
66744,-100,4,2,0,80,0,0
99658,-100,4,2,0,60,0,1
110630,-100,4,2,0,60,0,0
154516,-100,4,2,0,60,0,1
154601,-100,4,2,0,60,0,0

[HitObjects]
304,192,744,5,4,3:0:0:0:
48,192,915,5,4,3:0:0:0:
124,192,1258,6,0,L|188:192,1,48,2|0,0:0|0:0,0:0:0:0:
256,128,1601,2,0,L|160:128,1,96,2|0,0:0|0:0,0:0:0:0:
32,128,2116,1,2,0:0:0:0:
288,64,2287,2,0,B|352:64|352:64|464:40|432:72|368:112|368:112|304:176,1,288,2|2,0:0|0:0,0:0:0:0:
400,288,3658,6,0,L|288:288,1,96,2|0,0:0|0:0,0:0:0:0:
144,296,4173,1,2,0:0:0:0:
288,296,4344,1,2,0:0:0:0:
208,296,4516,1,0,0:0:0:0:
360,296,4687,1,2,0:0:0:0:
384,336,5030,5,2,0:0:0:0:
456,296,5116,1,2,0:0:0:0:
384,256,5201,2,0,P|448:256|480:224,1,96,2|2,0:0|0:0,0:0:0:0:
316,208,5716,1,2,0:0:0:0:
144,216,5887,1,2,0:0:0:0:
64,216,5973,1,2,0:0:0:0:
256,208,6230,1,2,0:0:0:0:
64,192,6401,5,2,3:0:0:0:
64,192,6744,2,0,P|128:208|160:224,1,72.0000027465821,2|0,0:0|0:0,0:0:0:0:
256,256,7087,2,0,P|160:288|112:272,1,144.000005493164,2|2,0:0|0:0,0:0:0:0:
0,352,7601,1,2,0:0:0:0:
176,352,7773,2,0,B|288:352|288:352|256:336|256:336|336:336|336:336|288:320|288:320|448:320,1,432.000016479493,2|2,0:0|0:0,0:0:0:0:
144,272,9144,6,0,P|80:272|32:208,1,144.000005493164,2|2,3:0|0:0,0:0:0:0:
240,256,9658,1,2,0:0:0:0:
80,244,9830,1,2,0:0:0:0:
156,324,10001,1,0,0:0:0:0:
16,336,10173,1,2,0:0:0:0:
328,279,10516,6,0,P|394:303|464:288,1,144.000005493164,2|2,0:0|0:0,0:0:0:0:
296,224,11030,2,0,L|216:224,1,72.0000027465821,2|0,0:0|0:0,0:0:0:0:
144,224,11287,1,2,0:0:0:0:
64,224,11373,1,2,0:0:0:0:
248,112,11544,1,2,0:0:0:0:
448,208,11887,6,0,B|480:208|480:208|492:201|492:201|512:160,1,72.0000027465821,2|0,3:0|0:0,0:0:0:0:
320,272,12230,2,0,L|248:272,1,72.0000027465821,2|0,0:0|0:0,0:0:0:0:
388,173,12573,2,0,B|480:160|480:160|464:176|432:176,1,144.000005493164,2|2,0:0|0:0,0:0:0:0:
288,144,13087,1,2,0:0:0:0:
112,192,13258,2,0,B|224:208|224:208|96:208|96:208|208:240|208:240|128:240,1,432.000016479493,2|2,0:0|0:0,0:0:0:0:
288,112,14630,6,0,P|352:112|416:176,1,144.000005493164,2|0,3:0|0:0,0:0:0:0:
272,80,15144,2,0,P|340:68|360:84,2,72.0000027465821,2|2|0,0:0|0:0|0:0,0:0:0:0:
392,24,15658,1,2,0:0:0:0:
96,336,16001,5,2,0:0:0:0:
176,288,16087,1,2,0:0:0:0:
96,256,16173,2,0,P|32:256|0:160,1,144.000005493164,2|2,0:0|0:0,0:0:0:0:
160,208,16687,1,2,0:0:0:0:
328,216,16858,1,2,0:0:0:0:
424,216,16944,1,2,0:0:0:0:
216,152,17201,1,2,0:0:0:0:
384,192,17373,6,0,B|448:192|448:192|416:176,1,72.0000027465821,2|0,3:0|0:0,0:0:0:0:
288,240,17716,2,0,B|224:240|224:240|240:256,1,72.0000027465821,2|2,0:0|3:0,0:0:0:0:
384,280,18058,1,2,0:0:0:0:
256,136,18230,1,0,0:0:0:0:
392,172,18401,1,2,0:0:0:0:
288,228,18573,1,2,0:0:0:0:
432,160,18744,2,0,B|496:176|528:128|544:48|450:23|450:23|336:80|336:80|256:32,1,432.000016479493,2|2,0:0|0:0,0:0:0:0:
16,144,20116,6,0,B|80:144|80:144|0:144,1,144.000005493164,2|0,0:0|0:0,0:0:0:0:
208,192,20630,2,0,B|272:192|272:192|192:192,1,144.000005493164,2|0,0:0|0:0,0:0:0:0:
32,240,21144,1,2,0:0:0:0:
208,272,21316,1,0,0:0:0:0:
80,272,21487,6,0,P|16:272|48:320,1,144.000005493164,2|0,0:0|0:0,0:0:0:0:
144,240,22001,2,0,P|80:240|112:288,1,144.000005493164,2|2,0:0|0:0,0:0:0:0:
168,328,22430,1,2,0:0:0:0:
240,352,22516,1,2,0:0:0:0:
472,352,22687,1,0,0:0:0:0:
128,192,22858,5,4,0:0:0:0:
32,128,23029,1,2,0:0:0:0:
216,192,23201,1,0,0:0:0:0:
120,128,23372,1,2,0:0:0:0:
312,176,23544,1,0,0:0:0:0:
216,112,23715,1,2,0:0:0:0:
408,160,23887,1,0,0:0:0:0:
480,80,24058,1,2,0:0:0:0:
256,48,24230,6,0,B|208:48|208:48|174:14,1,96,0|2,0:0|0:0,0:0:0:0:
64,128,24573,2,0,B|112:128|112:128|145:161,1,96,0|2,0:0|0:0,0:0:0:0:
336,192,24916,2,0,B|288:192|288:192|254:158,1,96,0|2,0:0|0:0,0:0:0:0:
196,208,25173,1,0,0:0:0:0:
144,272,25259,2,0,B|192:272|192:272|225:305,1,96,0|2,0:0|0:0,0:0:0:0:
352,224,25601,5,2,3:0:0:0:
192,224,25773,1,2,3:0:0:0:
336,320,25944,1,0,0:0:0:0:
160,272,26116,1,2,0:0:0:0:
352,288,26287,1,0,0:0:0:0:
208,192,26458,1,2,0:0:0:0:
160,136,26544,1,0,0:0:0:0:
224,96,26630,2,0,B|288:80|288:80|336:96,1,96,0|2,0:0|0:0,0:0:0:0:
480,160,26973,5,0,0:0:0:0:
320,48,27144,1,2,0:0:0:0:
448,128,27316,1,0,0:0:0:0:
256,48,27487,1,2,0:0:0:0:
400,288,27658,2,0,B|436:248|436:248|480:240,1,96,0|2,0:0|0:0,0:0:0:0:
416,176,27916,1,0,0:0:0:0:
360,112,28001,1,0,0:0:0:0:
272,264,28173,1,2,0:0:0:0:
208,216,28259,1,0,0:0:0:0:
149,166,28344,5,0,0:0:0:0:
296,192,28516,2,0,L|424:192,1,96,2|0,0:0|0:0,0:0:0:0:
261,190,28858,1,2,0:0:0:0:
384,160,29030,2,0,L|504:160,1,96,0|2,0:0|0:0,0:0:0:0:
416,160,29287,1,0,0:0:0:0:
352,160,29373,1,0,0:0:0:0:
176,320,29544,1,2,0:0:0:0:
48,224,29716,5,0,0:0:0:0:
172,208,29887,2,0,P|252:224|300:208,1,96,2|0,0:0|0:0,0:0:0:0:
432,160,30230,1,2,0:0:0:0:
288,96,30401,2,0,P|208:96|160:112,1,96,0|2,0:0|0:0,0:0:0:0:
112,64,30658,1,0,0:0:0:0:
32,96,30744,1,0,0:0:0:0:
192,144,30916,1,2,0:0:0:0:
32,224,31087,5,2,3:0:0:0:
144,256,31258,2,0,B|224:256|224:256|192:272,1,96,2|0,3:0|0:0,0:0:0:0:
376,192,31601,1,2,0:0:0:0:
264,224,31772,2,0,B|184:224|184:224|216:240,1,96,0|2,0:0|0:0,0:0:0:0:
272,288,32030,1,0,0:0:0:0:
200,320,32116,1,0,0:0:0:0:
64,288,32287,1,2,0:0:0:0:
224,208,32458,5,0,0:0:0:0:
96,176,32630,2,0,P|32:176|16:224,1,96,2|0,0:0|0:0,0:0:0:0:
192,160,32973,1,2,0:0:0:0:
80,128,33144,2,0,P|16:128|0:176,1,96,0|2,0:0|0:0,0:0:0:0:
72,176,33401,1,0,0:0:0:0:
160,176,33487,1,0,0:0:0:0:
8,272,33658,1,2,0:0:0:0:
512,192,33830,5,4,3:0:0:0:
400,240,34001,1,4,3:0:0:0:
288,288,34173,1,4,3:0:0:0:
448,176,34344,5,4,3:0:0:0:
336,224,34515,1,4,3:0:0:0:
224,272,34687,1,4,3:0:0:0:
328,280,34858,1,4,3:0:0:0:
432,272,35030,1,4,3:0:0:0:
200,272,35201,5,4,3:0:0:0:
296,224,35373,1,4,3:0:0:0:
384,176,35544,1,4,3:0:0:0:
224,112,35716,6,0,L|128:112,1,96,4|4,3:0|3:0,0:0:0:0:
0,32,36058,1,4,3:0:0:0:
144,160,36230,1,4,3:0:0:0:
272,160,36401,1,0,0:0:0:0:
16,152,36573,5,0,0:0:0:0:
128,144,36743,1,4,3:0:0:0:
240,144,36915,1,4,3:0:0:0:
368,152,37087,6,0,L|264:152,1,96,4|4,3:0|3:0,0:0:0:0:
120,152,37429,1,4,3:0:0:0:
272,152,37601,1,4,3:0:0:0:
408,152,37773,1,0,0:0:0:0:
40,128,37944,5,0,0:0:0:0:
168,128,38115,1,4,3:0:0:0:
288,128,38287,1,4,3:0:0:0:
416,240,38459,6,0,L|320:240,1,96,4|4,3:0|3:0,0:0:0:0:
192,160,38801,1,4,3:0:0:0:
128,196,38887,1,4,3:0:0:0:
188,240,38973,1,4,3:0:0:0:
336,288,39144,1,4,3:0:0:0:
48,256,39316,5,2,1:0:0:0:
168,336,39487,1,2,1:0:0:0:
12,228,39658,5,0,1:0:0:0:
160,264,39829,1,2,1:0:0:0:
64,164,40001,2,0,B|-24:112,1,96,2|0,1:0|1:0,0:0:0:0:
160,104,40344,2,0,B|248:52,1,96,2|0,1:0|1:0,0:0:0:0:
124,24,40687,5,2,1:0:0:0:
232,128,40858,1,0,1:0:0:0:
56,40,41030,1,0,1:0:0:0:
160,136,41201,1,2,1:0:0:0:
288,56,41373,2,0,B|376:108,1,96,2|0,1:0|1:0,0:0:0:0:
200,128,41716,2,0,B|96:128,1,96,2|0,1:0|1:0,0:0:0:0:
336,224,42058,5,4,1:3:0:0:
408,224,42144,1,4,1:3:0:0:
480,224,42230,1,4,1:3:0:0:
408,192,42316,1,4,1:3:0:0:
352,160,42402,5,4,1:3:0:0:
416,160,42487,1,4,1:3:0:0:
480,160,42573,1,4,1:3:0:0:
416,112,42658,1,4,1:3:0:0:
320,104,42744,6,0,L|268:104,1,48,4|4,1:3|1:3,0:0:0:0:
336,104,42916,2,0,L|384:104,1,48,4|4,1:3|1:3,0:0:0:0:
96,64,43087,5,4,1:3:0:0:
80,88,43130,1,4,1:3:0:0:
72,120,43173,1,4,1:3:0:0:
64,152,43216,1,4,1:3:0:0:
72,184,43258,1,4,1:3:0:0:
96,208,43301,1,4,1:3:0:0:
120,232,43344,1,4,1:3:0:0:
152,240,43387,1,4,1:3:0:0:
184,232,43430,5,4,0:0:0:0:
420,236,44630,5,4,1:3:0:0:
400,228,44673,1,4,1:3:0:0:
380,220,44716,1,4,1:3:0:0:
360,212,44758,1,4,1:3:0:0:
340,204,44801,5,4,1:0:0:0:
196,196,44973,1,0,0:0:0:0:
320,200,45144,1,2,1:3:0:0:
200,192,45316,1,0,0:0:0:0:
120,192,45401,1,0,0:0:0:0:
40,192,45487,1,0,0:0:0:0:
200,192,45658,2,0,L|308:208,1,96,0|2,1:0|1:3,0:0:0:0:
100,200,46001,1,0,0:0:0:0:
176,200,46087,1,0,0:0:0:0:
256,208,46173,6,0,L|364:224,1,96,0|0,1:0|0:0,0:0:0:0:
408,192,46430,1,0,0:0:0:0:
368,144,46516,2,0,L|292:132,1,48,2|0,1:3|0:0,0:0:0:0:
272,96,46687,2,0,P|248:101|225:103,1,48
168,128,46858,6,0,L|56:112,1,96,0|0,0:0|1:0,0:0:0:0:
208,184,47201,2,0,L|304:196,1,96,2|0,1:3|0:0,0:0:0:0:
256,240,47458,1,0,0:0:0:0:
320,256,47544,6,0,P|384:197|450:254,1,192,4|2,1:0|1:3,0:0:0:0:
256,180,48058,2,0,P|192:239|126:182,1,192,0|0,0:0|1:0,0:0:0:0:
264,104,48573,1,2,1:3:0:0:
108,144,48744,1,0,0:0:0:0:
32,192,48830,1,0,0:0:0:0:
96,208,48916,6,0,B|144:208|144:208|177:241,1,96,0|0,1:0|0:0,0:0:0:0:
240,240,49173,1,0,0:0:0:0:
304,240,49258,1,2,1:3:0:0:
456,224,49430,6,0,L|516:224,1,48
400,224,49601,2,0,L|352:224,1,48
456,224,49773,1,0,1:0:0:0:
328,224,49944,2,0,B|388:224|388:224|363:250,1,96,2|0,1:3|0:0,0:0:0:0:
48,96,50287,6,0,B|108:96|108:96|83:70,1,96,2|0,1:0|0:0,0:0:0:0:
216,104,50630,1,2,1:3:0:0:
56,96,50801,2,0,B|116:96|116:96|91:70,1,96,2|0,1:0|0:0,0:0:0:0:
216,104,51144,1,0,1:0:0:0:
56,96,51316,1,2,1:3:0:0:
168,104,51487,1,0,0:0:0:0:
232,104,51573,1,0,0:0:0:0:
472,112,51658,6,0,B|412:112|412:112|437:138,1,96,2|0,1:0|0:0,0:0:0:0:
312,136,52001,1,2,1:3:0:0:
472,112,52172,2,0,B|412:112|412:112|437:138,1,96,2|0,1:0|0:0,0:0:0:0:
312,136,52515,1,0,1:0:0:0:
436,137,52687,1,2,1:3:0:0:
312,136,52858,1,0,0:0:0:0:
256,136,52944,1,0,1:0:0:0:
96,136,53030,5,4,0:0:0:0:
224,136,53201,1,0,0:0:0:0:
104,88,53373,2,0,L|0:88,1,96,2|0,1:3|0:0,0:0:0:0:
72,88,53630,1,0,0:0:0:0:
136,88,53716,1,0,0:0:0:0:
288,96,53887,2,0,P|348:96|388:72,1,96,0|2,1:0|1:3,0:0:0:0:
216,48,54230,2,0,P|168:44|156:48,1,48
64,104,54401,6,0,P|152:108|168:120,1,96,2|2,1:2|3:0,0:0:0:0:
272,224,54744,1,2,3:0:0:0:
208,112,54830,1,2,3:0:0:0:
272,108,54916,6,0,L|376:112,1,96,2|2,1:3|1:3,0:0:0:0:
464,128,55173,1,2,1:3:0:0:
400,160,55258,2,0,L|336:164,2,48,2|2|2,1:2|1:2|1:3,0:0:0:0:
160,288,55601,5,4,1:3:0:0:
140,296,55644,1,4,1:3:0:0:
120,304,55687,1,4,1:3:0:0:
100,312,55729,1,4,1:3:0:0:
80,320,55772,5,4,1:0:0:0:
200,296,55944,1,0,0:0:0:0:
100,248,56116,2,0,P|48:212|12:204,1,96,2|0,1:3|0:0,0:0:0:0:
200,192,56458,2,0,P|148:156|112:148,1,96,0|0,0:0|1:0,0:0:0:0:
304,152,56801,2,0,P|264:108|224:88,1,96,2|0,1:3|0:0,0:0:0:0:
176,56,57058,1,0,0:0:0:0:
408,48,57144,5,0,1:0:0:0:
284,124,57316,1,0,0:0:0:0:
216,112,57401,1,0,0:0:0:0:
160,104,57487,2,0,B|104:104|104:104|184:104,1,96,2|0,1:3|0:0,0:0:0:0:
236,168,57744,1,0,0:0:0:0:
296,184,57830,6,0,P|352:184|360:176,1,48
416,244,58001,2,0,P|368:244|360:248,1,48,0|0,1:0|0:0,0:0:0:0:
296,288,58173,2,0,L|408:300,1,96,2|0,1:3|0:0,0:0:0:0:
128,304,58516,6,0,L|0:280,1,96,0|0,1:0|0:0,0:0:0:0:
200,240,58858,2,0,L|312:240,1,96,2|0,1:3|0:0,0:0:0:0:
480,216,59201,1,0,0:0:0:0:
332,144,59373,1,0,1:0:0:0:
412,104,59458,1,0,0:0:0:0:
488,72,59544,1,2,1:3:0:0:
360,32,59716,1,0,0:0:0:0:
116,84,59887,6,0,P|44:92|20:76,1,96,0|2,1:0|3:0,0:0:0:0:
184,144,60230,2,0,P|256:136|280:152,1,96,2|0,1:3|0:0,0:0:0:0:
336,204,60487,1,0,0:0:0:0:
268,244,60573,2,0,L|220:232,1,48
272,248,60744,2,0,L|319:256,1,48,0|0,1:0|1:0,0:0:0:0:
424,280,60916,1,2,1:3:0:0:
160,280,61087,1,0,0:0:0:0:
456,104,61258,6,0,B|396:104|396:104|421:78,1,96,2|0,1:0|0:0,0:0:0:0:
304,96,61601,1,2,1:3:0:0:
464,104,61772,2,0,B|404:104|404:104|429:78,1,96,2|0,1:0|0:0,0:0:0:0:
304,96,62115,1,0,1:0:0:0:
40,96,62287,1,2,1:3:0:0:
168,96,62458,1,0,0:0:0:0:
472,264,62629,6,0,B|412:264|412:264|437:290,1,96,2|0,1:0|0:0,0:0:0:0:
304,280,62972,1,2,1:3:0:0:
472,264,63143,2,0,B|412:264|412:264|437:290,1,96,2|0,1:0|0:0,0:0:0:0:
304,280,63486,1,0,1:0:0:0:
436,289,63658,1,2,1:3:0:0:
296,280,63829,1,0,0:0:0:0:
240,280,63915,1,0,1:0:0:0:
88,176,64001,6,0,P|44:200|-8:164,1,96,4|0,1:0|0:0,0:0:0:0:
176,120,64344,2,0,P|248:104|300:140,1,96,2|0,1:3|0:0,0:0:0:0:
360,104,64601,1,0,0:0:0:0:
304,40,64687,1,0,0:0:0:0:
144,84,64858,1,0,1:0:0:0:
280,140,65030,1,2,1:3:0:0:
168,232,65201,1,0,0:0:0:0:
368,292,65373,5,2,1:0:0:0:
412,292,65458,1,0,1:0:0:0:
456,292,65544,2,0,L|504:292,1,48,0|0,0:0|1:0,0:0:0:0:
428,220,65716,2,0,L|380:220,1,48,2|0,1:0|1:0,0:0:0:0:
444,248,65887,2,0,L|492:248,1,48,0|0,2:0|1:0,0:0:0:0:
416,176,66059,6,0,L|368:176,1,48,2|2,1:0|1:0,0:0:0:0:
268,200,66230,1,0,1:0:0:0:
208,200,66316,1,0,1:0:0:0:
152,168,66401,1,6,1:3:0:0:
80,176,66487,1,6,1:3:0:0:
16,168,66573,1,4,1:3:0:0:
80,136,66658,1,4,1:3:0:0:
160,104,66744,5,4,1:0:0:0:
20,60,66916,1,0,0:0:0:0:
128,32,67087,2,0,P|224:40|232:48,1,96,8|2,1:0|1:0,0:0:0:0:
384,88,67430,2,0,P|312:104|288:96,1,96,2|0,0:0|1:0,0:0:0:0:
112,124,67773,2,0,P|176:116|208:128,1,96,8|2,1:0|0:0,0:0:0:0:
396,244,68116,6,2,B|336:252|336:252|368:252|368:252|328:252|328:252|280:252,1,144,2|2,0:1|0:1,0:1:0:0:
432,296,68458,2,0,L|444:200,1,96,8|2,1:0|0:2,0:0:0:0:
288,284,68801,2,0,L|224:212,1,96,2|2,0:0|1:0,0:0:0:0:
148,336,69144,2,0,L|44:316,1,96,8|2,1:0|0:0,0:0:0:0:
120,256,69401,1,0,1:0:0:0:
204,284,69487,5,0,1:0:0:0:
336,344,69658,1,2,0:0:0:0:
480,300,69830,1,8,1:0:0:0:
372,184,70001,1,2,0:0:0:0:
256,220,70173,1,0,0:0:0:0:
128,204,70344,1,2,1:0:0:0:
192,200,70430,1,0,0:0:0:0:
256,200,70516,1,8,1:0:0:0:
112,144,70687,1,2,0:0:0:0:
304,92,70858,6,2,B|360:92|360:92|340:92|340:92|412:96,1,144,2|2,0:1|0:1,0:1:0:0:
304,156,71201,2,0,B|312:124|312:124|249:131,1,96,8|2,1:0|0:0,0:0:0:0:
120,128,71544,1,0,1:0:0:0:
56,128,71630,1,0,1:0:0:0:
0,128,71716,6,0,L|64:128,1,48,2|0,1:0|0:0,0:0:0:0:
112,128,71887,2,0,L|184:128,1,48,8|0,1:0|1:0,0:0:0:0:
224,128,72058,2,0,L|280:128,1,48,2|0,1:3|1:0,0:0:0:0:
484,304,72230,6,2,B|440:312|440:312|408:304|408:304|336:312,1,144,4|2,1:0|0:1,0:1:0:0:
256,344,72573,1,8,1:0:0:0:
340,264,72744,2,0,B|364:268|364:268|368:256|368:256|384:260|384:260|352:292,1,96,2|0,1:0|0:0,0:0:0:0:
172,264,73087,2,0,B|148:268|148:268|144:256|144:256|128:260|128:260|160:292,1,96,2|8,1:0|1:0,0:0:0:0:
256,192,73430,1,0,0:0:0:0:
120,132,73601,6,2,B|108:132|108:132|100:128|100:128|100:136|100:136|92:128|92:128|92:136|92:136|84:132|84:132|-8:132,1,144,2|2,1:0|0:1,0:1:0:0:
80,172,73944,1,8,1:0:0:0:
216,104,74116,1,2,0:0:0:0:
392,196,74287,6,0,P|340:188|332:196,1,48,0|0,1:0|1:0,0:0:0:0:
236,240,74458,2,0,P|284:244|284:240,1,48,0|0,1:0|0:0,0:0:0:0:
344,236,74630,6,0,P|292:228|284:236,1,48,8|0,1:0|1:0,0:0:0:0:
188,280,74801,2,0,P|236:284|236:280,1,48,0|0,1:0|1:0,0:0:0:0:
296,276,74973,6,2,L|184:236,1,96,6|2,1:0|0:0,0:1:0:0:
40,316,75316,2,0,L|164:328,1,96,8|2,1:0|1:0,0:0:0:0:
236,324,75573,1,2,3:0:0:0:
320,324,75658,1,0,1:0:0:0:
460,288,75830,1,0,1:0:0:0:
200,248,76001,1,8,1:0:0:0:
456,232,76173,1,0,0:0:0:0:
384,224,76258,1,0,0:0:0:0:
316,184,76344,6,0,P|316:108|332:84,1,96,4|4,1:2|1:2,0:0:0:0:
480,192,76687,1,0,0:0:0:0:
396,180,76772,1,0,0:0:0:0:
328,140,76858,1,4,1:2:0:0:
172,84,77030,2,0,P|104:88|72:104,1,96,8|4,1:0|1:2,0:0:0:0:
24,176,77373,1,8,1:0:0:0:
200,128,77544,5,4,1:3:0:0:
220,120,77587,1,4,1:3:0:0:
240,112,77630,1,4,1:3:0:0:
260,104,77673,1,4,1:3:0:0:
280,96,77716,6,0,L|312:84,1,24,4|0,3:0|0:0,0:0:0:0:
384,144,77887,2,0,L|428:144,1,24,2|0,0:0|0:0,0:0:0:0:
328,240,78058,2,0,L|307:228,1,24,8|0,0:0|0:0,0:0:0:0:
208,200,78230,2,0,L|180:212,1,24
88,168,78401,6,0,L|52:144,1,24
176,80,78573,2,0,L|208:76,1,24,4|0,3:0|0:0,0:0:0:0:
288,136,78744,2,0,L|316:136,1,24,8|0,0:0|0:0,0:0:0:0:
400,48,78916,2,0,L|444:52,1,24,2|2,0:0|0:0,0:0:0:0:
320,88,79087,6,0,L|288:84,1,24,4|0,3:0|0:0,0:0:0:0:
200,44,79258,2,0,L|176:56,1,24
88,112,79430,2,0,L|48:100,1,24,8|0,0:0|0:0,0:0:0:0:
304,184,79601,2,0,L|328:176,1,24
416,224,79773,6,0,L|456:232,1,24
328,304,79944,2,0,L|300:316,1,24,4|0,3:0|0:0,0:0:0:0:
400,240,80116,2,0,L|436:244,1,24,8|0,0:0|0:0,0:0:0:0:
312,224,80287,2,0,L|268:232,1,24,2|2,0:0|0:0,0:0:0:0:
88,192,80458,6,0,L|64:176,1,24,4|0,3:0|0:0,0:0:0:0:
152,104,80630,2,0,L|184:108,1,24
272,120,80801,2,0,L|312:120,1,24,8|0,0:0|0:0,0:0:0:0:
384,120,80973,2,0,L|416:120,1,24
176,200,81144,6,0,L|144:200,1,24
56,200,81316,2,0,L|20:188,1,24,4|0,3:0|0:0,0:0:0:0:
112,112,81487,2,0,L|152:112,1,24,8|0,0:0|0:0,0:0:0:0:
232,168,81658,6,0,L|260:180,1,24,2|0,0:0|0:0,0:0:0:0:
280,192,81744,2,0,L|316:208,1,24,2|0,0:0|0:0,0:0:0:0:
328,216,81830,6,0,L|356:224,1,24,4|0,3:0|0:0,0:0:0:0:
448,264,82001,2,0,L|424:276,1,24
328,320,82173,2,0,L|356:328,1,24,8|0,0:0|0:0,0:0:0:0:
468,160,82344,6,0,L|440:168,1,24,2|0,0:0|0:0,0:0:0:0:
408,140,82430,2,0,L|376:148,1,24,2|0,0:0|0:0,0:0:0:0:
320,112,82516,6,0,P|284:104|272:108,1,48,4|0,0:0|0:0,0:0:0:0:
200,152,82687,2,0,P|156:156|144:148,1,48,4|0,3:0|0:0,0:0:0:0:
80,172,82858,6,0,P|40:176|28:180,1,48,12|0,0:0|0:0,0:0:0:0:
144,228,83030,2,0,P|184:224|196:220,1,48,2|2,3:0|3:0,0:0:0:0:
416,208,83201,6,0,L|448:104,1,96
144,112,83544,1,0,0:0:0:0:
264,112,83716,2,0,L|368:112,2,96
152,112,84230,2,0,L|96:112,2,48
456,112,84573,6,0,L|336:112,1,96
96,112,84916,2,0,L|40:112,2,48
240,112,85258,2,0,L|288:112,1,48
240,112,85430,2,0,L|192:112,1,48
16,112,85601,2,0,L|120:112,1,96
400,104,85944,6,0,L|288:104,1,96
240,104,86201,1,0,0:0:0:0:
64,104,86287,2,0,L|8:104,2,48
184,104,86630,2,0,L|232:104,1,48
280,104,86801,2,0,L|224:104,1,48
376,104,86973,2,0,L|496:104,1,96
128,56,87316,5,0,0:0:0:0:
93,109,87430,1,0,0:0:0:0:
86,172,87544,1,0,0:0:0:0:
107,231,87658,1,0,0:0:0:0:
153,275,87773,1,0,0:0:0:0:
214,293,87887,1,0,0:0:0:0:
416,296,88001,2,0,L|264:304,2,144
107,231,88687,6,0,L|72:128,1,96
232,136,89030,2,0,L|336:104,1,96
144,72,89373,1,0,0:0:0:0:
121,162,89544,1,0,0:0:0:0:
175,238,89715,1,0,0:0:0:0:
267,249,89887,1,0,0:0:0:0:
400,248,90058,6,0,B|336:256|336:256|368:256|368:256|272:256,1,192
400,184,90573,1,0,0:0:0:0:
240,48,90744,1,0,0:0:0:0:
201,76,90829,1,0,0:0:0:0:
178,118,90915,1,0,0:0:0:0:
174,165,91001,1,0,0:0:0:0:
189,210,91086,1,0,0:0:0:0:
222,245,91172,1,0,0:0:0:0:
265,264,91258,1,0,0:0:0:0:
313,263,91344,1,0,0:0:0:0:
376,256,91430,6,0,L|480:224,1,96
312,168,91773,2,0,L|272:72,1,96
432,104,92116,1,0,0:0:0:0:
336,116,92287,1,0,0:0:0:0:
241,129,92458,1,0,0:0:0:0:
146,142,92630,1,0,0:0:0:0:
264,184,92801,6,0,L|64:208,1,192
176,192,93316,1,0,0:0:0:0:
72,208,93487,1,0,0:0:0:0:
49,117,93658,1,0,0:0:0:0:
101,40,93829,1,0,0:0:0:0:
194,27,94001,1,0,0:0:0:0:
456,64,94173,6,0,L|256:104,1,192
408,144,94687,1,0,0:0:0:0:
288,176,94858,1,0,0:0:0:0:
242,255,95029,1,0,0:0:0:0:
288,335,95200,1,0,0:0:0:0:
380,335,95372,1,0,0:0:0:0:
240,264,95544,6,0,L|200:160,1,96
344,176,95887,2,0,L|448:152,1,96
272,72,96230,1,0,0:0:0:0:
252,115,96315,1,0,0:0:0:0:
248,162,96401,1,0,0:0:0:0:
262,208,96487,1,0,0:0:0:0:
292,246,96572,1,0,0:0:0:0:
333,270,96658,1,0,0:0:0:0:
380,278,96744,1,0,0:0:0:0:
427,269,96830,1,0,0:0:0:0:
176,280,96916,6,0,B|80:208|80:208|240:216|280:192|280:192|144:176|120:72|320:80|320:80|136:112,1,768
64,128,98458,2,0,L|16:136,2,48
376,80,98801,1,0,0:0:0:0:
144,200,98973,6,0,L|80:216,1,48
240,240,99230,2,0,L|288:224,1,48
152,176,99487,2,0,L|208:152,1,48
432,216,99658,5,0,0:0:0:0:
467,184,99743,1,0,0:0:0:0:
481,139,99829,1,0,0:0:0:0:
471,92,99915,1,0,0:0:0:0:
438,58,100000,1,0,0:0:0:0:
392,44,100086,1,0,0:0:0:0:
144,96,100173,5,0,0:0:0:0:
116,134,100258,1,0,0:0:0:0:
113,182,100344,1,0,0:0:0:0:
136,223,100430,1,0,0:0:0:0:
177,247,100515,1,0,0:0:0:0:
224,246,100601,1,0,0:0:0:0:
400,224,100687,2,0,L|448:216,2,48
280,240,101030,6,0,L|224:248,1,48
320,224,101201,1,0,0:0:0:0:
353,190,101286,1,0,0:0:0:0:
364,144,101372,1,0,0:0:0:0:
349,99,101458,1,0,0:0:0:0:
192,96,101544,6,0,L|144:96,1,48
192,96,101716,1,0,0:0:0:0:
220,133,101801,1,0,0:0:0:0:
222,180,101887,1,0,0:0:0:0:
195,219,101973,1,0,0:0:0:0:
24,264,102058,1,0,0:0:0:0:
88,264,102144,1,0,0:0:0:0:
152,264,102230,1,0,0:0:0:0:
280,272,102401,6,0,L|336:264,1,48
280,272,102573,2,0,L|208:248,1,48
280,272,102744,1,0,0:0:0:0:
312,237,102829,1,0,0:0:0:0:
328,192,102915,1,0,0:0:0:0:
323,145,103001,1,0,0:0:0:0:
152,96,103087,6,0,L|88:88,1,48
152,96,103258,2,0,L|208:88,1,48
264,72,103430,1,0,0:0:0:0:
307,88,103515,1,0,0:0:0:0:
327,130,103601,1,0,0:0:0:0:
312,174,103687,1,0,0:0:0:0:
144,224,103773,6,0,L|64:224,1,48
144,224,103944,2,0,L|200:224,1,48
392,224,104116,1,0,0:0:0:0:
424,190,104201,1,0,0:0:0:0:
427,143,104287,1,0,0:0:0:0:
398,106,104373,1,0,0:0:0:0:
176,96,104458,6,0,L|112:96,1,48
176,96,104630,2,0,L|232:96,1,48
39,104,104801,1,0,0:0:0:0:
9,139,104886,1,0,0:0:0:0:
16,185,104972,1,0,0:0:0:0:
56,209,105058,1,0,0:0:0:0:
312,224,105144,6,0,L|496:144,1,192
240,144,105830,2,0,L|40:112,1,192
416,40,106516,6,0,P|480:112|416:168,1,192
248,176,107201,2,0,P|216:232|320:296,1,192
400,296,107716,1,0,0:0:0:0:
136,304,107887,6,0,L|24:304,3,96
344,304,108573,2,0,L|520:304,2,144
40,192,109258,6,0,L|264:192,3,192
496,192,110458,1,0,0:0:0:0:
40,192,110630,5,0,0:0:0:0:
256,192,110801,12,0,116116,0:0:0:0:
376,192,121430,5,0,0:0:0:0:
176,200,121601,2,0,L|-16:200,1,192
248,120,122287,2,0,P|280:208|208:288,1,192
488,272,122801,6,0,B|360:240|360:240|464:208|488:144|488:144|408:184|280:136,1,480
328,72,124001,2,0,L|432:72,1,96
144,72,124344,6,0,P|64:128|136:160,1,192
224,176,124858,2,0,P|272:216|192:296,1,192
104,296,125373,1,0,0:0:0:0:
256,192,125716,6,0,L|320:192,2,48
168,192,126058,2,0,L|56:192,1,96
208,104,126401,2,0,L|368:104,2,144
488,104,127087,5,0,0:0:0:0:
320,104,127430,2,0,P|280:144|360:248,1,192
440,272,128116,1,0,0:0:0:0:
168,264,128287,6,0,B|88:192|88:184|160:208|328:144|328:144|208:168|128:128,1,480
48,88,129487,2,0,L|48:200,1,96
264,96,129830,6,0,P|376:136|480:0,2,288
96,72,131201,2,0,L|320:104,1,192
160,176,131716,1,0,0:0:0:0:
304,192,131973,2,0,L|392:200,1,48
264,112,132230,2,0,L|128:96,1,96
496,56,132573,5,0,0:0:0:0:
344,120,132916,2,0,P|400:176|312:232,1,192
208,240,133601,1,0,0:0:0:0:
488,176,133773,6,0,P|432:200|24:88,1,480
184,72,134973,2,0,L|48:64,1,96
376,120,135316,6,0,L|72:120,2,288
256,176,136687,2,0,L|176:176,2,48
352,248,137030,2,0,L|224:248,1,96
512,144,137373,2,0,L|360:144,2,144
112,144,138058,5,0,0:0:0:0:
232,224,138401,2,0,L|32:224,1,192
160,160,139087,1,0,0:0:0:0:
408,304,139258,6,0,P|464:264|256:72,1,480
392,128,140458,2,0,L|504:128,1,96
192,232,140801,6,0,L|56:-24,2,288
32,224,142173,2,0,L|224:224,1,192
72,128,142687,1,0,0:0:0:0:
208,128,142944,2,0,L|144:128,1,48
416,64,143201,2,0,L|528:64,1,96
128,56,143544,6,0,P|80:120|160:224,1,192
264,320,144058,2,0,P|304:256|240:160,1,192
120,136,144573,1,0,0:0:0:0:
336,96,144916,6,0,P|408:128|512:80,1,192
336,24,145430,2,0,P|264:8|160:56,1,192
288,96,145944,1,0,0:0:0:0:
48,144,146287,6,0,B|48:248|48:248|168:248,1,192
248,248,146801,2,0,B|248:128|248:128|152:128,1,192
64,128,147316,1,0,0:0:0:0:
232,40,147658,6,0,B|352:40|352:40|352:120,1,192
224,192,148173,2,0,B|224:296|224:296|344:296,1,192
416,296,148687,1,0,0:0:0:0:
120,288,149030,6,0,L|72:192,3,96
384,200,149716,2,0,L|432:112,3,96
56,120,150401,6,0,L|168:120,3,96
384,112,151087,2,0,L|488:112,3,96
176,312,151773,5,0,0:0:0:0:
131,295,151858,1,0,0:0:0:0:
95,263,151944,1,0,0:0:0:0:
73,221,152030,1,0,0:0:0:0:
69,173,152115,1,0,0:0:0:0:
82,127,152201,1,0,0:0:0:0:
110,89,152287,1,0,0:0:0:0:
151,64,152373,1,0,0:0:0:0:
384,56,152458,5,0,0:0:0:0:
423,80,152543,1,0,0:0:0:0:
429,126,152629,1,0,0:0:0:0:
396,159,152715,1,0,0:0:0:0:
200,176,152801,5,0,0:0:0:0:
165,208,152886,1,0,0:0:0:0:
159,255,152972,1,0,0:0:0:0:
182,296,153058,1,0,0:0:0:0:
424,296,153143,1,0,0:0:0:0:
168,272,154344,6,0,L|224:272,1,48
488,280,154516,1,0,0:0:0:0:
