osu file format v14

[General]
AudioFilename: audio.mp3
AudioLeadIn: 0
PreviewTime: 43430
Countdown: 0
SampleSet: Normal
StackLeniency: 0.7
Mode: 2
LetterboxInBreaks: 0
WidescreenStoryboard: 0

[Editor]
Bookmarks: 154601
DistanceSpacing: 0.6
BeatDivisor: 4
GridSize: 8
TimelineZoom: 2.499999

[Metadata]
Title:Tokyo (Innovaderz Remix)
TitleUnicode:Tokyo (Innovaderz Remix)
Artist:DJ Ozawa
ArtistUnicode:DJ Ozawa
Creator:Ascendance
Version:Fii's Salad
Source:
Tags:dnb lanturn mbomb -_magic_bomb_- magic bomb californian darknessofblue fii -wwwww kaitlin zirox sorcerer tomthewizard toybot Yumeno Himiko exam examination gero tenshichan [superstar] hi_hello CLSW crystal crystalseed tasuke912 boberofdarkness bodom koliron deif spectator qoot8123 julie prophecy nofool skylish onosakihito ozzyozrock nardo nardoxyribonucleic raiden nwolf backfire chromoxx saika -saika- lop fawx
BeatmapID:941649
BeatmapSetID:427801

[Difficulty]
HPDrainRate:5
CircleSize:3
OverallDifficulty:7
ApproachRate:7
SliderMultiplier:1.32
SliderTickRate:2

[Events]
//Background and Video events
0,0,"Cities_Color_of_the_night_city_058372_.jpg",0,0
//Break Periods
2,110829,120701
//Storyboard Layer 0 (Background)
//Storyboard Layer 1 (Fail)
//Storyboard Layer 2 (Pass)
//Storyboard Layer 3 (Foreground)
//Storyboard Sound Samples

[TimingPoints]
916,342.857142857143,4,1,0,100,1,0
44801,-100,4,1,9,70,0,1
65373,-100,4,1,15,70,0,1
66058,-100,4,1,9,70,0,1
66744,-100,4,1,9,70,0,0
68116,-100,4,1,15,70,0,0
68373,-100,4,1,9,70,0,0
70858,-100,4,1,15,70,0,0
71116,-100,4,1,9,70,0,0
71887,-100,4,1,15,70,0,0
72230,-100,4,1,9,70,0,0
73601,-100,4,1,15,70,0,0
73858,-100,4,1,9,70,0,0
76858,-100,4,1,15,70,0,0
77544,-100,4,1,9,70,0,0
90058,-100,4,1,15,70,0,0
90316,-100,4,1,9,70,0,0
92801,-100,4,1,15,70,0,0
93058,-100,4,1,9,70,0,0
93830,-100,4,1,15,70,0,0
94173,-100,4,1,9,70,0,0
95544,-100,4,1,15,70,0,0
95801,-100,4,1,9,70,0,0
98801,-100,4,1,15,70,0,0
99487,-100,4,1,9,70,0,0
103773,-100,4,1,15,70,0,0
104630,-100,4,1,9,70,0,0
121601,-100,4,1,9,60,0,0
153144,-100,4,1,15,60,0,0
154344,-100,4,1,9,60,0,0

[HitObjects]
184,328,744,5,0,0:0:0:0:
296,296,915,2,0,P|344:248|280:72,1,264,0|0,0:0|0:0,0:0:0:0:
152,0,2116,2,0,P|104:48|168:224,1,264,0|0,0:0|0:0,0:0:0:0:
296,80,3316,5,0,0:0:0:0:
400,312,3658,2,0,L|192:336,2,198,0|0|0,0:0|0:0|0:0,0:0:0:0:
256,184,5030,2,0,L|464:208,2,198,0|0|0,0:0|0:0|0:0,0:0:0:0:
128,40,6401,6,0,L|144:176,1,132,0|0,0:0|0:0,0:0:0:0:
256,184,7087,2,0,L|240:320,1,132,0|0,0:0|0:0,0:0:0:0:
144,344,7601,2,0,P|96:312|208:128,1,330,0|0,0:0|0:0,0:0:0:0:
288,152,8801,5,0,0:0:0:0:
384,272,9144,2,0,P|320:280|248:256,1,132,0|0,0:0|0:0,0:0:0:0:
176,360,9658,2,0,P|240:352|312:376,1,132,0|0,0:0|0:0,0:0:0:0:
384,168,10173,1,0,0:0:0:0:
224,56,10516,6,0,P|288:48|360:72,1,132,0|0,0:0|0:0,0:0:0:0:
256,264,11030,2,0,P|192:272|120:248,1,132,0|0,0:0|0:0,0:0:0:0:
56,200,11544,1,0,0:0:0:0:
256,176,11887,5,0,0:0:0:0:
96,64,12230,2,0,L|104:216,1,132,0|0,0:0|0:0,0:0:0:0:
272,192,12916,1,0,0:0:0:0:
112,112,13087,6,0,L|120:264,1,132,0|0,0:0|0:0,0:0:0:0:
272,192,13601,2,0,L|264:344,1,132,0|0,0:0|0:0,0:0:0:0:
120,328,14287,1,0,0:0:0:0:
336,32,14630,6,0,L|328:184,1,132,0|0,0:0|0:0,0:0:0:0:
176,112,15144,2,0,L|184:264,1,132,0|0,0:0|0:0,0:0:0:0:
288,264,15658,1,0,0:0:0:0:
441,52,16001,6,0,L|433:204,1,132,0|0,0:0|0:0,0:0:0:0:
281,132,16515,2,0,L|289:284,1,132,0|0,0:0|0:0,0:0:0:0:
393,284,17029,1,0,0:0:0:0:
182,243,17373,5,0,0:0:0:0:
393,284,17716,1,0,0:0:0:0:
184,336,18058,2,0,L|40:320,1,132,0|0,0:0|0:0,0:0:0:0:
184,336,18573,6,0,P|224:288|168:160,1,198,0|0,0:0|0:0,0:0:0:0:
16,88,19430,2,0,L|160:72,1,132,0|0,0:0|0:0,0:0:0:0:
408,48,20116,6,0,P|448:96|392:224,1,198,0|0,0:0|0:0,0:0:0:0:
208,288,21144,1,0,0:0:0:0:
72,304,21487,6,0,P|32:256|88:128,1,198,0|0,0:0|0:0,0:0:0:0:
280,120,22516,1,0,0:0:0:0:
120,56,22858,6,0,L|104:152,1,66,4|0,0:2|0:0,0:0:0:0:
280,120,23373,2,0,L|296:216,1,66,0|0,0:0|0:0,0:0:0:0:
376,216,23716,2,0,L|392:312,1,66,0|0,0:0|0:0,0:0:0:0:
216,152,24230,6,0,L|200:248,1,66,0|0,0:0|0:0,0:0:0:0:
376,216,24745,2,0,L|392:312,1,66,0|0,0:0|0:0,0:0:0:0:
472,312,25088,2,0,L|488:408,1,66,0|0,0:0|0:0,0:0:0:0:
386,281,25430,1,0,0:0:0:0:
288,352,25601,6,0,L|256:264,1,66,0|0,0:0|0:0,0:0:0:0:
64,272,26116,2,0,L|96:184,1,66,0|0,0:0|0:0,0:0:0:0:
168,176,26458,2,0,L|200:88,1,66,0|0,0:0|0:0,0:0:0:0:
392,256,26973,6,0,L|360:168,1,66,0|0,0:0|0:0,0:0:0:0:
168,176,27488,2,0,L|200:88,1,66,0|0,0:0|0:0,0:0:0:0:
272,80,27830,2,0,L|304:-8,1,66,0|0,0:0|0:0,0:0:0:0:
192,32,28173,1,0,0:0:0:0:
96,48,28344,6,0,L|64:136,1,66,0|0,0:0|0:0,0:0:0:0:
248,232,28858,2,0,L|280:320,1,66,0|0,0:0|0:0,0:0:0:0:
360,288,29201,2,0,L|392:376,1,66,0|0,0:0|0:0,0:0:0:0:
192,40,29716,6,0,L|160:128,1,66,0|0,0:0|0:0,0:0:0:0:
344,224,30230,2,0,L|376:312,1,66,0|0,0:0|0:0,0:0:0:0:
456,280,30573,2,0,L|488:368,1,66,0|0,0:0|0:0,0:0:0:0:
366,286,30916,1,0,0:0:0:0:
264,296,31087,6,0,L|232:384,1,66,0|0,0:0|0:0,0:0:0:0:
72,248,31601,2,0,L|40:336,1,66,0|0,0:0|0:0,0:0:0:0:
136,112,31944,2,0,L|104:200,1,66,0|0,0:0|0:0,0:0:0:0:
320,240,32458,6,0,L|288:328,1,66,0|0,0:0|0:0,0:0:0:0:
128,192,32972,2,0,L|96:280,1,66,0|0,0:0|0:0,0:0:0:0:
192,56,33315,2,0,L|160:144,1,66,0|0,0:0|0:0,0:0:0:0:
272,112,33658,1,0,0:0:0:0:
376,104,33830,5,4,0:2:0:0:
136,104,34173,1,0,0:0:0:0:
256,192,34516,1,0,0:0:0:0:
136,104,34858,1,0,0:0:0:0:
376,104,35201,5,0,0:0:0:0:
136,104,35544,1,0,0:0:0:0:
256,192,35887,1,0,0:0:0:0:
136,104,36229,1,0,0:0:0:0:
376,104,36573,5,0,0:0:0:0:
408,144,36916,1,0,0:0:0:0:
256,192,37258,1,0,0:0:0:0:
376,104,37601,1,0,0:0:0:0:
136,104,37944,5,0,0:0:0:0:
104,144,38287,1,0,0:0:0:0:
256,192,38629,1,0,0:0:0:0:
136,104,38972,1,0,0:0:0:0:
376,104,39316,6,0,L|408:192,1,66,0|0,3:0|3:0,0:0:0:0:
488,224,39658,2,0,L|456:312,1,66,0|0,3:0|3:0,0:0:0:0:
376,104,40001,6,0,L|408:192,1,66,0|0,3:0|3:0,0:0:0:0:
488,224,40344,2,0,L|456:312,1,66,0|0,3:0|3:0,0:0:0:0:
376,312,40687,5,0,3:0:0:0:
288,280,40858,1,0,3:0:0:0:
200,312,41030,1,0,3:0:0:0:
112,280,41201,1,0,3:0:0:0:
24,312,41373,6,0,L|56:224,1,66,0|0,3:0|3:0,0:0:0:0:
136,192,41716,2,0,L|104:104,1,66,0|0,3:0|3:0,0:0:0:0:
256,192,42058,12,0,43258,3:0:0:0:
256,184,43430,5,0,3:0:0:0:
256,184,44630,1,2,3:0:0:0:
320,104,44801,6,0,L|232:104,1,66,4|0,0:2|0:0,0:0:0:0:
184,24,45144,2,0,L|272:24,1,66,8|0,0:0|0:0,0:0:0:0:
120,104,45658,1,0,3:0:0:0:
250,24,45830,2,0,L|184:24,1,66,8|0,0:0|0:0,0:0:0:0:
192,264,46173,6,0,L|280:264,1,66,0|0,3:0|0:0,0:0:0:0:
328,344,46516,2,0,L|240:344,1,66,8|0,0:0|0:0,0:0:0:0:
392,264,47030,1,0,3:0:0:0:
262,344,47202,2,0,L|328:344,1,66,8|0,0:0|0:0,0:0:0:0:
320,104,47544,6,0,L|232:104,1,66,0|0,3:0|0:0,0:0:0:0:
184,24,47887,2,0,L|272:24,1,66,8|0,0:0|0:0,0:0:0:0:
320,104,48230,1,0,0:0:0:0:
184,24,48573,1,8,0:0:0:0:
320,264,48916,6,0,L|224:264,1,66,0|0,3:0|0:0,0:0:0:0:
192,264,49258,2,0,L|288:264,1,66,8|0,0:0|0:0,0:0:0:0:
320,264,49601,2,0,L|320:192,1,66,0|0,0:0|3:0,0:0:0:0:
192,264,49944,2,0,L|192:192,1,66,8|0,0:0|0:0,0:0:0:0:
320,200,50287,6,0,L|464:200,1,132,0|8,3:0|0:0,0:0:0:0:
320,184,50801,2,0,L|464:184,1,132,0|0,0:0|3:0,0:0:0:0:
320,168,51316,2,0,L|320:96,1,66,8|0,0:0|0:0,0:0:0:0:
192,168,51658,6,0,L|48:168,1,132,0|8,3:0|0:0,0:0:0:0:
192,184,52173,2,0,L|48:184,1,132,0|0,0:0|3:0,0:0:0:0:
192,200,52687,2,0,L|192:272,1,66,8|0,0:0|0:0,0:0:0:0:
60,168,53030,6,0,L|132:168,2,66,0|0|8,3:0|0:0|0:0,0:0:0:0:
224,32,53716,2,0,L|152:32,2,66,0|0|8,0:0|3:0|0:0,0:0:0:0:
452,168,54401,6,0,L|380:168,2,66,8|0|0,0:0|3:0|3:0,0:0:0:0:
288,32,55087,2,0,L|360:32,2,66,0|0|8,3:0|3:0|0:0,0:0:0:0:
160,32,55773,6,0,L|160:104,1,66,4|0,3:2|0:0,0:0:0:0:
64,104,56116,2,0,L|64:176,1,66,8|0,0:0|0:0,0:0:0:0:
160,98,56458,6,0,L|160:170,1,66,0|0,0:0|3:0,0:0:0:0:
64,170,56801,2,0,L|64:242,1,66,8|0,0:0|0:0,0:0:0:0:
160,164,57144,6,0,L|312:164,1,132,0|8,3:0|0:0,0:0:0:0:
352,204,57658,2,0,L|200:204,1,132,0|0,0:0|3:0,0:0:0:0:
292,164,58173,1,8,0:0:0:0:
352,336,58516,6,0,L|352:264,1,66,0|0,3:0|0:0,0:0:0:0:
448,264,58859,2,0,L|448:192,1,66,8|0,0:0|0:0,0:0:0:0:
352,270,59201,6,0,L|352:198,1,66,0|0,0:0|3:0,0:0:0:0:
448,198,59544,2,0,L|448:126,1,66,8|0,0:0|0:0,0:0:0:0:
352,204,59887,6,0,L|200:204,1,132,0|8,3:0|0:0,0:0:0:0:
160,164,60401,2,0,L|312:164,1,132,0|0,0:0|3:0,0:0:0:0:
220,204,60916,1,8,0:0:0:0:
24,72,61258,6,0,L|176:72,1,132,0|8,3:0|0:0,0:0:0:0:
24,72,61773,2,0,B|24:112|24:112|80:112|80:112|80:176,1,132,0|0,0:0|3:0,0:0:0:0:
192,184,62287,1,8,0:0:0:0:
488,72,62630,6,0,L|336:72,1,132,0|8,3:0|0:0,0:0:0:0:
488,72,63145,2,0,B|488:112|488:112|432:112|432:112|432:176,1,132,0|0,0:0|3:0,0:0:0:0:
320,184,63659,1,8,0:0:0:0:
56,328,64001,6,0,L|152:328,1,66,0|0,3:0|0:0,0:0:0:0:
184,280,64344,1,8,0:0:0:0:
32,240,64687,6,0,L|128:240,1,66,0|0,0:0|3:0,0:0:0:0:
160,192,65030,1,8,0:0:0:0:
456,328,65373,6,0,L|360:328,1,66,8|8,0:3|0:3,0:0:0:0:
328,280,65716,1,8,0:3:0:0:
480,240,66059,6,0,L|384:240,1,66,8|0,0:0|3:0,0:0:0:0:
352,192,66402,1,8,0:0:0:0:
416,240,66573,1,0,0:0:0:0:
296,144,66744,6,0,L|136:144,1,132,4|8,3:2|0:0,0:0:0:0:
32,144,67430,2,0,L|32:216,1,66,0|0,0:0|3:0,0:0:0:0:
164,144,67773,1,8,0:0:0:0:
96,72,67944,1,0,0:0:0:0:
216,144,68116,6,0,L|376:144,1,132,10|8,3:0|0:0,0:0:0:0:
480,144,68802,2,0,L|480:216,1,66,2|2,0:0|3:1,0:0:0:0:
348,144,69145,1,10,0:0:0:0:
416,72,69316,1,2,0:1:0:0:
296,144,69487,5,0,3:0:0:0:
176,144,69830,1,8,0:0:0:0:
232,144,70001,1,2,0:0:0:0:
120,144,70173,1,0,0:0:0:0:
296,144,70516,1,8,0:0:0:0:
216,224,70858,5,10,3:0:0:0:
336,224,71201,1,8,0:0:0:0:
280,224,71372,1,0,0:0:0:0:
392,224,71544,1,0,0:0:0:0:
216,224,71887,1,2,3:0:0:0:
296,144,72230,5,4,3:2:0:0:
208,64,72401,2,0,L|280:64,2,66,0|8|2,0:0|0:1|0:1,0:0:0:0:
296,144,72916,2,0,L|224:144,2,66,0|0|8,0:0|3:0|0:0,0:0:0:0:
216,224,73602,5,10,3:0:0:0:
304,304,73773,2,0,L|232:304,2,66,0|8|2,0:0|0:0|0:0,0:0:0:0:
216,224,74288,2,0,L|288:224,2,66,2|2|10,0:0|3:1|0:0,0:0:0:0:
256,192,74973,12,2,77373,0:3:0:0:
256,184,77716,5,4,3:2:0:0:
256,184,77887,1,0,0:0:0:0:
256,184,78058,1,8,0:0:0:0:
256,184,78230,1,0,0:0:0:0:
192,112,78401,5,0,0:0:0:0:
176,144,78573,1,0,3:0:0:0:
160,176,78744,1,8,0:0:0:0:
144,208,78916,1,0,0:0:0:0:
256,184,79087,5,0,3:0:0:0:
256,184,79258,1,0,0:0:0:0:
256,184,79429,1,8,0:0:0:0:
256,184,79601,1,0,0:0:0:0:
320,256,79772,5,0,0:0:0:0:
336,224,79944,1,0,3:0:0:0:
352,192,80115,1,8,0:0:0:0:
368,160,80287,1,0,0:0:0:0:
256,184,80458,6,0,L|168:200,1,66,0|0,3:0|0:0,0:0:0:0:
256,184,80801,2,0,L|344:168,1,66,8|0,0:0|0:0,0:0:0:0:
184,56,81144,5,0,0:0:0:0:
184,56,81316,1,0,3:0:0:0:
328,56,81487,1,8,0:0:0:0:
328,56,81659,1,0,0:0:0:0:
256,184,81830,6,0,L|168:200,1,66,0|0,3:0|0:0,0:0:0:0:
256,184,82173,2,0,L|344:168,1,66,8|0,0:0|0:0,0:0:0:0:
184,56,82516,5,0,0:0:0:0:
184,56,82688,1,0,3:0:0:0:
328,56,82859,1,8,0:0:0:0:
328,56,83031,1,0,0:0:0:0:
208,328,83201,6,0,L|120:312,1,66,0|0,3:0|0:0,0:0:0:0:
184,288,83544,2,0,L|96:272,1,66,8|0,0:0|0:0,0:0:0:0:
64,264,83887,6,0,L|152:248,1,66,0|0,0:0|3:0,0:0:0:0:
88,224,84230,2,0,L|176:208,1,66,8|0,0:0|0:0,0:0:0:0:
256,176,84573,5,0,3:0:0:0:
240,144,84745,1,0,0:0:0:0:
224,112,84916,1,8,0:0:0:0:
208,80,85088,1,0,0:0:0:0:
256,176,85258,5,0,0:0:0:0:
272,144,85430,1,0,3:0:0:0:
288,112,85601,1,8,0:0:0:0:
208,80,85773,1,0,0:0:0:0:
304,328,85944,6,0,L|392:312,1,66,0|0,3:0|0:0,0:0:0:0:
328,288,86287,2,0,L|416:272,1,66,8|0,0:0|0:0,0:0:0:0:
448,264,86630,6,0,L|360:248,1,66,0|0,0:0|3:0,0:0:0:0:
424,224,86973,2,0,L|336:208,1,66,8|0,0:0|0:0,0:0:0:0:
256,176,87316,5,4,3:2:0:0:
272,144,87430,1,0,0:0:0:0:
288,112,87544,1,0,0:0:0:0:
304,80,87658,5,8,0:0:0:0:
256,176,87773,1,0,0:0:0:0:
272,144,87887,1,0,0:0:0:0:
288,112,88001,5,8,0:0:0:0:
240,144,88258,1,8,0:0:0:0:
208,80,88516,1,8,0:0:0:0:
312,0,88687,6,0,L|152:0,1,132,4|8,3:2|0:0,0:0:0:0:
96,0,89201,1,2,0:0:0:0:
184,208,89373,2,0,L|96:208,3,66,0|0|8|0,0:0|3:0|0:0|0:0,0:0:0:0:
200,384,90058,6,0,L|360:384,1,132,10|8,3:0|0:0,0:0:0:0:
416,384,90572,1,2,0:0:0:0:
328,176,90744,2,0,L|416:176,3,66,2|2|10|2,0:0|3:1|0:0|0:0,0:0:0:0:
304,176,91430,6,0,L|240:32,1,132,0|8,3:0|0:0,0:0:0:0:
336,280,91944,2,0,L|416:280,1,66,2|0,0:0|0:0,0:0:0:0:
304,320,92287,2,0,L|224:320,2,66,0|8|0,3:0|0:0|0:0,0:0:0:0:
208,176,92801,6,0,L|272:32,1,132,10|8,3:0|0:0,0:0:0:0:
176,280,93315,2,0,L|96:280,1,66,2|0,0:0|0:0,0:0:0:0:
208,320,93658,2,0,L|288:320,2,66,0|2|0,0:0|3:0|0:0,0:0:0:0:
304,360,94173,6,0,L|464:360,1,132,4|8,3:2|0:0,0:0:0:0:
368,312,94687,2,0,L|368:240,1,66,2|0,0:0|0:0,0:0:0:0:
464,216,95030,2,0,L|464:144,1,66,0|8,3:0|0:0,0:0:0:0:
336,136,95373,1,0,0:0:0:0:
208,24,95544,6,0,L|48:24,1,132,10|8,3:0|0:0,0:0:0:0:
144,72,96058,2,0,L|144:144,1,66,2|2,0:0|0:0,0:0:0:0:
48,168,96401,2,0,L|48:240,1,66,2|10,3:1|0:0,0:0:0:0:
176,248,96744,1,2,0:0:0:0:
304,272,96916,6,0,L|304:352,1,66,2|2,0:0|0:0,0:0:0:0:
208,272,97258,2,0,L|208:352,1,66,2|2,0:0|0:0,0:0:0:0:
320,264,97601,6,0,L|320:344,1,66,2|2,0:0|0:0,0:0:0:0:
192,264,97944,2,0,L|192:344,1,66,2|2,0:0|0:0,0:0:0:0:
320,264,98287,6,0,P|328:216|208:160,2,198,8|8|10,0:0|0:3|0:3,0:0:0:0:
72,72,99658,6,0,L|16:72,2,33,4|0|0,3:2|0:0|0:0,0:0:0:0:
160,72,100001,1,8,0:0:0:0:
72,160,100173,6,0,L|16:160,2,33,0|0|0,0:0|0:0|0:0,0:0:0:0:
160,160,100516,1,0,3:0:0:0:
72,256,100687,5,8,0:0:0:0:
105,256,100772,1,0,0:0:0:0:
138,256,100858,1,0,0:0:0:0:
264,344,101030,6,0,L|320:344,2,33,0|0|0,3:0|0:0|0:0,0:0:0:0:
176,344,101373,1,8,0:0:0:0:
264,256,101545,6,0,L|320:256,2,33,0|0|0,0:0|0:0|0:0,0:0:0:0:
176,256,101888,1,0,3:0:0:0:
264,160,102059,5,8,0:0:0:0:
231,160,102144,1,0,0:0:0:0:
198,160,102230,1,0,0:0:0:0:
72,72,102401,5,0,3:0:0:0:
105,72,102486,1,0,0:0:0:0:
138,72,102572,1,0,0:0:0:0:
216,72,102744,1,8,0:0:0:0:
249,72,102829,1,0,0:0:0:0:
282,72,102915,1,0,0:0:0:0:
440,312,103087,5,0,0:0:0:0:
407,312,103172,1,0,0:0:0:0:
374,312,103258,1,0,3:0:0:0:
296,312,103430,1,8,0:0:0:0:
263,312,103515,1,0,0:0:0:0:
230,312,103601,1,0,0:0:0:0:
256,192,103773,12,8,104801,0:0:0:0:
88,320,105144,6,0,L|88:184,1,132,4|0,3:2|3:0,0:0:0:0:
256,288,105830,2,0,L|256:152,1,132,0|0,3:0|3:0,0:0:0:0:
424,320,106516,6,0,L|424:184,1,132,4|0,3:2|3:0,0:0:0:0:
256,288,107201,2,0,L|256:152,1,132,0|0,3:0|3:0,0:0:0:0:
88,320,107887,6,0,L|168:320,1,66,4|0,3:2|3:0,0:0:0:0:
152,80,108230,2,0,L|232:80,1,66,0|0,3:2|3:0,0:0:0:0:
218,80,108573,6,0,L|284:80,1,66,4|0,3:2|0:0,0:0:0:0:
282,320,108916,2,0,L|348:320,1,66,0|4,0:0|3:2,0:0:0:0:
480,224,109258,6,0,L|216:224,2,264,4|0|4,3:2|0:0|3:2,0:0:0:0:
256,320,121601,5,6,3:2:0:0:
216,320,121773,1,0,0:0:0:0:
176,320,121944,1,0,0:0:0:0:
136,320,122116,1,0,0:0:0:0:
216,232,122287,5,0,0:0:0:0:
176,232,122459,1,0,0:0:0:0:
136,232,122630,1,0,0:0:0:0:
96,232,122802,1,0,0:0:0:0:
176,144,122973,5,0,0:0:0:0:
136,144,123145,1,0,0:0:0:0:
96,144,123316,1,0,0:0:0:0:
56,144,123488,1,0,0:0:0:0:
136,56,123659,5,0,0:0:0:0:
96,56,123831,1,0,0:0:0:0:
96,56,124002,1,0,0:0:0:0:
136,56,124174,1,0,0:0:0:0:
256,320,124344,5,2,0:0:0:0:
296,320,124516,1,0,0:0:0:0:
336,320,124687,1,0,0:0:0:0:
376,320,124859,1,0,0:0:0:0:
296,232,125030,5,0,0:0:0:0:
336,232,125202,1,0,0:0:0:0:
376,232,125373,1,0,0:0:0:0:
416,232,125545,1,0,0:0:0:0:
336,144,125716,5,0,0:0:0:0:
376,144,125888,1,0,0:0:0:0:
416,144,126059,1,0,0:0:0:0:
456,144,126231,1,0,0:0:0:0:
376,56,126402,5,0,0:0:0:0:
416,56,126574,1,0,0:0:0:0:
416,56,126745,1,0,0:0:0:0:
376,56,126917,1,0,0:0:0:0:
256,56,127087,6,0,L|104:56,1,132,2|0,0:0|0:0,0:0:0:0:
208,144,127773,2,0,L|72:144,1,132,0|0,0:0|0:0,0:0:0:0:
208,232,128287,2,0,P|272:272|192:344,1,198,0|0,0:0|0:0,0:0:0:0:
76,144,129144,2,0,L|212:144,1,132,0|0,0:0|0:0,0:0:0:0:
368,80,129830,5,0,0:0:0:0:
128,40,130344,1,0,0:0:0:0:
368,80,130858,1,0,0:0:0:0:
168,272,131201,1,0,0:0:0:0:
408,232,131715,1,0,0:0:0:0:
120,280,132229,1,0,0:0:0:0:
256,320,132573,5,2,0:0:0:0:
296,320,132745,1,0,0:0:0:0:
336,320,132916,1,0,0:0:0:0:
256,320,133088,1,2,0:0:0:0:
296,232,133259,5,0,0:0:0:0:
336,232,133431,1,0,0:0:0:0:
376,232,133602,1,0,0:0:0:0:
296,232,133773,1,0,0:0:0:0:
336,144,133945,5,0,0:0:0:0:
376,144,134117,1,0,0:0:0:0:
416,144,134288,1,0,0:0:0:0:
336,144,134458,1,0,0:0:0:0:
376,56,134631,5,0,0:0:0:0:
416,56,134801,1,0,0:0:0:0:
416,56,134974,1,0,0:0:0:0:
376,56,135144,1,0,0:0:0:0:
256,320,135316,5,0,0:0:0:0:
216,320,135488,1,0,0:0:0:0:
176,320,135659,1,0,0:0:0:0:
256,320,135831,1,0,0:0:0:0:
216,232,136002,5,0,0:0:0:0:
176,232,136174,1,0,0:0:0:0:
136,232,136345,1,0,0:0:0:0:
216,232,136517,1,0,0:0:0:0:
176,144,136688,5,0,0:0:0:0:
136,144,136858,1,0,0:0:0:0:
96,144,137031,1,0,0:0:0:0:
176,144,137201,1,0,0:0:0:0:
136,56,137374,5,0,0:0:0:0:
96,56,137544,1,0,0:0:0:0:
96,56,137717,1,0,0:0:0:0:
136,56,137887,1,0,0:0:0:0:
256,56,138059,6,0,L|408:56,1,132,2|0,0:0|0:0,0:0:0:0:
304,144,138745,2,0,L|440:144,1,132,0|0,0:0|0:0,0:0:0:0:
304,232,139259,2,0,P|240:272|320:344,1,198,0|0,0:0|0:0,0:0:0:0:
436,144,140116,2,0,L|300:144,1,132,0|0,0:0|0:0,0:0:0:0:
144,80,140802,5,0,0:0:0:0:
384,40,141316,1,0,0:0:0:0:
144,80,141830,1,0,0:0:0:0:
344,272,142173,1,0,0:0:0:0:
104,232,142687,1,0,0:0:0:0:
344,272,143201,1,0,0:0:0:0:
136,104,143544,5,4,0:2:0:0:
376,104,143887,1,0,0:0:0:0:
256,192,144230,1,0,0:0:0:0:
376,104,144572,1,0,0:0:0:0:
136,104,144915,5,0,0:0:0:0:
376,104,145258,1,0,0:0:0:0:
256,192,145601,1,0,0:0:0:0:
376,104,145943,1,0,0:0:0:0:
136,104,146287,5,0,0:0:0:0:
104,144,146630,1,0,0:0:0:0:
256,192,146972,1,0,0:0:0:0:
136,104,147315,1,0,0:0:0:0:
376,104,147658,5,0,0:0:0:0:
408,144,148001,1,0,0:0:0:0:
256,192,148343,1,0,0:0:0:0:
376,104,148686,1,0,0:0:0:0:
136,104,149030,6,0,L|104:192,1,66,4|0,3:2|3:0,0:0:0:0:
24,224,149372,2,0,L|56:312,1,66,0|0,3:0|3:0,0:0:0:0:
136,104,149715,6,0,L|104:192,1,66,0|0,3:0|3:0,0:0:0:0:
24,224,150058,2,0,L|56:312,1,66,0|0,3:0|3:0,0:0:0:0:
136,312,150401,5,0,3:0:0:0:
224,280,150572,1,0,3:0:0:0:
312,312,150744,1,0,3:0:0:0:
400,280,150915,1,0,3:0:0:0:
488,312,151087,6,0,L|456:224,1,66,0|0,3:0|3:0,0:0:0:0:
376,192,151430,2,0,L|408:104,1,66,0|0,3:0|3:0,0:0:0:0:
264,352,151773,6,0,B|152:352|104:264|176:144|264:176|280:192|352:176|384:16|200:8,1,528,0|0,3:0|3:0,0:0:0:0:
256,192,154516,1,4,3:2:0:0:
