osu file format v14

[General]
AudioFilename: audio.mp3
AudioLeadIn: 0
PreviewTime: 43430
Countdown: 0
SampleSet: Normal
StackLeniency: 0.7
Mode: 2
LetterboxInBreaks: 0
WidescreenStoryboard: 0

[Editor]
Bookmarks: 154601
DistanceSpacing: 0.5
BeatDivisor: 4
GridSize: 16
TimelineZoom: 1.1

[Metadata]
Title:Tokyo (Innovaderz Remix)
TitleUnicode:Tokyo (Innovaderz Remix)
Artist:DJ Ozawa
ArtistUnicode:DJ Ozawa
Creator:Ascendance
Version:Fawx's Cup
Source:
Tags:dnb lanturn mbomb -_magic_bomb_- magic bomb californian darknessofblue fii -wwwww kaitlin zirox sorcerer tomthewizard toybot Yumeno Himiko exam examination gero tenshichan [superstar] hi_hello CLSW crystal crystalseed tasuke912 boberofdarkness bodom koliron deif spectator qoot8123 julie prophecy nofool skylish onosakihito ozzyozrock nardo nardoxyribonucleic raiden nwolf backfire chromoxx saika -saika- lop fawx
BeatmapID:1038432
BeatmapSetID:427801

[Difficulty]
HPDrainRate:4
CircleSize:2.5
OverallDifficulty:4
ApproachRate:4
SliderMultiplier:1.4
SliderTickRate:1

[Events]
//Background and Video events
0,0,"Cities_Color_of_the_night_city_058372_.jpg",0,0
//Break Periods
//Storyboard Layer 0 (Background)
//Storyboard Layer 1 (Fail)
//Storyboard Layer 2 (Pass)
//Storyboard Layer 3 (Foreground)
//Storyboard Sound Samples

[TimingPoints]
916,342.857142857143,4,2,31,50,1,0
916,-133.333333333333,4,2,31,50,0,0
22858,-133.333333333333,4,3,31,50,0,0
33830,-133.333333333333,4,1,31,60,0,0
44801,-100,4,1,0,70,0,1
66744,-100,4,1,34,60,0,0
67601,-100,4,1,34,50,0,0
67773,-100,4,1,34,40,0,0
68116,-100,4,1,34,60,0,0
68973,-100,4,1,34,50,0,0
69144,-100,4,1,34,40,0,0
69487,-100,4,1,34,60,0,0
70344,-100,4,1,34,50,0,0
70516,-100,4,1,34,40,0,0
70858,-100,4,1,34,60,0,0
71716,-100,4,1,34,50,0,0
71887,-100,4,1,34,40,0,0
72230,-100,4,1,34,60,0,0
73087,-100,4,1,34,50,0,0
73259,-100,4,1,34,40,0,0
73601,-100,4,1,34,60,0,0
74459,-100,4,1,34,50,0,0
74630,-100,4,1,34,40,0,0
74973,-100,4,1,34,60,0,0
75830,-100,4,1,34,50,0,0
76002,-100,4,1,34,40,0,0
76344,-100,4,1,34,60,0,0
77202,-100,4,1,34,50,0,0
77373,-100,4,1,34,40,0,0
77716,-100,4,1,33,60,0,0
88001,-100,4,1,0,60,0,0
88173,-100,4,1,0,30,0,0
88258,-100,4,1,0,60,0,0
88430,-100,4,1,0,30,0,0
88516,-100,4,1,0,60,0,0
88687,-100,4,1,34,60,0,0
89544,-100,4,1,34,50,0,0
89716,-100,4,1,34,40,0,0
90058,-100,4,1,34,60,0,0
90916,-100,4,1,34,50,0,0
91087,-100,4,1,34,40,0,0
91430,-100,4,1,34,60,0,0
92287,-100,4,1,34,50,0,0
92459,-100,4,1,34,40,0,0
92801,-100,4,1,34,60,0,0
93659,-100,4,1,34,50,0,0
93830,-100,4,1,34,40,0,0
94173,-100,4,1,34,60,0,0
95030,-100,4,1,34,50,0,0
95202,-100,4,1,34,40,0,0
95544,-100,4,1,34,60,0,0
96402,-100,4,1,34,50,0,0
96573,-100,4,1,34,40,0,0
96916,-100,4,1,34,60,0,0
97773,-100,4,1,34,50,0,0
97945,-100,4,1,34,40,0,0
98287,-100,4,1,34,60,0,0
99145,-100,4,1,34,50,0,0
99316,-100,4,1,34,40,0,0
99658,-100,4,1,33,60,0,1
108744,-100,4,1,33,30,0,1
108830,-100,4,1,33,60,0,1
109001,-100,4,1,33,30,0,1
109087,-100,4,1,33,60,0,1
109944,-100,4,1,33,50,0,1
110630,-100,4,2,32,40,0,0
110973,-100,4,2,32,50,0,0
111658,-100,4,2,32,40,0,0
111830,-100,4,2,32,30,0,0
112001,-100,4,2,32,40,0,0
112344,-100,4,2,32,50,0,0
113030,-100,4,2,32,40,0,0
113201,-100,4,2,32,30,0,0
113373,-100,4,2,32,40,0,0
113716,-100,4,2,32,50,0,0
114401,-100,4,2,32,40,0,0
114573,-100,4,2,32,30,0,0
114744,-100,4,2,32,40,0,0
115087,-100,4,2,32,50,0,0
115773,-100,4,2,32,40,0,0
115944,-100,4,2,32,30,0,0
116116,-100,4,2,32,40,0,0
116458,-100,4,2,32,50,0,0
117144,-100,4,2,32,40,0,0
117316,-100,4,2,32,30,0,0
117487,-100,4,2,32,40,0,0
117830,-100,4,2,32,50,0,0
118516,-100,4,2,32,40,0,0
118687,-100,4,2,32,30,0,0
118858,-100,4,2,32,40,0,0
119201,-100,4,2,32,50,0,0
119887,-100,4,2,32,40,0,0
120058,-100,4,2,32,30,0,0
120230,-100,4,2,32,40,0,0
120573,-100,4,2,32,50,0,0
121601,-100,4,2,31,50,0,0
143544,-100,4,1,31,60,0,0
154516,-100,4,1,31,60,0,1
154601,-100,4,1,31,60,0,0

[HitObjects]
144,272,915,6,0,L|368:80,1,280,0|0,0:0|0:0,0:0:0:0:
192,112,2287,2,0,L|32:256,1,210.000008010865,0|0,0:0|0:0,0:0:0:0:
272,320,3658,2,0,L|176:128,1,210.000008010865,10|2,0:0|0:0,0:0:0:0:
272,192,5030,2,0,L|496:192,1,210.000008010865,2|2,0:0|0:0,0:0:0:0:
208,320,6401,6,0,L|384:176,1,210.000008010865,6|2,0:0|0:0,0:0:0:0:
496,192,7773,2,0,L|272:192,1,210.000008010865,2|0,0:0|0:0,0:0:0:0:
112,304,9144,2,0,L|304:208,1,210.000008010865,10|2,0:0|0:0,0:0:0:0:
208,336,10516,2,0,P|144:256|48:208,1,210.000008010865,2|0,0:0|0:0,0:0:0:0:
224,128,11887,6,0,P|336:160|400:240,1,210.000008010865,6|2,0:0|0:0,0:0:0:0:
224,320,13258,2,0,L|64:160,1,210.000008010865,0|0,0:0|0:0,0:0:0:0:
256,112,14630,2,0,L|480:112,1,210.000008010865,10|2,0:0|0:0,0:0:0:0:
288,288,16001,2,0,P|320:208|432:160,1,210.000008010865,2|2,0:0|0:0,0:0:0:0:
256,176,17373,6,0,L|64:64,1,210.000008010865,6|2,0:0|0:0,0:0:0:0:
192,272,18744,2,0,L|416:272,1,210.000008010865,2|0,0:0|0:0,0:0:0:0:
288,144,20116,2,0,L|64:144,1,210.000008010865,10|2,0:0|0:0,0:0:0:0:
208,208,21487,2,0,P|288:240|416:208,1,210.000008010865,2|0,0:0|0:0,0:0:0:0:
272,96,22858,6,0,L|208:96,1,52.5000020027161,12|2,0:0|0:0,0:0:0:0:
80,240,23373,1,8,0:0:0:0:
144,240,23544,2,0,L|256:240,1,105.000004005432,2|2,0:0|0:0,0:0:0:0:
384,240,24230,1,2,0:0:0:0:
320,240,24401,1,8,0:0:0:0:
160,160,24744,1,8,0:0:0:0:
96,160,24916,2,0,L|208:160,1,105.000004005432,2|8,0:0|0:0,0:0:0:0:
320,160,25601,6,0,L|384:160,1,52.5000020027161,8|2,0:0|0:0,0:0:0:0:
272,272,26116,1,8,0:0:0:0:
208,272,26287,2,0,L|96:272,1,105.000004005432,2|8,0:0|0:0,0:0:0:0:
176,160,26973,1,8,0:0:0:0:
240,160,27144,1,2,0:0:0:0:
304,256,27487,1,8,0:0:0:0:
368,256,27658,2,0,L|480:256,1,105.000004005432,2|8,0:0|0:0,0:0:0:0:
352,160,28344,6,0,L|288:160,1,52.5000020027161,8|2,0:0|0:0,0:0:0:0:
176,272,28858,1,2,0:0:0:0:
240,272,29030,2,0,L|352:272,1,105.000004005432,2|8,0:0|0:0,0:0:0:0:
480,272,29716,1,8,0:0:0:0:
416,272,29887,1,2,0:0:0:0:
320,176,30230,1,8,0:0:0:0:
256,176,30401,2,0,L|144:176,1,105.000004005432,2|8,0:0|0:0,0:0:0:0:
240,80,31087,6,0,L|304:80,1,52.5000020027161,8|2,0:0|0:0,0:0:0:0:
416,224,31601,1,2,0:0:0:0:
352,224,31773,2,0,L|224:224,1,105.000004005432,2|8,0:0|0:0,0:0:0:0:
112,112,32458,1,8,0:0:0:0:
176,112,32630,1,2,0:0:0:0:
304,112,32973,1,8,0:0:0:0:
368,112,33144,2,0,L|480:112,1,105.000004005432,2|8,0:0|0:0,0:0:0:0:
368,224,33830,6,0,L|256:224,1,105.000004005432,12|8,0:0|0:0,0:0:0:0:
352,128,34516,2,0,L|464:128,1,105.000004005432,2|8,0:0|0:0,0:0:0:0:
320,240,35201,2,0,L|208:240,1,105.000004005432,12|8,0:0|0:0,0:0:0:0:
384,128,35887,2,0,L|272:128,1,105.000004005432,6|8,0:0|0:0,0:0:0:0:
128,128,36573,6,0,L|240:128,1,105.000004005432,12|8,0:0|0:0,0:0:0:0:
144,240,37258,1,2,0:0:0:0:
32,240,37601,1,8,0:0:0:0:
192,144,37944,2,0,L|304:144,1,105.000004005432,12|8,0:0|0:0,0:0:0:0:
208,240,38630,1,6,0:0:0:0:
96,240,38973,1,8,0:0:0:0:
240,144,39316,5,12,0:0:0:0:
384,144,39658,1,8,0:0:0:0:
256,144,40001,1,12,0:0:0:0:
112,144,40344,1,4,0:0:0:0:
240,240,40687,1,12,0:0:0:0:
96,240,41030,1,8,0:0:0:0:
224,336,41373,1,12,0:0:0:0:
256,192,42058,12,8,43430,0:0:0:0:
112,96,44801,6,0,L|256:160,1,140,12|8,0:0|0:0,0:0:0:0:
320,208,45316,1,0,0:0:0:0:
352,208,45401,1,0,0:0:0:0:
384,160,45487,2,0,L|240:224,1,140,0|8,0:0|0:0,0:0:0:0:
352,288,46173,2,0,L|208:352,1,140,8|8,0:0|0:0,0:0:0:0:
128,272,46687,1,0,0:0:0:0:
96,272,46773,1,0,0:0:0:0:
64,192,46858,2,0,L|208:128,1,140,0|8,0:0|0:0,0:0:0:0:
320,96,47544,6,0,L|160:160,1,140,8|8,0:0|0:0,0:0:0:0:
320,208,48231,1,0,0:0:0:0:
392,209,48401,1,8,0:0:0:0:
464,208,48573,1,8,0:0:0:0:
320,304,48916,2,0,L|160:240,1,140,8|8,0:0|0:0,0:0:0:0:
304,208,49601,1,0,0:0:0:0:
448,208,49944,1,8,0:0:0:0:
336,304,50287,6,0,L|192:272,1,140,10|8,0:0|0:0,0:0:0:0:
96,240,50801,1,2,0:0:0:0:
128,192,50973,2,0,L|272:160,1,140,2|8,0:0|0:0,0:0:0:0:
192,80,51658,2,0,L|336:112,1,140,10|8,0:0|0:0,0:0:0:0:
416,224,52173,1,2,0:0:0:0:
384,224,52344,2,0,L|240:192,1,140,2|8,0:0|0:0,0:0:0:0:
64,112,53030,6,0,L|208:176,1,140,10|8,0:0|0:0,0:0:0:0:
80,224,53716,2,0,L|224:288,1,140,2|8,0:0|0:0,0:0:0:0:
304,112,54401,2,0,L|144:176,1,140,10|8,0:0|0:0,0:0:0:0:
288,224,55087,2,0,L|128:288,1,140,2|8,0:0|0:0,0:0:0:0:
64,96,55773,6,0,L|208:160,1,140,12|8,0:0|0:0,0:0:0:0:
288,176,56287,1,0,0:0:0:0:
320,176,56373,1,0,0:0:0:0:
352,256,56458,2,0,L|208:320,1,140,0|8,0:0|0:0,0:0:0:0:
64,128,57144,2,0,L|224:64,1,140,8|8,0:0|0:0,0:0:0:0:
272,208,57658,1,0,0:0:0:0:
304,208,57744,1,0,0:0:0:0:
336,208,57830,2,0,L|464:272,1,140,0|8,0:0|0:0,0:0:0:0:
320,304,58516,6,0,L|176:240,1,140,8|8,0:0|0:0,0:0:0:0:
348,176,59201,1,0,0:0:0:0:
278,176,59373,1,8,0:0:0:0:
208,176,59544,1,8,0:0:0:0:
368,80,59887,2,0,L|208:144,1,140,8|8,0:0|0:0,0:0:0:0:
64,192,60573,1,0,0:0:0:0:
208,192,60916,1,8,0:0:0:0:
352,80,61258,6,0,L|192:144,1,140,10|8,0:0|0:0,0:0:0:0:
272,176,61773,1,2,0:0:0:0:
336,176,61944,2,0,L|480:240,1,140,2|8,0:0|0:0,0:0:0:0:
352,192,62630,2,0,L|492:192,1,140,10|8,0:0|0:0,0:0:0:0:
432,80,63144,1,2,0:0:0:0:
368,80,63316,2,0,L|224:144,1,140,2|8,0:0|0:0,0:0:0:0:
320,176,64001,6,0,L|160:112,1,140,10|8,0:0|0:0,0:0:0:0:
272,320,64687,2,0,L|112:256,1,140,2|8,0:0|0:0,0:0:0:0:
32,160,65373,2,0,L|192:224,1,140,10|8,0:0|0:0,0:0:0:0:
80,64,66058,2,0,L|240:128,1,140,2|8,0:0|0:0,0:0:0:0:
368,64,66744,5,12,0:2:0:0:
240,160,67087,2,0,L|96:96,1,140,8|2,0:0|0:0,0:0:0:0:
208,256,67773,1,10,0:0:0:0:
352,256,68116,2,0,L|512:320,1,140,12|8,0:0|0:0,0:0:0:0:
368,160,68801,1,2,0:0:0:0:
224,160,69144,1,10,0:0:0:0:
320,64,69487,6,0,L|160:128,1,140,8|8,0:0|0:0,0:0:0:0:
64,192,70173,1,2,0:0:0:0:
208,192,70516,1,10,0:0:0:0:
336,192,70858,2,0,L|480:256,1,140,12|8,0:0|0:0,0:0:0:0:
400,96,71544,2,0,L|256:160,1,140,2|10,0:0|0:0,0:0:0:0:
144,208,72230,6,0,L|288:272,1,140,12|8,0:2|0:0,0:0:0:0:
192,112,72916,1,2,0:0:0:0:
64,112,73258,1,10,0:0:0:0:
192,224,73601,2,0,L|336:160,1,140,12|8,0:0|0:0,0:0:0:0:
448,224,74287,1,2,0:0:0:0:
320,224,74630,1,10,0:0:0:0:
176,224,74973,6,0,L|32:288,1,140,8|8,0:0|0:0,0:0:0:0:
128,128,75658,1,2,0:0:0:0:
256,128,76001,1,10,0:0:0:0:
400,128,76344,6,0,L|240:192,1,140,8|8,0:0|0:0,0:0:0:0:
96,256,77030,2,0,L|240:192,1,140,2|10,0:0|0:0,0:0:0:0:
128,144,77716,6,0,L|272:208,1,140,12|8,0:0|0:0,0:0:0:0:
448,64,78401,1,0,0:0:0:0:
304,64,78744,1,8,0:0:0:0:
176,64,79087,6,0,P|112:80|64:128,1,70,8|0,0:0|0:0,0:0:0:0:
176,208,79430,1,8,0:0:0:0:
240,208,79601,1,2,0:0:0:0:
304,208,79773,2,0,P|368:208|384:192,1,70,2|10,0:0|0:0,0:0:0:0:
304,112,80116,1,10,0:0:0:0:
176,112,80458,6,0,L|16:176,1,140,8|8,0:0|0:0,0:0:0:0:
128,240,81144,1,2,0:0:0:0:
256,240,81486,1,10,0:0:0:0:
176,128,81830,6,0,L|320:192|320:192,1,140,8|8,0:0|0:0,0:0:0:0:
256,256,82516,1,2,0:0:0:0:
128,256,82858,1,10,0:0:0:0:
240,144,83201,5,8,0:0:0:0:
352,176,83544,1,8,0:0:0:0:
256,256,83887,1,0,0:0:0:0:
128,208,84230,1,10,0:0:0:0:
272,96,84573,5,8,0:0:0:0:
416,96,84916,1,8,0:0:0:0:
304,240,85258,2,0,L|160:176,1,140,2|10,0:0|0:0,0:0:0:0:
256,144,85944,6,0,L|400:208,1,140,8|8,0:0|0:0,0:0:0:0:
304,240,86630,1,2,0:0:0:0:
160,240,86973,1,10,0:0:0:0:
256,128,87316,2,0,L|400:96,1,140,12|8,0:0|0:0,0:0:0:0:
336,240,88001,1,12,0:0:0:0:
224,240,88230,1,0,0:0:0:0:
112,240,88458,1,0,0:0:0:0:
32,128,88687,6,0,L|176:64,1,140,12|8,0:2|0:0,0:0:0:0:
272,128,89373,1,2,0:0:0:0:
384,128,89716,1,10,0:0:0:0:
244,224,90058,6,0,L|400:288,1,140,12|8,0:0|0:0,0:0:0:0:
288,320,90744,1,2,0:0:0:0:
160,320,91087,1,10,0:0:0:0:
80,192,91430,6,0,L|240:128,1,140,8|8,0:0|0:0,0:0:0:0:
352,192,92115,1,2,0:0:0:0:
480,192,92458,1,10,0:0:0:0:
384,80,92801,6,0,L|240:144,1,140,12|8,0:0|0:0,0:0:0:0:
112,80,93487,1,2,0:0:0:0:
224,176,93830,1,10,0:0:0:0:
112,96,94173,6,0,L|272:160,1,140,12|8,0:2|0:0,0:0:0:0:
160,176,94858,1,2,0:0:0:0:
304,176,95201,1,10,0:0:0:0:
208,288,95544,6,0,L|48:224,1,140,12|8,0:0|0:0,0:0:0:0:
160,192,96230,1,2,0:0:0:0:
304,192,96573,1,10,0:0:0:0:
208,96,96916,2,0,L|64:160,1,140,8|8,0:0|0:0,0:0:0:0:
160,208,97601,2,0,L|304:272,1,140,2|10,0:0|0:0,0:0:0:0:
400,96,98287,5,8,0:0:0:0:
240,96,98630,1,8,0:0:0:0:
352,96,98973,1,2,0:0:0:0:
192,96,99316,1,10,0:0:0:0:
288,208,99658,6,0,L|448:272,1,140,12|8,0:0|0:0,0:0:0:0:
320,304,100344,2,0,L|176:240,1,140,2|10,0:0|0:0,0:0:0:0:
80,208,101030,5,8,0:0:0:0:
224,208,101373,1,8,0:0:0:0:
128,208,101716,1,2,0:0:0:0:
272,208,102058,1,10,0:0:0:0:
416,112,102401,6,0,L|272:176,1,140,8|10,0:0|0:0,0:0:0:0:
368,208,103087,2,0,L|224:272,1,140,0|10,0:0|0:0,0:0:0:0:
96,112,103773,2,0,L|240:176,1,140,8|10,0:0|0:0,0:0:0:0:
160,224,104458,2,0,L|304:288,1,140,0|10,0:0|0:0,0:0:0:0:
416,112,105144,5,8,0:0:0:0:
272,112,105487,1,10,0:0:0:0:
384,192,105830,1,2,0:0:0:0:
224,192,106173,1,10,0:0:0:0:
96,112,106516,5,8,0:0:0:0:
256,192,106858,1,10,0:0:0:0:
128,192,107201,1,2,0:0:0:0:
288,192,107544,1,10,0:0:0:0:
160,192,107887,6,0,L|320:160,1,140,8|8,0:0|0:0,0:0:0:0:
416,80,108573,2,0,L|272:112,1,140,8|0,0:0|0:0,0:0:0:0:
320,192,109087,1,8,0:0:0:0:
352,192,109258,6,0,L|208:160,1,140,12|8,0:0|0:0,0:0:0:0:
80,112,109944,1,8,0:0:0:0:
224,112,110287,1,8,0:0:0:0:
368,112,110630,5,4,0:0:0:0:
256,192,111316,12,2,120916,0:0:0:0:
288,224,121601,6,0,L|64:48,1,280,6|2,0:0|0:0,0:0:0:0:
224,304,122973,2,0,L|448:128,1,280,0|0,0:0|0:0,0:0:0:0:
432,272,124344,6,0,L|208:80,1,280,10|2,0:0|0:0,0:0:0:0:
400,96,125716,2,0,L|144:208,1,280,2|2,0:0|0:0,0:0:0:0:
80,64,127087,6,0,L|208:320,1,280,6|2,0:0|0:0,0:0:0:0:
432,240,128458,2,0,P|368:176|192:96,1,280,2|0,0:0|0:0,0:0:0:0:
112,256,129830,6,0,L|416:224,1,280,10|2,0:0|0:0,0:0:0:0:
352,80,131201,2,0,L|240:336,1,280,2|0,0:0|0:0,0:0:0:0:
432,288,132573,6,0,L|160:176,1,280,6|2,0:0|0:0,0:0:0:0:
384,128,133944,2,0,L|128:272,1,280,0|0,0:0|0:0,0:0:0:0:
80,128,135316,6,0,L|368:128,1,280,10|2,0:0|0:0,0:0:0:0:
256,48,136687,2,0,L|80:272,1,280,2|2,0:0|0:0,0:0:0:0:
272,320,138058,6,0,L|464:96,1,280,6|2,0:0|0:0,0:0:0:0:
320,112,139430,2,0,L|32:112,1,280,2|0,0:0|0:0,0:0:0:0:
192,208,140801,6,0,P|256:208|432:336,1,280,10|2,0:0|0:0,0:0:0:0:
288,336,142173,2,0,L|160:64,1,280,2|0,0:0|0:0,0:0:0:0:
48,256,143544,6,0,L|272:256,1,210,12|6,0:0|0:0,0:0:0:0:
464,96,144916,2,0,L|224:96,1,210,12|6,0:0|0:0,0:0:0:0:
464,272,146287,6,0,L|224:272,1,210,12|6,0:0|0:0,0:0:0:0:
48,96,147658,2,0,L|288:96,1,210,12|6,0:0|0:0,0:0:0:0:
432,128,149030,6,0,L|288:128,1,140,12|8,0:0|0:0,0:0:0:0:
384,240,149716,2,0,L|224:240,1,140,12|4,0:0|0:0,0:0:0:0:
112,112,150401,2,0,L|256:112,1,140,12|8,0:0|0:0,0:0:0:0:
160,224,151087,2,0,L|304:224,1,140,12|4,0:0|0:0,0:0:0:0:
416,224,151773,6,0,L|368:160,1,70,8|8,0:0|0:0,0:0:0:0:
320,224,152116,2,0,L|272:160,1,70,8|8,0:0|0:0,0:0:0:0:
224,224,152458,2,0,L|176:160,1,70,8|8,0:0|0:0,0:0:0:0:
128,224,152801,2,0,L|80:160,1,70,8|0,0:0|0:0,0:0:0:0:
32,224,153144,1,8,0:0:0:0:
256,112,154516,5,4,0:0:0:0:
