osu file format v14

[General]
AudioFilename: audio.mp3
AudioLeadIn: 0
PreviewTime: 43430
Countdown: 0
SampleSet: Normal
StackLeniency: 0.7
Mode: 2
LetterboxInBreaks: 0
WidescreenStoryboard: 0

[Editor]
DistanceSpacing: 1
BeatDivisor: 4
GridSize: 16
TimelineZoom: 3.100005

[Metadata]
Title:Tokyo (Innovaderz Remix)
TitleUnicode:Tokyo (Innovaderz Remix)
Artist:DJ Ozawa
ArtistUnicode:DJ Ozawa
Creator:Ascendance
Version:Deif's Overdose
Source:
Tags:dnb lanturn mbomb -_magic_bomb_- magic bomb californian darknessofblue fii -wwwww kaitlin zirox sorcerer tomthewizard toybot Yumeno Himiko exam examination gero tenshichan [superstar] hi_hello CLSW crystal crystalseed tasuke912 boberofdarkness bodom koliron deif spectator qoot8123 julie prophecy nofool skylish onosakihito ozzyozrock nardo nardoxyribonucleic raiden nwolf backfire chromoxx saika -saika- lop fawx
BeatmapID:929193
BeatmapSetID:427801

[Difficulty]
HPDrainRate:7
CircleSize:4
OverallDifficulty:9.3
ApproachRate:9.3
SliderMultiplier:2
SliderTickRate:2

[Events]
//Background and Video events
0,0,"Cities_Color_of_the_night_city_058372_.jpg",0,0
//Break Periods
//Storyboard Layer 0 (Background)
//Storyboard Layer 1 (Fail)
//Storyboard Layer 2 (Pass)
//Storyboard Layer 3 (Foreground)
//Storyboard Sound Samples

[TimingPoints]
916,342.857142857143,4,2,31,50,1,0
916,-133.333333333333,4,2,31,50,0,0
22858,-133.333333333333,4,3,31,50,0,0
33830,-100,4,1,31,60,0,0
44801,-100,4,1,0,70,0,1
66744,-100,4,1,34,60,0,0
67601,-100,4,1,34,50,0,0
67773,-100,4,1,34,40,0,0
68116,-66.6666666666667,4,1,34,60,0,0
68458,-100,4,1,34,60,0,0
68973,-100,4,1,34,50,0,0
69144,-100,4,1,34,40,0,0
69487,-100,4,1,34,60,0,0
70344,-100,4,1,34,50,0,0
70516,-100,4,1,34,40,0,0
70858,-66.6666666666667,4,1,34,60,0,0
71201,-100,4,1,34,60,0,0
71716,-100,4,1,34,50,0,0
71887,-100,4,1,34,40,0,0
72230,-100,4,1,34,60,0,0
73087,-100,4,1,34,50,0,0
73259,-100,4,1,34,40,0,0
73601,-66.6666666666667,4,1,34,60,0,0
73944,-100,4,1,34,60,0,0
74459,-100,4,1,34,50,0,0
74630,-100,4,1,34,40,0,0
74973,-100,4,1,34,60,0,0
75830,-100,4,1,34,50,0,0
76002,-100,4,1,34,40,0,0
76344,-100,4,1,34,60,0,0
77202,-100,4,1,34,50,0,0
77373,-100,4,1,34,40,0,0
77716,-100,4,1,33,60,0,0
88001,-100,4,1,0,60,0,0
88173,-100,4,1,0,30,0,0
88258,-100,4,1,0,60,0,0
88430,-100,4,1,0,30,0,0
88516,-100,4,1,0,60,0,0
88687,-100,4,1,34,60,0,0
89544,-100,4,1,34,50,0,0
89716,-100,4,1,34,40,0,0
90058,-66.6666666666667,4,1,34,60,0,0
90401,-100,4,1,34,60,0,0
90916,-100,4,1,34,50,0,0
91087,-100,4,1,34,40,0,0
91430,-100,4,1,34,60,0,0
92287,-100,4,1,34,50,0,0
92459,-100,4,1,34,40,0,0
92801,-66.6666666666667,4,1,34,60,0,0
93144,-100,4,1,34,60,0,0
93659,-100,4,1,34,50,0,0
93830,-100,4,1,34,40,0,0
94173,-100,4,1,34,60,0,0
95030,-100,4,1,34,50,0,0
95202,-100,4,1,34,40,0,0
95544,-66.6666666666667,4,1,34,60,0,0
95887,-100,4,1,34,60,0,0
96402,-100,4,1,34,50,0,0
96573,-100,4,1,34,40,0,0
96916,-100,4,1,34,60,0,0
97773,-100,4,1,34,50,0,0
97945,-100,4,1,34,40,0,0
98287,-100,4,1,34,60,0,0
99145,-100,4,1,34,50,0,0
99316,-100,4,1,34,40,0,0
99658,-100,4,1,33,60,0,0
108744,-100,4,1,33,30,0,0
108830,-100,4,1,33,60,0,0
109001,-100,4,1,33,30,0,0
109087,-100,4,1,33,60,0,0
109944,-100,4,1,33,50,0,0
110630,-133.333333333333,4,2,32,40,0,0
110973,-133.333333333333,4,2,32,50,0,0
111658,-133.333333333333,4,2,32,40,0,0
111830,-133.333333333333,4,2,32,30,0,0
112001,-133.333333333333,4,2,32,40,0,0
112344,-133.333333333333,4,2,32,50,0,0
113030,-133.333333333333,4,2,32,40,0,0
113201,-133.333333333333,4,2,32,30,0,0
113373,-133.333333333333,4,2,32,40,0,0
113716,-133.333333333333,4,2,32,50,0,0
114401,-133.333333333333,4,2,32,40,0,0
114573,-133.333333333333,4,2,32,30,0,0
114744,-133.333333333333,4,2,32,40,0,0
115087,-133.333333333333,4,2,32,50,0,0
115773,-133.333333333333,4,2,32,40,0,0
115944,-133.333333333333,4,2,32,30,0,0
116116,-133.333333333333,4,2,32,40,0,0
116458,-133.333333333333,4,2,32,50,0,0
117144,-133.333333333333,4,2,32,40,0,0
117316,-133.333333333333,4,2,32,30,0,0
117487,-133.333333333333,4,2,32,40,0,0
117830,-133.333333333333,4,2,32,50,0,0
118516,-133.333333333333,4,2,32,40,0,0
118687,-133.333333333333,4,2,32,30,0,0
118858,-133.333333333333,4,2,32,40,0,0
119201,-133.333333333333,4,2,32,50,0,0
119887,-133.333333333333,4,2,32,40,0,0
120058,-133.333333333333,4,2,32,30,0,0
120230,-133.333333333333,4,2,32,40,0,0
120573,-133.333333333333,4,2,32,50,0,0
121601,-133.333333333333,4,2,31,50,0,0
143544,-100,4,1,31,60,0,0

[HitObjects]
432,192,744,5,8,0:0:0:0:
192,192,915,6,0,L|160:96,1,100,6|0,0:0|0:0,0:0:0:0:
304,96,1258,2,0,P|384:128|416:192,2,150.000005722046,2|2|2,0:0|0:0|0:0,0:0:0:0:
64,192,2116,6,0,P|128:288|208:64,1,525.000020027161,2|2,0:0|0:0,0:0:0:0:
448,192,3658,6,0,P|368:192|288:80,1,225.000008583069,10|2,0:0|0:0,0:0:0:0:
448,80,4344,2,0,P|396:175|352:189,1,150.000005722046,2|0,0:0|0:0,0:0:0:0:
96,192,5030,6,0,L|48:192,1,37.5000014305115,2|0,0:0|0:0,0:0:0:0:
112,192,5201,2,0,P|192:192|256:224,1,150.000005722046,0|2,0:0|0:0,0:0:0:0:
432,192,5716,2,0,L|368:128,1,75.0000028610231,2|0,0:0|0:0,0:0:0:0:
224,128,5973,2,0,P|288:128|320:96,1,112.500004291535,2|2,0:0|0:0,0:0:0:0:
48,192,6401,6,0,L|128:192,1,75.0000028610231,6|0,0:0|0:0,0:0:0:0:
256,192,6744,2,0,L|181:192,1,75.0000028610231,2|0,0:0|0:0,0:0:0:0:
48,192,7087,2,0,L|208:192,1,150.000005722046,2|2,0:0|0:0,0:0:0:0:
448,192,7601,5,2,0:0:0:0:
336,192,7773,2,0,P|256:144|432:112,1,450.000017166138,2|2,0:0|0:0,0:0:0:0:
80,192,9144,6,0,P|240:144|256:96,1,225.000008583069,10|2,0:0|0:0,0:0:0:0:
80,192,9830,2,0,L|240:240,1,150.000005722046,2|0,0:0|0:0,0:0:0:0:
432,192,10516,6,0,L|272:240,1,150.000005722046,2|2,0:0|0:0,0:0:0:0:
112,240,11030,2,0,P|112:192|160:144,1,112.500004291535,2|0,0:0|0:0,0:0:0:0:
304,240,11373,1,2,0:0:0:0:
160,240,11544,2,0,L|80:240,1,75.0000028610231,2|2,0:0|0:0,0:0:0:0:
320,192,11887,6,0,L|352:272,1,75.0000028610231,6|0,0:0|0:0,0:0:0:0:
208,288,12230,2,0,P|128:256|96:192,2,150.000005722046,2|2|2,0:0|0:0|0:0,0:0:0:0:
448,192,13087,6,0,P|384:96|304:320,1,525.000020027161,2|2,0:0|0:0,0:0:0:0:
64,192,14630,6,0,P|144:192|224:304,1,225.000008583069,10|2,0:0|0:0,0:0:0:0:
64,304,15316,2,0,P|116:209|160:195,1,150.000005722046,2|0,0:0|0:0,0:0:0:0:
416,192,16001,6,0,L|464:192,1,37.5000014305115,2|0,0:0|0:0,0:0:0:0:
400,192,16173,2,0,P|320:192|256:160,1,150.000005722046,0|2,0:0|0:0,0:0:0:0:
80,192,16687,2,0,L|144:256,1,75.0000028610231,2|0,0:0|0:0,0:0:0:0:
288,256,16944,2,0,L|224:352,1,112.500004291535,2|2,0:0|0:0,0:0:0:0:
464,192,17373,6,0,L|384:192,1,75.0000028610231,6|0,0:0|0:0,0:0:0:0:
256,192,17716,2,0,L|331:192,1,75.0000028610231,2|0,0:0|0:0,0:0:0:0:
464,192,18058,2,0,L|304:192,1,150.000005722046,2|2,0:0|0:0,0:0:0:0:
64,192,18573,5,2,0:0:0:0:
176,192,18744,2,0,P|256:240|80:272,1,450.000017166138,2|2,0:0|0:0,0:0:0:0:
432,192,20116,6,0,P|272:240|256:288,1,225.000008583069,10|2,0:0|0:0,0:0:0:0:
432,192,20801,2,0,L|272:144,1,150.000005722046,2|0,0:0|0:0,0:0:0:0:
80,192,21487,6,0,L|240:144,1,150.000005722046,2|2,0:0|0:0,0:0:0:0:
400,144,22001,2,0,P|400:192|352:240,1,112.500004291535,2|0,0:0|0:0,0:0:0:0:
208,144,22344,1,2,0:0:0:0:
352,144,22516,2,0,L|432:144,1,75.0000028610231,2|2,0:0|0:0,0:0:0:0:
96,192,22858,5,12,0:0:0:0:
208,192,23030,2,0,P|256:144|208:96,1,150.000005722046,2|8,0:0|0:0,0:0:0:0:
96,96,23544,1,2,0:0:0:0:
208,96,23716,1,8,0:0:0:0:
32,96,23887,1,2,0:0:0:0:
144,96,24058,1,8,0:0:0:0:
256,96,24230,5,2,0:0:0:0:
144,96,24401,2,0,P|96:144|144:192,1,150.000005722046,8|8,0:0|0:0,0:0:0:0:
256,288,24916,2,0,P|304:240|272:192,1,112.500004291535,2|2,0:0|0:0,0:0:0:0:
144,288,25258,1,8,0:0:0:0:
256,288,25430,1,8,0:0:0:0:
368,288,25601,5,8,0:0:0:0:
256,288,25773,2,0,P|208:240|256:192,1,150.000005722046,2|8,0:0|0:0,0:0:0:0:
368,96,26287,2,0,P|416:144|384:192,1,112.500004291535,2|2,0:0|0:0,0:0:0:0:
256,96,26629,1,8,0:0:0:0:
368,96,26801,1,8,0:0:0:0:
256,96,26973,5,8,0:0:0:0:
144,96,27144,2,0,P|80:144|80:224,1,150.000005722046,2|8,0:0|0:0,0:0:0:0:
192,192,27658,2,0,P|224:224|224:288,1,112.500004291535,2|2,0:0|0:0,0:0:0:0:
74,209,28001,1,8,0:0:0:0:
192,192,28173,1,8,0:0:0:0:
320,192,28344,6,0,P|336:160|320:128,1,75.0000028610231,8|2,0:0|0:0,0:0:0:0:
192,192,28687,2,0,P|176:224|192:256,1,75.0000028610231,8|2,0:0|0:0,0:0:0:0:
432,192,29030,1,2,0:0:0:0:
192,192,29201,1,2,0:0:0:0:
128,192,29287,1,2,0:0:0:0:
80,192,29373,2,0,P|96:176|144:160,1,75.0000028610231,8|8,0:0|0:0,0:0:0:0:
256,288,29716,5,8,0:0:0:0:
368,288,29887,2,0,P|432:240|432:160,1,150.000005722046,2|8,0:0|0:0,0:0:0:0:
320,192,30401,2,0,P|288:160|288:96,1,112.500004291535,2|2,0:0|0:0,0:0:0:0:
437,174,30744,1,8,0:0:0:0:
320,192,30916,1,8,0:0:0:0:
192,192,31087,6,0,P|176:224|192:256,1,75.0000028610231,8|2,0:0|0:0,0:0:0:0:
320,192,31430,2,0,P|336:160|320:128,1,75.0000028610231,8|2,0:0|0:0,0:0:0:0:
80,192,31773,1,2,0:0:0:0:
320,192,31944,1,2,0:0:0:0:
384,192,32030,1,2,0:0:0:0:
432,192,32116,2,0,P|416:208|368:224,1,75.0000028610231,8|8,0:0|0:0,0:0:0:0:
256,96,32458,5,8,0:0:0:0:
368,96,32630,2,0,P|432:144|432:224,1,150.000005722046,2|8,0:0|0:0,0:0:0:0:
320,192,33144,2,0,P|288:224|288:288,1,112.500004291535,2|2,0:0|0:0,0:0:0:0:
438,209,33487,1,8,0:0:0:0:
320,192,33658,1,8,0:0:0:0:
64,192,33830,6,0,L|176:192,1,100,12|2,0:0|0:0,0:0:0:0:
304,192,34173,1,8,0:0:0:0:
64,96,34344,2,0,L|176:96,1,100,6|2,0:0|0:0,0:0:0:0:
304,96,34687,1,2,0:0:0:0:
164,96,34858,2,0,L|64:96,1,100,8|2,0:0|0:0,0:0:0:0:
448,192,35201,6,0,L|336:192,1,100,12|2,0:0|0:0,0:0:0:0:
208,192,35544,1,8,0:0:0:0:
448,192,35716,1,6,0:0:0:0:
208,192,35887,2,0,L|96:192,1,100,6|2,0:0|0:0,0:0:0:0:
256,192,36230,2,0,L|156:192,1,100,8|2,0:0|0:0,0:0:0:0:
448,192,36573,6,0,L|336:192,1,100,12|2,0:0|0:0,0:0:0:0:
208,192,36916,1,8,0:0:0:0:
448,288,37087,2,0,L|336:288,1,100,6|2,0:0|0:0,0:0:0:0:
208,288,37430,1,2,0:0:0:0:
348,288,37601,2,0,L|448:288,1,100,8|2,0:0|0:0,0:0:0:0:
64,192,37944,6,0,L|176:192,1,100,12|2,0:0|0:0,0:0:0:0:
304,192,38287,1,8,0:0:0:0:
64,192,38458,1,6,0:0:0:0:
304,192,38630,2,0,B|464:192,1,150,6|2,0:0|0:0,0:0:0:0:
208,192,38973,2,0,L|108:192,1,100,8|2,0:0|0:0,0:0:0:0:
448,96,39316,5,12,0:0:0:0:
336,96,39487,1,8,0:0:0:0:
464,96,39658,1,8,0:0:0:0:
64,96,39830,1,14,0:0:0:0:
176,96,40001,1,12,0:0:0:0:
48,96,40173,1,8,0:0:0:0:
448,96,40344,2,0,L|448:208,1,100,4|2,0:0|0:0,0:0:0:0:
64,288,40687,5,12,0:0:0:0:
176,288,40858,1,8,0:0:0:0:
48,288,41030,1,8,0:0:0:0:
448,288,41201,1,14,0:0:0:0:
336,288,41373,1,12,0:0:0:0:
464,288,41544,1,8,0:0:0:0:
64,288,41716,2,0,L|64:176,1,100,4|2,0:0|0:0,0:0:0:0:
464,192,42058,6,0,L|416:160,1,50,8|0,0:0|0:0,0:0:0:0:
224,192,42230,2,0,L|240:256,1,50,8|0,0:0|0:0,0:0:0:0:
448,160,42401,2,0,L|400:144,1,50,8|0,0:0|0:0,0:0:0:0:
176,160,42573,2,0,L|208:224,1,50,8|0,0:0|0:0,0:0:0:0:
432,128,42744,2,0,L|368:128,1,50,8|0,0:0|0:0,0:0:0:0:
128,128,42916,2,0,L|176:192,1,50,8|0,0:0|0:0,0:0:0:0:
416,96,43087,1,8,0:0:0:0:
424,132,43130,1,0,0:0:0:0:
423,169,43173,1,0,0:0:0:0:
413,205,43216,1,0,0:0:0:0:
393,237,43258,1,0,0:0:0:0:
366,263,43301,1,0,0:0:0:0:
334,281,43344,1,0,0:0:0:0:
297,290,43387,1,0,0:0:0:0:
260,290,43430,5,8,0:0:0:0:
256,192,43601,12,4,44630,0:0:0:0:
448,192,44801,6,0,L|336:192,1,100,12|0,0:0|0:0,0:0:0:0:
208,192,45144,2,0,L|320:192,1,100,8|0,0:0|0:0,0:0:0:0:
448,192,45487,2,0,L|384:192,1,50,0|0,0:0|0:0,0:0:0:0:
208,192,45658,1,8,0:0:0:0:
448,192,45830,2,0,L|448:304,1,100,8|0,0:0|0:0,0:0:0:0:
208,192,46173,6,0,P|160:160|144:112,1,100,8|0,0:0|0:0,0:0:0:0:
208,80,46430,1,0,0:0:0:0:
398,192,46516,2,0,P|446:224|462:272,1,100,8|0,0:0|0:0,0:0:0:0:
398,304,46773,1,0,0:0:0:0:
208,192,46858,2,0,L|96:192,1,100,0|8,0:0|0:0,0:0:0:0:
480,192,47201,2,0,L|400:112,1,100,8|0,0:0|0:0,0:0:0:0:
32,192,47544,6,0,L|112:112,1,100,8|0,0:0|0:0,0:0:0:0:
416,192,47887,1,8,0:0:0:0:
272,192,48058,2,0,L|208:192,1,50,0|0,0:0|0:0,0:0:0:0:
416,192,48230,2,0,P|448:160|416:128,1,100,0|8,0:0|0:0,0:0:0:0:
96,192,48573,2,0,P|64:224|96:256,1,100,8|0,0:0|0:0,0:0:0:0:
160,256,48830,1,0,0:0:0:0:
352,256,48916,6,0,L|464:256,1,100,8|0,0:0|0:0,0:0:0:0:
144,192,49258,2,0,P|160:160|208:112,1,100,8|0,0:0|0:0,0:0:0:0:
256,112,49516,1,0,0:0:0:0:
464,64,49601,2,0,L|414:64,1,50,0|0,0:0|0:0,0:0:0:0:
208,64,49773,1,8,0:0:0:0:
464,64,49944,2,0,L|464:176,1,100,8|0,0:0|0:0,0:0:0:0:
96,192,50287,6,0,P|64:288|64:336,1,150,10|0,0:0|0:0,0:0:0:0:
208,192,50630,2,0,L|96:192,1,100,8|2,0:0|0:0,0:0:0:0:
416,192,50973,1,2,0:0:0:0:
288,192,51144,2,0,L|224:192,1,50,8|0,0:0|0:0,0:0:0:0:
416,192,51316,2,0,P|464:160|480:112,1,100,8|0,0:0|0:0,0:0:0:0:
160,96,51658,5,10,0:0:0:0:
304,96,51830,1,0,0:0:0:0:
192,96,52001,1,8,0:0:0:0:
464,192,52173,1,2,0:0:0:0:
110,270,52344,2,0,L|48:192,1,100,2|8,0:0|0:0,0:0:0:0:
256,192,52601,1,0,0:0:0:0:
464,192,52687,2,0,L|401:270,1,100,8|0,0:0|0:0,0:0:0:0:
256,192,52944,1,0,0:0:0:0:
111,114,53030,6,0,L|48:192,1,100,10|0,0:0|0:0,0:0:0:0:
222,177,53373,2,0,L|160:256,1,100,8|0,0:0|0:0,0:0:0:0:
464,192,53716,1,2,0:0:0:0:
192,112,53887,1,8,0:0:0:0:
464,192,54058,2,0,L|401:270,1,100,8|0,0:0|0:0,0:0:0:0:
336,272,54316,1,0,0:0:0:0:
128,192,54401,6,0,L|16:192,1,100,10|0,0:0|0:0,0:0:0:0:
144,224,54744,1,8,0:0:0:0:
384,192,54916,2,0,L|496:192,1,100,8|2,0:0|0:0,0:0:0:0:
368,224,55258,1,8,0:0:0:0:
128,192,55430,2,0,L|240:192,1,100,8|8,0:0|0:0,0:0:0:0:
256,192,55644,1,0,0:0:0:0:
228,192,55687,1,0,0:0:0:0:
64,192,55773,6,0,L|176:192,1,100,12|0,0:0|0:0,0:0:0:0:
304,192,56116,2,0,L|192:192,1,100,8|0,0:0|0:0,0:0:0:0:
64,192,56458,2,0,L|128:192,1,50,0|0,0:0|0:0,0:0:0:0:
304,192,56630,1,8,0:0:0:0:
64,192,56801,2,0,L|64:80,1,100,8|0,0:0|0:0,0:0:0:0:
304,192,57144,6,0,P|352:224|368:272,1,100,8|0,0:0|0:0,0:0:0:0:
304,304,57401,1,0,0:0:0:0:
114,192,57487,2,0,P|66:160|50:112,1,100,8|0,0:0|0:0,0:0:0:0:
114,80,57744,1,0,0:0:0:0:
304,192,57830,2,0,L|416:192,1,100,0|8,0:0|0:0,0:0:0:0:
32,192,58173,2,0,L|112:272,1,100,8|0,0:0|0:0,0:0:0:0:
480,192,58516,6,0,L|400:272,1,100,8|0,0:0|0:0,0:0:0:0:
96,192,58858,1,8,0:0:0:0:
240,192,59030,2,0,L|304:192,1,50,0|0,0:0|0:0,0:0:0:0:
96,192,59201,2,0,P|64:224|96:256,1,100,0|8,0:0|0:0,0:0:0:0:
416,192,59544,2,0,P|448:160|416:128,1,100,8|0,0:0|0:0,0:0:0:0:
352,128,59801,1,0,0:0:0:0:
160,128,59887,6,0,L|48:128,1,100,8|0,0:0|0:0,0:0:0:0:
368,192,60230,2,0,P|352:224|304:272,1,100,8|0,0:0|0:0,0:0:0:0:
256,272,60487,1,0,0:0:0:0:
48,320,60573,2,0,L|112:320,1,50,0|0,0:0|0:0,0:0:0:0:
304,320,60744,1,8,0:0:0:0:
48,320,60916,2,0,L|48:208,1,100,8|0,0:0|0:0,0:0:0:0:
416,192,61258,6,0,P|448:96|448:48,1,150,10|0,0:0|0:0,0:0:0:0:
304,192,61601,2,0,L|416:192,1,100,8|2,0:0|0:0,0:0:0:0:
96,192,61944,1,2,0:0:0:0:
224,192,62116,2,0,L|288:192,1,50,8|0,0:0|0:0,0:0:0:0:
96,192,62287,2,0,P|48:224|32:272,1,100,8|0,0:0|0:0,0:0:0:0:
352,288,62630,5,10,0:0:0:0:
208,288,62801,1,0,0:0:0:0:
320,288,62973,1,8,0:0:0:0:
48,192,63144,1,2,0:0:0:0:
402,114,63316,2,0,L|464:192,1,100,2|8,0:0|0:0,0:0:0:0:
256,192,63573,1,0,0:0:0:0:
48,192,63658,2,0,L|111:114,1,100,8|0,0:0|0:0,0:0:0:0:
256,192,63916,1,0,0:0:0:0:
401,270,64001,6,0,L|464:192,1,100,10|0,0:0|0:0,0:0:0:0:
289,206,64344,2,0,L|352:128,1,100,8|0,0:0|0:0,0:0:0:0:
48,192,64687,1,2,0:0:0:0:
320,272,64858,1,8,0:0:0:0:
48,192,65030,2,0,L|111:114,1,100,8|0,0:0|0:0,0:0:0:0:
176,112,65287,1,0,0:0:0:0:
384,192,65373,6,0,L|416:288,1,100,10|0,0:0|0:0,0:0:0:0:
128,192,65716,2,0,L|96:96,1,100,8|8,0:0|0:0,0:0:0:0:
160,96,65973,1,0,0:0:0:0:
384,96,66058,2,0,L|432:80,1,50,2|0,0:0|0:0,0:0:0:0:
192,192,66230,2,0,L|208:240,1,50,8|0,0:0|0:0,0:0:0:0:
432,112,66401,2,0,L|480:96,1,50,8|0,0:0|0:0,0:0:0:0:
240,208,66573,2,0,L|256:256,1,50,8|0,0:0|0:0,0:0:0:0:
480,128,66744,6,0,L|448:224,1,100,12|0,0:2|0:0,0:0:0:0:
320,192,67087,1,8,0:0:0:0:
480,128,67258,1,0,0:0:0:0:
80,192,67430,1,2,0:0:0:0:
320,192,67601,1,10,0:0:0:0:
256,192,67687,1,0,0:0:0:0:
80,192,67773,2,0,L|48:96,1,100,10|0,0:0|0:0,0:0:0:0:
320,96,68116,6,0,P|368:160|256:192,1,225.000008583069,12|0,0:0|0:0,0:0:0:0:
80,192,68458,2,0,L|48:96,1,100,8|0,0:0|0:0,0:0:0:0:
320,96,68801,2,0,L|368:80,1,50,2|0,0:0|0:0,0:0:0:0:
192,96,68973,2,0,L|144:80,1,50,10|0,0:0|0:0,0:0:0:0:
320,96,69144,1,10,0:0:0:0:
192,96,69316,1,0,0:0:0:0:
480,192,69487,6,0,L|368:192,1,100,8|0,0:0|0:0,0:0:0:0:
304,192,69744,1,0,0:0:0:0:
380,192,69830,2,0,L|480:192,1,100,8|0,0:0|0:0,0:0:0:0:
112,192,70173,2,0,L|160:176,1,50,2|0,0:0|0:0,0:0:0:0:
304,192,70344,2,0,L|352:176,1,50,10|0,0:0|0:0,0:0:0:0:
112,192,70516,2,0,L|208:160,1,100,10|0,0:0|0:0,0:0:0:0:
256,144,70773,1,0,0:0:0:0:
416,112,70858,6,0,P|464:176|352:208,1,225.000008583069,12|0,0:0|0:0,0:0:0:0:
112,192,71201,2,0,L|208:160,1,100,8|0,0:0|0:0,0:0:0:0:
464,64,71544,2,0,L|448:112,1,50,2|0,0:0|0:0,0:0:0:0:
240,192,71716,2,0,L|256:240,1,50,10|0,0:0|0:0,0:0:0:0:
432,304,71887,2,0,L|320:304,1,100,10|0,0:0|0:0,0:0:0:0:
272,304,72144,1,0,0:0:0:0:
32,256,72230,6,0,L|64:160,1,100,12|0,0:2|0:0,0:0:0:0:
192,192,72573,1,8,0:0:0:0:
32,256,72744,1,0,0:0:0:0:
432,192,72916,1,2,0:0:0:0:
192,192,73087,1,10,0:0:0:0:
256,192,73173,1,0,0:0:0:0:
432,192,73258,2,0,L|464:288,1,100,10|0,0:0|0:0,0:0:0:0:
192,288,73601,6,0,P|144:224|256:192,1,225.000008583069,12|0,0:0|0:0,0:0:0:0:
432,192,73944,2,0,L|464:288,1,100,8|0,0:0|0:0,0:0:0:0:
192,288,74287,2,0,L|144:304,1,50,2|0,0:0|0:0,0:0:0:0:
320,288,74458,2,0,L|368:304,1,50,10|0,0:0|0:0,0:0:0:0:
192,288,74630,1,10,0:0:0:0:
320,288,74801,1,0,0:0:0:0:
32,192,74973,6,0,L|144:192,1,100,8|0,0:0|0:0,0:0:0:0:
208,192,75230,1,0,0:0:0:0:
132,192,75316,2,0,L|32:192,1,100,8|0,0:0|0:0,0:0:0:0:
400,192,75658,2,0,L|352:208,1,50,2|0,0:0|0:0,0:0:0:0:
208,192,75830,2,0,L|160:208,1,50,10|0,0:0|0:0,0:0:0:0:
400,192,76001,2,0,L|304:224,1,100,10|0,0:0|0:0,0:0:0:0:
256,240,76258,1,0,0:0:0:0:
96,272,76344,6,0,L|64:176,1,100,8|0,0:0|0:0,0:0:0:0:
144,144,76601,1,0,0:0:0:0:
416,272,76687,2,0,L|448:176,1,100,8|0,0:0|0:0,0:0:0:0:
368,144,76944,1,0,0:0:0:0:
96,192,77030,1,2,0:0:0:0:
224,192,77201,1,10,0:0:0:0:
64,192,77373,1,10,0:0:0:0:
192,192,77544,1,0,0:0:0:0:
240,192,77587,1,0,0:0:0:0:
288,192,77630,1,0,0:0:0:0:
448,192,77716,6,0,L|368:112,1,100,12|0,0:0|0:0,0:0:0:0:
192,192,78058,2,0,L|272:112,1,100,8|0,0:0|0:0,0:0:0:0:
448,192,78401,2,0,L|368:272,1,100,0|8,0:0|0:0,0:0:0:0:
192,192,78744,2,0,L|112:272,1,100,8|0,0:0|0:0,0:0:0:0:
192,192,79001,1,0,0:0:0:0:
448,192,79087,6,0,L|368:112,1,100,8|0,0:0|0:0,0:0:0:0:
432,192,79430,1,8,0:0:0:0:
256,192,79601,1,2,0:0:0:0:
80,192,79773,2,0,L|160:112,1,100,2|10,0:0|0:0,0:0:0:0:
320,192,80116,2,0,L|400:112,1,100,10|0,0:0|0:0,0:0:0:0:
320,192,80373,1,0,0:0:0:0:
64,192,80458,6,0,L|144:272,1,100,8|0,0:0|0:0,0:0:0:0:
320,192,80801,1,8,0:0:0:0:
192,192,80973,1,2,0:0:0:0:
377,262,81144,2,0,L|448:192,1,100,2|10,0:0|0:0,0:0:0:0:
262,198,81487,2,0,L|192:128,1,100,10|0,0:0|0:0,0:0:0:0:
256,96,81744,1,0,0:0:0:0:
448,128,81830,6,0,L|377:198,1,100,8|0,0:0|0:0,0:0:0:0:
448,128,82173,1,8,0:0:0:0:
80,192,82344,1,2,0:0:0:0:
240,192,82516,2,0,L|176:112,1,100,2|10,0:0|0:0,0:0:0:0:
336,112,82858,2,0,L|272:192,1,100,10|2,0:0|0:0,0:0:0:0:
112,288,83201,6,0,L|208:256,1,100,8|0,0:0|0:0,0:0:0:0:
96,240,83544,1,8,0:0:0:0:
400,288,83716,2,0,L|304:256,1,100,0|0,0:0|0:0,0:0:0:0:
416,240,84058,1,8,0:0:0:0:
96,192,84230,2,0,L|32:192,2,50,10|0|2,0:0|0:0|0:0,0:0:0:0:
416,192,84573,6,0,L|320:160,1,100,8|0,0:0|0:0,0:0:0:0:
432,144,84916,1,8,0:0:0:0:
256,112,85087,1,2,0:0:0:0:
432,144,85258,2,0,L|368:144,1,50,2|0,0:0|0:0,0:0:0:0:
272,112,85430,2,0,L|256:64,1,50,10|0,0:0|0:0,0:0:0:0:
432,192,85601,2,0,L|336:160,1,100,10|0,0:0|0:0,0:0:0:0:
96,192,85944,6,0,L|192:160,1,100,8|0,0:0|0:0,0:0:0:0:
80,144,86287,1,8,0:0:0:0:
256,112,86458,1,2,0:0:0:0:
80,144,86630,2,0,L|144:144,1,50,2|0,0:0|0:0,0:0:0:0:
240,112,86801,2,0,L|256:64,1,50,10|0,0:0|0:0,0:0:0:0:
80,192,86973,2,0,L|176:160,1,100,10|0,0:0|0:0,0:0:0:0:
432,192,87316,6,0,L|480:176,1,50,12|0,0:0|0:0,0:0:0:0:
416,160,87487,1,2,0:0:0:0:
80,192,87658,2,0,L|32:176,1,50,8|0,0:0|0:0,0:0:0:0:
96,160,87830,1,10,0:0:0:0:
432,192,88001,2,0,L|320:192,1,100,12|8,0:0|0:0,0:0:0:0:
80,192,88258,2,0,L|192:192,1,100,8|0,0:0|0:0,0:0:0:0:
432,192,88516,2,0,L|384:144,1,50,8|0,0:0|0:0,0:0:0:0:
32,256,88687,6,0,L|64:160,1,100,12|0,0:2|0:0,0:0:0:0:
192,192,89030,1,8,0:0:0:0:
32,256,89201,1,0,0:0:0:0:
432,192,89373,1,2,0:0:0:0:
192,192,89544,1,10,0:0:0:0:
256,192,89630,1,0,0:0:0:0:
432,192,89716,2,0,L|464:288,1,100,10|0,0:0|0:0,0:0:0:0:
192,288,90058,6,0,P|144:224|256:192,1,225.000008583069,12|0,0:0|0:0,0:0:0:0:
432,192,90401,2,0,L|464:288,1,100,8|0,0:0|0:0,0:0:0:0:
192,288,90744,2,0,L|144:304,1,50,2|0,0:0|0:0,0:0:0:0:
320,288,90916,2,0,L|368:304,1,50,10|0,0:0|0:0,0:0:0:0:
192,288,91087,1,10,0:0:0:0:
320,288,91258,1,0,0:0:0:0:
32,192,91430,6,0,L|144:192,1,100,8|0,0:0|0:0,0:0:0:0:
208,192,91687,1,0,0:0:0:0:
132,192,91773,2,0,L|32:192,1,100,8|0,0:0|0:0,0:0:0:0:
400,192,92116,2,0,L|352:208,1,50,2|0,0:0|0:0,0:0:0:0:
208,192,92287,2,0,L|160:208,1,50,10|0,0:0|0:0,0:0:0:0:
400,192,92458,2,0,L|304:224,1,100,10|0,0:0|0:0,0:0:0:0:
256,240,92716,1,0,0:0:0:0:
96,272,92801,6,0,P|48:208|160:176,1,225.000008583069,12|0,0:0|0:0,0:0:0:0:
400,192,93144,2,0,L|304:224,1,100,8|0,0:0|0:0,0:0:0:0:
48,320,93487,2,0,L|64:272,1,50,2|0,0:0|0:0,0:0:0:0:
272,192,93658,2,0,L|256:144,1,50,10|0,0:0|0:0,0:0:0:0:
80,80,93830,2,0,L|192:80,1,100,10|0,0:0|0:0,0:0:0:0:
240,80,94087,1,0,0:0:0:0:
480,128,94173,6,0,L|448:224,1,100,12|0,0:2|0:0,0:0:0:0:
320,192,94516,1,8,0:0:0:0:
480,128,94687,1,0,0:0:0:0:
80,192,94858,1,2,0:0:0:0:
320,192,95030,1,10,0:0:0:0:
256,192,95116,1,0,0:0:0:0:
80,192,95201,2,0,L|48:96,1,100,10|0,0:0|0:0,0:0:0:0:
320,96,95544,6,0,P|368:160|256:192,1,225.000008583069,12|0,0:0|0:0,0:0:0:0:
80,192,95887,2,0,L|48:96,1,100,8|0,0:0|0:0,0:0:0:0:
320,96,96230,2,0,L|368:80,1,50,2|0,0:0|0:0,0:0:0:0:
192,96,96401,2,0,L|144:80,1,50,10|0,0:0|0:0,0:0:0:0:
320,96,96573,1,10,0:0:0:0:
192,96,96744,1,0,0:0:0:0:
480,192,96916,6,0,L|368:192,1,100,8|0,0:0|0:0,0:0:0:0:
304,192,97173,1,0,0:0:0:0:
380,192,97258,2,0,L|480:192,1,100,8|0,0:0|0:0,0:0:0:0:
112,192,97601,2,0,L|160:176,1,50,2|0,0:0|0:0,0:0:0:0:
304,192,97773,2,0,L|352:176,1,50,10|0,0:0|0:0,0:0:0:0:
112,192,97944,2,0,L|208:160,1,100,10|0,0:0|0:0,0:0:0:0:
256,144,98201,1,0,0:0:0:0:
416,112,98287,6,0,L|448:208,1,100,8|0,0:0|0:0,0:0:0:0:
368,240,98544,1,0,0:0:0:0:
96,112,98630,2,0,L|64:208,1,100,8|0,0:0|0:0,0:0:0:0:
144,240,98887,1,0,0:0:0:0:
416,192,98973,1,2,0:0:0:0:
352,192,99058,1,0,0:0:0:0:
288,192,99144,1,10,0:0:0:0:
448,192,99316,1,10,0:0:0:0:
320,192,99487,1,0,0:0:0:0:
272,192,99530,1,0,0:0:0:0:
224,192,99573,1,0,0:0:0:0:
80,192,99658,6,0,L|16:192,2,50,12|0|0,0:0|0:0|0:0,0:0:0:0:
256,128,100001,1,8,0:0:0:0:
80,192,100173,2,0,L|16:192,2,50,2|0|2,0:0|0:0|0:0,0:0:0:0:
256,256,100516,1,10,0:0:0:0:
80,192,100687,2,0,L|48:144,1,50,10|0,0:0|0:0,0:0:0:0:
256,192,100858,1,0,0:0:0:0:
432,192,101030,6,0,L|496:192,2,50,8|0|0,0:0|0:0|0:0,0:0:0:0:
256,128,101373,1,8,0:0:0:0:
432,192,101544,2,0,L|496:192,2,50,2|0|2,0:0|0:0|0:0,0:0:0:0:
256,256,101887,1,10,0:0:0:0:
432,192,102058,2,0,L|464:144,1,50,10|0,0:0|0:0,0:0:0:0:
256,192,102230,1,0,0:0:0:0:
80,192,102401,6,0,L|16:192,2,50,8|0|0,0:0|0:0|0:0,0:0:0:0:
256,192,102744,2,0,L|288:144,1,50,10|0,0:0|0:0,0:0:0:0:
80,192,102916,1,0,0:0:0:0:
256,192,103087,2,0,L|320:192,2,50,0|0|8,0:0|0:0|0:0,0:0:0:0:
80,192,103430,2,0,L|48:144,1,50,10|0,0:0|0:0,0:0:0:0:
256,192,103601,1,0,0:0:0:0:
432,192,103773,6,0,L|480:176,1,50,8|0,0:0|0:0,0:0:0:0:
416,160,103944,2,0,L|368:144,1,50,0|0,0:0|0:0,0:0:0:0:
448,128,104116,2,0,L|496:112,1,50,10|0,0:0|0:0,0:0:0:0:
432,96,104287,2,0,L|384:80,1,50,2|0,0:0|0:0,0:0:0:0:
96,80,104458,2,0,L|96:144,1,50,0|0,0:0|0:0,0:0:0:0:
336,208,104630,2,0,L|336:272,1,50,8|0,0:0|0:0,0:0:0:0:
176,208,104801,2,0,L|176:272,1,50,10|0,0:0|0:0,0:0:0:0:
416,80,104973,2,0,L|416:144,1,50,2|0,0:0|0:0,0:0:0:0:
176,208,105144,6,0,L|112:208,2,50,8|0|0,0:0|0:0|0:0,0:0:0:0:
416,192,105487,2,0,P|432:240|416:288,1,100,10|0,0:0|0:0,0:0:0:0:
366,192,105744,1,0,0:0:0:0:
432,192,105830,2,0,L|496:192,1,50,2|0,0:0|0:0,0:0:0:0:
400,192,106001,2,0,L|336:192,1,50,8|0,0:0|0:0,0:0:0:0:
192,176,106173,1,10,0:0:0:0:
112,192,106258,1,0,0:0:0:0:
64,144,106344,1,2,0:0:0:0:
336,176,106516,6,0,L|400:176,2,50,8|0|0,0:0|0:0|0:0,0:0:0:0:
96,192,106858,2,0,P|80:144|96:96,1,100,10|2,0:0|0:0,0:0:0:0:
146,192,107116,1,0,0:0:0:0:
80,192,107201,2,0,L|16:192,1,50,2|0,0:0|0:0,0:0:0:0:
112,192,107373,2,0,L|176:192,1,50,8|0,0:0|0:0,0:0:0:0:
320,208,107544,1,10,0:0:0:0:
400,192,107630,1,0,0:0:0:0:
448,240,107716,1,2,0:0:0:0:
128,80,107887,5,8,0:0:0:0:
400,192,108058,1,2,0:0:0:0:
112,192,108230,1,8,0:0:0:0:
384,80,108401,1,2,0:0:0:0:
128,80,108573,2,0,L|32:112,1,100,8|0,0:0|0:0,0:0:0:0:
384,80,108830,2,0,L|480:112,1,100,8|0,0:0|0:0,0:0:0:0:
96,128,109087,2,0,L|48:144,1,50,8|0,0:0|0:0,0:0:0:0:
416,240,109258,5,12,0:0:0:0:
272,240,109430,1,2,0:0:0:0:
400,192,109601,1,8,0:0:0:0:
288,192,109773,1,2,0:0:0:0:
96,240,109944,1,8,0:0:0:0:
240,240,110116,1,2,0:0:0:0:
112,192,110287,1,8,0:0:0:0:
224,192,110458,1,2,0:0:0:0:
464,192,110630,6,0,L|448:112,1,75.0000028610231,4|0,0:0|0:0,0:0:0:0:
336,128,110973,2,0,L|320:208,1,75.0000028610231,0|0,0:0|0:0,0:0:0:0:
144,128,111316,1,2,0:0:0:0:
256,128,111487,1,2,0:0:0:0:
176,128,111658,2,0,L|240:64,1,75.0000028610231,2|2,0:0|0:0,0:0:0:0:
48,192,112001,6,0,L|64:112,1,75.0000028610231,0|0,0:0|0:0,0:0:0:0:
176,128,112344,2,0,L|192:208,1,75.0000028610231,0|0,0:0|0:0,0:0:0:0:
368,128,112687,1,2,0:0:0:0:
256,128,112858,1,2,0:0:0:0:
336,128,113029,2,0,L|272:64,1,75.0000028610231,2|2,0:0|0:0,0:0:0:0:
48,192,113373,6,0,L|64:272,1,75.0000028610231,4|0,0:0|0:0,0:0:0:0:
176,256,113716,2,0,L|192:176,1,75.0000028610231,0|0,0:0|0:0,0:0:0:0:
48,192,114058,1,2,0:0:0:0:
176,256,114230,1,2,0:0:0:0:
65,265,114401,2,0,L|144:256,1,75.0000028610231,2|2,0:0|0:0,0:0:0:0:
304,192,114744,6,0,L|320:272,1,75.0000028610231,0|0,0:0|0:0,0:0:0:0:
432,256,115087,2,0,L|448:176,1,75.0000028610231,0|0,0:0|0:0,0:0:0:0:
304,192,115429,1,2,0:0:0:0:
432,256,115601,1,2,0:0:0:0:
355,257,115773,2,0,L|430:266,1,75.0000028610231,2|2,0:0|0:0,0:0:0:0:
272,192,116116,6,0,L|288:272,1,75.0000028610231,0|0,0:0|0:0,0:0:0:0:
400,256,116459,2,0,L|416:176,1,75.0000028610231,0|0,0:0|0:0,0:0:0:0:
272,192,116801,1,2,0:0:0:0:
400,256,116973,1,2,0:0:0:0:
304,256,117144,2,0,L|383:247,1,75.0000028610231,2|2,0:0|0:0,0:0:0:0:
240,192,117487,6,0,L|224:272,1,75.0000028610231,0|0,0:0|0:0,0:0:0:0:
112,256,117830,2,0,L|96:176,1,75.0000028610231,0|0,0:0|0:0,0:0:0:0:
240,192,118172,1,2,0:0:0:0:
112,256,118344,1,2,0:0:0:0:
208,256,118516,2,0,L|129:247,1,75.0000028610231,2|2,0:0|0:0,0:0:0:0:
384,112,118858,6,0,L|304:96,1,75.0000028610231,4|0,0:0|0:0,0:0:0:0:
201,97,119201,2,0,L|128:112,1,75.0000028610231,0|0,0:0|0:0,0:0:0:0:
256,192,119544,1,2,0:0:0:0:
352,192,119716,1,2,0:0:0:0:
256,192,119887,2,0,L|304:256,1,75.0000028610231,2|2,0:0|0:0,0:0:0:0:
128,272,120230,6,0,L|208:288,1,75.0000028610231,0|0,0:0|0:0,0:0:0:0:
310,286,120573,2,0,L|384:272,1,75.0000028610231,0|0,0:0|0:0,0:0:0:0:
256,192,120916,1,2,0:0:0:0:
160,192,121088,1,2,0:0:0:0:
256,192,121258,1,2,0:0:0:0:
80,192,121430,1,10,0:0:0:0:
320,192,121601,6,0,L|352:112,1,75.0000028610231,6|0,0:0|0:0,0:0:0:0:
208,96,121944,2,0,P|128:128|96:192,2,150.000005722046,2|2|2,0:0|0:0|0:0,0:0:0:0:
448,192,122801,6,0,P|384:288|304:64,1,525.000020027161,2|2,0:0|0:0,0:0:0:0:
64,192,124344,6,0,P|144:192|224:80,1,225.000008583069,10|2,0:0|0:0,0:0:0:0:
64,80,125030,2,0,P|116:175|160:189,1,150.000005722046,2|0,0:0|0:0,0:0:0:0:
416,192,125716,6,0,L|464:192,1,37.5000014305115,2|0,0:0|0:0,0:0:0:0:
400,192,125887,2,0,P|320:192|256:224,1,150.000005722046,0|2,0:0|0:0,0:0:0:0:
80,192,126401,2,0,L|144:128,1,75.0000028610231,2|0,0:0|0:0,0:0:0:0:
288,128,126658,2,0,P|224:128|192:96,1,112.500004291535,2|2,0:0|0:0,0:0:0:0:
464,192,127087,6,0,L|384:192,1,75.0000028610231,6|0,0:0|0:0,0:0:0:0:
256,192,127430,2,0,L|331:192,1,75.0000028610231,2|0,0:0|0:0,0:0:0:0:
464,192,127773,2,0,L|304:192,1,150.000005722046,2|2,0:0|0:0,0:0:0:0:
64,192,128287,5,2,0:0:0:0:
176,192,128458,2,0,P|256:144|80:112,1,450.000017166138,2|2,0:0|0:0,0:0:0:0:
432,192,129830,6,0,P|272:144|256:96,1,225.000008583069,10|2,0:0|0:0,0:0:0:0:
432,192,130516,2,0,L|272:240,1,150.000005722046,2|0,0:0|0:0,0:0:0:0:
80,192,131201,6,0,L|240:240,1,150.000005722046,2|2,0:0|0:0,0:0:0:0:
400,240,131716,2,0,P|400:192|352:144,1,112.500004291535,2|0,0:0|0:0,0:0:0:0:
208,240,132058,1,2,0:0:0:0:
352,240,132230,2,0,L|432:240,1,75.0000028610231,2|2,0:0|0:0,0:0:0:0:
192,192,132573,6,0,L|160:272,1,75.0000028610231,6|0,0:0|0:0,0:0:0:0:
304,288,132916,2,0,P|384:256|416:192,2,150.000005722046,2|2|2,0:0|0:0|0:0,0:0:0:0:
64,192,133773,6,0,P|128:96|208:320,1,525.000020027161,2|2,0:0|0:0,0:0:0:0:
448,192,135316,6,0,P|368:192|288:304,1,225.000008583069,10|2,0:0|0:0,0:0:0:0:
448,304,136001,2,0,P|396:209|352:195,1,150.000005722046,2|0,0:0|0:0,0:0:0:0:
96,192,136687,6,0,L|48:192,1,37.5000014305115,2|0,0:0|0:0,0:0:0:0:
112,192,136858,2,0,P|192:192|256:160,1,150.000005722046,0|2,0:0|0:0,0:0:0:0:
432,192,137373,2,0,L|368:256,1,75.0000028610231,2|0,0:0|0:0,0:0:0:0:
224,256,137630,2,0,L|288:352,1,112.500004291535,2|2,0:0|0:0,0:0:0:0:
48,192,138058,6,0,L|128:192,1,75.0000028610231,6|0,0:0|0:0,0:0:0:0:
256,192,138401,2,0,L|181:192,1,75.0000028610231,2|0,0:0|0:0,0:0:0:0:
48,192,138744,2,0,L|208:192,1,150.000005722046,2|2,0:0|0:0,0:0:0:0:
448,192,139258,5,2,0:0:0:0:
336,192,139430,2,0,P|256:240|432:272,1,450.000017166138,2|2,0:0|0:0,0:0:0:0:
80,192,140801,6,0,P|240:240|256:288,1,225.000008583069,10|2,0:0|0:0,0:0:0:0:
80,192,141487,2,0,L|240:144,1,150.000005722046,2|0,0:0|0:0,0:0:0:0:
432,192,142173,6,0,L|272:144,1,150.000005722046,2|2,0:0|0:0,0:0:0:0:
112,144,142687,2,0,P|112:192|160:240,1,112.500004291535,2|0,0:0|0:0,0:0:0:0:
304,144,143030,1,2,0:0:0:0:
160,144,143201,2,0,L|80:144,1,75.0000028610231,2|2,0:0|0:0,0:0:0:0:
448,192,143544,6,0,L|336:192,1,100,12|2,0:0|0:0,0:0:0:0:
208,192,143887,1,8,0:0:0:0:
448,288,144058,2,0,L|336:288,1,100,6|2,0:0|0:0,0:0:0:0:
208,288,144401,1,2,0:0:0:0:
348,288,144573,2,0,L|448:288,1,100,8|2,0:0|0:0,0:0:0:0:
64,192,144916,6,0,L|176:192,1,100,12|2,0:0|0:0,0:0:0:0:
304,192,145258,1,8,0:0:0:0:
64,192,145430,1,6,0:0:0:0:
304,192,145601,2,0,L|416:192,1,100,6|2,0:0|0:0,0:0:0:0:
256,192,145944,2,0,L|356:192,1,100,8|2,0:0|0:0,0:0:0:0:
64,192,146287,6,0,L|176:192,1,100,12|2,0:0|0:0,0:0:0:0:
304,192,146630,1,8,0:0:0:0:
64,96,146801,2,0,L|176:96,1,100,6|2,0:0|0:0,0:0:0:0:
304,96,147144,1,2,0:0:0:0:
164,96,147316,2,0,L|64:96,1,100,8|2,0:0|0:0,0:0:0:0:
448,192,147658,6,0,L|336:192,1,100,12|2,0:0|0:0,0:0:0:0:
208,192,148001,1,8,0:0:0:0:
448,192,148173,1,6,0:0:0:0:
208,192,148344,2,0,B|48:192,1,150,6|2,0:0|0:0,0:0:0:0:
304,192,148687,2,0,L|404:192,1,100,8|2,0:0|0:0,0:0:0:0:
64,288,149030,5,12,0:0:0:0:
176,288,149201,1,8,0:0:0:0:
48,288,149373,1,8,0:0:0:0:
448,288,149544,1,14,0:0:0:0:
336,288,149716,1,12,0:0:0:0:
464,288,149887,1,8,0:0:0:0:
64,288,150058,2,0,L|64:176,1,100,4|2,0:0|0:0,0:0:0:0:
448,96,150401,5,12,0:0:0:0:
336,96,150573,1,8,0:0:0:0:
464,96,150744,1,8,0:0:0:0:
64,96,150916,1,14,0:0:0:0:
176,96,151087,1,12,0:0:0:0:
48,96,151258,1,8,0:0:0:0:
448,96,151430,2,0,L|448:208,1,100,4|2,0:0|0:0,0:0:0:0:
64,192,151773,6,0,L|112:224,1,50,8|0,0:0|0:0,0:0:0:0:
304,192,151944,2,0,L|288:128,1,50,8|0,0:0|0:0,0:0:0:0:
96,224,152116,2,0,L|144:240,1,50,8|0,0:0|0:0,0:0:0:0:
352,224,152287,2,0,L|320:160,1,50,8|0,0:0|0:0,0:0:0:0:
128,256,152458,2,0,L|192:256,1,50,8|0,0:0|0:0,0:0:0:0:
400,256,152630,2,0,L|352:192,1,50,8|0,0:0|0:0,0:0:0:0:
176,288,152801,1,8,0:0:0:0:
168,252,152844,1,0,0:0:0:0:
169,215,152887,1,0,0:0:0:0:
179,179,152930,1,0,0:0:0:0:
199,147,152973,1,0,0:0:0:0:
226,121,153016,1,0,0:0:0:0:
258,103,153058,1,0,0:0:0:0:
295,94,153101,1,0,0:0:0:0:
336,96,153144,6,0,L|496:96,2,150,8|0|8,0:0|0:0|0:0,0:0:0:0:
176,96,153830,2,0,L|32:96,1,133.333333333333,4|0,0:0|0:0,0:0:0:0:
144,96,154173,1,2,0:0:0:0:
398,192,154344,2,0,L|448:192,1,50,4|0,0:0|0:0,0:0:0:0:
64,192,154516,5,4,0:0:0:0:
