osu file format v14

[General]
AudioFilename: audio.mp3
AudioLeadIn: 0
PreviewTime: 43430
Countdown: 0
SampleSet: None
StackLeniency: 0.7
Mode: 2
LetterboxInBreaks: 0
WidescreenStoryboard: 0

[Editor]
DistanceSpacing: 1
BeatDivisor: 4
GridSize: 4
TimelineZoom: 1.3

[Metadata]
Title:Tokyo (Innovaderz Remix)
TitleUnicode:Tokyo (Innovaderz Remix)
Artist:DJ Ozawa
ArtistUnicode:DJ Ozawa
Creator:Ascendance
Version:Dark's Cup
Source:
Tags:dnb lanturn mbomb -_magic_bomb_- magic bomb californian darknessofblue fii -wwwww kaitlin zirox sorcerer tomthewizard toybot Yumeno Himiko exam examination gero tenshichan [superstar] hi_hello CLSW crystal crystalseed tasuke912 boberofdarkness bodom koliron deif spectator qoot8123 julie prophecy nofool skylish onosakihito ozzyozrock nardo nardoxyribonucleic raiden nwolf backfire chromoxx saika -saika- lop fawx
BeatmapID:1033546
BeatmapSetID:427801

[Difficulty]
HPDrainRate:4
CircleSize:2.5
OverallDifficulty:6.5
ApproachRate:6.5
SliderMultiplier:1.4
SliderTickRate:2

[Events]
//Background and Video events
0,0,"Cities_Color_of_the_night_city_058372_.jpg",0,0
//Break Periods
2,116116,120573
//Storyboard Layer 0 (Background)
//Storyboard Layer 1 (Fail)
//Storyboard Layer 2 (Pass)
//Storyboard Layer 3 (Foreground)
//Storyboard Sound Samples

[TimingPoints]
916,342.857142857143,4,3,21,30,1,0
1258,-100,4,3,22,45,0,0
11887,-100,4,3,22,60,0,0
22858,-100,4,1,22,60,0,0
33830,-100,4,3,22,55,0,0
43430,-100,4,3,21,60,0,0
44801,-83.3333333333333,4,3,22,60,0,1
55773,-83.3333333333333,4,3,21,60,0,1
56116,-83.3333333333333,4,3,22,60,0,1
66744,-100,4,3,21,60,0,0
67087,-100,4,3,22,60,0,0
68116,-86.9565217391305,4,1,14,60,0,0
68458,-100,4,3,22,60,0,0
70858,-86.9565217391305,4,1,14,60,0,0
71201,-100,4,3,22,60,0,0
72230,-100,4,3,21,60,0,0
72573,-100,4,3,22,60,0,0
73601,-86.9565217391305,4,1,14,60,0,0
73944,-100,4,3,22,60,0,0
77716,-100,4,3,21,45,0,0
78058,-100,4,3,22,60,0,0
88687,-100,4,3,21,60,0,0
89030,-100,4,3,22,60,0,0
90058,-86.9565217391305,4,1,14,60,0,0
90401,-100,4,3,22,60,0,0
92801,-86.9565217391305,4,1,14,60,0,0
93144,-100,4,3,22,60,0,0
94173,-100,4,3,21,60,0,0
94516,-100,4,3,22,60,0,0
95544,-86.9565217391305,4,1,14,60,0,0
95887,-100,4,3,22,60,0,0
99316,-100,4,3,21,45,0,0
99658,-100,4,3,22,60,0,1
110630,-100,4,3,21,60,0,0
112001,-100,4,3,21,45,0,0
113373,-100,4,3,21,30,0,0
114744,-100,4,3,21,15,0,0
121601,-100,4,3,21,30,0,0
121944,-100,4,3,22,45,0,0
143544,-100,4,3,22,55,0,0
153144,-100,4,3,21,60,0,0
154516,-100,4,3,22,60,0,1
154601,-100,4,3,22,60,0,0

[HitObjects]
124,176,915,5,4,0:0:0:0:
228,136,1258,2,0,B|560:192|108:248|376:296|376:296|268:296|268:296|48:276|44:56|152:28,1,840,0|0,0:3|0:3,0:3:0:0:
272,304,3658,2,0,B|428:304|428:304|428:228|428:228|240:228|240:228|348:148|348:148|288:192|184:144|204:56|228:20,1,770
192,64,6401,6,0,B|135:91|187:151|23:235|23:235|151:235|151:175|151:175|383:448|-280:387|97:197|44:132|135:91,1,980,8|0,0:3|0:3,0:3:0:0:
308,296,9144,2,0,B|404:252|468:184|468:184|468:152|468:152|380:168|276:152|276:152|296:92|368:20|368:20,1,560,0|0,0:0|0:0,0:0:0:0:
210,183,11887,6,0,P|101:134|183:47,1,280,8|0,0:0|0:0,0:0:0:0:
88,128,12916,1,0,0:0:0:0:
228,248,13258,2,0,P|188:76|140:161,1,420,0|0,0:0|0:0,0:0:0:0:
316,160,14630,5,0,0:0:0:0:
444,220,15144,1,0,0:0:0:0:
228,112,15658,1,0,0:0:0:0:
356,172,16001,1,0,0:0:0:0:
164,300,16516,2,0,L|147:87,1,210,0|0,0:0|0:0,0:0:0:0:
256,96,17373,6,0,P|330:226|300:228,1,280,8|0,0:0|0:0,0:0:0:0:
176,224,18401,1,0,0:0:0:0:
48,304,18744,2,0,P|256:232|316:36,1,420,0|0,0:0|0:0,0:0:0:0:
184,284,20116,6,0,L|72:106,2,210,0|0|0,0:0|0:0|0:0,0:0:0:0:
312,192,21487,2,0,P|422:189|460:104,1,210,0|0,0:0|0:0,0:0:0:0:
252,75,22516,1,0,0:0:0:0:
104,75,22858,5,6,0:1:0:0:
252,75,23373,1,0,0:1:0:0:
252,75,23544,1,0,0:1:0:0:
403,75,23887,1,0,0:1:0:0:
252,192,24230,5,0,0:1:0:0:
252,192,24401,1,0,0:1:0:0:
107,192,24744,1,0,0:1:0:0:
107,192,24916,1,0,0:1:0:0:
252,75,25258,5,0,0:1:0:0:
252,75,25430,1,0,0:1:0:0:
252,75,25601,1,0,0:1:0:0:
252,75,25773,1,0,0:1:0:0:
403,188,26116,5,0,0:1:0:0:
403,188,26287,1,0,0:1:0:0:
252,192,26630,1,0,0:1:0:0:
103,74,26973,5,0,0:1:0:0:
103,74,27145,1,0,0:1:0:0:
252,75,27487,1,0,0:1:0:0:
252,75,27659,1,0,0:1:0:0:
403,74,28001,5,0,0:1:0:0:
403,74,28173,1,0,0:1:0:0:
403,74,28344,1,0,0:1:0:0:
403,74,28516,1,0,0:1:0:0:
252,192,28858,5,0,0:1:0:0:
252,192,29029,1,0,0:1:0:0:
403,188,29372,1,0,0:1:0:0:
252,75,29715,5,0,0:1:0:0:
252,75,29887,1,0,0:1:0:0:
103,74,30229,1,0,0:1:0:0:
103,74,30401,1,0,0:1:0:0:
252,192,30744,5,0,0:1:0:0:
252,192,30916,1,0,0:1:0:0:
252,192,31087,1,0,0:1:0:0:
252,192,31258,1,0,0:1:0:0:
403,188,31601,5,0,0:1:0:0:
403,188,31772,1,0,0:1:0:0:
252,75,32116,1,0,0:1:0:0:
403,74,32458,5,0,0:1:0:0:
403,74,32630,1,0,0:1:0:0:
252,192,32972,1,0,0:1:0:0:
252,192,33144,1,0,0:1:0:0:
107,192,33487,5,0,0:1:0:0:
107,192,33658,1,0,0:1:0:0:
107,128,33830,6,2,P|115:248|255:284,1,280,14|2,0:0|0:0,0:0:0:0:
404,220,34858,1,0,0:0:0:0:
270,115,35201,2,2,P|170:219|239:307,1,280,2|2,0:0|0:0,0:0:0:0:
123,175,36230,1,0,0:0:0:0:
276,54,36573,6,2,P|268:174|128:210,1,280
256,220,37601,1,0,0:0:0:0:
404,304,37944,2,2,P|487:211|390:132,1,280,2|2,0:0|0:0,0:0:0:0:
208,168,38973,1,0,0:0:0:0:
98,210,39316,6,2,L|307:158,1,210,6|2,0:0|0:0,0:0:0:0:
392,160,40001,1,2,0:0:0:0:
301,159,40344,1,2,0:0:0:0:
425,159,40687,6,2,L|230:237,1,210,2|2,0:0|0:0,0:0:0:0:
320,237,41373,1,2,0:0:0:0:
400,181,41716,1,2,0:0:0:0:
256,192,42058,12,4,43430,0:0:0:0:
256,284,44801,5,12,0:0:0:0:
364,252,45144,2,8,P|204:252|204:100,1,335.999989746094,8|8,0:0|0:0,0:0:0:0:
336,160,46173,1,0,0:0:0:0:
212,188,46516,2,0,B|300:176|361:110|361:110|363:-5|248:-32,1,335.999989746094,8|8,0:3|0:3,0:3:0:0:
212,188,47544,6,0,B|371:261|371:261|335:337|335:337|172:262|172:262|213:175,1,503.999984619141,0|8,0:0|0:0,0:0:0:0:
278,211,48916,2,0,P|112:231|280:176,1,503.999984619141,2|8,0:0|0:0,0:0:0:0:
380,124,50287,6,2,L|196:124,1,167.999994873047,2|2,0:0|0:0,0:0:0:0:
136,132,50801,1,2,0:0:0:0:
100,124,50973,2,0,L|276:160,1,167.999994873047,2|8,0:0|0:0,0:0:0:0:
340,308,51658,6,2,L|360:128,1,167.999994873047,2|2,0:0|0:0,0:0:0:0:
372,228,52173,1,2,0:0:0:0:
304,304,52344,2,0,L|128:268,1,167.999994873047,2|8,0:0|0:0,0:0:0:0:
300,248,53030,5,4,0:0:0:0:
408,216,53373,1,8,0:0:0:0:
240,124,53716,1,0,0:0:0:0:
120,216,54058,1,8,0:0:0:0:
252,248,54401,5,12,0:0:0:0:
80,204,54744,2,0,L|12:120,2,83.9999974365235,0|8|0,0:0|0:0|0:0,0:0:0:0:
252,248,55430,1,8,0:0:0:0:
188,232,55601,1,8,0:0:0:0:
188,232,55687,1,8,0:0:0:0:
188,232,55773,1,12,0:0:0:0:
286,136,56116,6,8,P|330:324|230:344,1,335.999989746094,8|8,0:0|0:0,0:0:0:0:
366,248,57144,1,0,0:0:0:0:
192,136,57487,2,8,P|148:324|248:344,1,335.999989746094,8|8,0:0|0:0,0:0:0:0:
348,248,58516,6,0,B|220:136|220:136|344:8|344:8|432:64|328:168,1,503.999984619141,0|8,0:0|0:0,0:0:0:0:
240,204,59887,2,8,B|424:172|424:172|284:244|284:244|364:324|424:172,1,503.999984619141,2|8,0:0|0:0,0:0:0:0:
300,188,61258,6,2,L|116:188,1,167.999994873047,2|2,0:0|0:0,0:0:0:0:
60,196,61772,1,2,0:0:0:0:
24,188,61944,2,2,L|200:224,1,167.999994873047,2|8,0:0|0:0,0:0:0:0:
72,276,62630,6,2,L|52:96,1,167.999994873047,2|2,0:0|0:0,0:0:0:0:
40,196,63145,1,2,0:0:0:0:
108,272,63316,2,2,L|284:236,1,167.999994873047,2|8,0:0|0:0,0:0:0:0:
138,216,64001,5,4,0:0:0:0:
273,238,64344,1,8,0:0:0:0:
426,216,64687,1,0,0:0:0:0:
273,238,65029,1,8,0:0:0:0:
398,220,65373,5,12,0:0:0:0:
234,256,65716,2,0,L|166:172,2,83.9999974365235,0|0|8,0:0|0:0|0:0,0:0:0:0:
358,228,66401,1,8,0:0:0:0:
188,120,66744,5,12,0:0:0:0:
308,180,67087,2,8,P|444:204|472:72,1,280,8|8,0:0|0:0,0:0:0:0:
340,160,68116,2,0,L|172:160,1,161.000003070831,4|8,0:0|0:0,0:0:0:0:
56,120,68801,2,0,L|95:253,1,140,0|8,0:0|0:0,0:0:0:0:
240,172,69487,5,0,0:0:0:0:
124,264,69830,2,8,P|32:180|128:88,1,280,8|8,0:0|0:0,0:0:0:0:
240,172,70858,2,0,L|72:172,1,161.000003070831,4|8,0:0|0:0,0:0:0:0:
252,148,71544,2,0,L|372:263,1,140,0|8,0:0|0:0,0:0:0:0:
220,176,72230,1,12,0:0:0:0:
378,184,72573,6,8,P|470:100|374:8,1,280,8|8,0:0|0:0,0:0:0:0:
262,92,73601,2,0,L|430:92,1,161.000003070831,4|8,0:0|0:0,0:0:0:0:
340,176,74287,2,8,L|302:42,1,140,0|8,0:0|0:0,0:0:0:0:
256,192,74973,12,8,77716,0:0:0:0:
412,108,78058,6,8,P|288:164|160:112,1,280,8|8,0:0|0:0,0:0:0:0:
290,177,79087,2,0,L|412:107,1,140,0|8,0:0|0:0,0:0:0:0:
288,100,79773,2,0,L|166:170,1,140,0|8,0:0|0:0,0:0:0:0:
290,177,80458,6,0,L|440:168,1,140,0|8,0:0|0:0,0:0:0:0:
320,28,81144,1,0,0:0:0:0:
232,148,81487,2,8,L|206:293,1,140,8|0,0:0|0:0,0:0:0:0:
320,176,82173,2,0,L|418:274,2,140,8|0|8,0:0|0:0|0:0,0:0:0:0:
184,269,83201,6,0,P|122:153|210:55,1,280,0|0,0:0|0:0,0:0:0:0:
48,180,84229,1,8,0:0:0:0:
176,272,84573,6,0,B|293:186|293:186|224:236|176:160,1,280,0|0,0:0|0:0,0:0:0:0:
316,224,85601,1,8,0:0:0:0:
408,272,85944,2,0,B|291:186|291:186|360:236|408:160,1,280,0|0,0:0|0:0,0:0:0:0:
268,223,86973,1,8,0:0:0:0:
156,184,87316,6,0,L|73:68,1,140,4|8,0:0|0:0,0:0:0:0:
232,183,88001,2,8,L|336:183,2,105,8|8|8,0:0|0:0|0:0,0:0:0:0:
232,183,88687,5,12,0:0:0:0:
353,382,89030,2,0,P|245:299|232:164,1,280,8|8,0:0|0:0,0:0:0:0:
99,184,90059,2,0,L|268:184,1,161.000003070831,4|8,0:0|0:0,0:0:0:0:
380,104,90744,2,0,L|419:244,1,140,0|8,0:0|0:0,0:0:0:0:
292,104,91430,5,0,0:0:0:0:
420,104,91773,2,8,P|488:188|352:188,1,280,8|8,0:0|0:0,0:0:0:0:
188,232,92801,2,0,L|24:232,1,161.000003070831,4|8,0:0|0:0,0:0:0:0:
172,232,93487,2,0,P|239:220|292:152,1,140,0|8,0:0|0:0,0:0:0:0:
176,144,94173,1,12,0:0:0:0:
340,272,94516,6,8,P|408:192|448:16,1,280,8|8,0:3|0:3,0:3:0:0:
324,180,95544,2,0,L|492:180,1,161.000003070831,4|8,0:0|0:0,0:0:0:0:
372,180,96230,2,0,L|332:39,1,140,0|8,0:0|0:0,0:0:0:0:
256,192,96916,12,8,99316,0:0:0:0:
348,284,99658,6,0,L|229:165,1,140,4|8,0:3|0:3,0:3:0:0:
150,86,100344,2,0,L|249:185,1,140,0|8,0:0|0:0,0:0:0:0:
347,85,101030,6,0,L|248:184,1,140,0|8,0:0|0:0,0:0:0:0:
132,284,101716,2,0,L|33:186,1,140,0|8,0:3|0:3,0:3:0:0:
172,184,102401,6,0,L|297:124,1,140,0|8,0:3|0:3,0:3:0:0:
423,183,103087,2,0,L|298:124,1,140,0|8,0:3|0:3,0:3:0:0:
172,184,103773,6,0,L|197:42,1,140,2|8,0:0|0:0,0:0:0:0:
305,37,104458,2,0,L|279:178,1,140,2|8,0:0|0:0,0:0:0:0:
99,181,105144,5,4,0:0:0:0:
188,27,105487,1,0,0:0:0:0:
66,59,105830,1,0,0:0:0:0:
221,148,106173,1,0,0:0:0:0:
376,200,106516,5,4,0:0:0:0:
287,354,106859,1,0,0:0:0:0:
409,322,107202,1,0,0:0:0:0:
254,233,107545,1,0,0:0:0:0:
101,154,107887,6,0,L|228:92,1,140,0|0,0:0|0:0,0:0:0:0:
320,139,108573,2,8,L|204:81,2,105,8|8|8,0:0|0:0|0:0,0:0:0:0:
320,139,109258,6,0,P|176:139|320:215,1,420,4|2,0:0|0:0,0:0:0:0:
444,192,110630,6,8,L|304:192,1,140,8|8,0:0|0:0,0:0:0:0:
60,192,112001,6,8,L|200:192,1,140,8|8,0:0|0:0,0:0:0:0:
380,192,113373,6,8,L|240:192,1,140,8|8,0:0|0:0,0:0:0:0:
124,192,114744,6,8,L|264:192,1,140,8|8,0:0|0:0,0:0:0:0:
264,296,121601,5,4,0:0:0:0:
160,268,121944,2,0,B|198:191|271:259|271:259|271:191|271:191|198:191|198:191|123:126|198:51|198:51|272:48|272:48|280:120|328:156|400:136|400:136|426:215|311:259,1,840,0|0,0:0|0:0,0:0:0:0:
208,316,124344,2,0,B|-12:180|208:180|208:180|140:180|140:180|-40:180|212:180|212:180|56:180|208:48,1,770,0|0,0:0|0:0,0:0:0:0:
372,192,127087,6,0,B|476:92|476:92|332:24|332:24|332:192|492:264|492:264|304:340|280:136|336:224|240:164|348:52,1,980,8|0,0:0|0:0,0:0:0:0:
236,92,129830,2,0,B|380:36|380:36|380:92|380:92|248:135|248:135|248:63|248:63|383:93,1,560,0|0,0:0|0:0,0:0:0:0:
162,132,132573,6,0,P|64:208|163:284,1,280,8|0,0:0|0:0,0:0:0:0:
310,134,133601,1,0,0:0:0:0:
202,186,133944,2,0,B|284:342|284:342|171:125,1,420,0|0,0:0|0:0,0:0:0:0:
360,192,135316,5,0,0:0:0:0:
167,139,135830,1,0,0:0:0:0:
332,188,136344,1,0,0:0:0:0:
188,148,136687,1,0,0:0:0:0:
336,292,137201,2,0,L|312:80,1,210,0|0,0:0|0:0,0:0:0:0:
187,143,138058,6,0,P|188:292|215:279,1,280,8|0,0:0|0:0,0:0:0:0:
52,220,139086,1,0,0:0:0:0:
188,144,139430,2,0,B|345:101|345:101|379:227|379:227|256:260,1,420,0|0,0:0|0:0,0:0:0:0:
392,344,140801,6,0,L|471:150,2,210,0|0|0,0:0|0:0|0:0,0:0:0:0:
244,284,142172,2,0,P|191:187|245:111,1,210,0|0,0:0|0:0,0:0:0:0:
352,204,143201,1,0,0:0:0:0:
204,224,143544,6,2,P|64:196|88:76,1,280,6|2,0:0|0:0,0:0:0:0:
204,224,144573,1,0,0:0:0:0:
352,299,144915,2,2,P|444:196|352:140,1,280,2|2,0:0|0:0,0:0:0:0:
204,224,145944,1,0,0:0:0:0:
352,299,146287,6,2,B|276:180|276:180|360:308,1,280,2|2,0:0|0:0,0:0:0:0:
204,224,147316,1,0,0:0:0:0:
352,299,147658,2,2,B|428:180|428:180|344:308,1,280,2|2,0:0|0:0,0:0:0:0:
204,224,148687,1,0,0:0:0:0:
366,122,149030,6,2,L|484:295,1,210,6|2,0:0|0:0,0:0:0:0:
420,264,149716,1,2,0:0:0:0:
312,212,150058,1,2,0:0:0:0:
420,264,150401,6,2,L|252:138,1,210
299,175,151087,1,2,0:0:0:0:
172,112,151430,1,2,0:0:0:0:
256,192,151773,12,4,153144,0:0:0:0:
256,192,154516,5,12,0:0:0:0:
