osu file format v14

[General]
AudioFilename: audio.mp3
AudioLeadIn: 0
PreviewTime: 43430
Countdown: 0
SampleSet: Soft
StackLeniency: 0.7
Mode: 2
LetterboxInBreaks: 0
WidescreenStoryboard: 0

[Editor]
Bookmarks: 154601
DistanceSpacing: 1
BeatDivisor: 4
GridSize: 8
TimelineZoom: 1.1

[Metadata]
Title:Tokyo (Innovaderz Remix)
TitleUnicode:Tokyo (Innovaderz Remix)
Artist:DJ Ozawa
ArtistUnicode:DJ Ozawa
Creator:Ascendance
Version:Cup
Source:
Tags:dnb lanturn mbomb -_magic_bomb_- magic bomb californian darknessofblue fii -wwwww kaitlin zirox sorcerer tomthewizard toybot Yumeno Himiko exam examination gero tenshichan [superstar] hi_hello CLSW crystal crystalseed tasuke912 boberofdarkness bodom koliron deif spectator qoot8123 julie prophecy nofool skylish onosakihito ozzyozrock nardo nardoxyribonucleic raiden nwolf backfire chromoxx saika -saika- lop fawx
BeatmapID:924732
BeatmapSetID:427801

[Difficulty]
HPDrainRate:4
CircleSize:2.5
OverallDifficulty:6
ApproachRate:6
SliderMultiplier:1.4
SliderTickRate:1

[Events]
//Background and Video events
0,0,"Cities_Color_of_the_night_city_058372_.jpg",0,0
//Break Periods
2,110830,120551
//Storyboard Layer 0 (Background)
//Storyboard Layer 1 (Fail)
//Storyboard Layer 2 (Pass)
//Storyboard Layer 3 (Foreground)
//Storyboard Sound Samples

[TimingPoints]
916,342.857142857143,4,2,0,60,1,0
916,-133.333333333333,4,2,0,60,0,0
44801,-100,4,2,0,60,0,1
66744,-100,4,2,0,80,0,0
99658,-100,4,2,0,60,0,1
110630,-100,4,2,0,60,0,0
132573,-133.333333333333,4,2,0,60,0,0
143544,-100,4,2,0,60,0,0
154516,-100,4,2,0,60,0,1
154601,-100,4,2,0,60,0,0

[HitObjects]
80,192,915,6,0,L|384:192,1,280
208,192,2116,2,0,P|96:144|224:16,1,367.500014019013
320,16,3658,6,0,L|464:96,1,157.500006008148
320,176,4687,1,0,0:0:0:0:
416,224,5030,2,0,L|256:240,2,157.500006008148
288,176,6401,6,0,L|64:176,1,210.000008010865
208,96,7601,2,0,P|352:176|224:256,1,367.500014019013
128,264,9144,2,0,L|-32:264,2,157.500006008148
232,264,10516,5,0,0:0:0:0:
392,264,11030,1,0,0:0:0:0:
256,192,11544,1,0,0:0:0:0:
360,192,11887,5,0,0:0:0:0:
256,192,12230,2,0,L|128:192,1,105.000004005432
288,112,13087,2,0,P|424:192|288:272,1,367.500014019013
192,272,14630,6,0,L|16:272,2,157.500006008148
296,272,16001,1,0,0:0:0:0:
432,192,16516,1,0,0:0:0:0:
376,184,16687,1,0,0:0:0:0:
272,168,17030,1,0,0:0:0:0:
168,176,17373,5,0,0:0:0:0:
64,208,17716,2,0,L|192:208,1,105.000004005432
328,208,18573,2,0,P|440:176|304:80,1,367.500014019013
208,88,20116,6,0,L|32:96,2,157.500006008148
312,72,21487,1,0,0:0:0:0:
192,176,22001,1,0,0:0:0:0:
344,216,22516,1,0,0:0:0:0:
240,248,22858,1,0,0:0:0:0:
256,192,23201,12,0,33144,0:0:0:0:
256,192,33830,6,0,L|32:192,1,210.000008010865
152,192,34858,1,0,0:0:0:0:
256,192,35201,2,0,L|432:192,1,157.500006008148
256,192,36230,1,0,0:0:0:0:
360,192,36573,6,0,L|128:192,1,210.000008010865
256,192,37601,1,0,0:0:0:0:
152,192,37944,2,0,L|-16:192,1,157.500006008148
152,192,38973,1,0,0:0:0:0:
256,192,39316,6,0,P|376:192|288:96,1,315.000012016297
184,96,40687,2,0,B|24:96|24:96|192:96,1,315.000012016297
288,96,42058,2,0,P|392:128|264:312,1,420.000016021729
256,192,44801,5,0,0:0:0:0:
400,192,45144,1,0,0:0:0:0:
192,192,45658,2,0,L|112:192,1,70
264,192,46173,5,0,0:0:0:0:
408,192,46516,1,0,0:0:0:0:
200,192,47030,2,0,L|280:192,1,70
408,192,47544,5,0,0:0:0:0:
264,192,47887,1,0,0:0:0:0:
56,200,48401,2,0,L|-32:200,1,70
128,200,48916,2,0,P|240:192|96:96,1,420
240,120,50287,6,0,L|464:144,2,210
104,104,51658,2,0,L|16:312,2,210
248,112,53030,6,0,P|320:136|512:80,3,280
368,80,55430,1,0,0:0:0:0:
224,80,55773,5,0,0:0:0:0:
80,80,56116,1,0,0:0:0:0:
280,144,56630,2,0,L|368:160,1,70
224,216,57144,5,0,0:0:0:0:
360,240,57487,1,0,0:0:0:0:
168,328,58001,2,0,L|88:328,1,70
240,336,58516,5,0,0:0:0:0:
376,336,58858,1,0,0:0:0:0:
176,272,59373,2,0,L|88:272,1,70
248,272,59887,2,0,P|360:256|248:64,1,420
128,56,61258,6,0,L|344:96,2,210
264,80,62630,2,0,L|480:128,2,210
128,72,64001,6,0,L|408:72,3,280
392,176,66401,1,0,0:0:0:0:
488,280,66744,6,0,L|328:280,1,140
208,280,67430,2,0,L|56:280,1,140
208,280,68116,2,0,P|304:248|352:208,1,140
200,176,68801,2,0,P|152:144|120:56,1,140
256,88,69487,6,0,P|344:104|400:96,1,140
512,136,70173,2,0,L|432:264,1,140
304,216,70858,2,0,L|144:216,1,140
304,208,71544,2,0,P|376:184|424:128,1,140
288,96,72230,6,0,L|128:72,1,140
288,88,72916,2,0,L|440:88,1,140
304,152,73601,2,0,P|272:224|328:272,1,140
392,328,74287,2,0,L|512:248,1,140
376,216,74973,6,0,P|288:224|400:80,1,420
264,128,76344,2,0,L|40:152,2,210
400,104,77716,5,0,0:0:0:0:
264,96,78058,1,0,0:0:0:0:
128,88,78401,2,0,L|48:80,2,70
264,112,79087,5,0,0:0:0:0:
136,176,79430,1,0,0:0:0:0:
272,208,79773,2,0,L|360:224,2,70
136,176,80458,5,0,0:0:0:0:
272,128,80801,1,0,0:0:0:0:
408,80,81144,1,0,0:0:0:0:
424,152,81316,1,0,0:0:0:0:
440,224,81487,1,0,0:0:0:0:
304,256,81830,5,0,0:0:0:0:
440,224,82173,1,0,0:0:0:0:
304,184,82516,1,0,0:0:0:0:
232,168,82687,1,0,0:0:0:0:
160,160,82858,1,0,0:0:0:0:
296,120,83201,6,0,L|440:104,1,140
296,120,83887,2,0,L|224:128,2,70
432,96,84573,6,0,L|280:96,1,140
152,96,85258,2,0,L|72:96,2,70
296,88,85944,6,0,P|320:176|280:224,1,140
168,264,86630,2,0,L|96:264,2,70
312,264,87316,6,0,L|472:264,1,140
312,272,88001,2,0,L|184:272,2,105
384,272,88687,5,0,0:0:0:0:
248,232,89030,1,0,0:0:0:0:
40,184,89544,2,0,L|112:176,1,70
248,152,90058,5,0,0:0:0:0:
112,120,90401,1,0,0:0:0:0:
320,160,90916,2,0,L|400:176,1,70
288,272,91430,5,0,0:0:0:0:
152,256,91773,1,0,0:0:0:0:
344,168,92287,2,0,L|424:152,1,70
280,112,92801,5,0,0:0:0:0:
144,96,93144,1,0,0:0:0:0:
352,96,93658,2,0,L|424:96,1,70
280,96,94173,5,0,0:0:0:0:
136,96,94516,1,0,0:0:0:0:
344,88,95030,2,0,L|424:88,1,70
272,88,95544,5,0,0:0:0:0:
128,88,95887,1,0,0:0:0:0:
336,80,96401,2,0,L|264:80,1,70
128,72,96916,6,0,P|64:104|224:264,1,420
360,248,98287,1,0,0:0:0:0:
168,168,98801,1,0,0:0:0:0:
272,152,99058,1,0,0:0:0:0:
376,136,99316,1,0,0:0:0:0:
240,152,99658,6,0,L|96:144,1,140
240,128,100344,2,0,L|392:120,1,140
240,128,101030,2,0,L|88:136,1,140
216,216,101716,2,0,L|368:232,1,140
496,256,102401,6,0,L|328:264,1,140
216,280,103087,2,0,L|56:296,1,140
208,232,103773,2,0,L|360:224,1,140
488,216,104458,2,0,L|320:192,1,140
208,168,105144,5,0,0:0:0:0:
344,128,105487,1,0,0:0:0:0:
208,168,105830,1,0,0:0:0:0:
80,216,106173,1,0,0:0:0:0:
208,280,106516,5,0,0:0:0:0:
344,312,106858,1,0,0:0:0:0:
208,288,107201,1,0,0:0:0:0:
72,256,107544,1,0,0:0:0:0:
208,224,107887,6,0,L|368:200,1,140
224,136,108573,2,0,L|112:128,2,105
296,144,109258,6,0,L|448:160,3,140
304,200,110630,1,0,0:0:0:0:
256,192,121601,5,0,0:0:0:0:
400,192,121944,2,0,L|552:192,1,140
368,64,122801,2,0,P|256:104|432:264,1,490
296,240,124344,6,0,L|80:232,1,210
288,176,125373,1,0,0:0:0:0:
152,168,125716,2,0,B|8:160|8:160|8:248,2,210
296,168,127087,5,0,0:0:0:0:
440,168,127430,2,0,L|288:160,1,140
120,56,128287,2,0,P|64:104|288:280,1,490
416,264,129830,6,0,L|184:224,2,210
392,128,131201,1,0,0:0:0:0:
184,104,131716,1,0,0:0:0:0:
392,88,132230,1,0,0:0:0:0:
408,224,132573,5,0,0:0:0:0:
304,224,132916,2,0,L|176:224,1,105.000004005432
336,144,133773,2,0,P|472:224|336:304,1,367.500014019013
240,304,135316,6,0,L|64:304,2,157.500006008148
344,304,136687,1,0,0:0:0:0:
480,224,137202,1,0,0:0:0:0:
424,216,137373,1,0,0:0:0:0:
320,200,137716,1,0,0:0:0:0:
216,208,138059,5,0,0:0:0:0:
112,240,138402,2,0,L|240:240,1,105.000004005432
376,240,139259,2,0,P|488:208|352:112,1,367.500014019013
256,120,140802,6,0,L|80:128,2,157.500006008148
360,104,142173,1,0,0:0:0:0:
240,208,142687,1,0,0:0:0:0:
392,248,143202,1,0,0:0:0:0:
256,256,143544,6,0,L|-24:256,1,280
120,256,144573,1,0,0:0:0:0:
264,256,144916,2,0,L|40:256,1,210
216,128,145944,1,0,0:0:0:0:
360,128,146287,6,0,P|464:192|352:280,1,280
240,288,147316,1,0,0:0:0:0:
104,288,147658,2,0,L|320:288,1,210
104,248,148687,1,0,0:0:0:0:
248,248,149030,6,0,P|328:232|216:40,1,420
80,56,150401,2,0,L|496:136,1,420
352,160,151773,6,0,B|176:168|176:168|272:168|272:160|192:224|136:320|56:88|352:128,1,560
248,168,154516,5,0,0:0:0:0:
