osu file format v14

[General]
AudioFilename: audio.mp3
AudioLeadIn: 0
PreviewTime: 43430
Countdown: 0
SampleSet: Normal
StackLeniency: 1
Mode: 2
LetterboxInBreaks: 0
WidescreenStoryboard: 0

[Editor]
Bookmarks: 915,22858,23030,23373,23544,23887,31173,33830,44801,55773,66744,77716,88687,99658,99830,100001,100344,100516,100687,100858,110630,121601,122973,132573,137373,143544,154601
DistanceSpacing: 1.3
BeatDivisor: 4
GridSize: 16
TimelineZoom: 2

[Metadata]
Title:Tokyo (Innovaderz Remix)
TitleUnicode:Tokyo (Innovaderz Remix)
Artist:DJ Ozawa
ArtistUnicode:DJ Ozawa
Creator:Ascendance
Version:CrystalSeed vs. CLSW's EX
Source:
Tags:dnb lanturn mbomb -_magic_bomb_- magic bomb californian darknessofblue fii -wwwww kaitlin zirox sorcerer tomthewizard toybot Yumeno Himiko exam examination gero tenshichan [superstar] hi_hello CLSW crystal crystalseed tasuke912 boberofdarkness bodom koliron deif spectator qoot8123 julie prophecy nofool skylish onosakihito ozzyozrock nardo nardoxyribonucleic raiden nwolf backfire chromoxx saika -saika- lop fawx
BeatmapID:934113
BeatmapSetID:427801

[Difficulty]
HPDrainRate:6
CircleSize:4
OverallDifficulty:9.5
ApproachRate:9.5
SliderMultiplier:1.6
SliderTickRate:2

[Events]
//Background and Video events
0,0,"Cities_Color_of_the_night_city_058372_.jpg",0,0
//Break Periods
2,110830,120905
//Storyboard Layer 0 (Background)
//Storyboard Layer 1 (Fail)
//Storyboard Layer 2 (Pass)
//Storyboard Layer 3 (Foreground)
//Storyboard Sound Samples

[TimingPoints]
916,342.857142857143,4,1,0,70,1,0
916,-100,4,1,0,70,0,0
1001,-100,4,2,0,50,0,0
22858,-50,4,1,22,60,0,0
23201,-50,4,1,0,60,0,0
23373,-50,4,1,22,60,0,0
23716,-50,4,1,0,60,0,0
23887,-50,4,1,22,60,0,0
24573,-50,4,1,0,60,0,0
24744,-50,4,1,22,60,0,0
25944,-50,4,1,0,60,0,0
26116,-50,4,1,22,60,0,0
26459,-50,4,1,0,60,0,0
26630,-50,4,1,22,60,0,0
27316,-50,4,1,0,60,0,0
27487,-50,4,1,22,60,0,0
28687,-50,4,1,0,60,0,0
28859,-50,4,1,22,60,0,0
29202,-50,4,1,0,60,0,0
29373,-50,4,1,22,60,0,0
30059,-50,4,1,0,60,0,0
30230,-50,4,1,22,60,0,0
31430,-50,4,1,0,60,0,0
31602,-50,4,1,22,60,0,0
31945,-50,4,1,0,60,0,0
32116,-50,4,1,22,60,0,0
32802,-50,4,1,0,60,0,0
32973,-50,4,1,22,60,0,0
33830,-50,4,1,0,70,0,0
36573,-100,4,1,0,70,0,0
42058,-62.5,4,1,0,70,0,0
43430,-100,4,1,0,70,0,0
43601,-100,4,1,0,20,0,0
44544,-100,4,1,0,70,0,0
44673,-100,4,1,21,5,0,0
44801,-100,4,1,21,70,0,1
53630,-100,4,1,21,50,0,1
53716,-100,4,1,21,70,0,1
53973,-100,4,1,21,50,0,1
54058,-100,4,1,21,70,0,1
54316,-100,4,1,21,50,0,1
54401,-100,4,1,21,70,0,1
64258,-100,4,1,21,20,0,1
64344,-100,4,1,21,70,0,1
64601,-100,4,1,21,50,0,1
64687,-100,4,1,21,70,0,1
64944,-100,4,1,21,50,0,1
65030,-100,4,1,21,70,0,1
65287,-100,4,1,21,50,0,1
65376,-100,4,1,21,70,0,1
66744,-100,4,1,21,70,0,0
76344,-50,4,1,21,70,0,0
77716,-50,4,1,22,70,0,0
88001,-50,4,1,21,70,0,0
99658,-50,4,1,22,70,0,1
107887,-62.5,4,1,22,70,0,1
110630,-100,4,1,0,70,0,0
121601,-100,4,2,0,50,0,0
126401,-50,4,2,0,50,0,0
127087,-100,4,2,0,50,0,0
132230,-50,4,2,0,50,0,0
132573,-100,4,2,0,50,0,0
137373,-50,4,2,0,50,0,0
138058,-100,4,2,0,50,0,0
143544,-100,4,1,0,55,0,0
151773,-62.5,4,1,0,55,0,0
153830,-62.5,4,2,0,20,0,0
154344,-62.5,4,1,0,55,0,0
154387,-62.5,4,1,0,20,0,0
154516,-100,4,1,0,70,0,1
154601,-100,4,1,0,70,0,0

[Colours]
Combo1 : 0,0,227
Combo2 : 0,0,128
Combo3 : 0,0,64
Combo4 : 0,0,160

[HitObjects]
96,32,744,5,0,0:0:0:0:
415,63,915,6,0,P|269:92|438:365,1,600,4|0,0:0|0:0,0:0:0:0:
416,374,2287,6,0,B|255:122|255:122|96:379,1,600,0|0,0:0|0:0,0:0:0:0:
97,377,3658,6,0,P|304:222|97:66,1,600,0|0,0:0|0:0,0:0:0:0:
97,66,5030,6,0,L|381:67,1,280,0|0,0:0|0:0,0:0:0:0:
377,66,5716,6,0,L|97:66,1,280,0|0,0:0|0:0,0:0:0:0:
416,64,6401,6,0,P|270:93|439:366,1,600,2|0,0:0|0:0,0:0:0:0:
417,374,7773,6,0,B|255:122|255:122|96:379,1,600,0|0,0:0|0:0,0:0:0:0:
97,377,9144,6,0,P|305:222|98:66,1,600,0|0,0:0|0:0,0:0:0:0:
99,49,10516,6,0,L|336:48,1,200,0|0,0:0|0:0,0:0:0:0:
298,73,11030,2,0,P|253:89|302:193,1,200,0|0,0:0|0:0,0:0:0:0:
300,206,11544,2,0,L|420:206,1,120,0|0,0:0|0:0,0:0:0:0:
207,356,11887,6,0,P|-1:201|206:45,1,600,2|0,0:0|0:0,0:0:0:0:
204,112,13258,6,0,P|156:160|302:109,1,600,0|0,0:0|0:0,0:0:0:0:
307,354,14630,6,0,P|515:199|308:43,1,600,0|0,0:0|0:0,0:0:0:0:
310,114,16001,6,0,P|306:194|213:105,1,280,0|0,0:0|0:0,0:0:0:0:
204,115,16687,6,0,P|259:215|310:114,1,280,0|0,0:0|0:0,0:0:0:0:
32,0,17373,6,0,P|64:208|368:416,1,600,2|0,0:0|0:0,0:0:0:0:
368,368,18745,6,0,P|112:208|276:52,1,600,0|0,0:0|0:0,0:0:0:0:
256,53,20116,6,0,P|391:278|144:368,1,600,0|0,0:0|0:0,0:0:0:0:
144,416,21488,6,0,P|402:281|480:0,1,600,0|0,0:0|0:0,0:0:0:0:
192,80,22858,6,0,B|32:80|32:80|191:357|191:357|30:357|30:357|192:81|192:81|72:288,1,1200,4|0,0:2|0:0,0:0:0:0:
320,80,24230,6,0,B|480:80|480:80|321:357|321:357|482:357|482:357|320:81|320:81|441:288,1,1200,0|0,1:0|0:0,0:0:0:0:
32,80,25601,6,0,B|192:80|192:80|33:357|33:357|194:357|194:357|32:81|32:81|153:288,1,1200
480,80,26973,6,0,B|320:80|320:80|479:357|479:357|318:357|318:357|480:81|480:81|360:288,1,1200,0|0,0:0|0:0,0:0:0:0:
192,336,28344,6,0,B|32:336|32:336|192:192|31:72|31:72|193:72|193:72|34:192|193:337|193:337|30:155,1,1200
320,336,29716,6,0,B|480:336|480:336|320:192|481:72|481:72|319:72|319:72|478:192|319:337|319:337|482:155,1,1200
32,336,31087,6,0,B|192:336|192:336|32:192|193:72|193:72|31:72|31:72|190:192|31:337|31:337|194:155,1,1200
480,336,32459,6,0,B|320:336|320:336|480:192|319:72|319:72|481:72|481:72|322:192|481:337|481:337|318:155,1,1200,0|0,0:0|0:0,0:0:0:0:
64,192,33830,5,0,0:0:0:0:
160,192,34173,1,0,2:0:0:0:
256,192,34516,1,0,0:0:0:0:
352,192,34858,1,0,2:0:0:0:
160,256,35201,5,0,0:0:0:0:
256,256,35544,1,0,2:0:0:0:
352,256,35887,1,0,0:0:0:0:
448,256,36229,1,0,2:0:0:0:
176,128,36573,6,0,L|368:128,3,160,0|0|0|0,0:0|2:0|0:0|2:0,0:0:0:0:
96,128,37944,6,0,L|80:288,1,160,0|0,0:0|2:0,0:0:0:0:
416,128,38630,2,0,L|432:288,1,160,0|2,0:0|1:2,0:0:0:0:
176,224,39316,6,0,L|272:224,1,80,2|0,1:0|1:0,0:0:0:0:
96,176,39658,2,0,L|192:176,1,80,0|2,1:0|1:0,0:0:0:0:
336,224,40001,2,0,L|240:224,1,80,0|0,1:0|1:0,0:0:0:0:
416,176,40344,2,0,L|320:176,1,80,2|0,0:0|1:0,0:0:0:0:
480,176,40687,6,0,L|496:256,1,80,2|0,1:0|1:0,0:0:0:0:
176,256,41030,1,0,1:0:0:0:
336,256,41201,1,2,1:0:0:0:
32,176,41373,2,0,L|16:256,1,80,0|0,0:0|1:0,0:0:0:0:
336,256,41716,1,2,0:0:0:0:
176,256,41887,1,0,1:0:0:0:
416,192,42058,6,0,L|480:192,1,64,0|0,1:0|1:0,0:0:0:0:
384,192,42230,2,0,L|368:128,1,64,0|0,1:0|1:0,0:0:0:0:
208,128,42401,2,0,L|144:128,1,64,0|0,1:0|1:0,0:0:0:0:
304,128,42573,2,0,L|320:192,1,64,0|0,1:0|1:0,0:0:0:0:
96,192,42744,6,0,L|32:192,1,64,0|0,1:0|1:0,0:0:0:0:
192,192,42916,2,0,L|208:128,1,64,0|0,1:0|1:0,0:0:0:0:
368,128,43087,5,0,1:0:0:0:
400,128,43129,1,0,1:0:0:0:
432,128,43172,1,0,1:0:0:0:
48,128,43258,1,0,1:0:0:0:
40,159,43300,1,0,0:0:0:0:
32,191,43343,1,0,0:0:0:0:
448,352,43430,6,0,P|352:320|459:18,1,520,4|0,0:0|0:0,0:0:0:0:
104,120,44630,2,0,L|64:120,1,40,2|0,0:0|0:0,0:0:0:0:
360,112,44801,6,0,L|488:112,1,120,0|0,3:0|2:2,0:0:0:0:
160,184,45144,2,0,L|360:184,1,200,8|0,0:0|2:0,0:0:0:0:
72,104,45658,2,0,L|0:104,1,40,0|0,0:0|2:0,0:0:0:0:
256,136,45830,2,0,L|128:136,1,120,8|0,0:0|2:2,0:0:0:0:
480,88,46173,6,0,L|360:88,1,120,0|0,3:0|2:0,0:0:0:0:
160,184,46516,2,0,L|360:184,1,200,8|0,0:0|2:0,0:0:0:0:
32,96,47030,2,0,L|72:96,1,40,0|0,3:0|2:0,0:0:0:0:
312,136,47201,2,0,L|192:136,1,120,8|0,0:0|2:0,0:0:0:0:
360,240,47544,6,0,L|480:240,1,120,0|0,3:0|2:0,0:0:0:0:
160,240,47887,2,0,L|368:240,1,200,8|0,0:0|2:0,0:0:0:0:
72,192,48401,2,0,L|32:192,1,40,0|0,3:0|2:0,0:0:0:0:
320,160,48573,2,0,L|192:160,1,120,8|0,0:0|2:0,0:0:0:0:
480,128,48916,6,0,L|360:128,1,120,0|0,3:0|2:0,0:0:0:0:
160,240,49258,2,0,L|368:240,1,200,8|0,0:0|2:0,0:0:0:0:
32,200,49773,2,0,L|72:200,1,40,0|0,3:0|2:0,0:0:0:0:
320,160,49944,2,0,L|192:160,1,120,8|0,0:0|2:0,0:0:0:0:
496,96,50287,6,0,L|296:96,1,200,2|0,3:1|2:0,0:0:0:0:
16,96,50801,2,0,L|216:96,1,200,2|0,0:1|2:0,0:0:0:0:
496,136,51316,2,0,L|368:136,1,120,8|0,0:0|2:0,0:0:0:0:
216,288,51658,6,0,L|16:288,1,200,2|0,3:1|2:0,0:0:0:0:
296,288,52173,2,0,L|496:288,1,200,2|0,0:0|2:0,0:0:0:0:
136,136,52687,2,0,L|16:136,1,120,8|0,0:0|2:0,0:0:0:0:
312,176,53030,6,0,L|192:176,1,120,2|0,3:1|2:0,0:0:0:0:
448,176,53373,2,0,L|448:56,1,120,8|0,0:0|2:0,0:0:0:0:
200,104,53716,6,0,L|320:104,1,120,2|0,0:0|2:0,0:0:0:0:
64,176,54058,2,0,L|64:56,1,120,8|0,0:0|2:0,0:0:0:0:
480,328,54401,6,0,L|272:328,1,200,10|0,0:0|2:0,0:0:0:0:
32,328,54916,2,0,L|240:328,1,200,8|0,0:0|2:0,0:0:0:0:
480,160,55430,2,0,L|360:160,1,120,8|0,0:0|3:0,0:0:0:0:
32,112,55773,6,0,L|152:112,1,120,2|0,3:1|2:0,0:0:0:0:
352,184,56116,2,0,L|152:184,1,200,8|0,0:0|2:0,0:0:0:0:
440,104,56630,2,0,L|512:104,1,40,0|0,3:0|2:0,0:0:0:0:
256,136,56802,2,0,L|384:136,1,120,8|0,0:0|2:2,0:0:0:0:
152,88,57145,6,0,L|32:88,1,120,0|0,3:0|2:0,0:0:0:0:
352,184,57488,2,0,L|152:184,1,200,8|0,0:0|2:0,0:0:0:0:
480,96,58002,2,0,L|440:96,1,40,0|0,3:0|2:0,0:0:0:0:
200,136,58173,2,0,L|320:136,1,120,8|0,0:0|2:0,0:0:0:0:
32,240,58516,6,0,L|152:240,1,120,0|0,3:0|2:0,0:0:0:0:
352,240,58859,2,0,L|144:240,1,200,8|0,0:0|2:0,0:0:0:0:
440,192,59373,2,0,L|480:192,1,40,0|0,3:0|2:0,0:0:0:0:
192,160,59545,2,0,L|320:160,1,120,8|0,0:0|2:0,0:0:0:0:
152,128,59888,6,0,L|24:128,1,120,0|0,3:0|2:0,0:0:0:0:
352,240,60230,2,0,L|144:240,1,200,8|0,0:0|2:0,0:0:0:0:
480,200,60745,2,0,L|440:200,1,40,0|0,3:0|2:0,0:0:0:0:
192,160,60916,2,0,L|320:160,1,120,8|0,0:0|2:0,0:0:0:0:
16,96,61259,6,0,L|216:96,1,200,2|0,3:1|2:0,0:0:0:0:
496,96,61773,2,0,L|296:96,1,200,2|0,0:0|2:0,0:0:0:0:
16,136,62288,2,0,L|144:136,1,120,8|0,0:0|2:0,0:0:0:0:
296,288,62630,6,0,L|496:288,1,200,2|0,3:1|2:0,0:0:0:0:
216,288,63145,2,0,L|16:288,1,200,2|0,0:0|2:0,0:0:0:0:
376,136,63659,2,0,L|496:136,1,120,8|0,0:0|2:0,0:0:0:0:
152,104,64002,6,0,L|32:104,1,120,2|0,3:1|2:0,0:0:0:0:
196,208,64345,2,0,L|324:208,1,120,8|0,0:0|2:0,0:0:0:0:
480,224,64688,6,0,L|360:224,1,120,2|0,0:1|2:0,0:0:0:0:
152,104,65030,2,0,L|32:104,1,120,8|0,0:0|2:0,0:0:0:0:
480,328,65373,6,0,L|352:328,1,120,2|0,0:0|2:0,0:0:0:0:
192,288,65716,2,0,L|312:288,1,120,8|8,0:3|0:3,0:0:0:0:
152,328,66058,6,0,L|32:328,1,120,2|0,0:0|0:0,0:0:0:0:
480,288,66401,2,0,L|360:288,1,120,8|0,0:3|2:0,0:0:0:0:
16,240,66744,5,2,3:1:0:0:
256,336,66916,1,0,0:0:0:0:
177,325,67087,1,8,0:0:0:0:
117,274,67258,1,2,0:2:0:0:
95,198,67430,1,0,0:0:0:0:
117,122,67601,1,2,3:2:0:0:
177,71,67773,1,8,0:0:0:0:
255,60,67944,1,0,0:0:0:0:
16,80,68116,5,0,3:0:0:0:
256,336,68287,1,0,0:0:0:0:
334,325,68458,1,8,0:0:0:0:
394,274,68629,1,2,0:2:0:0:
416,198,68801,1,0,0:0:0:0:
394,122,68972,1,2,3:2:0:0:
334,71,69144,1,8,0:0:0:0:
256,60,69315,1,2,0:2:0:0:
496,64,69487,5,0,3:0:0:0:
256,336,69658,1,2,0:2:0:0:
177,325,69829,1,8,0:0:0:0:
117,274,70000,1,0,0:0:0:0:
95,198,70172,1,0,0:0:0:0:
117,122,70343,1,2,3:2:0:0:
177,71,70515,1,8,0:0:0:0:
255,60,70686,1,2,0:2:0:0:
16,64,70858,5,0,3:0:0:0:
256,336,71030,1,0,0:0:0:0:
334,325,71201,1,8,0:0:0:0:
394,274,71372,1,2,0:2:0:0:
416,198,71544,1,0,0:0:0:0:
394,122,71715,1,2,3:2:0:0:
334,71,71887,1,8,0:0:0:0:
256,60,72058,1,0,0:0:0:0:
496,64,72230,5,2,3:1:0:0:
256,128,72401,1,0,0:0:0:0:
176,176,72573,1,8,0:0:0:0:
256,208,72744,1,2,0:2:0:0:
336,224,72916,1,0,0:0:0:0:
176,256,73087,1,2,3:2:0:0:
256,272,73258,1,8,0:0:0:0:
336,304,73430,1,0,0:0:0:0:
16,208,73601,5,0,3:0:0:0:
256,128,73773,1,0,0:0:0:0:
336,176,73945,1,8,0:0:0:0:
256,208,74116,1,2,0:2:0:0:
176,224,74288,1,0,0:0:0:0:
336,256,74459,1,2,3:2:0:0:
256,272,74630,1,8,0:0:0:0:
176,304,74802,1,2,0:2:0:0:
496,208,74973,5,0,3:0:0:0:
256,128,75144,1,2,0:2:0:0:
176,176,75316,1,8,0:0:0:0:
256,208,75487,1,2,0:2:0:0:
336,224,75659,1,0,0:0:0:0:
176,256,75830,1,2,3:2:0:0:
256,272,76001,1,8,0:0:0:0:
336,304,76173,1,2,0:2:0:0:
16,32,76344,6,0,B|96:258|96:258|177:32|177:32|11:32,1,640,8|0,0:0|0:0,0:0:0:0:
176,32,77201,1,0,3:0:0:0:
496,32,77373,2,0,L|496:272,1,240,8|0,0:0|3:0,0:0:0:0:
128,128,77716,6,0,B|208:266|208:264|208:264|45:264|45:264|204:264|204:264|46:292|46:292|192:229|192:229|62:133|62:133|129:277|129:277|43:279,1,1200,4|0,0:0|2:0,0:0:0:0:
384,119,79087,6,0,B|336:271|336:271|431:142|431:142|303:240|303:240|463:240|463:240|301:240|301:240|462:240|462:240|321:175|321:175|395:112,1,1200,4|0,0:0|2:0,0:0:0:0:
128,112,80458,6,0,B|206:251|206:251|46:251|46:251|207:250|207:250|166:181,1,560,4|0,0:0|0:0,0:0:0:0:
383,121,81144,6,0,B|305:260|305:260|465:260|465:260|304:259|304:259|345:190,1,560,0|0,0:0|2:0,0:0:0:0:
192,192,81830,6,0,B|32:192|32:192|111:54|111:54|31:193|31:193|101:67,1,560,4|0,0:0|2:0,0:0:0:0:
320,192,82516,2,0,B|480:192|480:192|401:54|401:54|481:193|481:193|411:67,1,560,0|0,0:0|0:0,0:0:0:0:
112,112,83201,6,0,B|47:259|47:259|205:259|205:259|46:259|46:259|112:112|112:112|47:260|47:260|205:259|205:259|-13:258|-13:258|-24:259,1,1120,4|2,0:0|0:3,0:0:0:0:
400,112,84573,6,0,B|465:259|465:259|307:259|307:259|466:259|466:259|400:112|400:112|465:260|465:260|307:259|307:259|525:258|525:258|536:259,1,1120,4|2,0:0|0:3,0:0:0:0:
128,112,85944,6,0,B|208:250|208:250|48:250|48:250|128:111|128:111|47:111,1,560,4|0,0:0|0:0,0:0:0:0:
320,112,86630,2,0,B|401:112|401:112|321:251|321:251|481:251|481:251|401:113,1,560,2|0,0:3|0:0,0:0:0:0:
128,144,87316,5,4,0:0:0:0:
224,144,87430,1,0,0:0:0:0:
128,192,87544,1,0,0:0:0:0:
384,240,87658,5,8,0:0:0:0:
288,208,87772,1,0,0:0:0:0:
384,192,87886,1,0,0:0:0:0:
128,224,88001,5,8,0:0:0:0:
384,128,88258,1,8,0:0:0:0:
32,64,88516,1,8,0:0:0:0:
496,64,88687,5,2,3:1:0:0:
256,128,88858,1,0,0:0:0:0:
176,176,89030,1,8,0:0:0:0:
256,208,89201,1,2,0:2:0:0:
336,224,89373,1,0,0:0:0:0:
176,256,89544,1,2,3:2:0:0:
256,272,89715,1,8,0:0:0:0:
336,304,89887,1,0,0:0:0:0:
16,208,90058,5,0,3:0:0:0:
256,128,90230,1,0,0:0:0:0:
336,176,90402,1,8,0:0:0:0:
256,208,90573,1,2,0:2:0:0:
176,224,90745,1,0,0:0:0:0:
336,256,90916,1,2,3:2:0:0:
256,272,91087,1,8,0:0:0:0:
176,304,91259,1,2,0:2:0:0:
496,208,91430,5,0,3:0:0:0:
256,128,91601,1,2,0:2:0:0:
176,176,91773,1,8,0:0:0:0:
256,208,91944,1,2,0:2:0:0:
336,224,92116,1,0,0:0:0:0:
176,256,92287,1,2,3:2:0:0:
256,272,92458,1,8,0:0:0:0:
336,304,92630,1,2,0:2:0:0:
16,208,92801,5,0,3:0:0:0:
256,128,92973,1,0,0:0:0:0:
336,176,93145,1,8,0:0:0:0:
256,208,93316,1,2,0:2:0:0:
176,224,93488,1,0,0:0:0:0:
336,256,93659,1,2,3:2:0:0:
256,272,93830,1,8,0:0:0:0:
176,304,94002,1,0,0:0:0:0:
496,176,94173,5,2,3:1:0:0:
176,176,94344,1,0,0:0:0:0:
256,144,94516,1,8,0:0:0:0:
176,112,94687,1,2,0:2:0:0:
336,176,94858,1,0,0:0:0:0:
256,144,95030,1,2,3:2:0:0:
336,80,95201,1,8,0:0:0:0:
256,64,95373,1,0,0:0:0:0:
16,176,95544,5,0,3:0:0:0:
336,176,95715,1,0,0:0:0:0:
256,144,95887,1,8,0:0:0:0:
336,112,96058,1,2,0:2:0:0:
176,176,96229,1,0,0:0:0:0:
256,144,96401,1,2,3:2:0:0:
176,80,96572,1,8,0:0:0:0:
256,64,96744,1,2,0:2:0:0:
496,176,96916,5,0,3:0:0:0:
176,176,97087,1,2,0:2:0:0:
256,144,97259,1,8,0:0:0:0:
176,112,97430,1,2,0:2:0:0:
336,176,97601,1,0,0:0:0:0:
256,144,97773,1,2,3:2:0:0:
336,80,97944,1,8,0:0:0:0:
256,64,98116,1,2,0:2:0:0:
16,48,98287,6,0,B|176:336|176:336|320:48|320:48|-48:48,1,960,8|8,0:0|0:0,0:0:0:0:
496,176,99658,6,0,B|414:314|414:314|496:314|496:314|415:313|415:313|495:179|495:179|414:317|414:317|494:317|494:317|414:313|414:313|497:174,1,960,2|10,0:3|0:0,0:0:0:0:
336,176,100744,2,0,L|320:240,2,53.3333333333333,0|0|2,0:0|0:0|0:3,0:0:0:0:
32,176,101030,6,0,B|114:314|114:314|32:314|32:314|113:313|113:313|33:179|33:179|114:317|114:317|34:317|34:317|114:313|114:313|31:174,1,960,6|8,0:3|0:0,0:0:0:0:
176,176,102116,2,0,L|192:240,2,53.3333333333333,0|0|2,0:0|0:0|0:3,0:0:0:0:
416,176,102401,6,0,B|497:315|497:315|416:314|416:314|503:315,1,320,2|8,0:3|0:3,0:0:0:0:
336,288,102801,2,0,L|320:352,2,53.3333333333333,0|0|0,0:0|0:0|0:0,0:0:0:0:
96,176,103087,2,0,B|15:315|15:315|96:314|96:314|9:315,1,320,2|8,0:3|0:0,0:0:0:0:
176,288,103487,2,0,L|192:352,2,53.3333333333333,0|0|0,0:0|0:0|0:0,0:0:0:0:
496,176,103773,6,0,B|415:315|415:315|496:314|496:314|409:315,1,320,6|8,0:3|0:0,0:0:0:0:
272,272,104173,2,0,L|256:336,2,53.3333333333333,0|0|2,0:0|0:0|0:3,0:0:0:0:
16,176,104458,2,0,B|97:315|97:315|16:314|16:314|94:314,1,320,0|8,0:0|0:3,0:0:0:0:
240,272,104858,2,0,L|256:336,2,53.3333333333333,0|0|6,0:0|0:0|0:3,0:0:0:0:
480,32,105144,6,0,B|416:179|416:179|481:32|481:32|352:124|352:124|480:28|480:28|416:76|416:76|481:27|481:27|415:73|415:73|482:27|482:27|385:250,1,1200,4|0,0:0|0:0,0:0:0:0:
32,32,106516,6,0,B|96:179|96:179|31:32|31:32|160:124|160:124|32:28|32:28|96:76|96:76|31:27|31:27|97:73|97:73|30:27|30:27|127:250,1,1200,4|0,0:0|0:0,0:0:0:0:
496,192,107887,6,0,B|368:192|368:192|432:192|432:192|240:192|240:192|304:192|304:192|240:192|240:192|112:192|112:192|176:192|176:192|112:192|112:192|240:192|240:192|176:192,1,960
16,192,109258,6,0,B|144:192|144:192|80:192|80:192|272:192|272:192|208:192|208:192|272:192|272:192|400:192|400:192|336:192|336:192|400:192|400:192|272:192|272:192|336:192,1,960
496,160,110630,1,4,0:0:0:0:
416,64,121430,5,0,1:0:0:0:
96,64,121601,6,0,P|242:93|73:366,1,600,6|0,1:1|0:0,0:0:0:0:
96,374,122973,6,0,B|257:122|257:122|416:379,1,600,0|0,0:0|0:0,0:0:0:0:
415,377,124344,6,0,P|208:222|415:66,1,600
415,66,125716,6,0,L|131:67,1,280,0|0,0:0|0:0,0:0:0:0:
135,66,126401,2,0,L|296:67,1,160,0|0,0:0|0:0,0:0:0:0:
295,66,126658,2,0,L|131:67,1,160,0|0,0:0|0:0,0:0:0:0:
134,111,126916,2,0,L|230:111,1,80,2|0,0:1|0:0,0:0:0:0:
416,64,127087,6,0,P|270:93|439:366,1,600,2|0,0:0|0:0,0:0:0:0:
417,374,128459,6,0,B|255:122|255:122|96:379,1,600,0|0,0:0|0:0,0:0:0:0:
97,377,129830,6,0,P|305:222|98:66,1,600,0|0,0:0|0:0,0:0:0:0:
98,66,131202,6,0,L|330:66,1,200,0|0,0:0|0:0,0:0:0:0:
298,121,131716,2,0,B|198:120|198:120|314:121,1,200,0|0,0:0|0:0,0:0:0:0:
297,160,132230,2,0,L|57:160,1,240,2|0,0:1|0:0,0:0:0:0:
256,352,132573,6,0,P|464:197|257:41,1,600,2|0,0:0|0:0,0:0:0:0:
256,112,133944,2,0,P|208:160|354:109,1,600,0|0,0:0|0:0,0:0:0:0:
363,362,135316,6,0,P|155:207|362:51,1,600,0|0,0:0|0:0,0:0:0:0:
362,114,136687,6,0,P|358:194|265:105,1,280,0|0,0:0|0:0,0:0:0:0:
256,80,137373,6,0,L|428:80,1,160,0|0,0:0|0:0,0:0:0:0:
416,32,137630,2,0,L|252:32,1,160,0|0,0:0|0:0,0:0:0:0:
256,64,137887,2,0,L|344:64,1,80,2|0,0:1|0:0,0:0:0:0:
32,0,138058,6,0,P|64:208|368:416,1,600,2|0,0:0|0:0,0:0:0:0:
368,368,139430,6,0,P|112:208|276:52,1,600
256,53,140801,6,0,P|391:278|144:368,1,600,0|0,0:0|0:0,0:0:0:0:
144,416,142173,6,0,P|402:281|480:0,1,600,0|0,0:0|0:0,0:0:0:0:
16,112,143544,6,0,L|240:112,1,200,2|0,1:0|2:0,0:0:0:0:
496,112,144058,2,0,L|272:112,1,200,2|0,2:1|2:0,0:0:0:0:
296,160,144573,2,0,L|440:160,1,120,0|0,0:0|2:0,0:0:0:0:
216,160,144916,6,0,L|16:160,1,200,2|0,0:0|2:0,0:0:0:0:
296,160,145430,2,0,L|496:160,1,200,2|0,2:1|2:0,0:0:0:0:
496,208,145944,2,0,L|376:208,1,120,0|0,0:0|2:0,0:0:0:0:
32,32,146287,6,0,L|32:240,1,200,2|0,0:0|2:0,0:0:0:0:
256,112,146801,2,0,L|256:320,1,200,2|0,2:1|2:0,0:0:0:0:
192,128,147316,2,0,L|192:272,1,120,0|0,0:0|2:0,0:0:0:0:
480,32,147658,6,0,L|480:240,1,200,2|0,0:0|2:0,0:0:0:0:
256,112,148172,2,0,L|256:320,1,200,2|0,2:1|2:0,0:0:0:0:
320,128,148687,2,0,L|320:240,1,80,0|0,0:0|2:0,0:0:0:0:
16,352,149030,5,2,0:1:0:0:
272,352,149201,1,0,0:0:0:0:
112,352,149373,1,0,0:0:0:0:
280,312,149544,1,2,0:0:0:0:
160,304,149716,1,0,0:0:0:0:
288,264,149887,1,0,0:0:0:0:
208,256,150058,1,2,0:0:0:0:
296,224,150230,1,0,0:0:0:0:
216,208,150401,5,2,0:0:0:0:
304,176,150573,1,0,0:0:0:0:
224,168,150744,1,0,0:0:0:0:
352,144,150916,1,2,0:0:0:0:
232,128,151087,1,0,0:0:0:0:
400,112,151259,1,0,0:0:0:0:
240,80,151430,1,2,0:0:0:0:
496,64,151602,1,0,0:0:0:0:
48,256,151773,6,0,L|64:192,1,64,0|0,0:0|0:0,0:0:0:0:
304,128,151944,2,0,L|368:128,1,64,0|0,0:0|0:0,0:0:0:0:
96,256,152116,2,0,L|132:195,1,64,0|0,0:0|0:0,0:0:0:0:
352,192,152287,2,0,L|415:135,1,64,0|0,0:0|0:0,0:0:0:0:
144,272,152458,6,0,L|207:215,1,64,0|0,0:0|0:0,0:0:0:0:
400,240,152630,2,0,L|436:179,1,64,0|0,0:0|0:0,0:0:0:0:
176,304,152801,1,0,0:0:0:0:
208,304,152843,1,0,0:0:0:0:
240,304,152886,1,0,0:0:0:0:
448,288,152973,5,0,0:0:0:0:
456,256,153015,1,0,0:0:0:0:
464,225,153058,1,0,0:0:0:0:
256,192,153144,1,6,2:2:0:0:
256,192,153230,12,4,154516,0:2:0:0:
