osu file format v14

[General]
AudioFilename: audio.mp3
AudioLeadIn: 0
PreviewTime: 43430
Countdown: 0
SampleSet: Normal
StackLeniency: 0.7
Mode: 1
LetterboxInBreaks: 0
WidescreenStoryboard: 0

[Editor]
Bookmarks: 154516
DistanceSpacing: 0.5
BeatDivisor: 4
GridSize: 32
TimelineZoom: 1.1

[Metadata]
Title:Tokyo (Innovaderz Remix)
TitleUnicode:Tokyo (Innovaderz Remix)
Artist:DJ Ozawa
ArtistUnicode:DJ Ozawa
Creator:Ascendance
Version:Chromoxx' Inner Oni
Source:
Tags:dnb lanturn mbomb -_magic_bomb_- magic bomb californian darknessofblue fii -wwwww kaitlin zirox sorcerer tomthewizard toybot Yumeno Himiko exam examination gero tenshichan [superstar] hi_hello CLSW crystal crystalseed tasuke912 boberofdarkness bodom koliron deif spectator qoot8123 julie prophecy nofool skylish onosakihito ozzyozrock nardo nardoxyribonucleic raiden nwolf backfire chromoxx saika -saika- lop fawx
BeatmapID:980627
BeatmapSetID:427801

[Difficulty]
HPDrainRate:6
CircleSize:5
OverallDifficulty:6
ApproachRate:7
SliderMultiplier:1.4
SliderTickRate:1

[Events]
//Background and Video events
0,0,"Cities_Color_of_the_night_city_058372_.jpg",0,0
//Break Periods
//Storyboard Layer 0 (Background)
//Storyboard Layer 1 (Fail)
//Storyboard Layer 2 (Pass)
//Storyboard Layer 3 (Foreground)
//Storyboard Sound Samples

[TimingPoints]
916,342.857142857143,4,1,0,50,1,0
22858,-100,4,1,0,60,0,0
33830,-100,4,1,0,70,0,0
44801,-100,4,1,0,80,0,1
66744,-100,4,1,0,80,0,0
77716,-100,4,1,0,85,0,0
88687,-100,4,1,0,80,0,0
99658,-100,4,1,0,80,0,1
110630,-100,4,1,0,65,0,0
110973,-111.111111111111,4,1,0,65,0,0
121601,-100,4,1,0,50,0,0
143544,-100,4,1,0,70,0,0

[HitObjects]
256,160,915,5,4,0:0:0:0:
256,160,3658,1,0,0:0:0:0:
256,160,5030,1,8,0:0:0:0:
256,160,5716,1,8,0:0:0:0:
256,160,6401,1,4,0:0:0:0:
192,96,9144,1,0,0:0:0:0:
192,96,10516,1,8,0:0:0:0:
224,128,11201,1,0,0:0:0:0:
224,128,11887,1,4,0:0:0:0:
256,160,13258,1,12,0:0:0:0:
224,128,14630,1,0,0:0:0:0:
192,256,15144,1,8,0:0:0:0:
192,256,15658,1,8,0:0:0:0:
192,256,16001,1,0,0:0:0:0:
224,96,16687,1,8,0:0:0:0:
224,128,17373,1,4,0:0:0:0:
320,128,18744,1,8,0:0:0:0:
256,160,20116,1,0,0:0:0:0:
256,256,20630,1,8,0:0:0:0:
256,256,21144,1,8,0:0:0:0:
256,224,21487,1,0,0:0:0:0:
256,224,22173,1,8,0:0:0:0:
256,128,22858,1,4,0:0:0:0:
288,192,23201,1,8,0:0:0:0:
288,192,23373,1,8,0:0:0:0:
288,192,23544,1,0,0:0:0:0:
288,192,23887,1,8,0:0:0:0:
192,224,24230,1,0,0:0:0:0:
192,224,24401,1,0,0:0:0:0:
192,224,24744,1,8,0:0:0:0:
192,224,24916,1,0,0:0:0:0:
192,224,25258,1,8,0:0:0:0:
256,96,25601,1,0,0:0:0:0:
256,192,25944,1,8,0:0:0:0:
256,192,26116,1,8,0:0:0:0:
288,192,26287,1,0,0:0:0:0:
96,160,26458,1,0,0:0:0:0:
96,128,26630,1,8,0:0:0:0:
288,256,26973,1,0,0:0:0:0:
288,256,27144,1,0,0:0:0:0:
288,256,27487,1,8,0:0:0:0:
288,256,27658,1,0,0:0:0:0:
320,128,28001,1,8,0:0:0:0:
320,288,28344,1,0,0:0:0:0:
320,288,28687,1,8,0:0:0:0:
320,288,28858,1,8,0:0:0:0:
320,288,29030,1,0,0:0:0:0:
320,288,29201,1,0,0:0:0:0:
320,288,29373,1,8,0:0:0:0:
320,288,29544,1,8,0:0:0:0:
320,288,29716,1,0,0:0:0:0:
320,288,29887,1,0,0:0:0:0:
96,224,30230,1,8,0:0:0:0:
96,224,30401,1,0,0:0:0:0:
320,128,30744,1,8,0:0:0:0:
320,128,31087,1,0,0:0:0:0:
256,160,31258,1,0,0:0:0:0:
288,288,31430,1,8,0:0:0:0:
288,288,31601,1,8,0:0:0:0:
288,288,31773,1,0,0:0:0:0:
288,288,31944,1,0,0:0:0:0:
288,288,32116,1,8,0:0:0:0:
288,288,32287,1,8,0:0:0:0:
288,288,32458,1,0,0:0:0:0:
288,288,32630,1,0,0:0:0:0:
288,288,32973,1,8,0:0:0:0:
96,192,33144,1,0,0:0:0:0:
256,64,33487,1,8,0:0:0:0:
320,192,33830,1,12,0:0:0:0:
320,224,34001,1,0,0:0:0:0:
320,224,34087,1,0,0:0:0:0:
320,224,34173,1,0,0:0:0:0:
320,224,34344,1,8,0:0:0:0:
320,224,34516,1,0,0:0:0:0:
352,224,34858,1,8,0:0:0:0:
320,256,35201,1,4,0:0:0:0:
320,256,35373,1,8,0:0:0:0:
320,256,35458,1,8,0:0:0:0:
320,256,35544,1,8,0:0:0:0:
320,256,35716,1,0,0:0:0:0:
320,256,35887,1,8,0:0:0:0:
288,224,36230,1,0,0:0:0:0:
256,160,36573,1,12,0:0:0:0:
416,192,36744,1,0,0:0:0:0:
416,192,36830,1,0,0:0:0:0:
416,192,36916,1,0,0:0:0:0:
416,192,37087,1,8,0:0:0:0:
384,192,37258,1,4,0:0:0:0:
384,192,37601,1,8,0:0:0:0:
320,224,37944,1,4,0:0:0:0:
320,224,38116,1,8,0:0:0:0:
320,224,38201,1,8,0:0:0:0:
320,224,38287,1,8,0:0:0:0:
320,224,38458,1,0,0:0:0:0:
320,224,38630,1,12,0:0:0:0:
288,192,38973,1,0,0:0:0:0:
320,224,39316,1,12,0:0:0:0:
320,224,39487,1,0,0:0:0:0:
320,224,39573,1,0,0:0:0:0:
320,224,39658,1,0,0:0:0:0:
320,224,39830,1,12,0:0:0:0:
320,224,40001,1,12,0:0:0:0:
288,256,40173,1,0,0:0:0:0:
288,256,40344,1,12,0:0:0:0:
288,256,40516,1,0,0:0:0:0:
288,256,40687,1,12,0:0:0:0:
352,256,40858,1,0,0:0:0:0:
352,256,40944,1,0,0:0:0:0:
352,256,41030,1,0,0:0:0:0:
352,256,41201,1,12,0:0:0:0:
352,256,41373,1,12,0:0:0:0:
352,256,41544,1,0,0:0:0:0:
352,256,41716,1,12,0:0:0:0:
352,256,41887,1,0,0:0:0:0:
320,256,42058,1,8,0:0:0:0:
320,256,42144,1,0,0:0:0:0:
320,256,42230,1,8,0:0:0:0:
320,256,42316,1,8,0:0:0:0:
320,256,42401,1,8,0:0:0:0:
320,256,42487,1,0,0:0:0:0:
320,256,42573,1,8,0:0:0:0:
320,256,42658,1,8,0:0:0:0:
320,256,42744,1,8,0:0:0:0:
320,256,42830,1,0,0:0:0:0:
320,256,42916,1,8,0:0:0:0:
320,256,43001,1,0,0:0:0:0:
320,256,43087,1,8,0:0:0:0:
320,256,43173,1,0,0:0:0:0:
320,256,43258,1,8,0:0:0:0:
320,256,43344,1,8,0:0:0:0:
320,256,43430,1,0,0:0:0:0:
192,128,44801,1,4,0:0:0:0:
192,160,44973,1,0,0:0:0:0:
192,160,45058,1,0,0:0:0:0:
192,160,45144,1,8,0:0:0:0:
192,160,45316,1,0,0:0:0:0:
320,224,45658,1,0,0:0:0:0:
320,224,45830,1,8,0:0:0:0:
320,224,45916,1,0,0:0:0:0:
320,224,46001,1,8,0:0:0:0:
320,224,46087,1,8,0:0:0:0:
320,224,46173,1,0,0:0:0:0:
320,288,46344,1,0,0:0:0:0:
320,288,46430,1,0,0:0:0:0:
320,288,46516,1,0,0:0:0:0:
288,192,46687,1,8,0:0:0:0:
352,288,47030,1,0,0:0:0:0:
320,224,47201,1,8,0:0:0:0:
256,128,47287,1,8,0:0:0:0:
320,224,47373,1,0,0:0:0:0:
320,224,47458,1,0,0:0:0:0:
320,224,47544,1,8,0:0:0:0:
288,224,47716,1,0,0:0:0:0:
288,224,47801,1,0,0:0:0:0:
288,224,47887,1,8,0:0:0:0:
288,224,48058,1,0,0:0:0:0:
352,256,48401,1,0,0:0:0:0:
352,256,48573,1,8,0:0:0:0:
352,256,48658,1,0,0:0:0:0:
352,256,48744,1,8,0:0:0:0:
352,256,48830,1,8,0:0:0:0:
352,256,48916,1,0,0:0:0:0:
320,256,49087,1,0,0:0:0:0:
320,256,49173,1,0,0:0:0:0:
320,256,49258,1,8,0:0:0:0:
320,256,49430,1,0,0:0:0:0:
320,256,49601,1,0,0:0:0:0:
320,256,49687,1,0,0:0:0:0:
320,256,49773,1,8,0:0:0:0:
224,160,49944,1,8,0:0:0:0:
224,160,50116,1,0,0:0:0:0:
352,256,50287,1,12,0:0:0:0:
352,224,50458,1,0,0:0:0:0:
352,224,50544,1,0,0:0:0:0:
352,224,50630,1,0,0:0:0:0:
288,192,50801,1,12,0:0:0:0:
256,160,50973,1,12,0:0:0:0:
352,288,51144,1,0,0:0:0:0:
352,288,51316,1,8,0:0:0:0:
320,192,51658,1,4,0:0:0:0:
320,192,51830,1,8,0:0:0:0:
320,192,51916,1,8,0:0:0:0:
320,192,52001,1,8,0:0:0:0:
320,192,52173,1,4,0:0:0:0:
320,192,52344,1,12,0:0:0:0:
416,320,52516,1,0,0:0:0:0:
416,320,52687,1,8,0:0:0:0:
224,128,53030,1,4,0:0:0:0:
320,256,53201,1,0,0:0:0:0:
320,256,53373,1,8,0:0:0:0:
320,256,53544,1,0,0:0:0:0:
320,256,53630,1,0,0:0:0:0:
320,256,53716,1,8,0:0:0:0:
320,256,53887,1,0,0:0:0:0:
320,256,54058,1,8,0:0:0:0:
320,288,54230,1,8,0:0:0:0:
320,288,54316,1,8,0:0:0:0:
320,288,54401,1,0,0:0:0:0:
320,320,54573,1,0,0:0:0:0:
320,320,54658,1,0,0:0:0:0:
320,320,54744,1,0,0:0:0:0:
320,320,54916,1,8,0:0:0:0:
320,320,55087,1,0,0:0:0:0:
320,320,55173,1,0,0:0:0:0:
320,320,55258,1,0,0:0:0:0:
320,320,55430,1,8,0:0:0:0:
224,128,55601,1,8,0:0:0:0:
224,128,55658,1,8,0:0:0:0:
224,128,55716,1,8,0:0:0:0:
224,128,55773,1,0,0:0:0:0:
320,224,55944,1,0,0:0:0:0:
288,192,56030,1,0,0:0:0:0:
256,192,56116,1,8,0:0:0:0:
256,192,56287,1,0,0:0:0:0:
256,192,56458,1,8,0:0:0:0:
256,192,56544,1,8,0:0:0:0:
320,224,56630,1,0,0:0:0:0:
320,224,56801,1,8,0:0:0:0:
288,256,56973,1,0,0:0:0:0:
288,256,57144,1,8,0:0:0:0:
352,256,57316,1,0,0:0:0:0:
352,256,57401,1,0,0:0:0:0:
320,256,57487,1,0,0:0:0:0:
320,256,57658,1,8,0:0:0:0:
320,256,57830,1,0,0:0:0:0:
320,256,57916,1,0,0:0:0:0:
288,256,58001,1,0,0:0:0:0:
288,256,58173,1,8,0:0:0:0:
288,256,58344,1,0,0:0:0:0:
288,256,58516,1,8,0:0:0:0:
320,256,58687,1,0,0:0:0:0:
320,256,58773,1,0,0:0:0:0:
320,256,58858,1,8,0:0:0:0:
320,256,59030,1,0,0:0:0:0:
320,256,59201,1,8,0:0:0:0:
320,256,59287,1,8,0:0:0:0:
320,256,59373,1,0,0:0:0:0:
320,256,59544,1,8,0:0:0:0:
320,256,59716,1,0,0:0:0:0:
288,128,59887,1,0,0:0:0:0:
288,224,60058,1,0,0:0:0:0:
288,224,60144,1,0,0:0:0:0:
288,224,60230,1,0,0:0:0:0:
288,224,60401,1,8,0:0:0:0:
288,224,60573,1,0,0:0:0:0:
288,224,60658,1,0,0:0:0:0:
288,224,60744,1,0,0:0:0:0:
288,224,60916,1,8,0:0:0:0:
288,224,61087,1,0,0:0:0:0:
352,256,61258,1,12,0:0:0:0:
352,224,61429,1,0,0:0:0:0:
352,224,61515,1,0,0:0:0:0:
352,224,61601,1,0,0:0:0:0:
288,192,61772,1,12,0:0:0:0:
256,160,61944,1,12,0:0:0:0:
352,288,62115,1,0,0:0:0:0:
352,288,62287,1,8,0:0:0:0:
320,192,62629,1,4,0:0:0:0:
320,192,62801,1,8,0:0:0:0:
320,192,62887,1,8,0:0:0:0:
320,192,62972,1,8,0:0:0:0:
320,192,63144,1,4,0:0:0:0:
320,192,63315,1,12,0:0:0:0:
416,320,63487,1,0,0:0:0:0:
416,320,63658,1,8,0:0:0:0:
352,160,64001,1,4,0:0:0:0:
352,160,64173,1,0,0:0:0:0:
352,160,64344,1,8,0:0:0:0:
352,160,64516,1,0,0:0:0:0:
352,160,64601,1,0,0:0:0:0:
352,160,64687,1,8,0:0:0:0:
352,160,64858,1,0,0:0:0:0:
352,160,65030,1,8,0:0:0:0:
352,288,65201,1,0,0:0:0:0:
416,288,65373,1,8,0:0:0:0:
416,288,65458,1,8,0:0:0:0:
416,288,65544,1,0,0:0:0:0:
416,288,65630,1,0,0:0:0:0:
416,288,65716,1,8,0:0:0:0:
416,288,65801,1,0,0:0:0:0:
416,288,65887,1,8,0:0:0:0:
416,288,65973,1,8,0:0:0:0:
416,288,66058,1,0,0:0:0:0:
256,192,66144,1,8,0:0:0:0:
256,192,66230,1,0,0:0:0:0:
416,288,66316,1,0,0:0:0:0:
416,288,66401,1,8,0:0:0:0:
416,288,66487,1,8,0:0:0:0:
416,288,66573,1,8,0:0:0:0:
416,288,66658,1,8,0:0:0:0:
416,288,66744,1,0,0:0:0:0:
352,160,67087,1,8,0:0:0:0:
352,160,67258,1,0,0:0:0:0:
288,192,67344,1,0,0:0:0:0:
288,192,67430,1,8,0:0:0:0:
384,288,67601,1,0,0:0:0:0:
384,288,67773,1,8,0:0:0:0:
384,288,67944,1,8,0:0:0:0:
128,224,68116,1,4,0:0:0:0:
416,288,68458,1,8,0:0:0:0:
416,288,68630,1,0,0:0:0:0:
416,288,68716,1,0,0:0:0:0:
416,288,68801,1,8,0:0:0:0:
416,288,68973,1,0,0:0:0:0:
416,288,69144,1,8,0:0:0:0:
416,288,69316,1,8,0:0:0:0:
352,96,69487,1,0,0:0:0:0:
384,288,69830,1,8,0:0:0:0:
384,288,70001,1,0,0:0:0:0:
384,288,70087,1,0,0:0:0:0:
384,288,70173,1,8,0:0:0:0:
384,288,70344,1,0,0:0:0:0:
384,288,70516,1,8,0:0:0:0:
288,96,70601,1,0,0:0:0:0:
384,288,70687,1,8,0:0:0:0:
384,288,70858,1,4,0:0:0:0:
448,320,71201,1,8,0:0:0:0:
448,320,71373,1,0,0:0:0:0:
448,320,71458,1,0,0:0:0:0:
448,320,71544,1,8,0:0:0:0:
448,320,71716,1,0,0:0:0:0:
448,320,71887,1,8,0:0:0:0:
320,192,71973,1,8,0:0:0:0:
320,192,72058,1,0,0:0:0:0:
320,192,72230,1,12,0:0:0:0:
352,256,72573,1,8,0:0:0:0:
352,256,72744,1,0,0:0:0:0:
384,256,72830,1,0,0:0:0:0:
384,256,72916,1,8,0:0:0:0:
384,288,73087,1,0,0:0:0:0:
384,288,73258,1,8,0:0:0:0:
384,288,73344,1,0,0:0:0:0:
384,288,73430,1,8,0:0:0:0:
384,288,73516,1,8,0:0:0:0:
384,288,73601,1,0,0:0:0:0:
320,192,73944,1,8,0:0:0:0:
320,192,74116,1,0,0:0:0:0:
320,192,74201,1,0,0:0:0:0:
320,192,74287,1,8,0:0:0:0:
320,192,74458,1,0,0:0:0:0:
320,192,74630,1,8,0:0:0:0:
320,192,74801,1,8,0:0:0:0:
320,192,74887,1,8,0:0:0:0:
320,192,74973,1,0,0:0:0:0:
352,256,75316,1,8,0:0:0:0:
352,256,75487,1,0,0:0:0:0:
352,256,75573,1,0,0:0:0:0:
352,256,75658,1,8,0:0:0:0:
352,256,75830,1,0,0:0:0:0:
352,256,76001,1,8,0:0:0:0:
288,192,76087,1,0,0:0:0:0:
288,192,76173,1,8,0:0:0:0:
288,192,76258,1,8,0:0:0:0:
288,192,76344,1,0,0:0:0:0:
288,224,76516,1,0,0:0:0:0:
288,224,76601,1,0,0:0:0:0:
288,224,76687,1,8,0:0:0:0:
384,288,76858,1,0,0:0:0:0:
384,288,77030,1,8,0:0:0:0:
384,288,77116,1,8,0:0:0:0:
384,288,77201,1,0,0:0:0:0:
384,288,77287,1,0,0:0:0:0:
384,288,77373,1,8,0:0:0:0:
384,288,77458,1,0,0:0:0:0:
320,128,77544,1,8,0:0:0:0:
320,128,77601,1,8,0:0:0:0:
320,96,77658,1,8,0:0:0:0:
320,96,77716,1,0,0:0:0:0:
448,256,77801,1,8,0:0:0:0:
448,256,77887,1,0,0:0:0:0:
448,256,77973,1,8,0:0:0:0:
448,256,78058,1,0,0:0:0:0:
352,256,78230,1,8,0:0:0:0:
384,288,78316,1,8,0:0:0:0:
352,256,78401,1,8,0:0:0:0:
352,256,78487,1,0,0:0:0:0:
352,256,78573,1,8,0:0:0:0:
352,256,78658,1,0,0:0:0:0:
352,256,78744,1,8,0:0:0:0:
416,288,78916,1,8,0:0:0:0:
416,288,79001,1,8,0:0:0:0:
416,288,79087,1,0,0:0:0:0:
416,288,79173,1,8,0:0:0:0:
416,288,79258,1,0,0:0:0:0:
416,256,79344,1,8,0:0:0:0:
416,256,79430,1,0,0:0:0:0:
384,288,79601,1,0,0:0:0:0:
384,288,79687,1,0,0:0:0:0:
384,288,79773,1,8,0:0:0:0:
384,288,79858,1,0,0:0:0:0:
384,288,79944,1,8,0:0:0:0:
384,288,80030,1,0,0:0:0:0:
384,288,80116,1,8,0:0:0:0:
288,256,80287,1,8,0:0:0:0:
288,256,80373,1,8,0:0:0:0:
288,256,80458,1,0,0:0:0:0:
288,256,80544,1,0,0:0:0:0:
288,256,80630,1,8,0:0:0:0:
288,256,80716,1,0,0:0:0:0:
288,256,80801,1,8,0:0:0:0:
288,224,80973,1,8,0:0:0:0:
288,224,81058,1,8,0:0:0:0:
288,224,81144,1,0,0:0:0:0:
288,224,81230,1,8,0:0:0:0:
288,224,81316,1,0,0:0:0:0:
288,224,81401,1,0,0:0:0:0:
288,224,81487,1,8,0:0:0:0:
288,224,81573,1,0,0:0:0:0:
288,224,81658,1,8,0:0:0:0:
288,256,81830,1,8,0:0:0:0:
288,256,81916,1,8,0:0:0:0:
288,256,82001,1,0,0:0:0:0:
288,256,82087,1,8,0:0:0:0:
288,256,82173,1,0,0:0:0:0:
288,256,82258,1,0,0:0:0:0:
288,256,82344,1,8,0:0:0:0:
288,256,82430,1,0,0:0:0:0:
288,256,82516,1,8,0:0:0:0:
320,192,82601,1,8,0:0:0:0:
320,192,82687,1,0,0:0:0:0:
320,192,82773,1,0,0:0:0:0:
320,192,82858,1,8,0:0:0:0:
320,192,82944,1,0,0:0:0:0:
320,192,83030,1,8,0:0:0:0:
384,256,83201,1,0,0:0:0:0:
384,256,83287,1,0,0:0:0:0:
384,256,83373,1,8,0:0:0:0:
384,256,83458,1,0,0:0:0:0:
384,256,83544,1,8,0:0:0:0:
384,256,83630,1,8,0:0:0:0:
352,288,83716,1,0,0:0:0:0:
320,192,83801,1,8,0:0:0:0:
320,192,83887,1,0,0:0:0:0:
352,288,83973,1,0,0:0:0:0:
352,288,84058,1,8,0:0:0:0:
352,288,84144,1,8,0:0:0:0:
384,288,84230,1,0,0:0:0:0:
384,256,84316,1,8,0:0:0:0:
416,256,84401,1,0,0:0:0:0:
384,288,84487,1,0,0:0:0:0:
352,288,84573,1,8,0:0:0:0:
352,288,84658,1,0,0:0:0:0:
352,288,84744,1,8,0:0:0:0:
352,288,84830,1,8,0:0:0:0:
320,256,84916,1,0,0:0:0:0:
320,256,85001,1,8,0:0:0:0:
320,256,85087,1,0,0:0:0:0:
320,256,85173,1,0,0:0:0:0:
320,256,85258,1,8,0:0:0:0:
320,256,85344,1,8,0:0:0:0:
320,256,85430,1,0,0:0:0:0:
320,256,85516,1,0,0:0:0:0:
320,256,85601,1,8,0:0:0:0:
288,224,85687,1,0,0:0:0:0:
288,224,85773,1,8,0:0:0:0:
288,224,85858,1,8,0:0:0:0:
352,256,85944,1,0,0:0:0:0:
352,256,86030,1,0,0:0:0:0:
352,256,86116,1,8,0:0:0:0:
352,256,86201,1,0,0:0:0:0:
352,256,86287,1,8,0:0:0:0:
352,256,86373,1,8,0:0:0:0:
320,288,86458,1,0,0:0:0:0:
288,256,86544,1,8,0:0:0:0:
288,256,86630,1,0,0:0:0:0:
192,192,86716,1,0,0:0:0:0:
192,192,86801,1,8,0:0:0:0:
192,192,86887,1,0,0:0:0:0:
256,224,86973,1,8,0:0:0:0:
256,224,87058,1,0,0:0:0:0:
256,224,87144,1,8,0:0:0:0:
256,224,87230,1,8,0:0:0:0:
416,192,87316,1,0,0:0:0:0:
256,224,87430,1,0,0:0:0:0:
160,160,87544,1,0,0:0:0:0:
160,160,87658,1,8,0:0:0:0:
160,160,87773,1,8,0:0:0:0:
352,256,87887,1,0,0:0:0:0:
352,256,88001,1,12,0:0:0:0:
384,288,88230,1,12,0:0:0:0:
384,288,88458,1,12,0:0:0:0:
320,256,88687,1,4,0:0:0:0:
352,160,89030,1,8,0:0:0:0:
352,160,89201,1,0,0:0:0:0:
288,192,89287,1,0,0:0:0:0:
288,192,89373,1,8,0:0:0:0:
384,288,89544,1,0,0:0:0:0:
384,288,89716,1,8,0:0:0:0:
384,288,89887,1,8,0:0:0:0:
128,224,90059,1,4,0:0:0:0:
416,288,90401,1,8,0:0:0:0:
416,288,90573,1,0,0:0:0:0:
416,288,90659,1,0,0:0:0:0:
416,288,90744,1,8,0:0:0:0:
416,288,90916,1,0,0:0:0:0:
416,288,91087,1,8,0:0:0:0:
416,288,91259,1,8,0:0:0:0:
352,96,91430,1,0,0:0:0:0:
384,288,91773,1,8,0:0:0:0:
384,288,91944,1,0,0:0:0:0:
384,288,92030,1,0,0:0:0:0:
384,288,92116,1,8,0:0:0:0:
384,288,92287,1,0,0:0:0:0:
384,288,92459,1,8,0:0:0:0:
288,96,92544,1,0,0:0:0:0:
384,288,92630,1,8,0:0:0:0:
384,288,92801,1,4,0:0:0:0:
448,320,93144,1,8,0:0:0:0:
448,320,93316,1,0,0:0:0:0:
448,320,93401,1,0,0:0:0:0:
448,320,93487,1,8,0:0:0:0:
448,320,93659,1,0,0:0:0:0:
448,320,93830,1,8,0:0:0:0:
320,192,93916,1,8,0:0:0:0:
320,192,94001,1,0,0:0:0:0:
320,192,94173,1,12,0:0:0:0:
352,256,94516,1,8,0:0:0:0:
352,256,94687,1,0,0:0:0:0:
384,256,94773,1,0,0:0:0:0:
384,256,94859,1,8,0:0:0:0:
384,288,95030,1,0,0:0:0:0:
384,288,95201,1,8,0:0:0:0:
384,288,95287,1,0,0:0:0:0:
384,288,95373,1,8,0:0:0:0:
384,288,95459,1,8,0:0:0:0:
384,288,95544,1,0,0:0:0:0:
320,192,95887,1,8,0:0:0:0:
320,192,96059,1,0,0:0:0:0:
320,192,96144,1,0,0:0:0:0:
320,192,96230,1,8,0:0:0:0:
320,192,96401,1,0,0:0:0:0:
320,192,96573,1,8,0:0:0:0:
320,192,96744,1,8,0:0:0:0:
320,192,96830,1,8,0:0:0:0:
320,192,96916,1,0,0:0:0:0:
352,256,97259,1,8,0:0:0:0:
352,256,97430,1,0,0:0:0:0:
352,256,97516,1,0,0:0:0:0:
352,256,97601,1,8,0:0:0:0:
352,256,97773,1,0,0:0:0:0:
352,256,97944,1,8,0:0:0:0:
288,192,98030,1,0,0:0:0:0:
288,192,98116,1,8,0:0:0:0:
288,192,98201,1,8,0:0:0:0:
288,192,98287,1,0,0:0:0:0:
288,224,98459,1,0,0:0:0:0:
288,224,98544,1,0,0:0:0:0:
288,224,98630,1,8,0:0:0:0:
384,288,98801,1,0,0:0:0:0:
160,192,98973,1,0,0:0:0:0:
192,224,99058,1,8,0:0:0:0:
192,224,99144,1,0,0:0:0:0:
320,256,99316,1,8,0:0:0:0:
320,256,99401,1,0,0:0:0:0:
352,64,99487,1,8,0:0:0:0:
352,64,99544,1,8,0:0:0:0:
352,64,99601,1,8,0:0:0:0:
352,64,99658,1,0,0:0:0:0:
352,288,99744,1,8,0:0:0:0:
352,288,99830,1,0,0:0:0:0:
352,96,99916,1,0,0:0:0:0:
352,96,100001,1,8,0:0:0:0:
320,256,100173,1,0,0:0:0:0:
320,256,100258,1,0,0:0:0:0:
320,256,100344,1,8,0:0:0:0:
320,256,100430,1,0,0:0:0:0:
320,256,100516,1,8,0:0:0:0:
384,256,100687,1,8,0:0:0:0:
384,256,100773,1,0,0:0:0:0:
384,256,100858,1,8,0:0:0:0:
384,256,100944,1,8,0:0:0:0:
288,256,101030,1,0,0:0:0:0:
384,288,101116,1,8,0:0:0:0:
384,288,101201,1,0,0:0:0:0:
288,256,101287,1,0,0:0:0:0:
288,256,101373,1,8,0:0:0:0:
352,256,101544,1,0,0:0:0:0:
352,256,101630,1,0,0:0:0:0:
352,256,101716,1,8,0:0:0:0:
352,256,101801,1,0,0:0:0:0:
352,256,101887,1,8,0:0:0:0:
288,256,102058,1,8,0:0:0:0:
288,256,102144,1,0,0:0:0:0:
288,256,102230,1,8,0:0:0:0:
288,256,102316,1,8,0:0:0:0:
288,256,102401,1,0,0:0:0:0:
384,288,102487,1,0,0:0:0:0:
384,288,102573,1,8,0:0:0:0:
384,288,102658,1,0,0:0:0:0:
352,224,102744,1,8,0:0:0:0:
352,224,102830,1,0,0:0:0:0:
352,224,102916,1,8,0:0:0:0:
352,224,103001,1,8,0:0:0:0:
352,224,103087,1,0,0:0:0:0:
352,224,103173,1,0,0:0:0:0:
352,224,103258,1,8,0:0:0:0:
352,224,103344,1,0,0:0:0:0:
352,224,103430,1,8,0:0:0:0:
352,224,103516,1,0,0:0:0:0:
352,224,103601,1,8,0:0:0:0:
352,224,103687,1,8,0:0:0:0:
352,256,103773,1,0,0:0:0:0:
352,256,103858,1,8,0:0:0:0:
352,256,103944,1,0,0:0:0:0:
352,256,104030,1,0,0:0:0:0:
352,256,104116,1,8,0:0:0:0:
352,256,104201,1,0,0:0:0:0:
352,256,104287,1,8,0:0:0:0:
352,256,104373,1,8,0:0:0:0:
352,256,104458,1,0,0:0:0:0:
352,256,104544,1,8,0:0:0:0:
352,256,104630,1,0,0:0:0:0:
352,256,104716,1,0,0:0:0:0:
352,256,104801,1,8,0:0:0:0:
352,256,104887,1,0,0:0:0:0:
352,256,104973,1,8,0:0:0:0:
352,288,105144,1,0,0:0:0:0:
320,320,105230,1,8,0:0:0:0:
320,320,105316,1,0,0:0:0:0:
320,224,105401,1,0,0:0:0:0:
320,224,105487,1,8,0:0:0:0:
320,224,105573,1,0,0:0:0:0:
320,224,105658,1,8,0:0:0:0:
320,256,105744,1,8,0:0:0:0:
256,288,105830,1,8,0:0:0:0:
256,288,105916,1,0,0:0:0:0:
256,288,106001,1,8,0:0:0:0:
384,320,106087,1,8,0:0:0:0:
384,320,106173,1,0,0:0:0:0:
384,320,106258,1,0,0:0:0:0:
384,320,106344,1,8,0:0:0:0:
320,288,106430,1,8,0:0:0:0:
320,288,106516,1,0,0:0:0:0:
320,288,106601,1,8,0:0:0:0:
320,288,106687,1,0,0:0:0:0:
320,288,106773,1,0,0:0:0:0:
320,288,106858,1,8,0:0:0:0:
320,288,106944,1,0,0:0:0:0:
320,256,107030,1,8,0:0:0:0:
320,256,107116,1,8,0:0:0:0:
320,256,107201,1,8,0:0:0:0:
320,256,107287,1,0,0:0:0:0:
320,256,107373,1,8,0:0:0:0:
320,256,107458,1,8,0:0:0:0:
320,256,107544,1,0,0:0:0:0:
320,256,107630,1,8,0:0:0:0:
320,256,107716,1,0,0:0:0:0:
384,288,107801,1,0,0:0:0:0:
384,288,107887,1,8,0:0:0:0:
384,288,107973,1,8,0:0:0:0:
384,288,108058,1,0,0:0:0:0:
384,288,108144,1,0,0:0:0:0:
384,288,108230,1,8,0:0:0:0:
384,320,108316,1,0,0:0:0:0:
384,320,108401,1,0,0:0:0:0:
384,288,108487,1,0,0:0:0:0:
224,192,108573,1,8,0:0:0:0:
256,192,108658,1,0,0:0:0:0:
256,192,108744,1,0,0:0:0:0:
256,192,108830,1,8,0:0:0:0:
256,192,108916,1,0,0:0:0:0:
256,192,109001,1,0,0:0:0:0:
256,192,109087,1,8,0:0:0:0:
256,192,109173,1,0,0:0:0:0:
384,288,109258,1,8,0:0:0:0:
384,288,109344,1,8,0:0:0:0:
384,288,109430,1,0,0:0:0:0:
384,288,109516,1,8,0:0:0:0:
384,288,109601,1,8,0:0:0:0:
384,288,109687,1,0,0:0:0:0:
384,288,109773,1,8,0:0:0:0:
339,338,109858,1,8,0:0:0:0:
339,338,109944,1,0,0:0:0:0:
256,256,110030,1,8,0:0:0:0:
256,256,110116,1,8,0:0:0:0:
256,256,110201,1,0,0:0:0:0:
256,256,110287,1,8,0:0:0:0:
256,256,110373,1,8,0:0:0:0:
256,256,110458,1,0,0:0:0:0:
310,323,110544,1,0,0:0:0:0:
310,323,110630,1,8,0:0:0:0:
239,266,110973,1,0,0:0:0:0:
239,266,111144,1,0,0:0:0:0:
239,266,111316,1,8,0:0:0:0:
239,266,111487,1,8,0:0:0:0:
325,286,111658,1,8,0:0:0:0:
384,288,111830,1,0,0:0:0:0:
239,266,112001,1,0,0:0:0:0:
349,245,112344,1,0,0:0:0:0:
349,245,112516,1,0,0:0:0:0:
349,245,112687,1,8,0:0:0:0:
349,245,112858,1,8,0:0:0:0:
320,160,113030,1,0,0:0:0:0:
183,217,113201,1,0,0:0:0:0:
183,217,113373,1,0,0:0:0:0:
320,224,113716,1,0,0:0:0:0:
320,224,113887,1,0,0:0:0:0:
320,224,114058,1,8,0:0:0:0:
320,224,114230,1,8,0:0:0:0:
256,224,114401,1,8,0:0:0:0:
320,224,114744,1,0,0:0:0:0:
256,224,115087,1,0,0:0:0:0:
256,224,115258,1,0,0:0:0:0:
256,224,115430,1,8,0:0:0:0:
256,224,115601,1,8,0:0:0:0:
64,160,115773,1,0,0:0:0:0:
160,160,116116,1,0,0:0:0:0:
288,224,116458,1,0,0:0:0:0:
288,224,116630,1,0,0:0:0:0:
288,224,116801,1,8,0:0:0:0:
288,224,117144,1,8,0:0:0:0:
288,224,117487,1,0,0:0:0:0:
320,224,117830,1,0,0:0:0:0:
320,224,118001,1,0,0:0:0:0:
320,224,118173,1,8,0:0:0:0:
320,224,118516,1,0,0:0:0:0:
320,224,118858,1,0,0:0:0:0:
320,224,119373,1,0,0:0:0:0:
320,224,119544,1,8,0:0:0:0:
320,224,119887,1,8,0:0:0:0:
320,224,120230,1,0,0:0:0:0:
320,256,120744,1,0,0:0:0:0:
320,256,120916,1,8,0:0:0:0:
320,256,121258,1,0,0:0:0:0:
320,256,121430,1,0,0:0:0:0:
320,256,121601,1,4,0:0:0:0:
320,192,124344,1,0,0:0:0:0:
320,192,125716,1,8,0:0:0:0:
320,192,126401,1,8,0:0:0:0:
352,160,127087,1,4,0:0:0:0:
352,160,129830,1,0,0:0:0:0:
352,160,131201,1,8,0:0:0:0:
352,160,131887,1,0,0:0:0:0:
352,160,132573,1,4,0:0:0:0:
288,160,133944,1,8,0:0:0:0:
320,224,135316,1,0,0:0:0:0:
224,256,135830,1,8,0:0:0:0:
384,320,136344,1,8,0:0:0:0:
352,224,136687,1,0,0:0:0:0:
320,256,137373,1,8,0:0:0:0:
320,256,138058,1,4,0:0:0:0:
320,256,139430,1,8,0:0:0:0:
320,192,140801,1,0,0:0:0:0:
320,192,141316,1,8,0:0:0:0:
320,192,141830,1,8,0:0:0:0:
320,192,142173,1,0,0:0:0:0:
320,192,142858,1,8,0:0:0:0:
320,192,143544,1,12,0:0:0:0:
320,224,143715,1,0,0:0:0:0:
320,224,143801,1,0,0:0:0:0:
320,224,143887,1,0,0:0:0:0:
320,224,144058,1,8,0:0:0:0:
320,224,144230,1,0,0:0:0:0:
352,224,144572,1,8,0:0:0:0:
320,256,144915,1,4,0:0:0:0:
320,256,145087,1,8,0:0:0:0:
320,256,145172,1,8,0:0:0:0:
320,256,145258,1,8,0:0:0:0:
320,256,145430,1,0,0:0:0:0:
320,256,145601,1,8,0:0:0:0:
288,224,145944,1,0,0:0:0:0:
256,160,146287,1,12,0:0:0:0:
416,192,146458,1,0,0:0:0:0:
416,192,146544,1,0,0:0:0:0:
416,192,146630,1,0,0:0:0:0:
416,192,146801,1,8,0:0:0:0:
384,192,146972,1,4,0:0:0:0:
384,192,147315,1,8,0:0:0:0:
320,224,147658,1,4,0:0:0:0:
320,224,147830,1,8,0:0:0:0:
320,224,147915,1,8,0:0:0:0:
320,224,148001,1,8,0:0:0:0:
320,224,148172,1,0,0:0:0:0:
320,224,148344,1,12,0:0:0:0:
288,192,148687,1,0,0:0:0:0:
320,224,149030,1,12,0:0:0:0:
320,224,149201,1,0,0:0:0:0:
320,224,149287,1,0,0:0:0:0:
320,224,149372,1,0,0:0:0:0:
320,224,149544,1,12,0:0:0:0:
320,224,149715,1,12,0:0:0:0:
288,256,149887,1,0,0:0:0:0:
288,256,150058,1,12,0:0:0:0:
288,256,150230,1,0,0:0:0:0:
288,256,150401,1,12,0:0:0:0:
352,256,150572,1,0,0:0:0:0:
352,256,150658,1,0,0:0:0:0:
352,256,150744,1,0,0:0:0:0:
352,256,150915,1,12,0:0:0:0:
352,256,151087,1,12,0:0:0:0:
352,256,151258,1,0,0:0:0:0:
352,256,151430,1,12,0:0:0:0:
352,256,151601,1,0,0:0:0:0:
320,256,151772,1,8,0:0:0:0:
320,256,151858,1,0,0:0:0:0:
320,256,151944,1,8,0:0:0:0:
320,256,152030,1,8,0:0:0:0:
320,256,152115,1,8,0:0:0:0:
320,256,152201,1,0,0:0:0:0:
320,256,152287,1,8,0:0:0:0:
320,256,152372,1,8,0:0:0:0:
320,256,152458,1,8,0:0:0:0:
320,256,152544,1,0,0:0:0:0:
320,256,152630,1,8,0:0:0:0:
320,256,152715,1,0,0:0:0:0:
320,256,152801,1,8,0:0:0:0:
320,256,152887,1,0,0:0:0:0:
320,256,152972,1,8,0:0:0:0:
320,256,153058,1,8,0:0:0:0:
320,256,153144,1,0,0:0:0:0:
160,160,154516,1,12,0:0:0:0:
