osu file format v14

[General]
AudioFilename: audio.mp3
AudioLeadIn: 0
PreviewTime: 43430
Countdown: 0
SampleSet: Normal
StackLeniency: 0.7
Mode: 1
LetterboxInBreaks: 0
WidescreenStoryboard: 0

[Editor]
DistanceSpacing: 0.5
BeatDivisor: 4
GridSize: 32
TimelineZoom: 1.9

[Metadata]
Title:Tokyo (Innovaderz Remix)
TitleUnicode:Tokyo (Innovaderz Remix)
Artist:DJ Ozawa
ArtistUnicode:DJ Ozawa
Creator:Ascendance
Version:Backfire's Taikocalypse
Source:
Tags:dnb lanturn mbomb -_magic_bomb_- magic bomb californian darknessofblue fii -wwwww kaitlin zirox sorcerer tomthewizard toybot Yumeno Himiko exam examination gero tenshichan [superstar] hi_hello CLSW crystal crystalseed tasuke912 boberofdarkness bodom koliron deif spectator qoot8123 julie prophecy nofool skylish onosakihito ozzyozrock nardo nardoxyribonucleic raiden nwolf backfire chromoxx saika -saika- lop fawx
BeatmapID:940016
BeatmapSetID:427801

[Difficulty]
HPDrainRate:6
CircleSize:2
OverallDifficulty:6
ApproachRate:4
SliderMultiplier:1.3999999666214
SliderTickRate:1

[Events]
//Background and Video events
0,0,"Cities_Color_of_the_night_city_058372_.jpg",0,0
//Break Periods
//Storyboard Layer 0 (Background)
//Storyboard Layer 1 (Fail)
//Storyboard Layer 2 (Pass)
//Storyboard Layer 3 (Foreground)
//Storyboard Sound Samples

[TimingPoints]
916,342.857142857143,4,1,0,50,1,0
22858,-100,4,1,0,60,0,0
33830,-100,4,1,0,70,0,0
44801,-90.9090909090909,4,1,0,80,0,1
66744,-90.9090909090909,4,1,0,80,0,0
66916,-100,4,1,0,80,0,0
77716,-100,4,1,0,85,0,0
88687,-100,4,1,0,80,0,0
98801,-98.0392156862745,4,1,0,80,0,0
98887,-97.0873786407767,4,1,0,80,0,0
98973,-96.1538461538461,4,1,0,80,0,0
99058,-95.2380952380952,4,1,0,80,0,0
99144,-94.3396226415094,4,1,0,80,0,0
99230,-93.4579439252336,4,1,0,80,0,0
99316,-92.5925925925926,4,1,0,80,0,0
99401,-91.743119266055,4,1,0,80,0,0
99487,-90.9090909090909,4,1,0,80,0,0
99658,-90.9090909090909,4,1,0,80,0,1
110630,-83.3333333333333,4,1,0,65,0,0
110973,-111.111111111111,4,1,0,65,0,0
120916,-108.695652173913,4,1,0,65,0,0
121087,-106.382978723404,4,1,0,65,0,0
121258,-104.166666666667,4,1,0,65,0,0
121430,-102.040816326531,4,1,0,65,0,0
121601,-100,4,1,0,50,0,0
143544,-100,4,1,0,70,0,0

[HitObjects]
256,192,744,5,8,0:0:0:0:
256,192,915,5,4,0:0:0:0:
256,192,1258,1,0,0:0:0:0:
256,192,1601,1,8,0:0:0:0:
256,192,1944,1,0,0:0:0:0:
256,192,2116,1,8,0:0:0:0:
256,192,2630,1,0,0:0:0:0:
256,192,3316,1,0,0:0:0:0:
256,192,3658,1,8,0:0:0:0:
256,192,4173,1,0,0:0:0:0:
256,191,4344,1,8,0:0:0:0:
256,192,4687,1,0,0:0:0:0:
256,192,5030,1,0,0:0:0:0:
256,192,5116,1,0,0:0:0:0:
256,192,5201,1,8,0:0:0:0:
256,192,5544,1,0,0:0:0:0:
256,192,5716,1,8,0:0:0:0:
256,192,5887,1,0,0:0:0:0:
256,192,5973,1,0,0:0:0:0:
256,192,6058,1,8,0:0:0:0:
256,192,6230,1,8,0:0:0:0:
256,192,6401,1,0,0:0:0:0:
256,192,6744,1,0,0:0:0:0:
256,191,6916,1,0,0:0:0:0:
256,192,7087,1,8,0:0:0:0:
256,192,7430,1,0,0:0:0:0:
256,192,7601,1,8,0:0:0:0:
256,191,8116,1,0,0:0:0:0:
256,192,8801,1,8,0:0:0:0:
256,192,9144,1,0,0:0:0:0:
256,192,9658,1,8,0:0:0:0:
256,191,9830,1,0,0:0:0:0:
256,192,10173,1,0,0:0:0:0:
256,192,10516,1,8,0:0:0:0:
256,192,10858,1,0,0:0:0:0:
256,192,11030,1,8,0:0:0:0:
256,192,11201,1,0,0:0:0:0:
256,191,11287,1,0,0:0:0:0:
256,192,11373,1,8,0:0:0:0:
256,192,11458,1,8,0:0:0:0:
256,192,11544,1,0,0:0:0:0:
256,192,11887,1,0,0:0:0:0:
256,192,12230,1,8,0:0:0:0:
256,192,12401,1,0,0:0:0:0:
256,192,12573,1,8,0:0:0:0:
256,192,12916,1,0,0:0:0:0:
256,192,13087,1,8,0:0:0:0:
256,191,13601,1,8,0:0:0:0:
256,192,14287,1,8,0:0:0:0:
256,192,14630,1,0,0:0:0:0:
256,192,15144,1,8,0:0:0:0:
256,192,15316,1,0,0:0:0:0:
256,192,15658,1,8,0:0:0:0:
256,192,16001,1,0,0:0:0:0:
256,192,16087,1,0,0:0:0:0:
256,192,16173,1,8,0:0:0:0:
256,192,16516,1,0,0:0:0:0:
256,192,16687,1,8,0:0:0:0:
256,192,16858,1,0,0:0:0:0:
256,192,16944,1,8,0:0:0:0:
256,192,17116,1,0,0:0:0:0:
256,192,17201,1,8,0:0:0:0:
256,192,17373,1,0,0:0:0:0:
256,192,17716,1,8,0:0:0:0:
256,192,17887,1,0,0:0:0:0:
256,192,18058,1,0,0:0:0:0:
256,192,18401,1,8,0:0:0:0:
256,192,18573,1,0,0:0:0:0:
256,192,19087,1,8,0:0:0:0:
256,192,19773,1,0,0:0:0:0:
256,192,20116,1,8,0:0:0:0:
256,192,20630,1,8,0:0:0:0:
256,192,20801,1,0,0:0:0:0:
256,192,21144,1,8,0:0:0:0:
256,192,21487,1,0,0:0:0:0:
256,192,21830,1,8,0:0:0:0:
256,192,22001,1,8,0:0:0:0:
256,192,22173,1,0,0:0:0:0:
256,192,22258,1,0,0:0:0:0:
256,192,22344,1,0,0:0:0:0:
256,192,22430,1,0,0:0:0:0:
256,192,22516,1,8,0:0:0:0:
256,192,22858,1,4,0:0:0:0:
256,192,23201,1,8,0:0:0:0:
256,191,23373,1,0,0:0:0:0:
256,192,23544,1,0,0:0:0:0:
256,192,23716,1,0,0:0:0:0:
256,192,23887,1,8,0:0:0:0:
256,192,24058,1,0,0:0:0:0:
256,192,24230,1,0,0:0:0:0:
256,192,24401,1,0,0:0:0:0:
256,192,24573,1,8,0:0:0:0:
256,192,24744,1,0,0:0:0:0:
256,192,24916,1,0,0:0:0:0:
256,192,25087,1,0,0:0:0:0:
256,192,25173,1,0,0:0:0:0:
256,192,25258,1,8,0:0:0:0:
256,192,25430,1,8,0:0:0:0:
256,192,25601,1,0,0:0:0:0:
256,192,25773,1,0,0:0:0:0:
256,192,25944,1,8,0:0:0:0:
256,192,26116,1,0,0:0:0:0:
256,192,26287,1,0,0:0:0:0:
256,192,26458,1,0,0:0:0:0:
256,192,26544,1,0,0:0:0:0:
256,192,26630,1,8,0:0:0:0:
256,192,26801,1,0,0:0:0:0:
256,192,26973,1,0,0:0:0:0:
256,192,27144,1,0,0:0:0:0:
256,191,27316,1,8,0:0:0:0:
256,192,27487,1,0,0:0:0:0:
256,192,27658,1,0,0:0:0:0:
256,191,27830,1,0,0:0:0:0:
256,191,27916,1,0,0:0:0:0:
256,192,28001,1,8,0:0:0:0:
256,191,28173,1,8,0:0:0:0:
256,192,28344,1,0,0:0:0:0:
256,192,28516,1,0,0:0:0:0:
256,192,28601,1,0,0:0:0:0:
256,192,28687,1,8,0:0:0:0:
256,192,28858,1,0,0:0:0:0:
256,192,29030,1,0,0:0:0:0:
256,192,29201,1,0,0:0:0:0:
256,191,29287,1,0,0:0:0:0:
256,192,29373,1,8,0:0:0:0:
256,192,29544,1,0,0:0:0:0:
256,192,29716,1,0,0:0:0:0:
256,192,29887,1,0,0:0:0:0:
256,191,30058,1,8,0:0:0:0:
256,192,30230,1,0,0:0:0:0:
256,192,30401,1,0,0:0:0:0:
256,191,30573,1,0,0:0:0:0:
256,192,30658,1,0,0:0:0:0:
256,192,30744,1,8,0:0:0:0:
256,192,30916,1,8,0:0:0:0:
256,192,31087,1,0,0:0:0:0:
256,192,31258,1,0,0:0:0:0:
256,192,31430,1,8,0:0:0:0:
256,192,31601,1,0,0:0:0:0:
256,192,31773,1,0,0:0:0:0:
256,192,31944,1,0,0:0:0:0:
256,191,32030,1,0,0:0:0:0:
256,192,32116,1,8,0:0:0:0:
256,192,32287,1,0,0:0:0:0:
256,192,32458,1,0,0:0:0:0:
256,192,32630,1,0,0:0:0:0:
256,191,32801,1,8,0:0:0:0:
256,191,32887,1,8,0:0:0:0:
256,192,32973,1,0,0:0:0:0:
256,192,33144,1,0,0:0:0:0:
256,191,33316,1,0,0:0:0:0:
256,192,33401,1,0,0:0:0:0:
256,192,33487,1,8,0:0:0:0:
256,192,33573,1,8,0:0:0:0:
256,192,33658,1,0,0:0:0:0:
256,192,33830,1,4,0:0:0:0:
256,192,34001,1,4,0:0:0:0:
256,192,34173,1,8,0:0:0:0:
256,192,34345,1,4,0:0:0:0:
256,192,34516,1,4,0:0:0:0:
256,192,34687,1,0,0:0:0:0:
256,192,34773,1,0,0:0:0:0:
256,192,34858,1,8,0:0:0:0:
256,192,35030,1,8,0:0:0:0:
256,192,35201,1,4,0:0:0:0:
256,192,35373,1,4,0:0:0:0:
256,192,35544,1,8,0:0:0:0:
256,192,35716,1,4,0:0:0:0:
256,192,35887,1,4,0:0:0:0:
256,192,36058,1,0,0:0:0:0:
256,192,36144,1,0,0:0:0:0:
256,192,36230,1,8,0:0:0:0:
256,192,36401,1,8,0:0:0:0:
256,192,36573,1,4,0:0:0:0:
256,192,36744,1,4,0:0:0:0:
256,192,36916,1,8,0:0:0:0:
256,192,37087,1,4,0:0:0:0:
256,192,37258,1,4,0:0:0:0:
256,192,37430,1,0,0:0:0:0:
256,192,37516,1,0,0:0:0:0:
256,192,37601,1,8,0:0:0:0:
256,192,37773,1,8,0:0:0:0:
256,192,37944,1,4,0:0:0:0:
256,192,38116,1,4,0:0:0:0:
256,192,38287,1,8,0:0:0:0:
256,192,38458,1,4,0:0:0:0:
256,192,38630,1,4,0:0:0:0:
256,192,38801,1,0,0:0:0:0:
256,192,38887,1,0,0:0:0:0:
256,192,38973,1,8,0:0:0:0:
256,192,39144,1,8,0:0:0:0:
256,192,39316,1,4,0:0:0:0:
256,192,39487,1,8,0:0:0:0:
256,192,39658,1,8,0:0:0:0:
256,192,39830,1,4,0:0:0:0:
256,192,40001,1,4,0:0:0:0:
256,192,40173,1,8,0:0:0:0:
256,192,40344,1,4,0:0:0:0:
256,192,40516,1,8,0:0:0:0:
256,192,40687,1,4,0:0:0:0:
256,192,40858,1,8,0:0:0:0:
256,192,41030,1,8,0:0:0:0:
256,192,41201,1,4,0:0:0:0:
256,192,41373,1,4,0:0:0:0:
256,192,41544,1,8,0:0:0:0:
256,192,41716,1,4,0:0:0:0:
256,192,41887,1,8,0:0:0:0:
256,192,42058,1,0,0:0:0:0:
256,192,42144,1,0,0:0:0:0:
256,192,42230,1,8,0:0:0:0:
256,192,42316,1,8,0:0:0:0:
256,192,42401,1,0,0:0:0:0:
256,192,42487,1,0,0:0:0:0:
256,192,42573,1,8,0:0:0:0:
256,192,42658,1,8,0:0:0:0:
256,192,42744,1,0,0:0:0:0:
256,192,42830,1,0,0:0:0:0:
256,192,42916,1,8,0:0:0:0:
256,192,43001,1,8,0:0:0:0:
256,192,43087,1,0,0:0:0:0:
256,192,43144,1,0,0:0:0:0:
256,192,43201,1,0,0:0:0:0:
256,192,43258,1,8,0:0:0:0:
256,192,43316,1,8,0:0:0:0:
256,192,43373,1,8,0:0:0:0:
256,192,43430,1,0,0:0:0:0:
256,192,43687,1,0,0:0:0:0:
256,191,43944,1,0,0:0:0:0:
256,191,44116,1,8,0:0:0:0:
256,191,44287,1,8,0:0:0:0:
256,191,44458,1,0,0:0:0:0:
256,192,44630,1,8,0:0:0:0:
256,192,44801,1,4,0:0:0:0:
256,192,44973,1,0,0:0:0:0:
256,192,45058,1,0,0:0:0:0:
256,192,45144,1,8,0:0:0:0:
256,192,45316,1,8,0:0:0:0:
256,191,45487,1,0,0:0:0:0:
256,192,45658,1,0,0:0:0:0:
256,191,45744,1,0,0:0:0:0:
256,192,45830,1,8,0:0:0:0:
256,192,46001,1,8,0:0:0:0:
256,192,46087,1,8,0:0:0:0:
256,191,46173,1,0,0:0:0:0:
256,191,46258,1,0,0:0:0:0:
256,192,46344,1,8,0:0:0:0:
256,192,46516,1,8,0:0:0:0:
256,192,46687,1,0,0:0:0:0:
256,192,46773,1,0,0:0:0:0:
256,192,46858,1,8,0:0:0:0:
256,192,46944,1,8,0:0:0:0:
256,192,47030,1,0,0:0:0:0:
256,192,47201,1,8,0:0:0:0:
256,192,47373,1,0,0:0:0:0:
256,192,47458,1,0,0:0:0:0:
256,192,47544,1,8,0:0:0:0:
256,192,47716,1,0,0:0:0:0:
256,192,47801,1,0,0:0:0:0:
256,192,47887,1,8,0:0:0:0:
256,192,48058,1,8,0:0:0:0:
256,192,48230,1,0,0:0:0:0:
256,192,48316,1,8,0:0:0:0:
256,192,48401,1,0,0:0:0:0:
256,192,48573,1,8,0:0:0:0:
256,192,48744,1,8,0:0:0:0:
256,192,48830,1,8,0:0:0:0:
256,192,48916,1,0,0:0:0:0:
256,192,49087,1,0,0:0:0:0:
256,192,49173,1,0,0:0:0:0:
256,192,49258,1,8,0:0:0:0:
256,192,49430,1,0,0:0:0:0:
256,192,49516,1,0,0:0:0:0:
256,192,49601,1,8,0:0:0:0:
256,192,49687,1,8,0:0:0:0:
256,192,49773,1,0,0:0:0:0:
256,192,49858,1,0,0:0:0:0:
256,192,49944,1,8,0:0:0:0:
256,191,50116,1,0,0:0:0:0:
256,192,50287,1,8,0:0:0:0:
256,192,50458,1,0,0:0:0:0:
256,192,50544,1,0,0:0:0:0:
256,192,50630,1,8,0:0:0:0:
256,192,50801,1,8,0:0:0:0:
256,192,50887,1,0,0:0:0:0:
256,192,50973,1,8,0:0:0:0:
256,192,51058,1,0,0:0:0:0:
256,192,51144,1,0,0:0:0:0:
256,192,51316,1,8,0:0:0:0:
256,192,51487,1,0,0:0:0:0:
256,192,51573,1,0,0:0:0:0:
256,192,51658,1,8,0:0:0:0:
256,192,51830,1,0,0:0:0:0:
256,192,51916,1,0,0:0:0:0:
256,192,52001,1,8,0:0:0:0:
256,192,52173,1,8,0:0:0:0:
256,192,52258,1,0,0:0:0:0:
256,192,52344,1,8,0:0:0:0:
256,192,52430,1,8,0:0:0:0:
256,192,52516,1,0,0:0:0:0:
256,192,52601,1,0,0:0:0:0:
256,192,52687,1,8,0:0:0:0:
256,192,52858,1,8,0:0:0:0:
256,192,52944,1,8,0:0:0:0:
256,192,53030,1,0,0:0:0:0:
256,192,53201,1,0,0:0:0:0:
256,192,53287,1,8,0:0:0:0:
256,192,53373,1,8,0:0:0:0:
256,192,53544,1,8,0:0:0:0:
256,192,53716,1,8,0:0:0:0:
256,192,53801,1,0,0:0:0:0:
256,192,53887,1,8,0:0:0:0:
256,192,53973,1,0,0:0:0:0:
256,192,54058,1,8,0:0:0:0:
256,192,54144,1,8,0:0:0:0:
256,192,54230,1,8,0:0:0:0:
256,192,54316,1,0,0:0:0:0:
256,192,54401,1,8,0:0:0:0:
256,192,54573,1,0,0:0:0:0:
256,192,54744,1,0,0:0:0:0:
256,192,54916,1,8,0:0:0:0:
256,192,55087,1,0,0:0:0:0:
256,192,55258,1,0,0:0:0:0:
256,192,55430,1,8,0:0:0:0:
256,192,55601,1,0,0:0:0:0:
256,192,55658,1,0,0:0:0:0:
256,192,55716,1,0,0:0:0:0:
256,192,55773,1,0,0:0:0:0:
256,192,55944,1,0,0:0:0:0:
256,192,56030,1,0,0:0:0:0:
256,192,56116,1,8,0:0:0:0:
256,192,56287,1,0,0:0:0:0:
256,192,56458,1,8,0:0:0:0:
256,192,56544,1,8,0:0:0:0:
256,192,56630,1,0,0:0:0:0:
256,192,56802,1,8,0:0:0:0:
256,192,56973,1,0,0:0:0:0:
256,192,57059,1,0,0:0:0:0:
256,192,57145,1,8,0:0:0:0:
256,192,57316,1,0,0:0:0:0:
256,192,57402,1,8,0:0:0:0:
256,192,57488,1,0,0:0:0:0:
256,192,57659,1,8,0:0:0:0:
256,192,57745,1,8,0:0:0:0:
256,192,57830,1,0,0:0:0:0:
256,192,57916,1,8,0:0:0:0:
256,192,58001,1,0,0:0:0:0:
256,192,58087,1,0,0:0:0:0:
256,192,58173,1,8,0:0:0:0:
256,192,58345,1,8,0:0:0:0:
256,192,58430,1,8,0:0:0:0:
256,192,58516,1,0,0:0:0:0:
256,192,58688,1,0,0:0:0:0:
256,192,58773,1,0,0:0:0:0:
256,192,58859,1,8,0:0:0:0:
256,192,59030,1,0,0:0:0:0:
256,192,59116,1,0,0:0:0:0:
256,192,59201,1,8,0:0:0:0:
256,192,59287,1,0,0:0:0:0:
256,192,59373,1,8,0:0:0:0:
256,192,59545,1,8,0:0:0:0:
256,192,59716,1,0,0:0:0:0:
256,192,59802,1,0,0:0:0:0:
256,192,59888,1,8,0:0:0:0:
256,192,60059,1,0,0:0:0:0:
256,192,60145,1,0,0:0:0:0:
256,192,60230,1,8,0:0:0:0:
256,192,60316,1,8,0:0:0:0:
256,192,60402,1,0,0:0:0:0:
256,192,60488,1,0,0:0:0:0:
256,192,60573,1,8,0:0:0:0:
256,192,60659,1,0,0:0:0:0:
256,192,60745,1,0,0:0:0:0:
256,192,60830,1,0,0:0:0:0:
256,192,60916,1,8,0:0:0:0:
256,192,61087,1,0,0:0:0:0:
256,192,61259,1,4,0:0:0:0:
256,192,61430,1,0,0:0:0:0:
256,192,61516,1,8,0:0:0:0:
256,192,61602,1,0,0:0:0:0:
256,192,61773,1,4,0:0:0:0:
256,192,61945,1,0,0:0:0:0:
256,192,62030,1,0,0:0:0:0:
256,192,62116,1,8,0:0:0:0:
256,192,62202,1,8,0:0:0:0:
256,192,62288,1,0,0:0:0:0:
256,192,62459,1,8,0:0:0:0:
256,192,62630,1,4,0:0:0:0:
256,192,62802,1,0,0:0:0:0:
256,192,62888,1,8,0:0:0:0:
256,192,62973,1,0,0:0:0:0:
256,192,63145,1,4,0:0:0:0:
256,192,63316,1,0,0:0:0:0:
256,192,63402,1,0,0:0:0:0:
256,192,63488,1,8,0:0:0:0:
256,192,63573,1,0,0:0:0:0:
256,192,63659,1,8,0:0:0:0:
256,192,63830,1,8,0:0:0:0:
256,192,64002,1,4,0:0:0:0:
256,192,64173,1,0,0:0:0:0:
256,192,64259,1,0,0:0:0:0:
256,192,64345,1,8,0:0:0:0:
256,192,64516,1,0,0:0:0:0:
256,192,64688,1,8,0:0:0:0:
256,192,64773,1,0,0:0:0:0:
256,192,64859,1,0,0:0:0:0:
256,192,64945,1,0,0:0:0:0:
256,192,65030,1,8,0:0:0:0:
256,192,65116,1,8,0:0:0:0:
256,192,65202,1,0,0:0:0:0:
256,192,65288,1,0,0:0:0:0:
256,192,65373,1,8,0:0:0:0:
256,192,65544,1,0,0:0:0:0:
256,192,65716,1,8,0:0:0:0:
256,192,65887,1,0,0:0:0:0:
256,192,65973,1,0,0:0:0:0:
256,192,66058,1,8,0:0:0:0:
256,192,66144,1,0,0:0:0:0:
256,192,66230,1,8,0:0:0:0:
256,192,66316,1,8,0:0:0:0:
256,192,66401,1,0,0:0:0:0:
256,192,66487,1,8,0:0:0:0:
256,192,66573,1,0,0:0:0:0:
256,192,66658,1,0,0:0:0:0:
256,192,66744,1,8,0:0:0:0:
256,192,67087,1,8,0:0:0:0:
256,192,67258,1,0,0:0:0:0:
256,192,67344,1,0,0:0:0:0:
256,192,67430,1,8,0:0:0:0:
256,191,67516,1,0,0:0:0:0:
256,192,67601,1,8,0:0:0:0:
256,191,67687,1,8,0:0:0:0:
256,192,67773,1,0,0:0:0:0:
256,191,67830,1,0,0:0:0:0:
256,191,67887,1,0,0:0:0:0:
256,192,67944,1,8,0:0:0:0:
256,192,68116,1,0,0:0:0:0:
256,191,68287,1,0,0:0:0:0:
256,191,68373,1,0,0:0:0:0:
256,192,68458,1,8,0:0:0:0:
256,192,68630,1,0,0:0:0:0:
256,192,68716,1,8,0:0:0:0:
256,192,68801,1,0,0:0:0:0:
256,192,68887,1,8,0:0:0:0:
256,192,68973,1,8,0:0:0:0:
256,191,69058,1,0,0:0:0:0:
256,192,69144,1,8,0:0:0:0:
256,191,69230,1,0,0:0:0:0:
256,192,69316,1,0,0:0:0:0:
256,192,69401,1,0,0:0:0:0:
256,192,69487,1,8,0:0:0:0:
256,192,69658,1,0,0:0:0:0:
255,191,69744,1,0,0:0:0:0:
256,192,69830,1,8,0:0:0:0:
256,192,70001,1,0,0:0:0:0:
256,192,70087,1,0,0:0:0:0:
256,192,70173,1,8,0:0:0:0:
256,191,70258,1,0,0:0:0:0:
256,192,70344,1,8,0:0:0:0:
255,191,70430,1,0,0:0:0:0:
256,192,70516,1,8,0:0:0:0:
256,191,70573,1,8,0:0:0:0:
256,191,70630,1,8,0:0:0:0:
256,192,70687,1,0,0:0:0:0:
256,192,70858,1,0,0:0:0:0:
256,192,71030,1,0,0:0:0:0:
256,191,71116,1,0,0:0:0:0:
256,192,71201,1,8,0:0:0:0:
256,192,71373,1,0,0:0:0:0:
256,192,71458,1,0,0:0:0:0:
256,192,71544,1,8,0:0:0:0:
256,192,71630,1,8,0:0:0:0:
256,192,71716,1,0,0:0:0:0:
256,192,71801,1,8,0:0:0:0:
256,192,71887,1,8,0:0:0:0:
256,192,72058,1,8,0:0:0:0:
256,192,72144,1,8,0:0:0:0:
256,192,72230,1,0,0:0:0:0:
256,192,72401,1,0,0:0:0:0:
256,192,72573,1,8,0:0:0:0:
256,192,72744,1,0,0:0:0:0:
256,192,72830,1,8,0:0:0:0:
256,192,72916,1,8,0:0:0:0:
256,192,73001,1,0,0:0:0:0:
256,192,73087,1,8,0:0:0:0:
256,192,73258,1,0,0:0:0:0:
257,191,73316,1,0,0:0:0:0:
257,191,73373,1,0,0:0:0:0:
256,192,73430,1,8,0:0:0:0:
256,192,73516,1,8,0:0:0:0:
256,192,73601,1,0,0:0:0:0:
256,192,73773,1,0,0:0:0:0:
257,191,73858,1,0,0:0:0:0:
256,192,73944,1,8,0:0:0:0:
256,192,74116,1,0,0:0:0:0:
256,192,74287,1,8,0:0:0:0:
256,192,74373,1,0,0:0:0:0:
256,192,74458,1,0,0:0:0:0:
256,192,74544,1,0,0:0:0:0:
256,192,74630,1,8,0:0:0:0:
257,191,74716,1,0,0:0:0:0:
256,192,74801,1,8,0:0:0:0:
256,192,74887,1,8,0:0:0:0:
256,192,74973,1,0,0:0:0:0:
256,192,75144,1,0,0:0:0:0:
256,192,75316,1,8,0:0:0:0:
256,192,75487,1,0,0:0:0:0:
256,192,75573,1,0,0:0:0:0:
256,192,75658,1,8,0:0:0:0:
256,192,75830,1,8,0:0:0:0:
256,192,75916,1,8,0:0:0:0:
256,192,76001,1,0,0:0:0:0:
256,192,76173,1,0,0:0:0:0:
256,192,76344,1,8,0:0:0:0:
256,192,76516,1,0,0:0:0:0:
256,192,76601,1,0,0:0:0:0:
256,192,76687,1,0,0:0:0:0:
256,192,76858,1,8,0:0:0:0:
256,192,77030,1,8,0:0:0:0:
256,192,77116,1,0,0:0:0:0:
256,192,77201,1,0,0:0:0:0:
256,192,77287,1,0,0:0:0:0:
256,192,77373,1,8,0:0:0:0:
256,192,77458,1,8,0:0:0:0:
256,192,77544,1,0,0:0:0:0:
256,192,77601,1,0,0:0:0:0:
256,192,77658,1,0,0:0:0:0:
256,192,77716,1,8,0:0:0:0:
256,192,77887,1,0,0:0:0:0:
256,192,78058,1,8,0:0:0:0:
256,192,78230,1,0,0:0:0:0:
256,192,78316,1,0,0:0:0:0:
256,192,78401,1,8,0:0:0:0:
256,192,78573,1,0,0:0:0:0:
256,192,78744,1,8,0:0:0:0:
256,192,78916,1,0,0:0:0:0:
256,192,79001,1,0,0:0:0:0:
256,192,79087,1,8,0:0:0:0:
256,192,79258,1,8,0:0:0:0:
256,192,79430,1,0,0:0:0:0:
256,192,79601,1,0,0:0:0:0:
256,192,79687,1,0,0:0:0:0:
256,192,79773,1,8,0:0:0:0:
256,192,79944,1,8,0:0:0:0:
256,192,80116,1,0,0:0:0:0:
256,192,80287,1,8,0:0:0:0:
256,192,80373,1,8,0:0:0:0:
256,192,80458,1,0,0:0:0:0:
256,192,80630,1,0,0:0:0:0:
256,192,80801,1,8,0:0:0:0:
256,192,80973,1,0,0:0:0:0:
256,192,81058,1,0,0:0:0:0:
256,192,81144,1,8,0:0:0:0:
256,192,81230,1,8,0:0:0:0:
256,192,81316,1,0,0:0:0:0:
256,192,81487,1,8,0:0:0:0:
256,192,81658,1,0,0:0:0:0:
256,192,81744,1,0,0:0:0:0:
256,192,81830,1,8,0:0:0:0:
256,192,82001,1,0,0:0:0:0:
256,192,82173,1,8,0:0:0:0:
256,192,82344,1,0,0:0:0:0:
256,192,82430,1,0,0:0:0:0:
256,192,82516,1,8,0:0:0:0:
256,192,82601,1,8,0:0:0:0:
256,192,82687,1,0,0:0:0:0:
256,192,82858,1,8,0:0:0:0:
256,192,83030,1,0,0:0:0:0:
256,192,83116,1,0,0:0:0:0:
256,192,83201,1,8,0:0:0:0:
256,192,83373,1,0,0:0:0:0:
256,192,83544,1,8,0:0:0:0:
256,192,83716,1,8,0:0:0:0:
256,192,83801,1,8,0:0:0:0:
256,192,83887,1,0,0:0:0:0:
256,192,84058,1,8,0:0:0:0:
256,192,84230,1,0,0:0:0:0:
256,192,84316,1,0,0:0:0:0:
256,192,84401,1,8,0:0:0:0:
256,192,84487,1,8,0:0:0:0:
256,192,84573,1,0,0:0:0:0:
256,192,84744,1,8,0:0:0:0:
256,192,84916,1,0,0:0:0:0:
256,192,85087,1,8,0:0:0:0:
256,192,85173,1,8,0:0:0:0:
256,192,85258,1,0,0:0:0:0:
256,192,85344,1,0,0:0:0:0:
256,192,85430,1,8,0:0:0:0:
256,192,85516,1,0,0:0:0:0:
256,192,85601,1,8,0:0:0:0:
256,192,85773,1,8,0:0:0:0:
256,192,85944,1,0,0:0:0:0:
256,192,86116,1,8,0:0:0:0:
256,192,86201,1,8,0:0:0:0:
256,192,86287,1,0,0:0:0:0:
256,192,86458,1,0,0:0:0:0:
256,192,86544,1,0,0:0:0:0:
256,192,86630,1,8,0:0:0:0:
256,192,86716,1,0,0:0:0:0:
256,192,86801,1,8,0:0:0:0:
256,192,86887,1,8,0:0:0:0:
256,192,86973,1,0,0:0:0:0:
256,192,87144,1,0,0:0:0:0:
256,192,87316,1,8,0:0:0:0:
256,192,87430,1,0,0:0:0:0:
256,192,87544,1,0,0:0:0:0:
256,192,87658,1,8,0:0:0:0:
256,192,87773,1,0,0:0:0:0:
256,192,87887,1,0,0:0:0:0:
256,192,88001,1,12,0:0:0:0:
256,192,88258,1,12,0:0:0:0:
256,192,88516,1,12,0:0:0:0:
256,192,88687,1,4,0:0:0:0:
256,191,88858,1,0,0:0:0:0:
256,192,89030,1,8,0:0:0:0:
256,192,89201,1,0,0:0:0:0:
256,192,89287,1,0,0:0:0:0:
256,192,89373,1,8,0:0:0:0:
256,192,89458,1,0,0:0:0:0:
256,192,89544,1,8,0:0:0:0:
256,192,89630,1,0,0:0:0:0:
256,192,89716,1,8,0:0:0:0:
257,191,89773,1,8,0:0:0:0:
257,191,89830,1,8,0:0:0:0:
257,191,89887,1,0,0:0:0:0:
256,192,90059,1,0,0:0:0:0:
256,192,90230,1,0,0:0:0:0:
256,191,90316,1,8,0:0:0:0:
256,192,90401,1,0,0:0:0:0:
256,192,90573,1,0,0:0:0:0:
256,192,90659,1,0,0:0:0:0:
256,192,90744,1,8,0:0:0:0:
256,192,90830,1,0,0:0:0:0:
256,192,90916,1,8,0:0:0:0:
256,191,91001,1,8,0:0:0:0:
256,192,91087,1,0,0:0:0:0:
256,191,91173,1,8,0:0:0:0:
256,191,91258,1,0,0:0:0:0:
256,192,91344,1,8,0:0:0:0:
256,192,91430,1,0,0:0:0:0:
256,192,91601,1,0,0:0:0:0:
256,191,91687,1,0,0:0:0:0:
256,192,91773,1,8,0:0:0:0:
256,192,91944,1,0,0:0:0:0:
256,192,92030,1,0,0:0:0:0:
256,192,92116,1,8,0:0:0:0:
256,191,92201,1,0,0:0:0:0:
256,191,92287,1,8,0:0:0:0:
256,191,92373,1,0,0:0:0:0:
256,192,92459,1,8,0:0:0:0:
256,191,92516,1,8,0:0:0:0:
256,191,92573,1,0,0:0:0:0:
256,192,92630,1,8,0:0:0:0:
256,192,92801,1,0,0:0:0:0:
256,192,92973,1,0,0:0:0:0:
256,191,93058,1,0,0:0:0:0:
256,192,93144,1,8,0:0:0:0:
256,192,93316,1,0,0:0:0:0:
256,192,93401,1,0,0:0:0:0:
256,192,93487,1,8,0:0:0:0:
256,192,93573,1,8,0:0:0:0:
256,192,93659,1,8,0:0:0:0:
256,192,93744,1,0,0:0:0:0:
256,192,93830,1,8,0:0:0:0:
256,192,94001,1,0,0:0:0:0:
256,192,94087,1,8,0:0:0:0:
256,192,94173,1,0,0:0:0:0:
256,192,94344,1,0,0:0:0:0:
256,192,94516,1,8,0:0:0:0:
256,192,94687,1,0,0:0:0:0:
256,192,94773,1,0,0:0:0:0:
256,192,94859,1,8,0:0:0:0:
256,192,94944,1,0,0:0:0:0:
256,192,95030,1,8,0:0:0:0:
256,191,95116,1,8,0:0:0:0:
256,192,95201,1,0,0:0:0:0:
256,191,95258,1,0,0:0:0:0:
256,191,95316,1,0,0:0:0:0:
256,192,95373,1,8,0:0:0:0:
256,192,95459,1,0,0:0:0:0:
256,192,95544,1,8,0:0:0:0:
256,192,95716,1,0,0:0:0:0:
257,191,95801,1,0,0:0:0:0:
256,192,95887,1,8,0:0:0:0:
256,192,96059,1,0,0:0:0:0:
256,192,96230,1,0,0:0:0:0:
256,192,96316,1,0,0:0:0:0:
256,192,96401,1,8,0:0:0:0:
256,192,96487,1,8,0:0:0:0:
256,192,96573,1,0,0:0:0:0:
257,191,96658,1,0,0:0:0:0:
256,192,96744,1,8,0:0:0:0:
256,192,96830,1,8,0:0:0:0:
256,192,96916,1,0,0:0:0:0:
256,192,97087,1,0,0:0:0:0:
256,192,97259,1,8,0:0:0:0:
256,192,97430,1,0,0:0:0:0:
256,192,97516,1,0,0:0:0:0:
256,192,97601,1,0,0:0:0:0:
256,192,97687,1,8,0:0:0:0:
256,192,97773,1,0,0:0:0:0:
256,192,97859,1,0,0:0:0:0:
256,192,97944,1,8,0:0:0:0:
256,192,98116,1,0,0:0:0:0:
256,192,98287,1,8,0:0:0:0:
256,192,98458,1,0,0:0:0:0:
256,192,98544,1,8,0:0:0:0:
256,192,98630,1,0,0:0:0:0:
256,192,98801,1,8,0:0:0:0:
256,192,98887,1,0,0:0:0:0:
256,192,98973,1,0,0:0:0:0:
256,192,99058,1,8,0:0:0:0:
256,192,99144,1,0,0:0:0:0:
256,192,99230,1,0,0:0:0:0:
256,192,99316,1,8,0:0:0:0:
256,192,99401,1,0,0:0:0:0:
256,192,99487,1,8,0:0:0:0:
256,192,99544,1,0,0:0:0:0:
256,192,99601,1,0,0:0:0:0:
256,192,99658,1,8,0:0:0:0:
256,192,99744,1,0,0:0:0:0:
256,192,99830,1,8,0:0:0:0:
256,192,99916,1,8,0:0:0:0:
256,192,100001,1,8,0:0:0:0:
256,192,100087,1,0,0:0:0:0:
256,192,100173,1,8,0:0:0:0:
256,192,100259,1,8,0:0:0:0:
256,192,100345,1,8,0:0:0:0:
256,192,100431,1,0,0:0:0:0:
256,192,100516,1,8,0:0:0:0:
256,192,100601,1,8,0:0:0:0:
256,192,100687,1,8,0:0:0:0:
256,192,100773,1,0,0:0:0:0:
256,192,100858,1,8,0:0:0:0:
256,192,100944,1,0,0:0:0:0:
256,192,101030,1,8,0:0:0:0:
256,192,101116,1,0,0:0:0:0:
256,192,101202,1,8,0:0:0:0:
256,192,101288,1,8,0:0:0:0:
256,192,101373,1,8,0:0:0:0:
256,192,101459,1,0,0:0:0:0:
256,192,101545,1,8,0:0:0:0:
256,192,101631,1,8,0:0:0:0:
256,192,101717,1,8,0:0:0:0:
256,192,101801,1,0,0:0:0:0:
256,192,101888,1,8,0:0:0:0:
256,192,101973,1,8,0:0:0:0:
256,192,102058,1,8,0:0:0:0:
256,192,102144,1,0,0:0:0:0:
256,192,102229,1,8,0:0:0:0:
256,192,102315,1,0,0:0:0:0:
256,192,102401,1,8,0:0:0:0:
256,192,102487,1,0,0:0:0:0:
256,192,102573,1,8,0:0:0:0:
256,192,102658,1,8,0:0:0:0:
256,192,102744,1,0,0:0:0:0:
256,192,102830,1,8,0:0:0:0:
256,192,102916,1,0,0:0:0:0:
256,192,103001,1,8,0:0:0:0:
256,192,103087,1,8,0:0:0:0:
256,192,103173,1,0,0:0:0:0:
256,192,103258,1,8,0:0:0:0:
256,192,103344,1,0,0:0:0:0:
256,192,103430,1,8,0:0:0:0:
256,192,103516,1,8,0:0:0:0:
256,192,103602,1,0,0:0:0:0:
256,192,103687,1,8,0:0:0:0:
256,192,103773,1,0,0:0:0:0:
256,192,103858,1,8,0:0:0:0:
256,192,103944,1,8,0:0:0:0:
256,192,104029,1,0,0:0:0:0:
256,192,104115,1,8,0:0:0:0:
256,192,104201,1,0,0:0:0:0:
256,192,104287,1,8,0:0:0:0:
256,192,104372,1,8,0:0:0:0:
256,192,104458,1,0,0:0:0:0:
256,192,104544,1,8,0:0:0:0:
256,192,104630,1,0,0:0:0:0:
256,192,104716,1,8,0:0:0:0:
256,192,104801,1,8,0:0:0:0:
256,192,104887,1,0,0:0:0:0:
256,192,104973,1,8,0:0:0:0:
256,192,105058,1,0,0:0:0:0:
256,192,105144,1,8,0:0:0:0:
256,192,105230,1,8,0:0:0:0:
256,192,105316,1,0,0:0:0:0:
256,192,105401,1,0,0:0:0:0:
256,192,105487,1,8,0:0:0:0:
256,192,105573,1,0,0:0:0:0:
256,192,105658,1,8,0:0:0:0:
256,192,105744,1,0,0:0:0:0:
256,192,105830,1,8,0:0:0:0:
256,192,105916,1,8,0:0:0:0:
256,192,106001,1,0,0:0:0:0:
256,192,106087,1,0,0:0:0:0:
256,192,106173,1,8,0:0:0:0:
256,192,106258,1,8,0:0:0:0:
256,192,106344,1,8,0:0:0:0:
256,192,106430,1,8,0:0:0:0:
256,192,106516,1,0,0:0:0:0:
256,192,106602,1,0,0:0:0:0:
256,192,106688,1,8,0:0:0:0:
256,192,106773,1,0,0:0:0:0:
256,192,106859,1,8,0:0:0:0:
256,192,106945,1,0,0:0:0:0:
256,192,107030,1,8,0:0:0:0:
256,192,107116,1,0,0:0:0:0:
256,192,107202,1,8,0:0:0:0:
256,192,107288,1,8,0:0:0:0:
256,192,107373,1,0,0:0:0:0:
256,192,107459,1,0,0:0:0:0:
256,192,107545,1,8,0:0:0:0:
256,192,107630,1,8,0:0:0:0:
256,192,107716,1,8,0:0:0:0:
256,192,107801,1,8,0:0:0:0:
256,192,107887,1,0,0:0:0:0:
256,192,107973,1,0,0:0:0:0:
256,192,108058,1,8,0:0:0:0:
256,192,108144,1,8,0:0:0:0:
256,192,108230,1,0,0:0:0:0:
256,192,108316,1,0,0:0:0:0:
256,192,108401,1,8,0:0:0:0:
256,192,108487,1,8,0:0:0:0:
256,192,108573,1,0,0:0:0:0:
256,192,108658,1,0,0:0:0:0:
256,192,108744,1,8,0:0:0:0:
256,192,108830,1,8,0:0:0:0:
256,192,108916,1,0,0:0:0:0:
256,192,109001,1,0,0:0:0:0:
256,192,109087,1,8,0:0:0:0:
256,192,109173,1,8,0:0:0:0:
256,192,109258,1,0,0:0:0:0:
256,191,109344,1,0,0:0:0:0:
256,192,109430,1,8,0:0:0:0:
256,192,109516,1,0,0:0:0:0:
256,192,109601,1,8,0:0:0:0:
256,192,109687,1,0,0:0:0:0:
256,192,109773,1,8,0:0:0:0:
256,192,109858,1,8,0:0:0:0:
256,192,109944,1,0,0:0:0:0:
256,191,110030,1,8,0:0:0:0:
256,192,110116,1,0,0:0:0:0:
256,192,110201,1,8,0:0:0:0:
256,192,110287,1,8,0:0:0:0:
256,192,110373,1,0,0:0:0:0:
256,192,110458,1,0,0:0:0:0:
256,192,110544,1,0,0:0:0:0:
256,192,110630,1,12,0:0:0:0:
256,192,110973,1,0,0:0:0:0:
256,192,111144,1,0,0:0:0:0:
256,192,111316,1,8,0:0:0:0:
256,191,111487,1,0,0:0:0:0:
256,192,111658,1,8,0:0:0:0:
257,191,111830,1,8,0:0:0:0:
256,192,112001,1,0,0:0:0:0:
257,191,112173,1,0,0:0:0:0:
256,192,112344,1,0,0:0:0:0:
256,192,112516,1,0,0:0:0:0:
256,192,112687,1,8,0:0:0:0:
257,191,112858,1,0,0:0:0:0:
256,192,113030,1,8,0:0:0:0:
257,191,113201,1,8,0:0:0:0:
256,192,113373,1,0,0:0:0:0:
257,191,113544,1,0,0:0:0:0:
257,191,113716,1,0,0:0:0:0:
257,191,113887,1,0,0:0:0:0:
257,191,114058,1,8,0:0:0:0:
257,191,114230,1,0,0:0:0:0:
256,192,114401,1,8,0:0:0:0:
257,191,114573,1,8,0:0:0:0:
256,192,114744,1,0,0:0:0:0:
257,191,114916,1,0,0:0:0:0:
257,191,115087,1,0,0:0:0:0:
257,191,115258,1,0,0:0:0:0:
256,192,115430,1,8,0:0:0:0:
257,191,115601,1,0,0:0:0:0:
256,192,115773,1,8,0:0:0:0:
257,191,115944,1,8,0:0:0:0:
256,192,116116,1,0,0:0:0:0:
257,191,116287,1,0,0:0:0:0:
257,191,116458,1,0,0:0:0:0:
257,191,116630,1,0,0:0:0:0:
256,192,116801,1,8,0:0:0:0:
257,191,116973,1,0,0:0:0:0:
257,191,117144,1,8,0:0:0:0:
257,191,117316,1,8,0:0:0:0:
257,191,117487,1,0,0:0:0:0:
257,191,117658,1,0,0:0:0:0:
257,191,117830,1,0,0:0:0:0:
257,191,118001,1,0,0:0:0:0:
256,192,118173,1,8,0:0:0:0:
257,191,118344,1,0,0:0:0:0:
257,191,118516,1,8,0:0:0:0:
257,191,118687,1,8,0:0:0:0:
256,192,118858,1,0,0:0:0:0:
257,191,119030,1,0,0:0:0:0:
257,191,119201,1,0,0:0:0:0:
257,191,119373,1,0,0:0:0:0:
256,192,119544,1,8,0:0:0:0:
257,191,119716,1,0,0:0:0:0:
257,191,119887,1,8,0:0:0:0:
257,191,120058,1,8,0:0:0:0:
256,192,120230,1,0,0:0:0:0:
257,191,120401,1,0,0:0:0:0:
257,191,120573,1,0,0:0:0:0:
257,191,120744,1,0,0:0:0:0:
257,191,120916,1,8,0:0:0:0:
257,191,121087,1,0,0:0:0:0:
257,191,121258,1,8,0:0:0:0:
257,191,121430,1,8,0:0:0:0:
257,191,121601,1,4,0:0:0:0:
256,192,121944,1,0,0:0:0:0:
256,191,122116,1,0,0:0:0:0:
256,192,122287,1,8,0:0:0:0:
256,192,122630,1,0,0:0:0:0:
256,192,122802,1,8,0:0:0:0:
257,191,122973,1,0,0:0:0:0:
257,191,123316,1,0,0:0:0:0:
256,191,123487,1,0,0:0:0:0:
257,191,123658,1,8,0:0:0:0:
257,191,124001,1,0,0:0:0:0:
256,191,124173,1,8,0:0:0:0:
256,192,124344,1,0,0:0:0:0:
257,191,124687,1,0,0:0:0:0:
256,192,124859,1,0,0:0:0:0:
257,191,125030,1,8,0:0:0:0:
256,192,125373,1,0,0:0:0:0:
256,192,125716,1,8,0:0:0:0:
256,192,125802,1,8,0:0:0:0:
256,192,125887,1,0,0:0:0:0:
257,191,126058,1,0,0:0:0:0:
256,192,126230,1,8,0:0:0:0:
256,192,126402,1,0,0:0:0:0:
256,192,126573,1,8,0:0:0:0:
256,192,126659,1,0,0:0:0:0:
256,192,126744,1,8,0:0:0:0:
256,192,126916,1,0,0:0:0:0:
256,192,127087,1,0,0:0:0:0:
256,192,127430,1,0,0:0:0:0:
256,192,127602,1,8,0:0:0:0:
256,192,127773,1,0,0:0:0:0:
256,192,128116,1,8,0:0:0:0:
256,192,128287,1,0,0:0:0:0:
257,191,128458,1,8,0:0:0:0:
257,191,128801,1,0,0:0:0:0:
256,191,128973,1,8,0:0:0:0:
257,191,129144,1,0,0:0:0:0:
256,192,129487,1,8,0:0:0:0:
256,191,129658,1,0,0:0:0:0:
256,192,129830,1,8,0:0:0:0:
257,191,130173,1,0,0:0:0:0:
256,192,130344,1,8,0:0:0:0:
257,191,130516,1,0,0:0:0:0:
256,192,130859,1,8,0:0:0:0:
256,191,131030,1,0,0:0:0:0:
256,192,131202,1,8,0:0:0:0:
256,192,131544,1,8,0:0:0:0:
256,192,131716,1,0,0:0:0:0:
256,192,131887,1,0,0:0:0:0:
256,192,131973,1,0,0:0:0:0:
256,192,132059,1,8,0:0:0:0:
256,191,132144,1,8,0:0:0:0:
256,192,132230,1,0,0:0:0:0:
256,191,132401,1,0,0:0:0:0:
256,192,132573,1,8,0:0:0:0:
256,192,132916,1,0,0:0:0:0:
256,192,133087,1,0,0:0:0:0:
256,192,133258,1,8,0:0:0:0:
256,192,133602,1,8,0:0:0:0:
256,192,133773,1,8,0:0:0:0:
256,191,133944,1,0,0:0:0:0:
256,191,134287,1,0,0:0:0:0:
256,191,134458,1,0,0:0:0:0:
256,191,134630,1,8,0:0:0:0:
256,192,134973,1,8,0:0:0:0:
256,191,135144,1,8,0:0:0:0:
256,192,135316,1,0,0:0:0:0:
256,191,135658,1,0,0:0:0:0:
256,192,135830,1,0,0:0:0:0:
256,191,136001,1,8,0:0:0:0:
256,192,136344,1,8,0:0:0:0:
256,192,136516,1,8,0:0:0:0:
256,192,136687,1,0,0:0:0:0:
256,192,136773,1,0,0:0:0:0:
256,192,136859,1,8,0:0:0:0:
256,191,137030,1,0,0:0:0:0:
256,192,137202,1,8,0:0:0:0:
256,192,137373,1,0,0:0:0:0:
256,192,137544,1,8,0:0:0:0:
256,192,137630,1,8,0:0:0:0:
256,192,137716,1,0,0:0:0:0:
256,192,137802,1,0,0:0:0:0:
256,192,137887,1,8,0:0:0:0:
256,192,138059,1,0,0:0:0:0:
256,192,138402,1,8,0:0:0:0:
256,192,138573,1,0,0:0:0:0:
256,192,138744,1,8,0:0:0:0:
256,192,139087,1,0,0:0:0:0:
256,192,139259,1,8,0:0:0:0:
256,191,139430,1,0,0:0:0:0:
256,191,139773,1,8,0:0:0:0:
256,191,139944,1,0,0:0:0:0:
256,191,140116,1,8,0:0:0:0:
256,191,140458,1,0,0:0:0:0:
256,191,140630,1,8,0:0:0:0:
256,192,140802,1,0,0:0:0:0:
256,191,141144,1,8,0:0:0:0:
256,192,141316,1,0,0:0:0:0:
256,191,141487,1,8,0:0:0:0:
256,192,141830,1,0,0:0:0:0:
256,191,142001,1,8,0:0:0:0:
256,192,142173,1,0,0:0:0:0:
256,191,142516,1,8,0:0:0:0:
256,192,142687,1,0,0:0:0:0:
256,191,142858,1,8,0:0:0:0:
256,192,142944,1,0,0:0:0:0:
256,192,143030,1,0,0:0:0:0:
256,192,143116,1,0,0:0:0:0:
256,192,143202,1,8,0:0:0:0:
256,192,143544,1,4,0:0:0:0:
256,192,143716,1,8,0:0:0:0:
256,191,143887,1,8,0:0:0:0:
256,192,144058,1,4,0:0:0:0:
256,192,144231,1,4,0:0:0:0:
256,191,144401,1,8,0:0:0:0:
288,192,144487,1,8,0:0:0:0:
288,192,144573,1,8,0:0:0:0:
256,191,144744,1,8,0:0:0:0:
256,192,144916,1,4,0:0:0:0:
256,192,145088,1,8,0:0:0:0:
256,191,145258,1,8,0:0:0:0:
256,192,145431,1,4,0:0:0:0:
256,192,145602,1,4,0:0:0:0:
256,191,145773,1,8,0:0:0:0:
288,192,145858,1,8,0:0:0:0:
256,191,145944,1,8,0:0:0:0:
256,191,146116,1,8,0:0:0:0:
256,192,146288,1,4,0:0:0:0:
256,192,146459,1,8,0:0:0:0:
256,191,146630,1,8,0:0:0:0:
256,192,146802,1,4,0:0:0:0:
256,192,146973,1,4,0:0:0:0:
256,192,147145,1,8,0:0:0:0:
320,192,147230,1,8,0:0:0:0:
256,191,147316,1,8,0:0:0:0:
256,191,147487,1,8,0:0:0:0:
256,192,147659,1,4,0:0:0:0:
256,192,147831,1,8,0:0:0:0:
256,191,148001,1,8,0:0:0:0:
256,192,148173,1,4,0:0:0:0:
256,192,148345,1,4,0:0:0:0:
256,192,148516,1,8,0:0:0:0:
288,160,148601,1,8,0:0:0:0:
256,191,148687,1,8,0:0:0:0:
256,191,148858,1,8,0:0:0:0:
256,192,149031,1,4,0:0:0:0:
256,192,149201,1,8,0:0:0:0:
256,192,149373,1,8,0:0:0:0:
256,192,149544,1,4,0:0:0:0:
256,192,149716,1,4,0:0:0:0:
256,192,149888,1,8,0:0:0:0:
256,192,150059,1,4,0:0:0:0:
256,192,150231,1,8,0:0:0:0:
256,192,150402,1,4,0:0:0:0:
256,192,150573,1,8,0:0:0:0:
256,192,150745,1,8,0:0:0:0:
256,192,150916,1,4,0:0:0:0:
256,192,151088,1,4,0:0:0:0:
256,192,151259,1,8,0:0:0:0:
256,192,151431,1,4,0:0:0:0:
256,192,151601,1,8,0:0:0:0:
256,192,151773,1,8,0:0:0:0:
256,192,151859,1,0,0:0:0:0:
256,192,151945,1,8,0:0:0:0:
256,192,152031,1,0,0:0:0:0:
256,192,152116,1,8,0:0:0:0:
256,192,152202,1,8,0:0:0:0:
256,192,152287,1,0,0:0:0:0:
256,192,152373,1,0,0:0:0:0:
256,192,152459,1,8,0:0:0:0:
256,192,152545,1,0,0:0:0:0:
256,192,152631,1,8,0:0:0:0:
256,192,152716,1,0,0:0:0:0:
256,192,152802,1,8,0:0:0:0:
256,192,152859,1,8,0:0:0:0:
256,192,152916,1,8,0:0:0:0:
256,192,152973,1,0,0:0:0:0:
256,192,153031,1,0,0:0:0:0:
256,192,153088,1,0,0:0:0:0:
256,192,153145,1,8,0:0:0:0:
256,191,153401,1,0,0:0:0:0:
256,191,153658,1,0,0:0:0:0:
256,191,153830,1,8,0:0:0:0:
256,191,154001,1,0,0:0:0:0:
256,191,154173,1,8,0:0:0:0:
256,192,154344,1,8,0:0:0:0:
256,192,154516,1,4,0:0:0:0:
