osu file format v14

[General]
AudioFilename: audio.mp3
AudioLeadIn: 0
PreviewTime: 43430
Countdown: 0
SampleSet: Normal
StackLeniency: 0.7
Mode: 2
LetterboxInBreaks: 0
WidescreenStoryboard: 1

[Editor]
Bookmarks: 64001,66744,98716,154601
DistanceSpacing: 1.4
BeatDivisor: 4
GridSize: 8
TimelineZoom: 2.899999

[Metadata]
Title:Tokyo (Innovaderz Remix)
TitleUnicode:Tokyo (Innovaderz Remix)
Artist:DJ Ozawa
ArtistUnicode:DJ Ozawa
Creator:Ascendance
Version:TokyOverdose [2017]
Source:
Tags:dnb lanturn mbomb -_magic_bomb_- magic bomb californian darknessofblue fii -wwwww kaitlin zirox sorcerer tomthewizard toybot Yumeno Himiko exam examination gero tenshichan [superstar] hi_hello CLSW crystal crystalseed tasuke912 boberofdarkness bodom koliron deif spectator qoot8123 julie prophecy nofool skylish onosakihito ozzyozrock nardo nardoxyribonucleic raiden nwolf backfire chromoxx saika -saika- lop fawx
BeatmapID:1211705
BeatmapSetID:427801

[Difficulty]
HPDrainRate:7
CircleSize:4.5
OverallDifficulty:9.6
ApproachRate:9.6
SliderMultiplier:1.92
SliderTickRate:2

[Events]
//Background and Video events
0,0,"Cities_Color_of_the_night_city_058372_.jpg",0,0
//Break Periods
2,116316,120921
//Storyboard Layer 0 (Background)
//Storyboard Layer 1 (Fail)
//Storyboard Layer 2 (Pass)
//Storyboard Layer 3 (Foreground)
//Storyboard Sound Samples

[TimingPoints]
916,342.857142857143,4,2,31,50,1,0
916,-133.333333333333,4,2,31,50,0,0
6316,-133.333333333333,4,2,31,50,0,0
6401,-133.333333333333,4,2,31,50,0,0
6916,-133.333333333333,4,2,31,50,0,0
7430,-133.333333333333,4,2,31,50,0,0
8801,-133.333333333333,4,2,31,50,0,0
9058,-133.333333333333,4,2,31,50,0,0
9144,-133.333333333333,4,2,31,50,0,0
11887,-133.333333333333,4,2,31,50,0,0
12401,-133.333333333333,4,2,31,50,0,0
12916,-133.333333333333,4,2,31,50,0,0
14287,-133.333333333333,4,2,31,50,0,0
17373,-133.333333333333,4,2,31,50,0,0
17887,-133.333333333333,4,2,31,50,0,0
18401,-133.333333333333,4,2,31,50,0,0
19773,-133.333333333333,4,2,31,50,0,0
22858,-100,4,3,31,50,0,0
33830,-100,4,1,31,60,0,0
44801,-100,4,1,0,70,0,1
66744,-100,4,1,34,60,0,0
67601,-100,4,1,34,50,0,0
67773,-100,4,1,34,40,0,0
68116,-100,4,1,34,60,0,0
68973,-100,4,1,34,50,0,0
69144,-100,4,1,34,40,0,0
69487,-100,4,1,34,60,0,0
70344,-100,4,1,34,50,0,0
70516,-100,4,1,34,40,0,0
70858,-100,4,1,34,60,0,0
71716,-100,4,1,34,50,0,0
71887,-100,4,1,34,40,0,0
72230,-100,4,1,34,60,0,0
72573,-100,4,1,34,60,0,0
73087,-100,4,1,34,50,0,0
73259,-100,4,1,34,40,0,0
73601,-100,4,1,34,60,0,0
74459,-100,4,1,34,50,0,0
74630,-100,4,1,34,40,0,0
74973,-100,4,1,34,60,0,0
75830,-100,4,1,34,50,0,0
76002,-100,4,1,34,40,0,0
76344,-100,4,1,34,60,0,0
77202,-100,4,1,34,50,0,0
77373,-100,4,1,34,40,0,0
77716,-100,4,1,33,60,0,0
88001,-100,4,1,0,60,0,0
88173,-100,4,1,0,30,0,0
88258,-100,4,1,0,60,0,0
88430,-100,4,1,0,30,0,0
88516,-100,4,1,0,60,0,0
88687,-100,4,1,34,60,0,0
89544,-100,4,1,34,50,0,0
89716,-100,4,1,34,40,0,0
90058,-100,4,1,34,60,0,0
90916,-100,4,1,34,50,0,0
91087,-100,4,1,34,40,0,0
91430,-100,4,1,34,60,0,0
92287,-100,4,1,34,50,0,0
92459,-100,4,1,34,40,0,0
92801,-100,4,1,34,60,0,0
93659,-100,4,1,34,50,0,0
93830,-100,4,1,34,40,0,0
94173,-100,4,1,34,60,0,0
95030,-100,4,1,34,50,0,0
95202,-100,4,1,34,40,0,0
95544,-100,4,1,34,60,0,0
96402,-100,4,1,34,50,0,0
96573,-100,4,1,34,40,0,0
96916,-100,4,1,34,60,0,0
97773,-100,4,1,34,50,0,0
97945,-100,4,1,34,40,0,0
98287,-100,4,1,34,60,0,0
99145,-100,4,1,34,50,0,0
99316,-100,4,1,34,40,0,0
99658,-100,4,1,33,60,0,1
108744,-100,4,1,33,30,0,1
108830,-100,4,1,33,60,0,1
109001,-100,4,1,33,30,0,1
109087,-100,4,1,33,60,0,1
109944,-100,4,1,33,50,0,1
110630,-100,4,2,32,40,0,0
110973,-100,4,2,32,50,0,0
111658,-100,4,2,32,40,0,0
111830,-100,4,2,32,30,0,0
112001,-100,4,2,32,40,0,0
112344,-100,4,2,32,50,0,0
113030,-100,4,2,32,40,0,0
113201,-100,4,2,32,30,0,0
113373,-100,4,2,32,40,0,0
113716,-100,4,2,32,50,0,0
114401,-100,4,2,32,40,0,0
114573,-100,4,2,32,30,0,0
114744,-100,4,2,32,40,0,0
115087,-100,4,2,32,50,0,0
115773,-100,4,2,32,40,0,0
115944,-100,4,2,32,30,0,0
116116,-100,4,2,32,40,0,0
116458,-100,4,2,32,50,0,0
116801,-100,4,2,32,50,0,0
117144,-100,4,2,32,40,0,0
117316,-100,4,2,32,30,0,0
117487,-100,4,2,32,40,0,0
117830,-100,4,2,32,50,0,0
118516,-100,4,2,32,40,0,0
118687,-100,4,2,32,30,0,0
118858,-100,4,2,32,40,0,0
119201,-100,4,2,32,50,0,0
119887,-100,4,2,32,40,0,0
120058,-100,4,2,32,30,0,0
120230,-100,4,2,32,40,0,0
120573,-100,4,2,32,50,0,0
121601,-133.333333333333,4,2,31,50,0,0
143544,-100,4,1,31,60,0,0
154516,-100,4,1,31,60,0,1
154601,-100,4,1,31,60,0,0

[HitObjects]
88,296,744,5,8,0:0:0:0:
416,240,915,5,0,0:0:0:0:
216,152,1258,2,0,L|376:152,2,144.000005493164,2|2|2,0:0|0:0|0:0,0:0:0:0:
480,24,2116,6,0,P|368:80|464:376,1,504.000019226075,2|2,0:0|0:0,0:0:0:0:
320,232,3658,2,0,L|88:248,2,216.000008239746,10|2|0,0:0|0:0|0:0,0:0:0:0:
128,136,5030,2,0,L|120:72,2,36.0000013732911,2|0|0,0:0|0:0|0:0,0:0:0:0:
256,224,5544,2,0,L|160:224,1,72.0000027465821,2|2,0:0|0:0,0:0:0:0:
360,144,5887,2,0,L|424:136,1,36.0000013732911,0|2,0:0|0:0,0:0:0:0:
192,112,6230,2,0,L|144:104,1,36.0000013732911,2|0,0:0|0:0,0:0:0:0:
424,224,6401,5,6,0:0:0:0:
168,320,6744,2,0,L|328:304,2,144.000005493164,2|2|2,0:0|0:0|0:0,0:0:0:0:
424,240,7601,2,0,P|336:240|440:48,1,432.000016479493,2|0,0:0|0:0,0:0:0:0:
344,136,8801,2,0,L|208:144,1,108.000004119873,2|0,0:0|0:0,0:0:0:0:
32,272,9144,2,0,L|272:256,2,216.000008239746,10|2|0,0:0|0:0|0:0,0:0:0:0:
472,312,10516,5,2,0:0:0:0:
288,256,10858,2,0,L|312:152,1,72.0000027465821,2|2,0:0|0:0,0:0:0:0:
448,144,11287,2,0,L|440:88,1,36.0000013732911,0|2,0:0|0:0,0:0:0:0:
248,56,11544,2,0,L|128:56,1,108.000004119873,2|0,0:0|0:0,0:0:0:0:
448,104,11887,5,6,0:0:0:0:
304,232,12230,2,0,L|448:232,2,144.000005493164,2|2|2,0:0|0:0|0:0,0:0:0:0:
48,352,13087,2,0,B|8:256|8:256|104:272|168:216|176:120|136:56|40:56,1,432.000016479493,2|0,0:0|0:0,0:0:0:0:
256,80,14287,2,0,L|392:72,1,108.000004119873,2|0,0:0|0:0,0:0:0:0:
88,216,14630,6,0,L|320:200,2,216.000008239746,10|2|0,0:0|0:0|0:0,0:0:0:0:
256,288,16001,2,0,L|248:352,2,36.0000013732911,2|0|0,0:0|0:0|0:0,0:0:0:0:
112,216,16516,2,0,L|96:112,1,72.0000027465821,2|2,0:0|0:0,0:0:0:0:
240,248,16858,2,0,L|216:312,1,36.0000013732911,0|2,0:0|0:0,0:0:0:0:
360,152,17201,2,0,L|424:160,1,36.0000013732911,2|0,0:0|0:0,0:0:0:0:
88,80,17373,5,6,0:0:0:0:
328,176,17716,2,0,L|184:176,2,144.000005493164,2|2|2,0:0|0:0|0:0,0:0:0:0:
56,352,18573,2,0,P|152:288|32:48,1,432.000016479493,2|0,0:0|0:0,0:0:0:0:
184,64,19773,2,0,L|320:48,1,108.000004119873,2|0,0:0|0:0,0:0:0:0:
88,344,20116,6,0,P|48:272|112:144,1,216.000008239746,10|2,0:0|0:0,0:0:0:0:
248,120,21144,1,0,0:0:0:0:
16,80,21487,1,2,0:0:0:0:
224,216,21830,2,0,L|128:216,1,72.0000027465821,2|2,0:0|0:0,0:0:0:0:
320,176,22258,2,0,L|384:176,1,36.0000013732911,0|2,0:0|0:0,0:0:0:0:
64,128,22516,2,0,L|200:128,1,108.000004119873,2|0,0:0|0:0,0:0:0:0:
416,64,22858,6,0,P|456:120|424:232,1,192,12|0,0:0|0:0,0:0:0:0:
304,272,23373,1,8,0:0:0:0:
184,208,23544,1,2,0:0:0:0:
304,152,23716,2,0,L|312:96,1,48,8|0,0:0|0:0,0:0:0:0:
144,16,23887,2,0,L|152:120,1,96,2|8,0:0|0:0,0:0:0:0:
304,152,24230,5,2,0:0:0:0:
32,192,24401,1,8,0:0:0:0:
304,152,24744,1,8,0:0:0:0:
32,192,24916,1,2,0:0:0:0:
152,296,25087,2,0,L|224:288,1,48,0|2,0:0|0:0,0:0:0:0:
392,200,25258,2,0,L|272:216,1,96,8|8,0:0|0:0,0:0:0:0:
48,192,25601,6,0,L|40:96,1,96,8|2,0:0|0:0,0:0:0:0:
211,195,25944,2,0,L|195:323,1,96,0|8,0:0|0:0,0:0:0:0:
72,344,26287,1,2,0:0:0:0:
199,290,26458,2,0,L|247:298,1,48,0|2,0:0|0:0,0:0:0:0:
88,192,26630,2,0,L|72:248,2,48,8|0|8,0:0|0:0|0:0,0:0:0:0:
224,144,26973,5,8,0:0:0:0:
472,96,27144,1,2,0:0:0:0:
224,136,27487,1,8,0:0:0:0:
472,96,27658,1,2,0:0:0:0:
272,120,27916,2,0,L|280:176,1,48,2|8,0:0|0:0,0:0:0:0:
464,256,28087,2,0,L|456:328,2,48,0|8|0,0:0|0:0|0:0,0:0:0:0:
208,288,28344,6,0,L|104:296,1,96,8|2,0:0|0:0,0:0:0:0:
280,208,28687,1,8,0:0:0:0:
168,144,28858,1,2,0:0:0:0:
280,88,29030,1,2,0:0:0:0:
168,144,29201,2,0,L|176:200,1,48,2|2,0:0|0:0,0:0:0:0:
408,368,29373,1,8,0:0:0:0:
429,325,29458,1,0,0:0:0:0:
430,277,29544,1,8,0:0:0:0:
409,234,29630,1,0,0:0:0:0:
168,144,29716,6,0,L|96:152,1,48,8|0,0:0|0:0,0:0:0:0:
320,192,29887,1,2,0:0:0:0:
184,344,30144,2,0,L|192:272,1,48,0|8,0:0|0:0,0:0:0:0:
440,144,30401,1,2,0:0:0:0:
200,96,30573,1,0,0:0:0:0:
128,168,30658,2,0,L|136:216,1,48,2|8,0:0|0:0,0:0:0:0:
208,256,30830,2,0,L|200:312,2,48,0|8|0,0:0|0:0|0:0,0:0:0:0:
416,248,31087,6,0,L|392:128,1,96,8|2,0:0|0:0,0:0:0:0:
272,104,31430,1,8,0:0:0:0:
408,40,31601,2,0,L|456:48,1,48,2|0,0:0|0:0,0:0:0:0:
224,328,31773,2,0,L|216:256,1,48,2|0,0:0|0:0,0:0:0:0:
280,240,31944,2,0,L|288:184,1,48,2|2,0:0|0:0,0:0:0:0:
104,104,32116,2,0,L|96:40,2,48,8|0|8,0:0|0:0|0:0,0:0:0:0:
264,136,32458,6,0,L|256:200,1,48,8|0,0:0|0:0,0:0:0:0:
56,288,32630,1,2,0:0:0:0:
264,264,32887,2,0,L|328:272,1,48,0|8,0:0|0:0,0:0:0:0:
32,160,33144,1,2,0:0:0:0:
232,96,33316,1,0,0:0:0:0:
160,88,33401,1,2,0:0:0:0:
416,72,33487,1,8,0:0:0:0:
447,107,33572,1,0,0:0:0:0:
458,153,33658,1,8,0:0:0:0:
445,198,33744,1,0,0:0:0:0:
136,352,33830,6,0,L|128:232,1,96,12|2,0:0|0:0,0:0:0:0:
384,176,34173,1,8,0:0:0:0:
128,88,34344,2,0,L|240:88,2,96,6|2|2,0:0|0:0|0:0,0:0:0:0:
274,142,34858,1,8,0:0:0:0:
310,172,34943,1,0,0:0:0:0:
324,217,35029,1,2,0:0:0:0:
311,262,35115,1,0,0:0:0:0:
72,344,35201,6,0,L|176:344,1,96,12|2,0:0|0:0,0:0:0:0:
440,336,35544,1,8,0:0:0:0:
208,192,35716,2,0,L|336:192,1,96,6|6,0:0|0:0,0:0:0:0:
432,192,36058,1,2,0:0:0:0:
312,192,36230,1,8,0:0:0:0:
281,155,36315,1,0,0:0:0:0:
277,108,36401,1,2,0:0:0:0:
301,68,36487,1,0,0:0:0:0:
128,320,36573,6,0,L|24:304,1,96,12|2,0:0|0:0,0:0:0:0:
352,256,36916,1,8,0:0:0:0:
104,192,37087,2,0,L|112:88,1,96,6|2,0:0|0:0,0:0:0:0:
240,48,37430,1,2,0:0:0:0:
368,264,37601,1,8,0:0:0:0:
391,222,37686,1,0,0:0:0:0:
401,175,37772,1,2,0:0:0:0:
396,128,37858,1,0,0:0:0:0:
216,152,37944,6,0,L|112:128,1,96,12|2,0:0|0:0,0:0:0:0:
400,72,38287,1,8,0:0:0:0:
64,328,38458,2,0,L|48:224,1,96,6|6,0:0|0:0,0:0:0:0:
160,160,38801,2,0,L|176:96,1,48,0|2,0:0|0:0,0:0:0:0:
416,232,38973,1,8,0:0:0:0:
368,236,39058,1,0,0:0:0:0:
320,241,39144,1,2,0:0:0:0:
272,246,39230,1,0,0:0:0:0:
488,328,39316,5,12,0:0:0:0:
360,288,39487,1,8,0:0:0:0:
352,168,39658,1,8,0:0:0:0:
56,312,39830,1,14,0:0:0:0:
184,248,40001,1,12,0:0:0:0:
184,128,40173,1,8,0:0:0:0:
440,80,40344,1,4,0:0:0:0:
88,128,40516,1,2,0:0:0:0:
464,248,40687,6,0,L|352:240,2,96,12|8|8,0:0|0:0|0:0,0:0:0:0:
56,296,41201,2,0,L|176:288,2,96,14|12|8,0:0|0:0|0:0,0:0:0:0:
376,152,41716,1,4,0:0:0:0:
128,152,41887,1,2,0:0:0:0:
384,352,42058,5,8,0:0:0:0:
412,314,42143,1,0,0:0:0:0:
414,267,42229,1,8,0:0:0:0:
388,227,42315,1,0,0:0:0:0:
160,224,42401,2,0,L|152:176,1,48,8|0,0:0|0:0,0:0:0:0:
344,40,42573,2,0,L|328:96,1,48,8|0,0:0|0:0,0:0:0:0:
96,360,42744,5,8,0:0:0:0:
68,321,42829,1,0,0:0:0:0:
66,274,42915,1,8,0:0:0:0:
88,232,43001,1,0,0:0:0:0:
344,200,43087,1,8,0:0:0:0:
367,194,43129,1,0,0:0:0:0:
386,180,43172,1,0,0:0:0:0:
399,160,43215,1,0,0:0:0:0:
404,137,43258,1,0,0:0:0:0:
400,113,43301,1,0,0:0:0:0:
388,93,43344,1,0,0:0:0:0:
370,78,43387,1,0,0:0:0:0:
72,48,43430,6,0,L|80:160,1,96,8|0,0:0|0:0,0:0:0:0:
256,208,43858,1,0,0:0:0:0:
80,280,44116,2,0,L|216:288,2,96,0|0|0,0:0|0:0|0:0,0:0:0:0:
176,208,44630,2,0,L|112:200,1,48,4|0,0:0|0:0,0:0:0:0:
408,64,44801,6,0,L|400:192,1,96,12|0,0:0|0:0,0:0:0:0:
120,248,45144,1,8,0:0:0:0:
264,352,45316,2,0,L|280:280,1,48,0|0,0:0|0:0,0:0:0:0:
104,248,45487,1,0,0:0:0:0:
63,223,45572,1,0,0:0:0:0:
46,179,45658,1,8,0:0:0:0:
59,134,45744,1,0,0:0:0:0:
296,64,45830,2,0,L|408:64,1,96,8|0,0:0|0:0,0:0:0:0:
440,96,46087,1,0,0:0:0:0:
184,184,46173,6,0,L|288:184,1,96,8|0,0:0|0:0,0:0:0:0:
48,296,46516,1,8,0:0:0:0:
184,192,46687,2,0,L|200:128,1,48,0|0,0:0|0:0,0:0:0:0:
40,48,46858,2,0,L|32:112,2,48,0|0|8,0:0|0:0|0:0,0:0:0:0:
304,176,47201,2,0,L|192:192,1,96,8|0,0:0|0:0,0:0:0:0:
160,160,47458,1,0,0:0:0:0:
384,80,47544,5,8,0:0:0:0:
423,105,47629,1,0,0:0:0:0:
440,149,47715,1,0,0:0:0:0:
426,194,47801,1,0,0:0:0:0:
144,304,47887,1,8,0:0:0:0:
256,240,48058,2,0,L|264:168,1,48,0|0,0:0|0:0,0:0:0:0:
96,144,48230,2,0,L|56:48,1,96,0|8,0:0|0:0,0:0:0:0:
400,96,48573,1,8,0:0:0:0:
272,168,48744,2,0,L|288:256,1,48,0|0,0:0|0:0,0:0:0:0:
453,365,48916,5,8,0:0:0:0:
483,328,49001,1,0,0:0:0:0:
491,281,49087,1,0,0:0:0:0:
476,237,49173,1,0,0:0:0:0:
208,144,49258,2,0,L|160:144,1,48,8|0,0:0|0:0,0:0:0:0:
208,144,49430,2,0,L|272:144,1,48,0|0,0:0|0:0,0:0:0:0:
80,48,49601,2,0,L|24:48,1,48,0|0,0:0|0:0,0:0:0:0:
368,224,49773,2,0,L|432:224,1,48,8|0,0:0|0:0,0:0:0:0:
240,296,49944,2,0,L|80:296,1,144,8|0,0:0|0:0,0:0:0:0:
368,224,50287,6,0,P|408:168|360:80,1,144,10|0,0:0|0:0,0:0:0:0:
72,56,50630,1,8,0:0:0:0:
368,224,50801,6,0,P|408:168|360:80,1,144,2|0,0:0|0:0,0:0:0:0:
72,56,51144,1,8,0:0:0:0:
176,152,51316,2,0,L|232:152,1,48,8|0,0:0|0:0,0:0:0:0:
464,88,51487,2,0,L|376:88,1,48,0|0,0:0|0:0,0:0:0:0:
64,336,51658,6,0,P|16:272|72:192,1,144,10|0,0:0|0:0,0:0:0:0:
320,176,52001,1,8,0:0:0:0:
64,336,52173,6,0,P|16:272|72:192,1,144,2|0,0:0|0:0,0:0:0:0:
320,176,52516,1,8,0:0:0:0:
208,80,52687,2,0,L|224:144,1,48,8|0,0:0|0:0,0:0:0:0:
424,232,52858,2,0,L|416:304,1,48,0|0,0:0|0:0,0:0:0:0:
160,344,53030,5,10,0:0:0:0:
137,301,53115,1,0,0:0:0:0:
139,254,53201,1,0,0:0:0:0:
164,214,53287,1,0,0:0:0:0:
336,152,53373,2,0,L|416:152,1,48,8|0,0:0|0:0,0:0:0:0:
336,152,53544,2,0,L|384:152,1,48,0|0,0:0|0:0,0:0:0:0:
168,96,53716,6,0,L|88:96,1,48,2|0,0:0|0:0,0:0:0:0:
168,96,53887,2,0,L|224:96,1,48,8|0,0:0|0:0,0:0:0:0:
432,56,54058,2,0,L|376:56,1,48,8|0,0:0|0:0,0:0:0:0:
192,32,54230,2,0,L|120:32,1,48,0|0,0:0|0:0,0:0:0:0:
448,184,54401,5,10,0:0:0:0:
176,280,54573,1,0,0:0:0:0:
224,280,54658,1,0,0:0:0:0:
272,280,54744,1,8,0:0:0:0:
37,155,54916,1,8,0:0:0:0:
85,155,55001,1,0,0:0:0:0:
133,155,55087,1,2,0:0:0:0:
416,152,55258,1,8,0:0:0:0:
160,64,55430,1,8,0:0:0:0:
208,64,55515,1,0,0:0:0:0:
467,202,55601,1,8,0:0:0:0:
443,202,55643,1,0,0:0:0:0:
419,202,55686,1,0,0:0:0:0:
395,202,55729,1,0,0:0:0:0:
168,280,55773,6,0,L|280:280,1,96,12|0,0:0|0:0,0:0:0:0:
16,200,56116,1,8,0:0:0:0:
152,152,56287,2,0,L|160:104,1,48,0|0,0:0|0:0,0:0:0:0:
96,80,56458,2,0,L|80:24,1,48,0|0,0:0|0:0,0:0:0:0:
320,248,56630,2,0,L|192:248,1,96,8|8,0:0|0:0,0:0:0:0:
360,176,56973,2,0,L|416:176,1,48,0|0,0:0|0:0,0:0:0:0:
224,128,57144,6,0,L|112:128,1,96,8|0,0:0|0:0,0:0:0:0:
408,32,57487,1,8,0:0:0:0:
451,49,57572,1,0,0:0:0:0:
474,90,57658,1,0,0:0:0:0:
467,137,57744,1,0,0:0:0:0:
433,169,57829,1,0,0:0:0:0:
304,176,58001,1,8,0:0:0:0:
48,168,58173,1,8,0:0:0:0:
144,112,58344,2,0,L|208:112,1,48,0|0,0:0|0:0,0:0:0:0:
448,264,58516,5,8,0:0:0:0:
400,264,58601,1,0,0:0:0:0:
352,264,58687,1,0,0:0:0:0:
104,264,58858,1,8,0:0:0:0:
240,200,59030,2,0,L|256:128,1,48,0|0,0:0|0:0,0:0:0:0:
72,40,59201,1,0,0:0:0:0:
44,78,59286,1,0,0:0:0:0:
42,125,59372,1,8,0:0:0:0:
67,166,59458,1,0,0:0:0:0:
288,80,59544,2,0,L|408:96,1,96,8|0,0:0|0:0,0:0:0:0:
432,128,59801,1,0,0:0:0:0:
208,272,59887,6,0,L|152:272,1,48,8|0,0:0|0:0,0:0:0:0:
352,232,60058,2,0,L|400:232,1,48,0|0,0:0|0:0,0:0:0:0:
208,272,60230,2,0,L|128:272,1,48,8|0,0:0|0:0,0:0:0:0:
352,232,60401,2,0,L|416:232,1,48,0|0,0:0|0:0,0:0:0:0:
88,192,60573,1,0,0:0:0:0:
60,153,60658,1,0,0:0:0:0:
58,106,60744,1,8,0:0:0:0:
83,66,60830,1,0,0:0:0:0:
304,24,60916,2,0,L|416:32,1,96,8|0,0:0|0:0,0:0:0:0:
448,72,61173,1,0,0:0:0:0:
224,168,61258,6,0,L|64:168,1,144,10|0,0:0|0:0,0:0:0:0:
448,256,61601,1,8,0:0:0:0:
80,168,61773,2,0,L|232:168,1,144,2|0,0:0|0:0,0:0:0:0:
16,112,62116,1,8,0:0:0:0:
296,64,62287,2,0,L|184:64,1,96,8|0,0:0|0:0,0:0:0:0:
248,64,62544,1,0,0:0:0:0:
72,232,62630,6,0,L|248:232,1,144,10|0,0:0|0:0,0:0:0:0:
448,224,62973,1,8,0:0:0:0:
184,152,63144,2,0,L|352:152,1,144,2|0,0:0|0:0,0:0:0:0:
64,96,63487,1,8,0:0:0:0:
360,64,63658,1,8,0:0:0:0:
312,64,63743,1,0,0:0:0:0:
264,64,63829,1,0,0:0:0:0:
216,64,63915,1,0,0:0:0:0:
464,344,64001,6,0,L|472:280,3,48,10|0|0|0,0:0|0:0|0:0|0:0,0:0:0:0:
128,224,64344,2,0,L|104:152,1,48,8|0,0:0|0:0,0:0:0:0:
408,48,64516,2,0,L|392:120,1,48,0|0,0:0|0:0,0:0:0:0:
48,344,64687,6,0,L|40:280,3,48,2|0|8|0,0:0|0:0|0:0|0:0,0:0:0:0:
384,224,65030,2,0,L|408:152,1,48,8|0,0:0|0:0,0:0:0:0:
104,48,65202,2,0,L|120:120,1,48,0|0,0:0|0:0,0:0:0:0:
344,160,65373,6,0,L|432:152,1,48,10|0,0:0|0:0,0:0:0:0:
128,224,65544,1,0,0:0:0:0:
240,320,65716,2,0,L|168:320,1,48,8|0,0:0|0:0,0:0:0:0:
456,184,65887,1,8,0:0:0:0:
320,104,66058,6,0,L|264:112,1,48,2|0,0:0|0:0,0:0:0:0:
112,232,66230,2,0,L|192:224,1,48,8|0,0:0|0:0,0:0:0:0:
400,280,66401,1,8,0:0:0:0:
352,287,66486,1,0,0:0:0:0:
305,294,66572,1,8,0:0:0:0:
257,302,66658,1,0,0:0:0:0:
56,336,66744,6,0,P|32:248|96:136,1,192,12|8,0:2|0:0,0:0:0:0:
176,104,67258,1,0,0:0:0:0:
320,176,67430,2,0,L|424:168,1,96,2|10,0:0|0:0,0:0:0:0:
256,264,67773,2,0,L|152:256,1,96,10|0,0:0|0:0,0:0:0:0:
456,352,68116,6,0,P|400:296|464:112,1,288,12|0,0:0|0:0,0:0:0:0:
312,144,68801,2,0,L|208:136,1,96,2|10,0:0|0:0,0:0:0:0:
368,272,69144,2,0,L|392:176,1,96,10|0,0:0|0:0,0:0:0:0:
344,136,69401,1,0,0:0:0:0:
48,288,69487,5,8,0:0:0:0:
176,272,69658,1,0,0:0:0:0:
48,288,69830,1,8,0:0:0:0:
176,264,70001,1,0,0:0:0:0:
464,288,70173,5,2,0:0:0:0:
336,272,70344,1,10,0:0:0:0:
464,288,70516,1,10,0:0:0:0:
336,264,70687,1,0,0:0:0:0:
80,104,70858,6,0,L|280:128,1,192,12|8,0:0|0:0,0:0:0:0:
160,192,71373,1,0,0:0:0:0:
296,320,71544,2,0,L|304:264,2,48,2|0|10,0:0|0:0|0:0,0:0:0:0:
160,192,71887,1,10,0:0:0:0:
320,144,72058,2,0,L|328:72,1,48,0|0,0:0|0:0,0:0:0:0:
104,88,72230,6,0,P|48:160|128:240,1,192,12|8,0:2|0:0,0:0:0:0:
208,248,72744,1,0,0:0:0:0:
104,328,72916,2,0,L|216:320,1,96,2|10,0:0|0:0,0:0:0:0:
312,264,73258,2,0,L|424:272,1,96,10|0,0:0|0:0,0:0:0:0:
80,248,73601,6,0,P|168:192|64:80,1,288,12|0,0:0|0:0,0:0:0:0:
192,80,74287,2,0,L|288:72,1,96,2|10,0:0|0:0,0:0:0:0:
408,176,74630,2,0,L|304:160,1,96,10|0,0:0|0:0,0:0:0:0:
48,360,74973,5,8,0:0:0:0:
32,341,75015,1,0,0:0:0:0:
22,320,75058,1,0,0:0:0:0:
16,296,75101,1,0,0:0:0:0:
16,272,75144,1,0,0:0:0:0:
22,249,75187,1,0,0:0:0:0:
32,228,75230,1,0,0:0:0:0:
47,209,75273,1,0,0:0:0:0:
400,224,75316,5,8,0:0:0:0:
415,205,75358,1,0,0:0:0:0:
425,184,75401,1,0,0:0:0:0:
431,160,75444,1,0,0:0:0:0:
431,136,75487,1,0,0:0:0:0:
425,113,75530,1,0,0:0:0:0:
415,92,75573,1,0,0:0:0:0:
400,73,75616,1,0,0:0:0:0:
48,360,75658,5,2,0:0:0:0:
32,341,75700,1,0,0:0:0:0:
22,320,75743,1,0,0:0:0:0:
16,296,75786,1,0,0:0:0:0:
16,272,75829,1,10,0:0:0:0:
22,249,75872,1,0,0:0:0:0:
32,228,75915,1,0,0:0:0:0:
47,209,75958,1,0,0:0:0:0:
400,224,76001,5,10,0:0:0:0:
415,205,76043,1,0,0:0:0:0:
425,184,76086,1,0,0:0:0:0:
431,160,76129,1,0,0:0:0:0:
431,136,76172,1,0,0:0:0:0:
425,113,76215,1,0,0:0:0:0:
415,92,76258,1,0,0:0:0:0:
400,73,76301,1,0,0:0:0:0:
152,40,76344,5,8,0:0:0:0:
264,112,76516,2,0,L|256:184,1,48,0|0,0:0|0:0,0:0:0:0:
112,200,76687,2,0,L|128:328,1,96,8|0,0:0|0:0,0:0:0:0:
176,328,76944,1,0,0:0:0:0:
432,256,77030,2,0,L|352:256,1,48,2|0,0:0|0:0,0:0:0:0:
176,168,77201,2,0,L|264:168,1,48,10|0,0:0|0:0,0:0:0:0:
448,40,77373,1,10,0:0:0:0:
462,58,77415,1,0,0:0:0:0:
473,80,77458,1,0,0:0:0:0:
478,103,77501,1,0,0:0:0:0:
479,127,77544,1,0,0:0:0:0:
475,151,77587,1,0,0:0:0:0:
466,173,77630,1,0,0:0:0:0:
453,193,77673,1,0,0:0:0:0:
96,312,77716,5,12,0:0:0:0:
224,264,77887,2,0,L|232:232,1,24,0|0,0:0|0:0,0:0:0:0:
120,152,78058,2,0,L|112:120,1,24,8|0,0:0|0:0,0:0:0:0:
272,88,78230,2,0,L|280:48,1,24,0|0,0:0|0:0,0:0:0:0:
80,352,78401,6,0,L|64:312,1,24,0|0,0:0|0:0,0:0:0:0:
152,232,78573,2,0,L|160:208,1,24,8|0,0:0|0:0,0:0:0:0:
56,128,78744,2,0,L|48:88,1,24,8|0,0:0|0:0,0:0:0:0:
208,32,78916,2,0,L|272:40,1,48,0|0,0:0|0:0,0:0:0:0:
464,112,79087,6,0,L|456:144,1,24,8|0,0:0|0:0,0:0:0:0:
344,200,79258,2,0,L|360:240,1,24,0|0,0:0|0:0,0:0:0:0:
496,272,79430,2,0,L|488:312,1,24,8|0,0:0|0:0,0:0:0:0:
144,272,79601,6,0,L|136:240,1,24,2|0,0:0|0:0,0:0:0:0:
256,192,79773,2,0,L|264:160,1,24,2|0,0:0|0:0,0:0:0:0:
40,136,79944,2,0,L|32:104,1,24,10|0,0:0|0:0,0:0:0:0:
392,96,80116,2,0,L|400:64,1,24,10|0,0:0|0:0,0:0:0:0:
296,32,80287,2,0,L|232:40,1,48,0|0,0:0|0:0,0:0:0:0:
472,168,80458,6,0,L|464:192,1,24,8|0,0:0|0:0,0:0:0:0:
352,256,80630,2,0,L|336:288,1,24,0|0,0:0|0:0,0:0:0:0:
232,312,80801,2,0,L|216:344,1,24,8|0,0:0|0:0,0:0:0:0:
312,256,80973,2,0,L|360:264,1,48,2|0,0:0|0:0,0:0:0:0:
40,168,81144,6,0,L|48:192,1,24,2|0,0:0|0:0,0:0:0:0:
160,256,81316,2,0,L|176:288,1,24,10|0,0:0|0:0,0:0:0:0:
280,312,81487,2,0,L|296:344,1,24,10|0,0:0|0:0,0:0:0:0:
184,256,81659,2,0,L|120:264,1,48,0|0,0:0|0:0,0:0:0:0:
328,192,81830,6,0,L|336:160,1,24,8|0,0:0|0:0,0:0:0:0:
240,120,82001,2,0,L|232:96,1,24,0|0,0:0|0:0,0:0:0:0:
328,192,82173,2,0,L|344:152,1,24,8|0,0:0|0:0,0:0:0:0:
256,256,82344,2,0,L|200:256,1,48,2|0,0:0|0:0,0:0:0:0:
448,344,82516,6,0,L|456:304,1,24,2|0,0:0|0:0,0:0:0:0:
352,256,82687,2,0,L|336:232,1,24,10|0,0:0|0:0,0:0:0:0:
464,176,82858,2,0,L|464:136,1,24,10|0,0:0|0:0,0:0:0:0:
336,48,83030,2,0,L|272:56,1,48,2|0,0:0|0:0,0:0:0:0:
40,184,83201,6,0,L|80:176,1,24,8|0,0:0|0:0,0:0:0:0:
192,208,83373,2,0,L|232:200,1,24,0|0,0:0|0:0,0:0:0:0:
432,88,83544,2,0,L|464:80,1,24,8|0,0:0|0:0,0:0:0:0:
352,160,83716,2,0,L|312:152,1,24,0|0,0:0|0:0,0:0:0:0:
456,248,83887,2,0,L|488:240,1,24,0|0,0:0|0:0,0:0:0:0:
192,328,84058,2,0,L|152:320,1,24,8|0,0:0|0:0,0:0:0:0:
392,264,84230,1,10,0:0:0:0:
413,221,84315,1,0,0:0:0:0:
411,174,84401,1,2,0:0:0:0:
385,135,84487,1,0,0:0:0:0:
120,72,84573,6,0,L|88:64,1,24,8|0,0:0|0:0,0:0:0:0:
360,64,84744,2,0,L|384:64,1,24,0|0,0:0|0:0,0:0:0:0:
248,136,84916,1,8,0:0:0:0:
254,183,85001,1,0,0:0:0:0:
261,231,85087,1,2,0:0:0:0:
344,280,85173,1,0,0:0:0:0:
112,296,85258,5,2,0:0:0:0:
84,257,85343,1,0,0:0:0:0:
82,210,85429,1,10,0:0:0:0:
107,169,85515,1,0,0:0:0:0:
336,96,85601,2,0,L|360:88,1,24,10|0,0:0|0:0,0:0:0:0:
128,56,85773,2,0,L|88:48,1,24,0|0,0:0|0:0,0:0:0:0:
448,320,85944,6,0,L|456:280,1,24,8|0,0:0|0:0,0:0:0:0:
82,252,86116,2,0,L|98:276,1,24,0|0,0:0|0:0,0:0:0:0:
208,256,86287,2,0,L|224:288,1,24,8|0,0:0|0:0,0:0:0:0:
96,272,86458,2,0,L|80:240,1,24,2|0,0:0|0:0,0:0:0:0:
160,152,86630,1,2,0:0:0:0:
207,157,86715,1,0,0:0:0:0:
255,162,86801,1,10,0:0:0:0:
303,167,86887,1,0,0:0:0:0:
80,104,86973,2,0,L|72:80,1,24,10|0,0:0|0:0,0:0:0:0:
192,64,87144,2,0,L|208:32,1,24,0|0,0:0|0:0,0:0:0:0:
464,208,87316,6,0,L|440:288,2,64,12|0|0,0:0|0:0|0:0,0:0:0:0:
136,272,87658,2,0,L|152:352,2,64,8|0|0,0:0|0:0|0:0,0:0:0:0:
392,192,88001,6,0,P|416:144|392:72,1,96,12|8,0:0|0:0,0:0:0:0:
208,48,88258,2,0,L|104:40,1,96,8|0,0:0|0:0,0:0:0:0:
320,176,88516,2,0,L|368:168,1,48,8|0,0:0|0:0,0:0:0:0:
56,336,88687,6,0,P|32:248|96:136,1,192,12|8,0:2|0:0,0:0:0:0:
176,104,89201,1,0,0:0:0:0:
320,176,89373,2,0,L|424:168,1,96,2|10,0:0|0:0,0:0:0:0:
256,264,89716,2,0,L|152:256,1,96,10|0,0:0|0:0,0:0:0:0:
456,352,90059,6,0,P|400:296|464:112,1,288,12|0,0:0|0:0,0:0:0:0:
312,144,90744,2,0,L|208:136,1,96,2|10,0:0|0:0,0:0:0:0:
368,272,91087,2,0,L|392:176,1,96,10|0,0:0|0:0,0:0:0:0:
344,136,91344,1,0,0:0:0:0:
48,288,91430,5,8,0:0:0:0:
176,272,91601,1,0,0:0:0:0:
48,288,91773,1,8,0:0:0:0:
176,264,91944,1,0,0:0:0:0:
464,288,92116,5,2,0:0:0:0:
336,272,92287,1,10,0:0:0:0:
464,288,92459,1,10,0:0:0:0:
336,264,92630,1,0,0:0:0:0:
80,104,92801,6,0,L|280:128,1,192,12|8,0:0|0:0,0:0:0:0:
160,192,93316,1,0,0:0:0:0:
296,320,93487,2,0,L|304:264,2,48,2|0|10,0:0|0:0|0:0,0:0:0:0:
160,192,93830,1,10,0:0:0:0:
320,144,94001,2,0,L|328:72,1,48,0|0,0:0|0:0,0:0:0:0:
104,88,94173,6,0,P|48:160|128:240,1,192,12|8,0:2|0:0,0:0:0:0:
208,248,94687,1,0,0:0:0:0:
104,328,94859,2,0,L|216:320,1,96,2|10,0:0|0:0,0:0:0:0:
312,264,95201,2,0,L|424:272,1,96,10|0,0:0|0:0,0:0:0:0:
80,248,95544,6,0,P|168:192|64:80,1,288,12|0,0:0|0:0,0:0:0:0:
192,80,96230,2,0,L|288:72,1,96,2|10,0:0|0:0,0:0:0:0:
408,176,96573,2,0,L|304:160,1,96,10|0,0:0|0:0,0:0:0:0:
48,360,96916,5,8,0:0:0:0:
32,341,96958,1,0,0:0:0:0:
22,320,97001,1,0,0:0:0:0:
16,296,97044,1,0,0:0:0:0:
16,272,97087,1,0,0:0:0:0:
22,249,97130,1,0,0:0:0:0:
32,228,97173,1,0,0:0:0:0:
47,209,97216,1,0,0:0:0:0:
400,224,97259,5,8,0:0:0:0:
415,205,97301,1,0,0:0:0:0:
425,184,97344,1,0,0:0:0:0:
431,160,97387,1,0,0:0:0:0:
431,136,97430,1,0,0:0:0:0:
425,113,97473,1,0,0:0:0:0:
415,92,97516,1,0,0:0:0:0:
400,73,97559,1,0,0:0:0:0:
48,360,97601,5,2,0:0:0:0:
32,341,97643,1,0,0:0:0:0:
22,320,97686,1,0,0:0:0:0:
16,296,97729,1,0,0:0:0:0:
16,272,97772,1,10,0:0:0:0:
22,249,97815,1,0,0:0:0:0:
32,228,97858,1,0,0:0:0:0:
47,209,97901,1,0,0:0:0:0:
400,224,97944,5,10,0:0:0:0:
415,205,97986,1,0,0:0:0:0:
425,184,98029,1,0,0:0:0:0:
431,160,98072,1,0,0:0:0:0:
431,136,98115,1,0,0:0:0:0:
425,113,98158,1,0,0:0:0:0:
415,92,98201,1,0,0:0:0:0:
400,73,98244,1,0,0:0:0:0:
152,40,98287,5,8,0:0:0:0:
264,112,98459,2,0,L|256:184,1,48,0|0,0:0|0:0,0:0:0:0:
112,200,98630,2,0,L|128:328,1,96,8|0,0:0|0:0,0:0:0:0:
320,256,98887,2,0,L|376:264,2,48,0|2|0,0:0|0:0|0:0,0:0:0:0:
120,96,99144,2,0,L|184:104,1,48,10|0,0:0|0:0,0:0:0:0:
360,80,99316,2,0,L|416:88,1,48,10|0,0:0|0:0,0:0:0:0:
208,240,99487,1,0,0:0:0:0:
184,237,99529,1,0,0:0:0:0:
160,235,99572,1,0,0:0:0:0:
136,232,99615,1,0,0:0:0:0:
392,344,99658,6,0,L|400:288,1,48,12|0,0:0|0:0,0:0:0:0:
320,256,99830,2,0,L|304:208,1,48,0|0,0:0|0:0,0:0:0:0:
464,120,100001,2,0,L|472:64,1,48,8|0,0:0|0:0,0:0:0:0:
192,48,100173,6,0,L|208:96,1,48,2|0,0:0|0:0,0:0:0:0:
288,120,100344,2,0,L|272:168,1,48,2|0,0:0|0:0,0:0:0:0:
56,224,100516,2,0,L|80:280,1,48,10|0,0:0|0:0,0:0:0:0:
344,328,100687,1,10,0:0:0:0:
391,320,100772,1,0,0:0:0:0:
438,313,100858,1,0,0:0:0:0:
486,305,100944,1,0,0:0:0:0:
224,208,101030,6,0,L|176:208,1,48,8|0,0:0|0:0,0:0:0:0:
256,160,101201,2,0,L|208:160,1,48,0|0,0:0|0:0,0:0:0:0:
408,96,101373,2,0,L|456:96,1,48,8|0,0:0|0:0,0:0:0:0:
192,56,101544,2,0,L|136:56,1,48,2|0,0:0|0:0,0:0:0:0:
224,88,101716,2,0,L|168:88,1,48,2|0,0:0|0:0,0:0:0:0:
416,208,101887,2,0,L|488:208,1,48,10|0,0:0|0:0,0:0:0:0:
216,312,102058,1,10,0:0:0:0:
168,312,102143,1,0,0:0:0:0:
120,312,102229,1,0,0:0:0:0:
72,312,102315,1,0,0:0:0:0:
280,232,102401,6,0,L|336:232,1,48,8|0,0:0|0:0,0:0:0:0:
280,232,102572,2,0,L|224:232,1,48,0|0,0:0|0:0,0:0:0:0:
448,144,102744,2,0,L|496:144,1,48,10|0,0:0|0:0,0:0:0:0:
168,88,102916,2,0,L|104:88,1,48,0|0,0:0|0:0,0:0:0:0:
272,184,103087,6,0,L|328:184,1,48,0|0,0:0|0:0,0:0:0:0:
272,184,103258,2,0,L|184:184,1,48,8|0,0:0|0:0,0:0:0:0:
424,104,103430,2,0,L|480:104,1,48,10|0,0:0|0:0,0:0:0:0:
152,88,103601,2,0,L|88:88,1,48,0|0,0:0|0:0,0:0:0:0:
440,336,103773,6,0,L|440:288,1,48,8|0,0:0|0:0,0:0:0:0:
264,216,103944,2,0,L|264:160,1,48,0|0,0:0|0:0,0:0:0:0:
440,336,104116,2,0,L|440:288,1,48,10|0,0:0|0:0,0:0:0:0:
264,216,104287,2,0,L|264:160,1,48,2|0,0:0|0:0,0:0:0:0:
448,80,104458,6,0,L|392:80,1,48,0|0,0:0|0:0,0:0:0:0:
168,64,104630,2,0,L|248:64,1,48,8|0,0:0|0:0,0:0:0:0:
432,176,104801,2,0,L|376:176,1,48,10|0,0:0|0:0,0:0:0:0:
128,216,104973,2,0,L|200:208,1,48,2|0,0:0|0:0,0:0:0:0:
392,352,105144,5,8,0:0:0:0:
420,314,105229,1,0,0:0:0:0:
419,267,105315,1,0,0:0:0:0:
387,232,105401,1,0,0:0:0:0:
144,200,105487,1,10,0:0:0:0:
264,160,105658,2,0,L|272:104,1,48,0|0,0:0|0:0,0:0:0:0:
40,48,105830,6,0,L|48:104,1,48,2|0,0:0|0:0,0:0:0:0:
104,128,106001,2,0,L|112:176,1,48,8|0,0:0|0:0,0:0:0:0:
296,368,106173,1,10,0:0:0:0:
323,329,106258,1,0,0:0:0:0:
325,281,106344,1,2,0:0:0:0:
302,240,106430,1,0,0:0:0:0:
120,208,106516,5,8,0:0:0:0:
87,173,106601,1,0,0:0:0:0:
81,127,106687,1,0,0:0:0:0:
104,86,106773,1,0,0:0:0:0:
360,72,106858,1,10,0:0:0:0:
248,176,107030,2,0,L|312:176,1,48,2|0,0:0|0:0,0:0:0:0:
496,264,107201,6,0,L|416:264,1,48,2|0,0:0|0:0,0:0:0:0:
400,264,107373,2,0,L|464:264,1,48,8|0,0:0|0:0,0:0:0:0:
224,288,107544,2,0,L|144:288,1,48,10|0,0:0|0:0,0:0:0:0:
360,208,107716,2,0,L|424:208,1,48,2|0,0:0|0:0,0:0:0:0:
160,48,107887,6,0,L|176:144,1,96,8|2,0:0|0:0,0:0:0:0:
240,176,108144,1,0,0:0:0:0:
304,208,108230,2,0,L|296:320,1,96,8|2,0:0|0:0,0:0:0:0:
232,336,108487,1,0,0:0:0:0:
80,264,108573,6,0,L|72:152,1,96,8|0,0:0|0:0,0:0:0:0:
120,128,108830,1,8,0:0:0:0:
432,264,108916,2,0,L|440:152,1,96,0|8,0:0|0:0,0:0:0:0:
392,128,109173,1,0,0:0:0:0:
48,16,109258,6,0,L|56:128,1,96,12|2,0:0|0:0,0:0:0:0:
120,128,109516,1,0,0:0:0:0:
304,208,109601,2,0,L|296:320,1,96,8|2,0:0|0:0,0:0:0:0:
232,336,109858,1,0,0:0:0:0:
168,296,109944,2,0,L|160:184,1,96,8|2,0:0|0:0,0:0:0:0:
216,160,110201,1,0,0:0:0:0:
384,104,110287,2,0,L|448:112,1,48,8|0,0:0|0:0,0:0:0:0:
208,48,110458,2,0,L|160:56,1,48,2|0,0:0|0:0,0:0:0:0:
384,104,110630,5,4,0:0:0:0:
256,192,110801,12,0,116116,0:0:0:0:
88,296,121430,5,10,0:0:0:0:
416,240,121601,5,6,0:0:0:0:
216,152,121944,2,0,L|376:152,2,144.000005493164,2|2|2,0:0|0:0|0:0,0:0:0:0:
480,24,122802,6,0,P|368:80|464:376,1,504.000019226075,2|2,0:0|0:0,0:0:0:0:
320,232,124344,2,0,L|88:248,2,216.000008239746,10|2|0,0:0|0:0|0:0,0:0:0:0:
128,136,125716,2,0,L|120:72,2,36.0000013732911,2|0|0,0:0|0:0|0:0,0:0:0:0:
256,224,126230,2,0,L|160:224,1,72.0000027465821,2|2,0:0|0:0,0:0:0:0:
360,144,126573,2,0,L|424:136,1,36.0000013732911,0|2,0:0|0:0,0:0:0:0:
192,112,126916,2,0,L|144:104,1,36.0000013732911,2|0,0:0|0:0,0:0:0:0:
424,224,127087,5,6,0:0:0:0:
168,320,127430,2,0,L|328:304,2,144.000005493164,2|2|2,0:0|0:0|0:0,0:0:0:0:
424,240,128287,2,0,P|336:240|440:48,1,432.000016479493,2|0,0:0|0:0,0:0:0:0:
344,136,129487,2,0,L|208:144,1,108.000004119873,2|0,0:0|0:0,0:0:0:0:
32,272,129830,2,0,L|272:256,2,216.000008239746,10|2|0,0:0|0:0|0:0,0:0:0:0:
472,312,131202,5,2,0:0:0:0:
288,256,131544,2,0,L|312:152,1,72.0000027465821,2|2,0:0|0:0,0:0:0:0:
448,144,131973,2,0,L|440:88,1,36.0000013732911,0|2,0:0|0:0,0:0:0:0:
248,56,132230,2,0,L|128:56,1,108.000004119873,2|0,0:0|0:0,0:0:0:0:
448,104,132573,5,6,0:0:0:0:
304,232,132916,2,0,L|448:232,2,144.000005493164,2|2|2,0:0|0:0|0:0,0:0:0:0:
48,352,133773,2,0,B|8:256|8:256|104:272|168:216|176:120|136:56|40:56,1,432.000016479493,2|0,0:0|0:0,0:0:0:0:
256,80,134973,2,0,L|392:72,1,108.000004119873,2|0,0:0|0:0,0:0:0:0:
88,216,135316,6,0,L|320:200,2,216.000008239746,10|2|0,0:0|0:0|0:0,0:0:0:0:
256,288,136687,2,0,L|248:352,2,36.0000013732911,2|0|0,0:0|0:0|0:0,0:0:0:0:
112,216,137202,2,0,L|96:112,1,72.0000027465821,2|2,0:0|0:0,0:0:0:0:
240,248,137544,2,0,L|216:312,1,36.0000013732911,0|2,0:0|0:0,0:0:0:0:
360,152,137887,2,0,L|424:160,1,36.0000013732911,2|0,0:0|0:0,0:0:0:0:
88,80,138059,5,6,0:0:0:0:
328,176,138402,2,0,L|184:176,2,144.000005493164,2|2|2,0:0|0:0|0:0,0:0:0:0:
56,352,139259,2,0,P|152:288|32:48,1,432.000016479493,2|0,0:0|0:0,0:0:0:0:
184,64,140459,2,0,L|320:48,1,108.000004119873,2|0,0:0|0:0,0:0:0:0:
88,344,140802,6,0,P|48:272|112:144,1,216.000008239746,10|2,0:0|0:0,0:0:0:0:
248,120,141830,1,0,0:0:0:0:
16,80,142173,1,2,0:0:0:0:
224,216,142516,2,0,L|128:216,1,72.0000027465821,2|2,0:0|0:0,0:0:0:0:
320,176,142944,2,0,L|384:176,1,36.0000013732911,0|2,0:0|0:0,0:0:0:0:
64,128,143202,2,0,L|200:128,1,108.000004119873,2|0,0:0|0:0,0:0:0:0:
424,328,143544,6,0,P|472:264|400:152,1,192,12|8,0:0|0:0,0:0:0:0:
160,48,144058,2,0,P|128:112|168:224,1,192,6|2,0:0|0:0,0:0:0:0:
272,272,144573,2,0,L|368:272,1,96,8|2,0:0|0:0,0:0:0:0:
40,344,144916,6,0,L|264:352,1,192,12|8,0:0|0:0,0:0:0:0:
464,176,145430,2,0,L|256:176,1,192,6|2,0:0|0:0,0:0:0:0:
368,176,145944,2,0,L|480:176,1,96,8|2,0:0|0:0,0:0:0:0:
24,48,146287,6,0,L|40:280,1,192,12|8,0:0|0:0,0:0:0:0:
368,152,146801,2,0,L|376:360,1,192,6|2,0:0|0:0,0:0:0:0:
264,72,147316,2,0,L|376:72,1,96,8|2,0:0|0:0,0:0:0:0:
128,320,147658,6,0,P|80:256|144:144,1,192,12|8,0:0|0:0,0:0:0:0:
384,32,148173,2,0,P|424:88|368:208,1,192,6|0,0:0|0:0,0:0:0:0:
272,248,148687,2,0,L|168:256,1,96,8|2,0:0|0:0,0:0:0:0:
448,336,149030,6,0,L|344:328,2,96,12|8|8,0:0|0:0|0:0,0:0:0:0:
56,192,149544,2,0,L|192:176,2,96,14|12|8,0:0|0:0|0:0,0:0:0:0:
384,176,150058,1,4,0:0:0:0:
104,112,150230,1,2,0:0:0:0:
416,40,150401,6,0,L|408:144,1,96,12|8,0:0|0:0,0:0:0:0:
112,232,150744,1,8,0:0:0:0:
384,368,150916,2,0,L|400:256,1,96,14|12,0:0|0:0,0:0:0:0:
112,232,151258,1,8,0:0:0:0:
368,176,151430,1,4,0:0:0:0:
80,136,151601,1,2,0:0:0:0:
376,64,151773,6,0,L|432:64,1,48,8|0,0:0|0:0,0:0:0:0:
200,160,151944,2,0,L|136:160,1,48,8|0,0:0|0:0,0:0:0:0:
400,264,152116,2,0,L|472:264,1,48,8|0,0:0|0:0,0:0:0:0:
112,296,152287,2,0,L|32:296,1,48,8|0,0:0|0:0,0:0:0:0:
488,128,152458,6,0,L|424:136,1,48,8|0,0:0|0:0,0:0:0:0:
136,56,152630,2,0,L|216:64,1,48,8|0,0:0|0:0,0:0:0:0:
384,56,152801,6,0,L|416:48,1,24,8|0,0:0|0:0,0:0:0:0:
224,160,152887,2,0,L|200:152,1,24,0|0,0:0|0:0,0:0:0:0:
416,208,152973,2,0,L|448:208,1,24,0|0,0:0|0:0,0:0:0:0:
208,280,153058,2,0,L|176:272,1,24,0|0,0:0|0:0,0:0:0:0:
464,320,153144,5,8,0:0:0:0:
272,208,154344,2,0,L|216:216,1,48,4|0,0:0|0:0,0:0:0:0:
440,128,154516,5,4,0:0:0:0:
