osu file format v14

[General]
AudioFilename: audio.mp3
AudioLeadIn: 0
PreviewTime: 43430
Countdown: 0
SampleSet: Soft
StackLeniency: 0.7
Mode: 2
LetterboxInBreaks: 0
WidescreenStoryboard: 0

[Editor]
Bookmarks: 915,22858,33830,44801,55773,66744,77716,99658,110630,121601,132573,143544,154601
DistanceSpacing: 1.3
BeatDivisor: 4
GridSize: 8
TimelineZoom: 3.199999

[Metadata]
Title:Tokyo (Innovaderz Remix)
TitleUnicode:Tokyo (Innovaderz Remix)
Artist:DJ Ozawa
ArtistUnicode:DJ Ozawa
Creator:Ascendance
Version:Overdose II
Source:
Tags:dnb lanturn mbomb -_magic_bomb_- magic bomb californian darknessofblue fii -wwwww kaitlin zirox sorcerer tomthewizard toybot Yumeno Himiko exam examination gero tenshichan [superstar] hi_hello CLSW crystal crystalseed tasuke912 boberofdarkness bodom koliron deif spectator qoot8123 julie prophecy nofool skylish onosakihito ozzyozrock nardo nardoxyribonucleic raiden nwolf backfire chromoxx saika -saika- lop fawx
BeatmapID:981635
BeatmapSetID:427801

[Difficulty]
HPDrainRate:6
CircleSize:2
OverallDifficulty:9.3
ApproachRate:9.3
SliderMultiplier:1.92
SliderTickRate:2

[Events]
//Background and Video events
0,0,"Cities_Color_of_the_night_city_058372_.jpg",0,0
//Break Periods
//Storyboard Layer 0 (Background)
//Storyboard Layer 1 (Fail)
//Storyboard Layer 2 (Pass)
//Storyboard Layer 3 (Foreground)
//Storyboard Sound Samples

[TimingPoints]
916,342.857142857143,4,2,11,50,1,0
2287,-133.333333333333,4,2,11,50,0,0
11887,-133.333333333333,4,2,11,50,0,0
12401,-133.333333333333,4,2,11,50,0,0
12916,-133.333333333333,4,2,11,50,0,0
14287,-133.333333333333,4,2,11,50,0,0
17373,-133.333333333333,4,2,11,50,0,0
17887,-133.333333333333,4,2,11,50,0,0
18401,-133.333333333333,4,2,11,50,0,0
19773,-133.333333333333,4,2,11,50,0,0
22858,-100,4,3,11,50,0,0
33830,-100,4,1,11,60,0,0
44801,-75.187969924812,4,1,0,70,0,1
55773,-100,4,1,0,70,0,1
66744,-100,4,1,14,60,0,0
67601,-100,4,1,14,50,0,0
67773,-100,4,1,14,40,0,0
68116,-100,4,1,14,60,0,0
68973,-100,4,1,14,50,0,0
69144,-100,4,1,14,40,0,0
69487,-100,4,1,14,60,0,0
70344,-100,4,1,14,50,0,0
70516,-100,4,1,14,40,0,0
70858,-100,4,1,14,60,0,0
71716,-100,4,1,14,50,0,0
71887,-100,4,1,14,40,0,0
72230,-100,4,1,14,60,0,0
73087,-100,4,1,14,50,0,0
73259,-100,4,1,14,40,0,0
73601,-100,4,1,14,60,0,0
74459,-100,4,1,14,50,0,0
74630,-100,4,1,14,40,0,0
74973,-100,4,1,14,60,0,0
75830,-100,4,1,14,50,0,0
76002,-100,4,1,14,40,0,0
76344,-100,4,1,14,60,0,0
77202,-100,4,1,14,50,0,0
77373,-100,4,1,14,40,0,0
77716,-75.187969924812,4,1,13,60,0,0
88001,-75.187969924812,4,1,0,60,0,0
88173,-75.187969924812,4,1,0,30,0,0
88258,-75.187969924812,4,1,0,60,0,0
88430,-75.187969924812,4,1,0,30,0,0
88516,-75.187969924812,4,1,0,60,0,0
88687,-75.187969924812,4,1,14,60,0,0
88858,-100,4,1,14,60,0,0
89544,-100,4,1,14,50,0,0
89716,-100,4,1,14,40,0,0
90058,-100,4,1,14,60,0,0
90916,-100,4,1,14,50,0,0
91087,-100,4,1,14,40,0,0
91430,-100,4,1,14,60,0,0
92287,-100,4,1,14,50,0,0
92459,-100,4,1,14,40,0,0
92801,-100,4,1,14,60,0,0
93659,-100,4,1,14,50,0,0
93830,-100,4,1,14,40,0,0
94173,-100,4,1,14,60,0,0
95030,-100,4,1,14,50,0,0
95202,-100,4,1,14,40,0,0
95544,-100,4,1,14,60,0,0
96402,-100,4,1,14,50,0,0
96573,-100,4,1,14,40,0,0
96916,-100,4,1,14,60,0,0
97773,-100,4,1,14,50,0,0
97945,-100,4,1,14,40,0,0
98287,-100,4,1,14,60,0,0
99145,-100,4,1,14,50,0,0
99316,-100,4,1,14,40,0,0
99658,-75.187969924812,4,1,13,60,0,1
108744,-75.187969924812,4,1,13,30,0,1
108830,-75.187969924812,4,1,13,60,0,1
109001,-75.187969924812,4,1,13,30,0,1
109087,-75.187969924812,4,1,13,60,0,1
109944,-75.187969924812,4,1,13,50,0,1
110630,-149.253731343284,4,2,12,40,0,0
115773,-149.253731343284,4,2,12,40,0,0
116116,-149.253731343284,4,2,12,40,0,0
116458,-149.253731343284,4,2,12,50,0,0
117144,-149.253731343284,4,2,12,40,0,0
117316,-149.253731343284,4,2,12,30,0,0
117487,-149.253731343284,4,2,12,40,0,0
117830,-149.253731343284,4,2,12,50,0,0
118516,-149.253731343284,4,2,12,40,0,0
118687,-149.253731343284,4,2,12,30,0,0
118858,-149.253731343284,4,2,12,40,0,0
119201,-149.253731343284,4,2,12,50,0,0
119887,-149.253731343284,4,2,12,40,0,0
120058,-149.253731343284,4,2,12,30,0,0
120230,-149.253731343284,4,2,12,40,0,0
120573,-149.253731343284,4,2,12,50,0,0
121601,-149.253731343284,4,2,11,50,0,0
143544,-100,4,1,11,60,0,0
154516,-100,4,1,11,60,0,1
154601,-100,4,1,11,60,0,0

[Colours]
Combo1 : 0,0,227
Combo2 : 0,0,128
Combo3 : 0,0,64
Combo4 : 0,0,160

[HitObjects]
256,256,915,6,0,P|320:256|416:176,1,192,0|0,0:0|0:0,0:0:0:0:
208,160,1601,2,0,P|144:160|32:80,1,192,2|2,0:0|0:0,0:0:0:0:
336,64,2116,6,0,P|480:176|272:288,1,480,2|0,0:0|0:0,0:0:0:0:
472,304,3316,1,2,0:0:0:0:
16,304,3658,6,0,L|240:304,2,216.000008239746,10|2|0,0:0|0:0|0:0,0:0:0:0:
220,304,5030,2,0,L|184:304,2,36.0000013732911,2|0|0,0:0|0:0|0:0,0:0:0:0:
320,304,5373,2,0,L|392:304,1,72.0000027465821,0|2,0:0|0:0,0:0:0:0:
184,304,5716,6,0,L|48:304,2,108.000004119873,2|2|2,0:0|0:0|0:0,0:0:0:0:
480,296,6401,5,6,0:0:0:0:
288,296,6744,2,0,P|272:240|280:136,1,144.000005493164,2|2,0:0|0:0,0:0:0:0:
424,144,7430,1,2,0:0:0:0:
144,88,7601,6,0,P|64:136|200:272,1,360.000013732911,2|0,0:0|0:0,0:0:0:0:
32,272,8801,1,2,0:0:0:0:
400,280,9144,6,0,P|480:224|400:160,2,216.000008239746,10|2|0,0:0|0:0|0:0,0:0:0:0:
296,280,10516,2,0,L|152:200,1,144.000005493164,2|2,0:0|0:0,0:0:0:0:
336,152,11030,1,2,0:0:0:0:
200,80,11287,2,0,L|152:56,1,36.0000013732911,0|2,0:0|0:0,0:0:0:0:
320,56,11544,2,0,L|424:64,1,72.0000027465821,2|2,0:0|0:0,0:0:0:0:
48,56,11887,5,6,0:0:0:0:
224,56,12230,2,0,L|384:56,1,144.000005493164,2|2,0:0|0:0,0:0:0:0:
168,56,12916,1,2,0:0:0:0:
432,56,13087,6,0,P|480:112|432:248,1,216.000008239746,2|0,0:0|0:0,0:0:0:0:
256,240,13944,2,0,L|192:184,1,72.0000027465821,0|0,0:0|0:0,0:0:0:0:
312,144,14287,2,0,L|368:80,1,72.0000027465821,2|0,0:0|0:0,0:0:0:0:
80,88,14630,6,0,P|24:136|96:240,1,216.000008239746,10|2,0:0|0:0,0:0:0:0:
240,232,15316,1,2,0:0:0:0:
104,232,15487,2,0,L|32:232,2,72.0000027465821,0|0|0,0:0|0:0|0:0,0:0:0:0:
368,240,16001,6,0,L|432:240,2,36.0000013732911,2|0|0,0:0|0:0|0:0,0:0:0:0:
224,240,16344,2,0,L|328:240,1,72.0000027465821,0|2,0:0|0:0,0:0:0:0:
120,152,16687,2,0,L|8:152,2,108.000004119873,2|2|2,0:0|0:0|0:0,0:0:0:0:
448,144,17373,5,6,0:0:0:0:
224,144,17716,2,0,L|376:144,1,144.000005493164,2|2,0:0|0:0,0:0:0:0:
128,144,18401,1,2,0:0:0:0:
376,144,18573,2,0,P|416:192|328:312,1,216.000008239746,2|0,0:0|0:0,0:0:0:0:
480,312,19430,6,0,L|320:312,1,144.000005493164,0|2,0:0|0:0,0:0:0:0:
424,312,19944,1,0,0:0:0:0:
136,304,20116,6,0,P|96:240|160:120,1,216.000008239746,10|2,0:0|0:0,0:0:0:0:
296,120,20801,2,0,L|184:224,1,144.000005493164,2|0,0:0|0:0,0:0:0:0:
424,296,21487,6,0,P|440:232|392:152,1,144.000005493164,2|2,0:0|0:0,0:0:0:0:
256,80,22001,1,2,0:0:0:0:
424,56,22173,2,0,L|488:48,2,36.0000013732911,0|0|2,0:0|0:0|0:0,0:0:0:0:
160,88,22516,2,0,L|56:96,1,72.0000027465821,2|2,0:0|0:0,0:0:0:0:
400,192,22858,5,12,0:0:0:0:
256,192,22944,12,8,28001,0:0:0:0:
320,192,28344,6,0,L|384:104,1,96,8|2,0:0|0:0,0:0:0:0:
216,136,28687,2,0,L|144:224,1,96,8|2,0:0|0:0,0:0:0:0:
288,280,29030,1,2,0:0:0:0:
144,312,29201,2,0,L|64:336,2,48,2|2|8,0:0|0:0|0:0,0:0:0:0:
336,272,29544,1,8,0:0:0:0:
56,208,29716,6,0,L|32:96,1,96,8|2,0:0|0:0,0:0:0:0:
312,144,30230,2,0,L|328:40,1,96,8|2,0:0|0:0,0:0:0:0:
192,136,30658,2,0,L|136:104,1,48,2|8,0:0|0:0,0:0:0:0:
328,48,30916,1,8,0:0:0:0:
64,40,31087,6,0,L|176:40,1,96,8|2,0:0|0:0,0:0:0:0:
264,128,31430,2,0,L|144:128,1,96,8|2,0:0|0:0,0:0:0:0:
336,128,31773,1,2,0:0:0:0:
208,128,31944,2,0,L|152:128,2,48,2|2|8,0:0|0:0|0:0,0:0:0:0:
56,128,32287,1,8,0:0:0:0:
360,200,32458,6,0,L|384:304,1,96,8|2,0:0|0:0,0:0:0:0:
136,232,32973,2,0,L|112:128,1,96,8|2,0:0|0:0,0:0:0:0:
336,128,33401,2,0,L|384:104,1,48,2|8,0:0|0:0,0:0:0:0:
88,64,33658,1,8,0:0:0:0:
384,120,33830,6,0,L|512:128,2,96,12|2|8,0:0|0:0|0:0,0:0:0:0:
112,216,34344,2,0,L|0:240,2,96,6|2|2,0:0|0:0|0:0,0:0:0:0:
384,232,34858,2,0,L|480:256,1,96,8|2,0:0|0:0,0:0:0:0:
200,152,35201,6,0,L|88:112,1,96,12|2,0:0|0:0,0:0:0:0:
8,88,35544,1,8,0:0:0:0:
344,64,35716,2,0,L|248:88,1,96,6|6,0:0|0:0,0:0:0:0:
136,120,36058,1,2,0:0:0:0:
384,232,36230,2,0,L|504:280,1,96,8|2,0:0|0:0,0:0:0:0:
176,208,36573,6,0,L|296:160,2,96,12|2|8,0:0|0:0|0:0,0:0:0:0:
448,296,37087,2,0,L|344:272,2,96,6|2|2,0:0|0:0|0:0,0:0:0:0:
168,224,37601,2,0,L|64:192,1,96,8|2,0:0|0:0,0:0:0:0:
392,72,37944,6,0,L|392:176,1,96,12|2,0:0|0:0,0:0:0:0:
280,168,38287,1,8,0:0:0:0:
32,280,38458,2,0,L|32:152,1,96,6|6,0:0|0:0,0:0:0:0:
144,184,38801,1,0,0:0:0:0:
480,184,38973,2,0,L|360:184,1,96,8|2,0:0|0:0,0:0:0:0:
56,176,39316,5,12,0:0:0:0:
232,176,39487,1,8,0:0:0:0:
144,176,39658,1,8,0:0:0:0:
320,176,39830,1,14,0:0:0:0:
232,176,40001,1,12,0:0:0:0:
408,176,40173,1,8,0:0:0:0:
320,176,40344,1,4,0:0:0:0:
496,176,40516,1,2,0:0:0:0:
496,176,40687,5,12,0:0:0:0:
320,176,40858,1,8,0:0:0:0:
408,176,41029,1,8,0:0:0:0:
232,176,41201,1,14,0:0:0:0:
320,176,41372,1,12,0:0:0:0:
144,176,41544,1,8,0:0:0:0:
232,176,41715,1,4,0:0:0:0:
56,176,41887,1,2,0:0:0:0:
408,64,42058,5,8,0:0:0:0:
441,98,42143,1,0,0:0:0:0:
457,143,42229,1,8,0:0:0:0:
452,190,42315,1,0,0:0:0:0:
428,231,42400,1,8,0:0:0:0:
390,259,42486,1,0,0:0:0:0:
343,268,42572,1,8,0:0:0:0:
297,256,42657,1,0,0:0:0:0:
88,320,42744,5,8,0:0:0:0:
63,278,42829,1,0,0:0:0:0:
54,231,42915,1,8,0:0:0:0:
61,184,43001,1,0,0:0:0:0:
83,142,43086,1,8,0:0:0:0:
118,109,43172,1,0,0:0:0:0:
162,90,43258,1,0,0:0:0:0:
210,87,43343,1,0,0:0:0:0:
496,88,43430,5,8,0:0:0:0:
104,168,44630,2,0,L|88:120,1,48,4|0,0:0|0:0,0:0:0:0:
448,96,44801,6,0,P|472:160|352:264,1,191.519992109619,12|0,0:0|0:0,0:0:0:0:
136,256,45144,1,8,0:0:0:0:
311,232,45316,2,0,L|248:240,2,63.8399973698732,0|0|0,0:0|0:0|0:0,0:0:0:0:
128,200,45658,1,8,0:0:0:0:
256,160,45830,2,0,L|400:136,1,127.679994739746,8|0,0:0|0:0,0:0:0:0:
64,104,46173,6,0,P|64:208|152:256,1,191.519992109619,8|0,0:0|0:0,0:0:0:0:
392,256,46516,1,8,0:0:0:0:
256,232,46687,2,0,L|319:246,2,63.8399973698732,0|0|0,0:0|0:0|0:0,0:0:0:0:
400,192,47030,2,0,L|264:160,2,127.679994739746,8|8|0,0:0|0:0|0:0,0:0:0:0:
104,288,47544,6,0,P|80:208|160:144,1,191.519992109619,8|0,0:0|0:0,0:0:0:0:
416,136,47887,1,8,0:0:0:0:
288,136,48058,2,0,L|208:136,2,63.8399973698732,0|0|0,0:0|0:0|0:0,0:0:0:0:
416,136,48401,1,8,0:0:0:0:
456,208,48487,1,0,0:0:0:0:
448,288,48573,1,8,0:0:0:0:
392,344,48658,1,0,0:0:0:0:
312,360,48744,1,0,0:0:0:0:
232,336,48830,1,0,0:0:0:0:
400,288,48916,5,8,0:0:0:0:
448,250,49001,1,0,0:0:0:0:
448,188,49087,1,0,0:0:0:0:
399,151,49173,1,0,0:0:0:0:
136,200,49258,5,8,0:0:0:0:
91,156,49343,1,0,0:0:0:0:
99,95,49429,1,0,0:0:0:0:
151,64,49515,1,0,0:0:0:0:
352,64,49601,6,0,L|424:64,1,63.8399973698732,0|0,0:0|0:0,0:0:0:0:
168,160,49773,2,0,L|96:160,1,63.8399973698732,8|0,0:0|0:0,0:0:0:0:
352,168,49944,2,0,L|480:168,1,127.679994739746,8|0,0:0|0:0,0:0:0:0:
184,288,50287,6,0,P|120:264|40:160,1,191.519992109619,10|0,0:0|0:0,0:0:0:0:
424,168,50630,1,8,0:0:0:0:
320,168,50801,2,0,P|248:152|160:64,1,191.519992109619,2|0,0:0|0:0,0:0:0:0:
416,48,51144,5,8,0:0:0:0:
296,48,51316,1,8,0:0:0:0:
256,120,51401,1,0,0:0:0:0:
264,200,51487,1,0,0:0:0:0:
328,256,51573,1,0,0:0:0:0:
488,312,51658,6,0,L|504:120,1,191.519992109619,10|0,0:0|0:0,0:0:0:0:
208,120,52001,1,8,0:0:0:0:
360,240,52173,2,0,L|376:32,1,191.519992109619,2|0,0:0|0:0,0:0:0:0:
96,48,52516,1,8,0:0:0:0:
216,80,52687,1,8,0:0:0:0:
247,133,52772,1,0,0:0:0:0:
230,193,52858,1,0,0:0:0:0:
192,232,52944,1,0,0:0:0:0:
24,312,53030,5,10,0:0:0:0:
1,257,53115,1,0,0:0:0:0:
12,195,53201,1,0,0:0:0:0:
60,155,53287,1,0,0:0:0:0:
336,136,53373,2,0,L|400:136,1,63.8399973698732,8|0,0:0|0:0,0:0:0:0:
336,136,53544,2,0,L|248:136,1,63.8399973698732,0|0,0:0|0:0,0:0:0:0:
464,320,53716,5,2,0:0:0:0:
490,264,53801,1,0,0:0:0:0:
466,207,53887,1,8,0:0:0:0:
407,188,53973,1,0,0:0:0:0:
208,200,54058,2,0,L|144:200,1,63.8399973698732,8|0,0:0|0:0,0:0:0:0:
208,200,54230,2,0,L|288:200,1,63.8399973698732,0|0,0:0|0:0,0:0:0:0:
32,104,54401,5,10,0:0:0:0:
136,112,54573,1,0,0:0:0:0:
240,112,54744,1,8,0:0:0:0:
488,112,54916,5,8,0:0:0:0:
368,112,55087,1,2,0:0:0:0:
256,112,55258,1,8,0:0:0:0:
400,112,55430,6,0,L|464:112,1,63.8399973698732,8|0,0:0|0:0,0:0:0:0:
144,112,55601,2,0,L|64:112,1,63.8399973698732,8|0,0:0|0:0,0:0:0:0:
368,112,55773,6,0,P|376:176|320:264,1,144,12|0,0:0|0:0,0:0:0:0:
64,240,56116,1,8,0:0:0:0:
192,240,56287,2,0,L|248:240,2,48,0|0|0,0:0|0:0|0:0,0:0:0:0:
328,240,56630,2,0,L|456:240,2,96,8|8|0,0:0|0:0|0:0,0:0:0:0:
56,248,57144,6,0,P|40:192|80:104,1,144,8|0,0:0|0:0,0:0:0:0:
368,112,57487,1,8,0:0:0:0:
208,112,57658,1,0,0:0:0:0:
264,136,57744,1,0,0:0:0:0:
320,152,57830,1,0,0:0:0:0:
200,224,58001,2,0,L|96:232,2,96,8|8|0,0:0|0:0|0:0,0:0:0:0:
472,216,58516,6,0,L|304:160,1,144,8|0,0:0|0:0,0:0:0:0:
496,112,58858,1,8,0:0:0:0:
376,80,59030,2,0,L|288:48,2,48,0|0|0,0:0|0:0|0:0,0:0:0:0:
304,152,59373,2,0,L|184:184,2,96,8|8|0,0:0|0:0|0:0,0:0:0:0:
48,104,59887,5,8,0:0:0:0:
28,147,59972,1,0,0:0:0:0:
36,193,60058,1,0,0:0:0:0:
67,229,60144,1,0,0:0:0:0:
336,280,60230,2,0,L|416:296,1,48,8|0,0:0|0:0,0:0:0:0:
184,192,60401,2,0,L|128:168,1,48,0|0,0:0|0:0,0:0:0:0:
408,72,60573,5,0,0:0:0:0:
431,113,60658,1,0,0:0:0:0:
427,160,60744,1,8,0:0:0:0:
397,196,60830,1,0,0:0:0:0:
80,200,60916,2,0,L|16:200,1,48,8|0,0:0|0:0,0:0:0:0:
80,200,61087,2,0,L|144:200,1,48,0|0,0:0|0:0,0:0:0:0:
376,304,61258,6,0,P|440:256|448:176,1,144,10|0,0:0|0:0,0:0:0:0:
184,144,61601,1,8,0:0:0:0:
312,136,61773,2,0,P|352:184|272:240,1,144,2|0,0:0|0:0,0:0:0:0:
96,248,62116,1,8,0:0:0:0:
208,248,62287,2,0,L|320:248,1,96,8|0,0:0|0:0,0:0:0:0:
16,144,62630,6,0,P|104:152|168:128,1,144,10|0,0:0|0:0,0:0:0:0:
352,112,62973,1,8,0:0:0:0:
232,112,63144,2,0,P|136:96|80:64,1,144,2|0,0:0|0:0,0:0:0:0:
448,56,63487,1,8,0:0:0:0:
328,128,63658,2,0,P|384:152|464:152,1,96,8|0,0:0|0:0,0:0:0:0:
48,152,64001,5,10,0:0:0:0:
27,194,64086,1,0,0:0:0:0:
36,241,64172,1,0,0:0:0:0:
70,273,64258,1,0,0:0:0:0:
280,216,64344,5,8,0:0:0:0:
310,181,64429,1,0,0:0:0:0:
299,136,64515,1,0,0:0:0:0:
257,118,64601,1,0,0:0:0:0:
448,48,64687,5,2,0:0:0:0:
477,85,64772,1,0,0:0:0:0:
476,132,64858,1,8,0:0:0:0:
447,168,64944,1,0,0:0:0:0:
144,200,65030,5,8,0:0:0:0:
127,244,65115,1,0,0:0:0:0:
140,289,65201,1,0,0:0:0:0:
178,317,65287,1,0,0:0:0:0:
424,304,65373,6,0,L|440:232,3,48,10|0|0|0,0:0|0:0|0:0|0:0,0:0:0:0:
184,200,65716,6,0,L|168:144,3,48,8|0|8|0,0:0|0:0|0:0|0:0,0:0:0:0:
384,128,66058,6,0,L|448:104,1,48,2|0,0:0|0:0,0:0:0:0:
144,104,66230,2,0,L|88:96,1,48,8|0,0:0|0:0,0:0:0:0:
304,280,66401,1,8,0:0:0:0:
335,245,66486,1,0,0:0:0:0:
332,199,66572,1,8,0:0:0:0:
296,170,66658,1,0,0:0:0:0:
64,136,66744,6,0,P|144:176|224:168,1,144,12|0,0:2|0:0,0:0:0:0:
424,112,67087,1,8,0:0:0:0:
296,112,67258,1,0,0:0:0:0:
184,64,67430,1,2,0:0:0:0:
96,152,67601,1,10,0:0:0:0:
136,272,67773,1,10,0:0:0:0:
264,280,67944,1,0,0:0:0:0:
16,248,68116,6,0,P|104:200|176:208,1,144,12|0,0:0|0:0,0:0:0:0:
384,208,68458,1,8,0:0:0:0:
256,200,68630,1,0,0:0:0:0:
352,280,68801,1,2,0:0:0:0:
456,216,68973,1,10,0:0:0:0:
424,96,69144,1,10,0:0:0:0:
296,96,69316,1,0,0:0:0:0:
120,136,69487,6,0,L|240:176,1,96,8|0,0:0|0:0,0:0:0:0:
312,240,69830,2,0,L|184:272,1,96,8|0,0:0|0:0,0:0:0:0:
472,312,70173,5,2,0:0:0:0:
368,240,70344,1,10,0:0:0:0:
328,120,70516,1,10,0:0:0:0:
416,32,70687,1,0,0:0:0:0:
136,88,70858,6,0,P|88:136|152:184,1,144,12|0,0:0|0:0,0:0:0:0:
376,256,71201,1,8,0:0:0:0:
224,256,71373,1,0,0:0:0:0:
336,200,71544,1,2,0:0:0:0:
400,88,71716,1,10,0:0:0:0:
288,32,71887,1,10,0:0:0:0:
168,64,72058,1,0,0:0:0:0:
432,144,72230,6,0,P|432:216|416:312,1,144,12|0,0:2|0:0,0:0:0:0:
104,288,72573,1,8,0:0:0:0:
272,256,72744,2,0,L|392:224,1,96,0|2,0:0|0:0,0:0:0:0:
176,152,73087,2,0,L|64:136,1,96,10|10,0:0|0:0,0:0:0:0:
216,96,73430,1,0,0:0:0:0:
480,112,73601,6,0,P|400:136|328:120,1,144,12|0,0:0|0:0,0:0:0:0:
120,144,73944,1,8,0:0:0:0:
248,144,74116,1,0,0:0:0:0:
88,152,74287,2,0,L|192:184,1,96,2|10,0:0|0:0,0:0:0:0:
280,240,74630,2,0,L|176:288,1,96,10|0,0:0|0:0,0:0:0:0:
464,320,74973,6,0,P|480:240|432:152,1,144,8|0,0:0|0:0,0:0:0:0:
136,256,75316,2,0,P|112:184|136:96,1,144,8|0,0:0|0:0,0:0:0:0:
304,120,75658,2,0,L|368:96,1,48,2|0,0:0|0:0,0:0:0:0:
104,72,75830,2,0,L|24:48,1,48,10|0,0:0|0:0,0:0:0:0:
416,32,76001,2,0,P|456:104|416:184,1,144,10|0,0:0|0:0,0:0:0:0:
96,208,76344,5,8,0:0:0:0:
224,264,76516,2,0,L|288:280,2,48,0|0|8,0:0|0:0|0:0,0:0:0:0:
320,176,76858,1,0,0:0:0:0:
168,168,77030,2,0,L|144:56,1,96,2|10,0:0|0:0,0:0:0:0:
456,176,77373,2,0,L|472:64,1,96,10|0,0:0|0:0,0:0:0:0:
152,80,77716,5,12,0:0:0:0:
8,120,77887,1,0,0:0:0:0:
144,200,78058,1,8,0:0:0:0:
280,248,78230,1,0,0:0:0:0:
136,296,78401,1,0,0:0:0:0:
280,248,78573,1,8,0:0:0:0:
400,200,78744,1,8,0:0:0:0:
256,120,78916,2,0,L|192:96,1,63.8399973698732,0|0,0:0|0:0,0:0:0:0:
448,56,79087,5,8,0:0:0:0:
312,104,79258,1,0,0:0:0:0:
184,160,79430,1,8,0:0:0:0:
496,208,79601,1,2,0:0:0:0:
368,256,79773,1,2,0:0:0:0:
248,304,79944,1,10,0:0:0:0:
376,352,80116,1,10,0:0:0:0:
248,304,80287,2,0,L|176:272,1,63.8399973698732,0|0,0:0|0:0,0:0:0:0:
392,184,80458,5,8,0:0:0:0:
264,120,80630,1,0,0:0:0:0:
136,72,80801,1,8,0:0:0:0:
424,56,80973,1,2,0:0:0:0:
456,200,81144,1,2,0:0:0:0:
376,312,81316,1,10,0:0:0:0:
88,312,81487,1,10,0:0:0:0:
224,256,81658,2,0,L|288:216,1,63.8399973698732,0|0,0:0|0:0,0:0:0:0:
64,160,81830,5,8,0:0:0:0:
144,112,82001,1,0,0:0:0:0:
224,64,82173,1,8,0:0:0:0:
80,56,82344,2,0,L|136:96,1,63.8399973698732,2|0,0:0|0:0,0:0:0:0:
384,232,82516,5,2,0:0:0:0:
512,232,82687,1,10,0:0:0:0:
384,232,82858,1,10,0:0:0:0:
96,224,83030,1,2,0:0:0:0:
384,240,83201,6,0,L|408:112,1,127.679994739746,8|0,0:0|0:0,0:0:0:0:
72,104,83544,1,8,0:0:0:0:
224,96,83716,2,0,L|192:248,1,127.679994739746,0|0,0:0|0:0,0:0:0:0:
448,216,84058,1,8,0:0:0:0:
200,224,84230,2,0,L|112:208,2,63.8399973698732,10|0|2,0:0|0:0|0:0,0:0:0:0:
480,288,84573,6,0,L|344:264,1,127.679994739746,8|0,0:0|0:0,0:0:0:0:
32,232,84916,1,8,0:0:0:0:
48,184,85001,1,0,0:0:0:0:
64,136,85087,1,2,0:0:0:0:
320,152,85258,2,0,L|392:136,1,63.8399973698732,2|0,0:0|0:0,0:0:0:0:
152,80,85430,2,0,L|88:64,1,63.8399973698732,10|0,0:0|0:0,0:0:0:0:
440,72,85601,2,0,L|440:208,1,127.679994739746,10|0,0:0|0:0,0:0:0:0:
88,200,85944,6,0,L|240:232,1,127.679994739746,8|0,0:0|0:0,0:0:0:0:
488,296,86287,1,8,0:0:0:0:
424,280,86373,1,0,0:0:0:0:
360,264,86458,1,2,0:0:0:0:
96,208,86630,6,0,L|32:184,1,63.8399973698732,2|0,0:0|0:0,0:0:0:0:
344,136,86801,2,0,L|344:64,1,63.8399973698732,10|0,0:0|0:0,0:0:0:0:
32,96,86973,2,0,L|176:152,1,127.679994739746,10|0,0:0|0:0,0:0:0:0:
416,280,87316,5,12,0:0:0:0:
512,232,87430,1,0,0:0:0:0:
416,160,87544,1,0,0:0:0:0:
96,280,87658,5,8,0:0:0:0:
0,232,87772,1,0,0:0:0:0:
96,160,87886,1,0,0:0:0:0:
368,120,88001,6,0,L|504:80,1,127.679994739746,12|8,0:0|0:0,0:0:0:0:
168,72,88258,2,0,L|40:64,1,127.679994739746,8|0,0:0|0:0,0:0:0:0:
352,168,88516,2,0,L|448:168,1,63.8399973698732,8|0,0:0|0:0,0:0:0:0:
144,144,88687,6,0,P|120:208|240:280,1,191.519992109619,12|0,0:2|0:0,0:0:0:0:
480,288,89030,1,8,0:0:0:0:
328,288,89201,1,0,0:0:0:0:
480,200,89373,5,2,0:0:0:0:
352,192,89544,1,10,0:0:0:0:
224,192,89716,1,10,0:0:0:0:
96,192,89887,2,0,L|32:192,1,48,0|0,0:0|0:0,0:0:0:0:
336,128,90058,6,0,P|408:112|472:48,1,144,12|0,0:0|0:0,0:0:0:0:
120,48,90401,1,8,0:0:0:0:
272,48,90573,1,0,0:0:0:0:
120,48,90744,5,2,0:0:0:0:
248,48,90916,1,10,0:0:0:0:
376,48,91087,1,10,0:0:0:0:
504,48,91258,1,0,0:0:0:0:
168,48,91430,5,8,0:0:0:0:
280,112,91601,1,0,0:0:0:0:
168,48,91773,1,8,0:0:0:0:
320,48,91944,1,0,0:0:0:0:
24,64,92116,6,0,L|128:88,1,96,2|10,0:0|0:0,0:0:0:0:
288,144,92458,2,0,L|176:168,1,96,10|0,0:0|0:0,0:0:0:0:
440,312,92801,6,0,P|472:240|432:160,1,144,12|0,0:0|0:0,0:0:0:0:
192,160,93144,1,8,0:0:0:0:
56,160,93316,1,0,0:0:0:0:
192,160,93487,6,0,L|304:136,1,96,2|10,0:0|0:0,0:0:0:0:
152,72,93830,2,0,L|40:64,1,96,10|0,0:0|0:0,0:0:0:0:
424,264,94173,6,0,B|448:200|448:200|392:152|400:96,1,144,12|0,0:2|0:0,0:0:0:0:
88,136,94516,1,8,0:0:0:0:
232,136,94687,1,0,0:0:0:0:
88,136,94858,6,0,L|200:200,1,96,2|10,0:0|0:0,0:0:0:0:
296,248,95201,2,0,L|168:288,1,96,10|0,0:0|0:0,0:0:0:0:
504,296,95544,6,0,L|336:280,1,144,12|0,0:0|0:0,0:0:0:0:
88,256,95887,1,8,0:0:0:0:
224,192,96058,1,0,0:0:0:0:
64,176,96230,2,0,L|56:72,1,96,2|10,0:0|0:0,0:0:0:0:
224,192,96573,2,0,L|128:256,1,96,10|0,0:0|0:0,0:0:0:0:
448,296,96916,6,0,P|464:224|440:152,1,144,8|0,0:0|0:0,0:0:0:0:
160,256,97258,2,0,P|144:192|160:112,1,144,8|0,0:0|0:0,0:0:0:0:
384,48,97601,1,2,0:0:0:0:
416,112,97687,1,0,0:0:0:0:
416,184,97773,1,10,0:0:0:0:
384,248,97858,1,0,0:0:0:0:
128,272,97944,6,0,L|72:240,1,48,10|0,0:0|0:0,0:0:0:0:
384,176,98116,2,0,L|448:128,1,48,0|0,0:0|0:0,0:0:0:0:
64,96,98287,5,8,0:0:0:0:
168,128,98458,2,0,L|216:144,2,48,0|0|8,0:0|0:0|0:0,0:0:0:0:
64,96,98801,1,0,0:0:0:0:
408,88,98973,2,0,L|488:168,1,96,2|10,0:0|0:0,0:0:0:0:
144,208,99316,2,0,L|80:288,1,96,10|0,0:0|0:0,0:0:0:0:
384,280,99658,6,0,L|432:224,1,63.8399973698732,12|0,0:0|0:0,0:0:0:0:
144,208,99830,2,0,L|80:168,1,63.8399973698732,0|0,0:0|0:0,0:0:0:0:
184,120,100001,2,0,L|240:80,1,63.8399973698732,8|0,0:0|0:0,0:0:0:0:
24,48,100173,6,0,L|24:112,1,63.8399973698732,2|0,0:0|0:0,0:0:0:0:
400,160,100344,2,0,L|472:112,1,63.8399973698732,2|0,0:0|0:0,0:0:0:0:
360,80,100516,2,0,L|272:40,1,63.8399973698732,10|0,0:0|0:0,0:0:0:0:
464,48,100687,1,10,0:0:0:0:
487,106,100772,1,0,0:0:0:0:
477,168,100858,1,0,0:0:0:0:
436,216,100944,1,0,0:0:0:0:
136,272,101030,6,0,L|48:288,1,63.8399973698732,8|0,0:0|0:0,0:0:0:0:
368,240,101201,2,0,L|432:224,1,63.8399973698732,0|0,0:0|0:0,0:0:0:0:
336,176,101373,2,0,L|272:104,1,63.8399973698732,8|0,0:0|0:0,0:0:0:0:
464,112,101544,6,0,L|464:40,1,63.8399973698732,2|0,0:0|0:0,0:0:0:0:
96,96,101716,2,0,L|24:112,1,63.8399973698732,2|0,0:0|0:0,0:0:0:0:
128,168,101887,2,0,L|200:152,1,63.8399973698732,10|0,0:0|0:0,0:0:0:0:
16,192,102058,1,10,0:0:0:0:
8,253,102143,1,0,0:0:0:0:
46,303,102229,1,0,0:0:0:0:
108,311,102315,1,0,0:0:0:0:
368,296,102401,6,0,L|440:272,1,63.8399973698732,8|0,0:0|0:0,0:0:0:0:
152,192,102573,2,0,L|80:160,1,63.8399973698732,0|0,0:0|0:0,0:0:0:0:
360,72,102744,1,10,0:0:0:0:
384,152,102829,1,0,0:0:0:0:
352,224,102915,1,0,0:0:0:0:
272,256,103001,1,0,0:0:0:0:
448,272,103087,6,0,L|512:256,1,63.8399973698732,0|0,0:0|0:0,0:0:0:0:
168,176,103258,2,0,L|96:152,1,63.8399973698732,8|0,0:0|0:0,0:0:0:0:
368,176,103430,1,10,0:0:0:0:
413,134,103515,1,0,0:0:0:0:
406,72,103601,1,0,0:0:0:0:
353,41,103687,1,0,0:0:0:0:
56,64,103773,5,8,0:0:0:0:
37,123,103858,1,0,0:0:0:0:
63,179,103944,1,0,0:0:0:0:
121,202,104030,1,0,0:0:0:0:
368,320,104116,5,10,0:0:0:0:
404,269,104201,1,0,0:0:0:0:
391,208,104287,1,2,0:0:0:0:
338,176,104373,1,0,0:0:0:0:
56,64,104458,5,0,0:0:0:0:
37,123,104543,1,0,0:0:0:0:
63,179,104629,1,8,0:0:0:0:
121,202,104715,1,0,0:0:0:0:
368,320,104801,5,10,0:0:0:0:
404,269,104886,1,0,0:0:0:0:
391,208,104972,1,2,0:0:0:0:
338,176,105058,1,0,0:0:0:0:
144,144,105144,6,0,P|80:96|152:56,1,191.519992109619,8|0,0:0|0:0,0:0:0:0:
338,176,105487,2,0,P|424:200|488:128,1,191.519992109619,10|0,0:0|0:0,0:0:0:0:
192,104,105830,2,0,P|168:192|248:264,1,191.519992109619,2|0,0:0|0:0,0:0:0:0:
440,296,106173,2,0,P|360:328|240:304,1,191.519992109619,10|0,0:0|0:0,0:0:0:0:
456,208,106516,6,0,P|464:136|368:48,1,191.519992109619,8|0,0:0|0:0,0:0:0:0:
144,96,106858,2,0,P|208:144|336:144,1,191.519992109619,10|0,0:0|0:0,0:0:0:0:
88,304,107201,2,0,P|56:240|136:152,1,191.519992109619,2|0,0:0|0:0,0:0:0:0:
344,248,107544,2,0,P|392:160|320:88,1,191.519992109619,10|0,0:0|0:0,0:0:0:0:
48,80,107887,5,8,0:0:0:0:
184,120,108058,1,2,0:0:0:0:
48,80,108230,1,8,0:0:0:0:
184,120,108401,1,2,0:0:0:0:
464,80,108573,5,8,0:0:0:0:
272,120,108830,1,8,0:0:0:0:
464,80,109087,1,8,0:0:0:0:
24,192,109258,6,0,P|168:224|288:192,3,255.359989479493,12|8|8|8,0:0|0:0|0:0|0:0,0:0:0:0:
416,168,110458,1,2,0:0:0:0:
24,128,110630,5,4,0:0:0:0:
256,192,110716,12,2,115773,0:0:0:0:
152,288,116116,5,0,0:0:0:0:
104,245,116287,1,0,0:0:0:0:
81,186,116458,1,0,0:0:0:0:
89,122,116630,1,0,0:0:0:0:
264,128,116801,6,0,L|336:96,1,64.3199969575197,2|2,0:0|0:0,0:0:0:0:
192,56,117144,2,0,L|112:40,1,64.3199969575197,2|2,0:0|0:0,0:0:0:0:
416,288,117487,5,0,0:0:0:0:
464,245,117658,1,0,0:0:0:0:
487,186,117829,1,0,0:0:0:0:
479,122,118001,1,0,0:0:0:0:
304,128,118172,6,0,L|232:96,1,64.3199969575197,2|2,0:0|0:0,0:0:0:0:
376,56,118515,2,0,L|456:40,1,64.3199969575197,2|2,0:0|0:0,0:0:0:0:
136,64,118858,5,4,0:0:0:0:
128,127,119029,1,0,0:0:0:0:
147,186,119200,1,0,0:0:0:0:
198,225,119372,1,0,0:0:0:0:
40,288,119544,6,0,L|16:216,1,64.3199969575197,2|2,0:0|0:0,0:0:0:0:
152,216,119887,2,0,L|170:127,1,64.3199969575197,2|2,0:0|0:0,0:0:0:0:
424,64,120230,5,0,0:0:0:0:
431,127,120401,1,0,0:0:0:0:
412,186,120572,1,0,0:0:0:0:
361,225,120744,1,0,0:0:0:0:
488,280,120916,6,0,L|512:208,1,64.3199969575197,2|2,0:0|0:0,0:0:0:0:
361,225,121258,1,2,0:0:0:0:
472,136,121430,1,10,0:0:0:0:
8,136,121601,5,6,0:0:0:0:
144,136,121944,2,0,P|200:144|288:120,2,128.639993915039,2|2|2,0:0|0:0|0:0,0:0:0:0:
416,48,122801,6,0,P|480:112|336:248,1,321.599984787598,2|0,0:0|0:0,0:0:0:0:
496,256,124001,1,2,0:0:0:0:
64,264,124344,6,0,L|272:232,2,192.959990872559,10|2|0,0:0|0:0|0:0,0:0:0:0:
208,232,125716,2,0,L|264:216,2,32.1599984787598,2|0|0,0:0|0:0|0:0,0:0:0:0:
64,272,126058,2,0,L|152:248,1,64.3199969575197,0|2,0:0|0:0,0:0:0:0:
297,194,126401,2,0,L|201:234,2,96.4799954362795,2|2|2,0:0|0:0|0:0,0:0:0:0:
8,160,127087,5,6,0:0:0:0:
208,104,127430,2,0,L|72:144,2,128.639993915039,2|2|2,0:0|0:0|0:0,0:0:0:0:
480,56,128287,6,0,B|384:96|384:96|544:136|352:216,1,321.599984787598,2|0,0:0|0:0,0:0:0:0:
504,208,129487,1,2,0:0:0:0:
8,208,129830,6,0,L|208:240,2,192.959990872559,10|2|0,0:0|0:0|0:0,0:0:0:0:
240,152,131201,2,0,L|392:128,1,128.639993915039,2|2,0:0|0:0,0:0:0:0:
160,80,131716,1,2,0:0:0:0:
304,56,131973,2,0,L|352:48,1,32.1599984787598,0|2,0:0|0:0,0:0:0:0:
160,80,132230,2,0,L|80:96,1,64.3199969575197,2|2,0:0|0:0,0:0:0:0:
504,136,132573,5,6,0:0:0:0:
368,136,132916,2,0,P|312:144|224:120,2,128.639993915039,2|2|2,0:0|0:0|0:0,0:0:0:0:
96,48,133773,6,0,P|32:112|176:248,1,321.599984787598,2|0,0:0|0:0,0:0:0:0:
16,256,134973,1,2,0:0:0:0:
448,264,135316,6,0,L|240:232,2,192.959990872559,10|2|0,0:0|0:0|0:0,0:0:0:0:
304,232,136688,2,0,L|248:216,2,32.1599984787598,2|0|0,0:0|0:0|0:0,0:0:0:0:
448,272,137030,2,0,L|360:248,1,64.3199969575197,0|2,0:0|0:0,0:0:0:0:
215,194,137373,2,0,L|311:234,2,96.4799954362795,2|2|2,0:0|0:0|0:0,0:0:0:0:
504,160,138059,5,6,0:0:0:0:
304,104,138402,2,0,L|440:144,2,128.639993915039,2|2|2,0:0|0:0|0:0,0:0:0:0:
32,56,139259,6,0,B|128:96|128:96|-32:136|160:216,1,321.599984787598,2|0,0:0|0:0,0:0:0:0:
8,208,140459,1,2,0:0:0:0:
504,208,140802,6,0,L|304:240,2,192.959990872559,10|2|0,0:0|0:0|0:0,0:0:0:0:
272,152,142173,2,0,L|120:128,1,128.639993915039,2|2,0:0|0:0,0:0:0:0:
352,80,142688,1,2,0:0:0:0:
208,56,142945,2,0,L|160:48,1,32.1599984787598,0|2,0:0|0:0,0:0:0:0:
352,80,143202,2,0,L|432:96,1,64.3199969575197,2|2,0:0|0:0,0:0:0:0:
8,144,143544,6,0,L|112:168,1,96,12|2,0:0|0:0,0:0:0:0:
208,192,143887,1,8,0:0:0:0:
480,280,144058,2,0,L|384:248,2,96,6|2|2,0:0|0:0|0:0,0:0:0:0:
208,192,144573,2,0,L|120:88,1,96,8|2,0:0|0:0,0:0:0:0:
448,72,144916,6,0,L|352:96,2,96,12|2|8,0:0|0:0|0:0,0:0:0:0:
96,160,145430,2,0,L|0:192,2,96,6|6|2,0:0|0:0|0:0,0:0:0:0:
352,176,145944,2,0,L|224:152,1,96,8|2,0:0|0:0,0:0:0:0:
504,96,146287,6,0,L|504:224,2,96,12|2|8,0:0|0:0|0:0,0:0:0:0:
144,240,146801,2,0,L|144:128,2,96,6|2|2,0:0|0:0|0:0,0:0:0:0:
392,208,147316,2,0,L|264:176,1,96,8|2,0:0|0:0,0:0:0:0:
8,176,147658,5,12,0:0:0:0:
144,128,147830,1,2,0:0:0:0:
280,72,148001,1,8,0:0:0:0:
8,176,148173,5,6,0:0:0:0:
128,136,148345,1,6,0:0:0:0:
240,88,148516,1,0,0:0:0:0:
512,184,148687,2,0,L|384:160,1,96,8|2,0:0|0:0,0:0:0:0:
56,176,149030,5,12,0:0:0:0:
232,176,149201,1,8,0:0:0:0:
144,176,149372,1,8,0:0:0:0:
320,176,149544,1,14,0:0:0:0:
232,176,149715,1,12,0:0:0:0:
408,176,149887,1,8,0:0:0:0:
320,176,150058,1,4,0:0:0:0:
496,176,150230,1,2,0:0:0:0:
496,176,150401,5,12,0:0:0:0:
320,176,150572,1,8,0:0:0:0:
408,176,150743,1,8,0:0:0:0:
232,176,150915,1,14,0:0:0:0:
320,176,151086,1,12,0:0:0:0:
144,176,151258,1,8,0:0:0:0:
232,176,151429,1,4,0:0:0:0:
56,176,151601,1,2,0:0:0:0:
400,296,151773,5,8,0:0:0:0:
419,252,151858,1,0,0:0:0:0:
423,204,151944,1,8,0:0:0:0:
412,158,152030,1,0,0:0:0:0:
104,208,152116,5,8,0:0:0:0:
70,174,152201,1,0,0:0:0:0:
60,128,152287,1,8,0:0:0:0:
78,84,152373,1,0,0:0:0:0:
352,112,152458,6,0,L|424:128,1,48,8|0,0:0|0:0,0:0:0:0:
152,120,152630,2,0,L|88:128,1,48,8|0,0:0|0:0,0:0:0:0:
440,312,152801,1,8,0:0:0:0:
473,278,152886,1,0,0:0:0:0:
476,232,152972,1,0,0:0:0:0:
448,194,153058,1,0,0:0:0:0:
80,192,153144,5,8,0:0:0:0:
376,208,154344,2,0,L|416:160,1,48,4|0,0:0|0:0,0:0:0:0:
72,152,154516,5,4,0:0:0:0:
