osu file format v14

[General]
AudioFilename: Audio.mp3
AudioLeadIn: 0
PreviewTime: 92756
Countdown: 0
SampleSet: Normal
StackLeniency: 0.7
Mode: 3
LetterboxInBreaks: 0
SpecialStyle: 0
WidescreenStoryboard: 0

[Editor]
DistanceSpacing: 1
BeatDivisor: 4
GridSize: 4
TimelineZoom: 2.3

[Metadata]
Title:Luv Letter
TitleUnicode:Luv Letter
Artist:DJ Okawari
ArtistUnicode:DJ Okawari
Creator:spoonguy
Version:Sincerely,
Source:
Tags:
BeatmapID:2003179
BeatmapSetID:956855

[Difficulty]
HPDrainRate:6.5
CircleSize:7
OverallDifficulty:8.5
ApproachRate:5
SliderMultiplier:1.4
SliderTickRate:1

[Events]
//Background and Video events
0,0,"Lb3q4SQ.jpg",0,0
//Break Periods
//Storyboard Layer 0 (Background)
//Storyboard Layer 1 (Fail)
//Storyboard Layer 2 (Pass)
//Storyboard Layer 3 (Foreground)
//Storyboard Sound Samples

[TimingPoints]
692,714.285714285714,4,1,0,0,1,0
692,-93.3358222885944,4,1,0,0,0,0
5692,750,4,1,0,0,1,0
5692,-88.8888888888889,4,1,0,0,0,0
6442,714.285714285714,4,1,0,0,1,0
6442,-93.4579439252336,4,1,0,0,0,0
17156,750,4,1,0,0,1,0
17156,-88.8888888888889,4,1,0,0,0,0
17906,714.285714285714,4,1,0,0,1,0
17906,-93.4579439252336,4,1,0,0,0,0
20763,731.707317073171,4,1,0,0,1,0
20763,-90.9090909090909,4,1,0,0,0,0
21494,740.740740740741,4,1,0,0,1,0
21494,-90.0900900900901,4,1,0,0,0,0
22975,833.333333333333,4,1,0,0,1,0
22975,-80,4,1,0,0,0,0
23808,789.473684210526,4,1,0,0,1,0
23808,-84.7457627118644,4,1,0,0,0,0
24606,857.142857142857,4,1,0,0,1,0
24606,-78.125,4,1,0,0,0,0
25034,909.090909090909,4,1,0,0,1,0
25034,-73.5294117647059,4,1,0,0,0,0
29599,631.578947368421,4,1,0,0,1,0
29599,-100,4,1,0,0,0,0
232967,689.655172413793,4,1,0,0,1,0
232967,-97.0873786407767,4,1,0,0,0,0
233656,769.230769230769,4,1,0,0,1,0
233656,-86.9565217391304,4,1,0,0,0,0
235142,800,4,1,0,0,1,0
235142,-83.3333333333333,4,1,0,0,0,0
236742,845.070422535211,4,1,0,0,1,0
236742,-78.7401574803149,4,1,0,0,0,0
238432,800,4,1,0,0,1,0
238432,-83.3333333333333,4,1,0,0,0,0
241632,769.230769230769,4,1,0,0,1,0
241632,-86.9565217391304,4,1,0,0,0,0
242401,800,4,1,0,0,1,0
242401,-83.3333333333333,4,1,0,0,0,0
244001,845.070422535211,4,1,0,0,1,0
244001,-78.7401574803149,4,1,0,0,0,0
244846,800,4,1,0,0,1,0
244846,-83.3333333333333,4,1,0,0,0,0
246446,869.565217391304,4,1,0,0,1,0
246446,-76.9230769230769,4,1,0,0,0,0
248185,800,4,1,0,0,1,0
248185,-83.3333333333333,4,1,0,0,0,0
250585,845.070422535211,4,1,0,0,1,0
250585,-78.7401574803149,4,1,0,0,0,0
251430,769.230769230769,4,1,0,0,1,0
251430,-86.9565217391304,4,1,0,0,0,0
253737,857.142857142857,4,1,0,0,1,0
253737,-78.125,4,1,0,0,0,0
254594,800,4,1,0,0,1,0
254594,-83.3333333333333,4,1,0,0,0,0
254994,882.352941176471,4,1,0,0,1,0
254994,-75.7575757575758,4,1,0,0,0,0
256317,937.5,4,1,0,0,1,0
256317,-70.9219858156028,4,1,0,0,0,0
258192,810.810810810811,4,1,0,0,1,0
258192,-81.9672131147541,4,1,0,0,0,0
258597,857.142857142857,4,1,0,0,1,0
258597,-78.125,4,1,0,0,0,0
259454,800,4,1,0,0,1,0
259454,-83.3333333333333,4,1,0,0,0,0
259854,882.352941176471,4,1,0,0,1,0
259854,-75.7575757575758,4,1,0,0,0,0
260295,937.5,4,1,0,0,1,0
260295,-70.9219858156028,4,1,0,0,0,0
260763,1071.42857142857,4,1,0,0,1,0
260763,-62.111801242236,4,1,0,0,0,0
261298,1276.59574468085,4,1,0,0,1,0
261298,-52.3560209424084,4,1,0,0,0,0

[Colours]
Combo1 : 255,128,192
Combo2 : 128,255,128
Combo3 : 0,255,255
Combo4 : 255,255,128

[HitObjects]
109,192,692,5,0,0:0:0:0:
36,192,692,1,0,0:0:0:0:
475,192,692,1,0,0:0:0:0:
402,192,1049,1,0,0:0:0:0:
329,192,1406,1,0,0:0:0:0:
256,192,1763,1,0,0:0:0:0:
36,192,2120,1,0,0:0:0:0:
329,192,2120,1,0,0:0:0:0:
182,192,2120,1,0,0:0:0:0:
256,192,2834,1,0,0:0:0:0:
182,192,3549,1,0,0:0:0:0:
329,192,3549,1,0,0:0:0:0:
109,192,3549,1,0,0:0:0:0:
402,192,4977,1,0,0:0:0:0:
329,192,5334,1,0,0:0:0:0:
256,192,5691,1,0,0:0:0:0:
36,192,6442,1,0,0:0:0:0:
109,192,6442,1,0,0:0:0:0:
329,192,6442,1,0,0:0:0:0:
256,192,6799,1,0,0:0:0:0:
329,192,7156,1,0,0:0:0:0:
402,192,7513,1,0,0:0:0:0:
36,192,7870,1,0,0:0:0:0:
475,192,7870,1,0,0:0:0:0:
329,192,7870,1,0,0:0:0:0:
182,192,7870,1,0,0:0:0:0:
402,192,8584,1,0,0:0:0:0:
475,192,9299,1,0,0:0:0:0:
329,192,9299,1,0,0:0:0:0:
256,192,9299,1,0,0:0:0:0:
182,192,10013,1,0,0:0:0:0:
109,192,10370,1,0,0:0:0:0:
36,192,10727,1,0,0:0:0:0:
36,192,12156,1,0,0:0:0:0:
109,192,12156,1,0,0:0:0:0:
475,192,12156,1,0,0:0:0:0:
402,192,12513,1,0,0:0:0:0:
329,192,12870,1,0,0:0:0:0:
256,192,13227,1,0,0:0:0:0:
329,192,13584,1,0,0:0:0:0:
182,192,13584,1,0,0:0:0:0:
36,192,13584,1,0,0:0:0:0:
256,192,14299,1,0,0:0:0:0:
182,192,15013,1,0,0:0:0:0:
109,192,15013,1,0,0:0:0:0:
329,192,15013,1,0,0:0:0:0:
402,192,16442,1,0,0:0:0:0:
329,192,16799,1,0,0:0:0:0:
256,192,17156,1,0,0:0:0:0:
329,192,17906,1,0,0:0:0:0:
109,192,17906,1,0,0:0:0:0:
36,192,17906,1,0,0:0:0:0:
256,192,18263,1,0,0:0:0:0:
329,192,18620,1,0,0:0:0:0:
402,192,18977,1,0,0:0:0:0:
329,192,19334,1,0,0:0:0:0:
36,192,19334,1,0,0:0:0:0:
182,192,19334,1,0,0:0:0:0:
475,192,19334,1,0,0:0:0:0:
402,192,20048,1,0,0:0:0:0:
182,192,20763,1,0,0:0:0:0:
329,192,20763,1,0,0:0:0:0:
475,192,20763,1,0,0:0:0:0:
36,192,21128,1,0,0:0:0:0:
109,192,21494,1,0,0:0:0:0:
182,192,21864,1,0,0:0:0:0:
256,192,22234,1,0,0:0:0:0:
329,192,22605,1,0,0:0:0:0:
402,192,22975,1,0,0:0:0:0:
475,192,23391,1,0,0:0:0:0:
36,192,23808,1,0,0:0:0:0:
256,192,23808,1,0,0:0:0:0:
475,192,23808,1,0,0:0:0:0:
182,192,24202,1,0,0:0:0:0:
329,192,24606,1,0,0:0:0:0:
402,192,25034,1,0,0:0:0:0:
475,192,25488,1,0,0:0:0:0:
36,192,29599,1,0,0:0:0:0:
329,192,29599,1,0,0:0:0:0:
256,192,29756,1,0,0:0:0:0:
329,192,29914,1,0,0:0:0:0:
109,192,29914,1,0,0:0:0:0:
475,192,30072,1,0,0:0:0:0:
182,192,30230,1,0,0:0:0:0:
402,192,30388,1,0,0:0:0:0:
329,192,30546,1,0,0:0:0:0:
256,192,30546,1,0,0:0:0:0:
402,192,30862,1,0,0:0:0:0:
36,192,30862,1,0,0:0:0:0:
109,192,31177,1,0,0:0:0:0:
182,192,31493,1,0,0:0:0:0:
329,192,31493,1,0,0:0:0:0:
256,192,31809,1,0,0:0:0:0:
329,192,32125,1,0,0:0:0:0:
36,192,32125,1,0,0:0:0:0:
256,192,32283,1,0,0:0:0:0:
329,192,32441,1,0,0:0:0:0:
109,192,32441,1,0,0:0:0:0:
475,192,32599,1,0,0:0:0:0:
182,192,32756,1,0,0:0:0:0:
402,192,32914,1,0,0:0:0:0:
329,192,33072,1,0,0:0:0:0:
256,192,33072,1,0,0:0:0:0:
329,192,33388,1,0,0:0:0:0:
402,192,33388,1,0,0:0:0:0:
329,192,34651,1,0,0:0:0:0:
36,192,34651,1,0,0:0:0:0:
256,192,34809,1,0,0:0:0:0:
329,192,34967,1,0,0:0:0:0:
109,192,34967,1,0,0:0:0:0:
475,192,35125,1,0,0:0:0:0:
182,192,35283,1,0,0:0:0:0:
402,192,35441,1,0,0:0:0:0:
256,192,35599,1,0,0:0:0:0:
329,192,35599,1,0,0:0:0:0:
402,192,35914,1,0,0:0:0:0:
36,192,35914,1,0,0:0:0:0:
256,192,36072,1,0,0:0:0:0:
402,192,36230,1,0,0:0:0:0:
109,192,36230,1,0,0:0:0:0:
475,192,36388,1,0,0:0:0:0:
182,192,36546,1,0,0:0:0:0:
402,192,36704,1,0,0:0:0:0:
329,192,36862,1,0,0:0:0:0:
256,192,36862,1,0,0:0:0:0:
329,192,37177,1,0,0:0:0:0:
36,192,37177,1,0,0:0:0:0:
256,192,37493,1,0,0:0:0:0:
109,192,37493,1,0,0:0:0:0:
329,192,37809,1,0,0:0:0:0:
182,192,37809,1,0,0:0:0:0:
402,192,38125,1,0,0:0:0:0:
256,192,38125,1,0,0:0:0:0:
329,192,38441,1,0,0:0:0:0:
475,192,38441,1,0,0:0:0:0:
329,192,39704,1,0,0:0:0:0:
36,192,39704,1,0,0:0:0:0:
256,192,39862,1,0,0:0:0:0:
329,192,40020,1,0,0:0:0:0:
109,192,40020,1,0,0:0:0:0:
475,192,40177,1,0,0:0:0:0:
182,192,40335,1,0,0:0:0:0:
402,192,40493,1,0,0:0:0:0:
329,192,40651,1,0,0:0:0:0:
256,192,40651,1,0,0:0:0:0:
402,192,40967,1,0,0:0:0:0:
36,192,40967,1,0,0:0:0:0:
109,192,41283,1,0,0:0:0:0:
182,192,41599,1,0,0:0:0:0:
329,192,41599,1,0,0:0:0:0:
256,192,41914,1,0,0:0:0:0:
329,192,42230,1,0,0:0:0:0:
36,192,42230,1,0,0:0:0:0:
256,192,42388,1,0,0:0:0:0:
329,192,42546,1,0,0:0:0:0:
109,192,42546,1,0,0:0:0:0:
475,192,42704,1,0,0:0:0:0:
182,192,42862,1,0,0:0:0:0:
402,192,43020,1,0,0:0:0:0:
329,192,43177,1,0,0:0:0:0:
256,192,43177,1,0,0:0:0:0:
329,192,43493,1,0,0:0:0:0:
402,192,43493,1,0,0:0:0:0:
329,192,44756,1,0,0:0:0:0:
36,192,44756,1,0,0:0:0:0:
256,192,44914,1,0,0:0:0:0:
329,192,45072,1,0,0:0:0:0:
109,192,45072,1,0,0:0:0:0:
475,192,45230,1,0,0:0:0:0:
182,192,45388,1,0,0:0:0:0:
402,192,45546,1,0,0:0:0:0:
329,192,45704,1,0,0:0:0:0:
256,192,45704,1,0,0:0:0:0:
402,192,46020,1,0,0:0:0:0:
36,192,46020,1,0,0:0:0:0:
256,192,46177,1,0,0:0:0:0:
402,192,46335,1,0,0:0:0:0:
109,192,46335,1,0,0:0:0:0:
475,192,46493,1,0,0:0:0:0:
182,192,46651,1,0,0:0:0:0:
402,192,46809,1,0,0:0:0:0:
256,192,46967,1,0,0:0:0:0:
329,192,46967,1,0,0:0:0:0:
402,192,47283,1,0,0:0:0:0:
329,192,47283,1,0,0:0:0:0:
36,192,47283,1,0,0:0:0:0:
109,192,47599,1,0,0:0:0:0:
182,192,47914,1,0,0:0:0:0:
329,192,47914,1,0,0:0:0:0:
402,192,47914,1,0,0:0:0:0:
402,192,48230,1,0,0:0:0:0:
475,192,48230,1,0,0:0:0:0:
256,192,48230,1,0,0:0:0:0:
329,192,48546,1,0,0:0:0:0:
36,192,49809,1,0,0:0:0:0:
329,192,49809,1,0,0:0:0:0:
256,192,49967,1,0,0:0:0:0:
109,192,50125,1,0,0:0:0:0:
329,192,50125,1,0,0:0:0:0:
475,192,50283,1,0,0:0:0:0:
182,192,50441,1,0,0:0:0:0:
402,192,50599,1,0,0:0:0:0:
256,192,50756,1,0,0:0:0:0:
329,192,50756,1,0,0:0:0:0:
36,192,51072,1,0,0:0:0:0:
402,192,51072,1,0,0:0:0:0:
109,192,51388,1,0,0:0:0:0:
329,192,51704,1,0,0:0:0:0:
182,192,51704,1,0,0:0:0:0:
256,192,52020,1,0,0:0:0:0:
36,192,52335,1,0,0:0:0:0:
329,192,52335,1,0,0:0:0:0:
256,192,52493,1,0,0:0:0:0:
109,192,52651,1,0,0:0:0:0:
329,192,52651,1,0,0:0:0:0:
475,192,52809,1,0,0:0:0:0:
182,192,52967,1,0,0:0:0:0:
402,192,53125,1,0,0:0:0:0:
256,192,53283,1,0,0:0:0:0:
329,192,53283,1,0,0:0:0:0:
402,192,53599,1,0,0:0:0:0:
329,192,53599,1,0,0:0:0:0:
36,192,53914,1,0,0:0:0:0:
256,192,54230,1,0,0:0:0:0:
36,192,54756,1,0,0:0:0:0:
36,192,54862,1,0,0:0:0:0:
329,192,54862,1,0,0:0:0:0:
256,192,55020,1,0,0:0:0:0:
109,192,55177,1,0,0:0:0:0:
329,192,55177,1,0,0:0:0:0:
475,192,55335,1,0,0:0:0:0:
182,192,55493,1,0,0:0:0:0:
402,192,55651,1,0,0:0:0:0:
329,192,55809,1,0,0:0:0:0:
256,192,55809,1,0,0:0:0:0:
36,192,56125,1,0,0:0:0:0:
402,192,56125,1,0,0:0:0:0:
256,192,56283,1,0,0:0:0:0:
109,192,56441,1,0,0:0:0:0:
402,192,56441,1,0,0:0:0:0:
475,192,56599,1,0,0:0:0:0:
182,192,56756,1,0,0:0:0:0:
402,192,56914,1,0,0:0:0:0:
256,192,57072,1,0,0:0:0:0:
329,192,57072,1,0,0:0:0:0:
36,192,57388,1,0,0:0:0:0:
329,192,57388,1,0,0:0:0:0:
109,192,57704,1,0,0:0:0:0:
256,192,57704,1,0,0:0:0:0:
182,192,58020,1,0,0:0:0:0:
329,192,58020,1,0,0:0:0:0:
256,192,58335,1,0,0:0:0:0:
402,192,58335,1,0,0:0:0:0:
475,192,58651,1,0,0:0:0:0:
329,192,58651,1,0,0:0:0:0:
36,192,58967,1,0,0:0:0:0:
256,192,59283,1,0,0:0:0:0:
36,192,59809,1,0,0:0:0:0:
36,192,59914,1,0,0:0:0:0:
329,192,59914,1,0,0:0:0:0:
256,192,60072,1,0,0:0:0:0:
109,192,60230,1,0,0:0:0:0:
329,192,60230,1,0,0:0:0:0:
475,192,60388,1,0,0:0:0:0:
182,192,60546,1,0,0:0:0:0:
402,192,60704,1,0,0:0:0:0:
256,192,60862,1,0,0:0:0:0:
329,192,60862,1,0,0:0:0:0:
36,192,61177,1,0,0:0:0:0:
402,192,61177,1,0,0:0:0:0:
109,192,61493,1,0,0:0:0:0:
329,192,61809,1,0,0:0:0:0:
182,192,61809,1,0,0:0:0:0:
256,192,62125,1,0,0:0:0:0:
36,192,62441,1,0,0:0:0:0:
329,192,62441,1,0,0:0:0:0:
256,192,62599,1,0,0:0:0:0:
109,192,62756,1,0,0:0:0:0:
329,192,62756,1,0,0:0:0:0:
475,192,62914,1,0,0:0:0:0:
182,192,63072,1,0,0:0:0:0:
402,192,63230,1,0,0:0:0:0:
256,192,63388,1,0,0:0:0:0:
329,192,63388,1,0,0:0:0:0:
402,192,63704,1,0,0:0:0:0:
329,192,63704,1,0,0:0:0:0:
36,192,64020,1,0,0:0:0:0:
256,192,64335,1,0,0:0:0:0:
36,192,64862,1,0,0:0:0:0:
36,192,64967,1,0,0:0:0:0:
329,192,64967,1,0,0:0:0:0:
256,192,65125,1,0,0:0:0:0:
109,192,65283,1,0,0:0:0:0:
329,192,65283,1,0,0:0:0:0:
475,192,65441,1,0,0:0:0:0:
182,192,65599,1,0,0:0:0:0:
402,192,65756,1,0,0:0:0:0:
256,192,65914,1,0,0:0:0:0:
329,192,65914,1,0,0:0:0:0:
36,192,66230,1,0,0:0:0:0:
402,192,66230,1,0,0:0:0:0:
256,192,66388,1,0,0:0:0:0:
109,192,66546,1,0,0:0:0:0:
402,192,66546,1,0,0:0:0:0:
475,192,66704,1,0,0:0:0:0:
182,192,66862,1,0,0:0:0:0:
402,192,67020,1,0,0:0:0:0:
329,192,67177,1,0,0:0:0:0:
256,192,67177,1,0,0:0:0:0:
329,192,67493,1,0,0:0:0:0:
402,192,67493,1,0,0:0:0:0:
36,192,67493,1,0,0:0:0:0:
109,192,67809,1,0,0:0:0:0:
182,192,68125,1,0,0:0:0:0:
402,192,68125,1,0,0:0:0:0:
329,192,68125,1,0,0:0:0:0:
475,192,68441,1,0,0:0:0:0:
402,192,68441,1,0,0:0:0:0:
256,192,68441,1,0,0:0:0:0:
329,192,68756,1,0,0:0:0:0:
475,192,68914,1,0,0:0:0:0:
402,192,69072,1,0,0:0:0:0:
329,192,69230,1,0,0:0:0:0:
256,192,69388,1,0,0:0:0:0:
182,192,69546,1,0,0:0:0:0:
109,192,69704,1,0,0:0:0:0:
36,192,69862,1,0,0:0:0:0:
402,192,70020,1,0,0:0:0:0:
475,192,70020,1,0,0:0:0:0:
109,192,70020,1,0,0:0:0:0:
182,192,70335,1,0,0:0:0:0:
329,192,70335,1,0,0:0:0:0:
36,192,70651,1,0,0:0:0:0:
256,192,70651,1,0,0:0:0:0:
329,192,70967,1,0,0:0:0:0:
109,192,70967,1,0,0:0:0:0:
256,192,71283,1,0,0:0:0:0:
36,192,71283,1,0,0:0:0:0:
475,192,71283,1,0,0:0:0:0:
109,192,71599,1,0,0:0:0:0:
402,192,71599,1,0,0:0:0:0:
182,192,71914,1,0,0:0:0:0:
329,192,71914,1,0,0:0:0:0:
256,192,72230,1,0,0:0:0:0:
475,192,72230,1,0,0:0:0:0:
36,192,72546,1,0,0:0:0:0:
329,192,72546,1,0,0:0:0:0:
402,192,72546,1,0,0:0:0:0:
109,192,72862,1,0,0:0:0:0:
256,192,72862,1,0,0:0:0:0:
182,192,73177,1,0,0:0:0:0:
329,192,73177,1,0,0:0:0:0:
256,192,73493,1,0,0:0:0:0:
402,192,73493,1,0,0:0:0:0:
329,192,73809,1,0,0:0:0:0:
475,192,73809,1,0,0:0:0:0:
256,192,74125,1,0,0:0:0:0:
182,192,74441,1,0,0:0:0:0:
109,192,74756,1,0,0:0:0:0:
36,192,75072,1,0,0:0:0:0:
329,192,75072,1,0,0:0:0:0:
475,192,75072,1,0,0:0:0:0:
402,192,75388,1,0,0:0:0:0:
109,192,75388,1,0,0:0:0:0:
329,192,75704,1,0,0:0:0:0:
182,192,75704,1,0,0:0:0:0:
256,192,76020,1,0,0:0:0:0:
109,192,76020,1,0,0:0:0:0:
402,192,76335,1,0,0:0:0:0:
36,192,76335,1,0,0:0:0:0:
329,192,76651,1,0,0:0:0:0:
109,192,76651,1,0,0:0:0:0:
256,192,76809,1,0,0:0:0:0:
182,192,76967,1,0,0:0:0:0:
402,192,76967,1,0,0:0:0:0:
256,192,77125,1,0,0:0:0:0:
329,192,77283,1,0,0:0:0:0:
475,192,77283,1,0,0:0:0:0:
182,192,77441,1,0,0:0:0:0:
36,192,77599,1,0,0:0:0:0:
329,192,77599,1,0,0:0:0:0:
109,192,77914,1,0,0:0:0:0:
475,192,77914,1,0,0:0:0:0:
182,192,78230,1,0,0:0:0:0:
402,192,78230,1,0,0:0:0:0:
109,192,78546,1,0,0:0:0:0:
256,192,78546,1,0,0:0:0:0:
329,192,78862,1,0,0:0:0:0:
36,192,78862,1,0,0:0:0:0:
256,192,79177,1,0,0:0:0:0:
475,192,79177,1,0,0:0:0:0:
402,192,79335,1,0,0:0:0:0:
182,192,79493,1,0,0:0:0:0:
329,192,79651,1,0,0:0:0:0:
402,192,79809,1,0,0:0:0:0:
109,192,79809,1,0,0:0:0:0:
36,192,80125,1,0,0:0:0:0:
329,192,80125,1,0,0:0:0:0:
109,192,80441,1,0,0:0:0:0:
256,192,80441,1,0,0:0:0:0:
329,192,80599,1,0,0:0:0:0:
182,192,80756,1,0,0:0:0:0:
402,192,80914,1,0,0:0:0:0:
256,192,81072,1,0,0:0:0:0:
329,192,81072,1,0,0:0:0:0:
36,192,81388,1,0,0:0:0:0:
182,192,81388,1,0,0:0:0:0:
475,192,81388,1,0,0:0:0:0:
109,192,81704,1,0,0:0:0:0:
402,192,81704,1,0,0:0:0:0:
182,192,82020,1,0,0:0:0:0:
329,192,82020,1,0,0:0:0:0:
256,192,82335,1,0,0:0:0:0:
402,192,82335,1,0,0:0:0:0:
36,192,82651,1,0,0:0:0:0:
329,192,82651,1,0,0:0:0:0:
109,192,82967,1,0,0:0:0:0:
256,192,82967,1,0,0:0:0:0:
329,192,83125,1,0,0:0:0:0:
182,192,83283,1,0,0:0:0:0:
402,192,83441,1,0,0:0:0:0:
256,192,83599,1,0,0:0:0:0:
329,192,83599,1,0,0:0:0:0:
182,192,83756,1,0,0:0:0:0:
329,192,83914,1,0,0:0:0:0:
402,192,83914,1,0,0:0:0:0:
256,192,84230,1,0,0:0:0:0:
182,192,84546,1,0,0:0:0:0:
475,192,84546,1,0,0:0:0:0:
109,192,84862,1,0,0:0:0:0:
402,192,84862,1,0,0:0:0:0:
329,192,85177,1,0,0:0:0:0:
36,192,85177,1,0,0:0:0:0:
256,192,85335,1,0,0:0:0:0:
329,192,85493,1,0,0:0:0:0:
109,192,85493,1,0,0:0:0:0:
402,192,85651,1,0,0:0:0:0:
329,192,85809,1,0,0:0:0:0:
182,192,85809,1,0,0:0:0:0:
256,192,85967,1,0,0:0:0:0:
329,192,86125,1,0,0:0:0:0:
109,192,86125,1,0,0:0:0:0:
402,192,86283,1,0,0:0:0:0:
475,192,86441,1,0,0:0:0:0:
36,192,86441,1,0,0:0:0:0:
402,192,86599,1,0,0:0:0:0:
256,192,86756,1,0,0:0:0:0:
109,192,86756,1,0,0:0:0:0:
402,192,86914,1,0,0:0:0:0:
475,192,87072,1,0,0:0:0:0:
182,192,87072,1,0,0:0:0:0:
402,192,87230,1,0,0:0:0:0:
256,192,87388,1,0,0:0:0:0:
402,192,87546,1,0,0:0:0:0:
475,192,87704,1,0,0:0:0:0:
36,192,87704,1,0,0:0:0:0:
402,192,87862,1,0,0:0:0:0:
329,192,88020,1,0,0:0:0:0:
109,192,88020,1,0,0:0:0:0:
402,192,88177,1,0,0:0:0:0:
475,192,88335,1,0,0:0:0:0:
182,192,88335,1,0,0:0:0:0:
402,192,88493,1,0,0:0:0:0:
329,192,88651,1,0,0:0:0:0:
109,192,88651,1,0,0:0:0:0:
402,192,88809,1,0,0:0:0:0:
475,192,88967,1,0,0:0:0:0:
36,192,88967,1,0,0:0:0:0:
402,192,89125,1,0,0:0:0:0:
329,192,89283,1,0,0:0:0:0:
109,192,89283,1,0,0:0:0:0:
402,192,89441,1,0,0:0:0:0:
475,192,89599,1,0,0:0:0:0:
182,192,89599,1,0,0:0:0:0:
402,192,89756,1,0,0:0:0:0:
329,192,89914,1,0,0:0:0:0:
109,192,89914,1,0,0:0:0:0:
402,192,90072,1,0,0:0:0:0:
475,192,90230,1,0,0:0:0:0:
182,192,90230,1,0,0:0:0:0:
402,192,90388,1,0,0:0:0:0:
109,192,90388,1,0,0:0:0:0:
329,192,90546,1,0,0:0:0:0:
36,192,90546,1,0,0:0:0:0:
402,192,90704,1,0,0:0:0:0:
109,192,90704,1,0,0:0:0:0:
475,192,90862,1,0,0:0:0:0:
182,192,90862,1,0,0:0:0:0:
402,192,91020,1,0,0:0:0:0:
109,192,91020,1,0,0:0:0:0:
329,192,91177,1,0,0:0:0:0:
36,192,91177,1,0,0:0:0:0:
402,192,91335,1,0,0:0:0:0:
109,192,91335,1,0,0:0:0:0:
475,192,91493,1,0,0:0:0:0:
182,192,91493,1,0,0:0:0:0:
402,192,91651,1,0,0:0:0:0:
109,192,91651,1,0,0:0:0:0:
329,192,91809,1,0,0:0:0:0:
36,192,91809,1,0,0:0:0:0:
402,192,91967,1,0,0:0:0:0:
109,192,91967,1,0,0:0:0:0:
475,192,92125,1,0,0:0:0:0:
182,192,92125,1,0,0:0:0:0:
402,192,92283,1,0,0:0:0:0:
109,192,92283,1,0,0:0:0:0:
329,192,92441,1,0,0:0:0:0:
36,192,92441,1,0,0:0:0:0:
402,192,92599,1,0,0:0:0:0:
109,192,92599,1,0,0:0:0:0:
36,192,92756,1,0,0:0:0:0:
109,192,93072,1,0,0:0:0:0:
256,192,93072,1,0,0:0:0:0:
402,192,93072,1,0,0:0:0:0:
329,192,93230,1,0,0:0:0:0:
182,192,93388,1,0,0:0:0:0:
402,192,93388,1,0,0:0:0:0:
109,192,93704,1,0,0:0:0:0:
36,192,94020,1,0,0:0:0:0:
256,192,94020,1,0,0:0:0:0:
475,192,94020,1,0,0:0:0:0:
402,192,94335,1,0,0:0:0:0:
109,192,94335,1,0,0:0:0:0:
329,192,94651,1,0,0:0:0:0:
182,192,94651,1,0,0:0:0:0:
109,192,94967,1,0,0:0:0:0:
36,192,95283,1,0,0:0:0:0:
109,192,95599,1,0,0:0:0:0:
256,192,95599,1,0,0:0:0:0:
402,192,95599,1,0,0:0:0:0:
329,192,95756,1,0,0:0:0:0:
402,192,95914,1,0,0:0:0:0:
182,192,95914,1,0,0:0:0:0:
109,192,96230,1,0,0:0:0:0:
36,192,96546,1,0,0:0:0:0:
475,192,96546,1,0,0:0:0:0:
256,192,96546,1,0,0:0:0:0:
402,192,96862,1,0,0:0:0:0:
109,192,96862,1,0,0:0:0:0:
329,192,97177,1,0,0:0:0:0:
182,192,97177,1,0,0:0:0:0:
109,192,97493,1,0,0:0:0:0:
36,192,97809,1,0,0:0:0:0:
256,192,97967,1,0,0:0:0:0:
402,192,97967,1,0,0:0:0:0:
329,192,98125,1,0,0:0:0:0:
109,192,98125,1,0,0:0:0:0:
402,192,98283,1,0,0:0:0:0:
182,192,98441,1,0,0:0:0:0:
109,192,98756,1,0,0:0:0:0:
256,192,99072,1,0,0:0:0:0:
36,192,99072,1,0,0:0:0:0:
475,192,99072,1,0,0:0:0:0:
402,192,99388,1,0,0:0:0:0:
109,192,99388,1,0,0:0:0:0:
329,192,99704,1,0,0:0:0:0:
182,192,99704,1,0,0:0:0:0:
109,192,100020,1,0,0:0:0:0:
36,192,100335,1,0,0:0:0:0:
402,192,100493,1,0,0:0:0:0:
475,192,100651,1,0,0:0:0:0:
109,192,100651,1,0,0:0:0:0:
402,192,100809,1,0,0:0:0:0:
329,192,100967,1,0,0:0:0:0:
256,192,101125,1,0,0:0:0:0:
329,192,101283,1,0,0:0:0:0:
109,192,101283,1,0,0:0:0:0:
256,192,101441,1,0,0:0:0:0:
36,192,101599,1,0,0:0:0:0:
182,192,101756,1,0,0:0:0:0:
256,192,101914,1,0,0:0:0:0:
182,192,102072,1,0,0:0:0:0:
109,192,102230,1,0,0:0:0:0:
182,192,102546,1,0,0:0:0:0:
36,192,102862,1,0,0:0:0:0:
109,192,103177,1,0,0:0:0:0:
329,192,103493,1,0,0:0:0:0:
256,192,103493,1,0,0:0:0:0:
182,192,103493,1,0,0:0:0:0:
109,192,103809,1,0,0:0:0:0:
475,192,103809,1,0,0:0:0:0:
36,192,104125,1,0,0:0:0:0:
402,192,104125,1,0,0:0:0:0:
182,192,104441,1,0,0:0:0:0:
475,192,104441,1,0,0:0:0:0:
329,192,104441,1,0,0:0:0:0:
256,192,104756,1,0,0:0:0:0:
402,192,104756,1,0,0:0:0:0:
36,192,104756,1,0,0:0:0:0:
182,192,105072,1,0,0:0:0:0:
329,192,105072,1,0,0:0:0:0:
36,192,105388,1,0,0:0:0:0:
109,192,105704,1,0,0:0:0:0:
182,192,106020,1,0,0:0:0:0:
256,192,106020,1,0,0:0:0:0:
402,192,106020,1,0,0:0:0:0:
109,192,106335,1,0,0:0:0:0:
475,192,106335,1,0,0:0:0:0:
36,192,106651,1,0,0:0:0:0:
402,192,106651,1,0,0:0:0:0:
329,192,106967,1,0,0:0:0:0:
475,192,106967,1,0,0:0:0:0:
109,192,106967,1,0,0:0:0:0:
402,192,107283,1,0,0:0:0:0:
256,192,107283,1,0,0:0:0:0:
182,192,107283,1,0,0:0:0:0:
109,192,107599,1,0,0:0:0:0:
329,192,107599,1,0,0:0:0:0:
36,192,107914,1,0,0:0:0:0:
109,192,108230,1,0,0:0:0:0:
475,192,108230,1,0,0:0:0:0:
182,192,108546,1,0,0:0:0:0:
36,192,108546,1,0,0:0:0:0:
402,192,108546,1,0,0:0:0:0:
329,192,108862,1,0,0:0:0:0:
182,192,109177,1,0,0:0:0:0:
36,192,109177,1,0,0:0:0:0:
402,192,109177,1,0,0:0:0:0:
329,192,109493,1,0,0:0:0:0:
256,192,109651,1,0,0:0:0:0:
182,192,110125,1,0,0:0:0:0:
256,192,110283,1,0,0:0:0:0:
182,192,110441,1,0,0:0:0:0:
36,192,110441,1,0,0:0:0:0:
109,192,110756,1,0,0:0:0:0:
182,192,111072,1,0,0:0:0:0:
109,192,111388,1,0,0:0:0:0:
329,192,111388,1,0,0:0:0:0:
36,192,111704,1,0,0:0:0:0:
256,192,111704,1,0,0:0:0:0:
109,192,112020,1,0,0:0:0:0:
329,192,112020,1,0,0:0:0:0:
182,192,112177,1,0,0:0:0:0:
329,192,112493,1,0,0:0:0:0:
109,192,112651,1,0,0:0:0:0:
182,192,112809,1,0,0:0:0:0:
36,192,112967,1,0,0:0:0:0:
256,192,113283,1,0,0:0:0:0:
402,192,113283,1,0,0:0:0:0:
109,192,113283,1,0,0:0:0:0:
329,192,113441,1,0,0:0:0:0:
182,192,113599,1,0,0:0:0:0:
402,192,113599,1,0,0:0:0:0:
109,192,113914,1,0,0:0:0:0:
36,192,114230,1,0,0:0:0:0:
475,192,114230,1,0,0:0:0:0:
256,192,114230,1,0,0:0:0:0:
402,192,114546,1,0,0:0:0:0:
109,192,114546,1,0,0:0:0:0:
329,192,114862,1,0,0:0:0:0:
182,192,114862,1,0,0:0:0:0:
109,192,115177,1,0,0:0:0:0:
36,192,115493,1,0,0:0:0:0:
402,192,115809,1,0,0:0:0:0:
256,192,115809,1,0,0:0:0:0:
109,192,115809,1,0,0:0:0:0:
329,192,115967,1,0,0:0:0:0:
402,192,116125,1,0,0:0:0:0:
256,192,116125,1,0,0:0:0:0:
182,192,116125,1,0,0:0:0:0:
109,192,116441,1,0,0:0:0:0:
36,192,116756,1,0,0:0:0:0:
109,192,117072,1,0,0:0:0:0:
256,192,117072,1,0,0:0:0:0:
475,192,117072,1,0,0:0:0:0:
402,192,117230,1,0,0:0:0:0:
329,192,117388,1,0,0:0:0:0:
182,192,117388,1,0,0:0:0:0:
109,192,117704,1,0,0:0:0:0:
36,192,118020,1,0,0:0:0:0:
402,192,118335,1,0,0:0:0:0:
256,192,118335,1,0,0:0:0:0:
109,192,118335,1,0,0:0:0:0:
329,192,118493,1,0,0:0:0:0:
182,192,118651,1,0,0:0:0:0:
402,192,118651,1,0,0:0:0:0:
109,192,118967,1,0,0:0:0:0:
36,192,119283,1,0,0:0:0:0:
256,192,119599,1,0,0:0:0:0:
475,192,119599,1,0,0:0:0:0:
109,192,119599,1,0,0:0:0:0:
402,192,119756,1,0,0:0:0:0:
182,192,119914,1,0,0:0:0:0:
256,192,119914,1,0,0:0:0:0:
329,192,119914,1,0,0:0:0:0:
109,192,120230,1,0,0:0:0:0:
36,192,120546,1,0,0:0:0:0:
109,192,120862,1,0,0:0:0:0:
329,192,120862,1,0,0:0:0:0:
256,192,121020,1,0,0:0:0:0:
329,192,121177,1,0,0:0:0:0:
182,192,121177,1,0,0:0:0:0:
256,192,121493,1,0,0:0:0:0:
109,192,121493,1,0,0:0:0:0:
182,192,121809,1,0,0:0:0:0:
475,192,121809,1,0,0:0:0:0:
329,192,121809,1,0,0:0:0:0:
256,192,122125,1,0,0:0:0:0:
402,192,122125,1,0,0:0:0:0:
329,192,122441,1,0,0:0:0:0:
475,192,122441,1,0,0:0:0:0:
36,192,122441,1,0,0:0:0:0:
256,192,122756,1,0,0:0:0:0:
402,192,122756,1,0,0:0:0:0:
36,192,123072,1,0,0:0:0:0:
475,192,123230,1,0,0:0:0:0:
182,192,123230,1,0,0:0:0:0:
109,192,123388,1,0,0:0:0:0:
256,192,123388,1,0,0:0:0:0:
402,192,123546,1,0,0:0:0:0:
182,192,123704,1,0,0:0:0:0:
475,192,123862,1,0,0:0:0:0:
329,192,123862,1,0,0:0:0:0:
109,192,124020,1,0,0:0:0:0:
36,192,124335,1,0,0:0:0:0:
475,192,124651,1,0,0:0:0:0:
256,192,124651,1,0,0:0:0:0:
109,192,124651,1,0,0:0:0:0:
402,192,124809,1,0,0:0:0:0:
182,192,124967,1,0,0:0:0:0:
329,192,124967,1,0,0:0:0:0:
109,192,125283,1,0,0:0:0:0:
256,192,125283,1,0,0:0:0:0:
36,192,125599,1,0,0:0:0:0:
475,192,125756,1,0,0:0:0:0:
182,192,125756,1,0,0:0:0:0:
109,192,125914,1,0,0:0:0:0:
256,192,125914,1,0,0:0:0:0:
402,192,126072,1,0,0:0:0:0:
182,192,126230,1,0,0:0:0:0:
475,192,126388,1,0,0:0:0:0:
329,192,126388,1,0,0:0:0:0:
109,192,126546,1,0,0:0:0:0:
36,192,126862,1,0,0:0:0:0:
109,192,127177,1,0,0:0:0:0:
256,192,127177,1,0,0:0:0:0:
475,192,127177,1,0,0:0:0:0:
402,192,127335,1,0,0:0:0:0:
182,192,127493,1,0,0:0:0:0:
329,192,127493,1,0,0:0:0:0:
109,192,127809,1,0,0:0:0:0:
256,192,127809,1,0,0:0:0:0:
36,192,128125,1,0,0:0:0:0:
109,192,128441,1,0,0:0:0:0:
256,192,128441,1,0,0:0:0:0:
475,192,128599,1,0,0:0:0:0:
182,192,128756,1,0,0:0:0:0:
402,192,128756,1,0,0:0:0:0:
109,192,129072,1,0,0:0:0:0:
329,192,129388,1,0,0:0:0:0:
256,192,129388,1,0,0:0:0:0:
36,192,129388,1,0,0:0:0:0:
475,192,129546,1,0,0:0:0:0:
109,192,129704,1,0,0:0:0:0:
402,192,129704,1,0,0:0:0:0:
256,192,130020,1,0,0:0:0:0:
109,192,130335,1,0,0:0:0:0:
36,192,130651,1,0,0:0:0:0:
402,192,130651,1,0,0:0:0:0:
329,192,130809,1,0,0:0:0:0:
182,192,131125,1,0,0:0:0:0:
36,192,131283,1,0,0:0:0:0:
329,192,131283,1,0,0:0:0:0:
109,192,131441,1,0,0:0:0:0:
256,192,131756,1,0,0:0:0:0:
329,192,131914,1,0,0:0:0:0:
109,192,131914,1,0,0:0:0:0:
256,192,132230,1,0,0:0:0:0:
109,192,132546,1,0,0:0:0:0:
329,192,132546,1,0,0:0:0:0:
256,192,132862,1,0,0:0:0:0:
36,192,133177,1,0,0:0:0:0:
402,192,133177,1,0,0:0:0:0:
256,192,133335,1,0,0:0:0:0:
329,192,133493,1,0,0:0:0:0:
182,192,133651,1,0,0:0:0:0:
475,192,133809,1,0,0:0:0:0:
256,192,133809,1,0,0:0:0:0:
109,192,133967,1,0,0:0:0:0:
182,192,134125,1,0,0:0:0:0:
109,192,134283,1,0,0:0:0:0:
36,192,134441,1,0,0:0:0:0:
402,192,134441,1,0,0:0:0:0:
256,192,134599,1,0,0:0:0:0:
329,192,134756,1,0,0:0:0:0:
182,192,134914,1,0,0:0:0:0:
475,192,135072,1,0,0:0:0:0:
256,192,135072,1,0,0:0:0:0:
109,192,135230,1,0,0:0:0:0:
182,192,135388,1,0,0:0:0:0:
109,192,135546,1,0,0:0:0:0:
36,192,135704,1,0,0:0:0:0:
402,192,135704,1,0,0:0:0:0:
256,192,135862,1,0,0:0:0:0:
329,192,136020,1,0,0:0:0:0:
182,192,136177,1,0,0:0:0:0:
475,192,136335,1,0,0:0:0:0:
256,192,136335,1,0,0:0:0:0:
109,192,136493,1,0,0:0:0:0:
182,192,136651,1,0,0:0:0:0:
109,192,136809,1,0,0:0:0:0:
36,192,136967,1,0,0:0:0:0:
402,192,136967,1,0,0:0:0:0:
256,192,137125,1,0,0:0:0:0:
329,192,137283,1,0,0:0:0:0:
182,192,137441,1,0,0:0:0:0:
475,192,137599,1,0,0:0:0:0:
256,192,137599,1,0,0:0:0:0:
109,192,137756,1,0,0:0:0:0:
182,192,137914,1,0,0:0:0:0:
109,192,138072,1,0,0:0:0:0:
36,192,138230,1,0,0:0:0:0:
402,192,138230,1,0,0:0:0:0:
256,192,138388,1,0,0:0:0:0:
329,192,138546,1,0,0:0:0:0:
182,192,138704,1,0,0:0:0:0:
475,192,138862,1,0,0:0:0:0:
256,192,138862,1,0,0:0:0:0:
109,192,139020,1,0,0:0:0:0:
182,192,139177,1,0,0:0:0:0:
109,192,139335,1,0,0:0:0:0:
36,192,139493,1,0,0:0:0:0:
402,192,139493,1,0,0:0:0:0:
256,192,139651,1,0,0:0:0:0:
329,192,139809,1,0,0:0:0:0:
182,192,139967,1,0,0:0:0:0:
475,192,140125,1,0,0:0:0:0:
256,192,140125,1,0,0:0:0:0:
109,192,140283,1,0,0:0:0:0:
182,192,140441,1,0,0:0:0:0:
109,192,140599,1,0,0:0:0:0:
36,192,140756,1,0,0:0:0:0:
402,192,140756,1,0,0:0:0:0:
256,192,140914,1,0,0:0:0:0:
329,192,141072,1,0,0:0:0:0:
182,192,141230,1,0,0:0:0:0:
475,192,141388,1,0,0:0:0:0:
256,192,141388,1,0,0:0:0:0:
109,192,141546,1,0,0:0:0:0:
182,192,141704,1,0,0:0:0:0:
109,192,141862,1,0,0:0:0:0:
36,192,142020,1,0,0:0:0:0:
402,192,142020,1,0,0:0:0:0:
256,192,142177,1,0,0:0:0:0:
329,192,142335,1,0,0:0:0:0:
182,192,142493,1,0,0:0:0:0:
475,192,142651,1,0,0:0:0:0:
256,192,142651,1,0,0:0:0:0:
109,192,142809,1,0,0:0:0:0:
182,192,142967,1,0,0:0:0:0:
109,192,143125,1,0,0:0:0:0:
36,192,143283,1,0,0:0:0:0:
402,192,143283,1,0,0:0:0:0:
256,192,143441,1,0,0:0:0:0:
329,192,143599,1,0,0:0:0:0:
182,192,143756,1,0,0:0:0:0:
36,192,143914,1,0,0:0:0:0:
475,192,143914,1,0,0:0:0:0:
256,192,143914,1,0,0:0:0:0:
109,192,144072,1,0,0:0:0:0:
182,192,144230,1,0,0:0:0:0:
109,192,144388,1,0,0:0:0:0:
36,192,144546,1,0,0:0:0:0:
402,192,144546,1,0,0:0:0:0:
256,192,144704,1,0,0:0:0:0:
329,192,144862,1,0,0:0:0:0:
182,192,145020,1,0,0:0:0:0:
36,192,145177,1,0,0:0:0:0:
475,192,145177,1,0,0:0:0:0:
256,192,145177,1,0,0:0:0:0:
109,192,145335,1,0,0:0:0:0:
182,192,145493,1,0,0:0:0:0:
109,192,145651,1,0,0:0:0:0:
36,192,145809,1,0,0:0:0:0:
402,192,145809,1,0,0:0:0:0:
256,192,145967,1,0,0:0:0:0:
329,192,146125,1,0,0:0:0:0:
182,192,146283,1,0,0:0:0:0:
36,192,146441,1,0,0:0:0:0:
475,192,146441,1,0,0:0:0:0:
256,192,146441,1,0,0:0:0:0:
109,192,146599,1,0,0:0:0:0:
182,192,146756,1,0,0:0:0:0:
109,192,146914,1,0,0:0:0:0:
36,192,147072,1,0,0:0:0:0:
402,192,147072,1,0,0:0:0:0:
256,192,147230,1,0,0:0:0:0:
329,192,147388,1,0,0:0:0:0:
182,192,147546,1,0,0:0:0:0:
36,192,147704,1,0,0:0:0:0:
475,192,147704,1,0,0:0:0:0:
256,192,147704,1,0,0:0:0:0:
109,192,147862,1,0,0:0:0:0:
182,192,148020,1,0,0:0:0:0:
109,192,148177,1,0,0:0:0:0:
36,192,148335,1,0,0:0:0:0:
402,192,148335,1,0,0:0:0:0:
256,192,148493,1,0,0:0:0:0:
329,192,148651,1,0,0:0:0:0:
182,192,148809,1,0,0:0:0:0:
36,192,148967,1,0,0:0:0:0:
475,192,148967,1,0,0:0:0:0:
256,192,148967,1,0,0:0:0:0:
109,192,149125,1,0,0:0:0:0:
182,192,149283,1,0,0:0:0:0:
109,192,149441,1,0,0:0:0:0:
256,192,149599,1,0,0:0:0:0:
475,192,149599,1,0,0:0:0:0:
36,192,149599,1,0,0:0:0:0:
109,192,149756,1,0,0:0:0:0:
329,192,149756,1,0,0:0:0:0:
402,192,149914,1,0,0:0:0:0:
182,192,149914,1,0,0:0:0:0:
256,192,150072,1,0,0:0:0:0:
109,192,150072,1,0,0:0:0:0:
36,192,150230,1,0,0:0:0:0:
475,192,150230,1,0,0:0:0:0:
329,192,150230,1,0,0:0:0:0:
109,192,150388,1,0,0:0:0:0:
182,192,150546,1,0,0:0:0:0:
109,192,150704,1,0,0:0:0:0:
256,192,150862,1,0,0:0:0:0:
36,192,150862,1,0,0:0:0:0:
475,192,150862,1,0,0:0:0:0:
329,192,151020,1,0,0:0:0:0:
109,192,151020,1,0,0:0:0:0:
402,192,151177,1,0,0:0:0:0:
182,192,151177,1,0,0:0:0:0:
256,192,151335,1,0,0:0:0:0:
109,192,151335,1,0,0:0:0:0:
36,192,151493,1,0,0:0:0:0:
329,192,151493,1,0,0:0:0:0:
402,192,151651,1,0,0:0:0:0:
109,192,151651,1,0,0:0:0:0:
475,192,151809,1,0,0:0:0:0:
182,192,151809,1,0,0:0:0:0:
256,192,151967,1,0,0:0:0:0:
109,192,151967,1,0,0:0:0:0:
475,192,152125,1,0,0:0:0:0:
36,192,152125,1,0,0:0:0:0:
329,192,152283,1,0,0:0:0:0:
109,192,152283,1,0,0:0:0:0:
402,192,152441,1,0,0:0:0:0:
182,192,152441,1,0,0:0:0:0:
256,192,152599,1,0,0:0:0:0:
109,192,152599,1,0,0:0:0:0:
36,192,152756,1,0,0:0:0:0:
329,192,152756,1,0,0:0:0:0:
402,192,152914,1,0,0:0:0:0:
109,192,152914,1,0,0:0:0:0:
475,192,153072,1,0,0:0:0:0:
182,192,153072,1,0,0:0:0:0:
256,192,153230,1,0,0:0:0:0:
109,192,153230,1,0,0:0:0:0:
36,192,153388,1,0,0:0:0:0:
402,192,153388,1,0,0:0:0:0:
109,192,153546,1,0,0:0:0:0:
329,192,153546,1,0,0:0:0:0:
182,192,153704,1,0,0:0:0:0:
402,192,153704,1,0,0:0:0:0:
475,192,153862,1,0,0:0:0:0:
256,192,153862,1,0,0:0:0:0:
182,192,154020,1,0,0:0:0:0:
109,192,154177,1,0,0:0:0:0:
402,192,154177,1,0,0:0:0:0:
182,192,154335,1,0,0:0:0:0:
329,192,154335,1,0,0:0:0:0:
109,192,154493,1,0,0:0:0:0:
36,192,154651,1,0,0:0:0:0:
402,192,154651,1,0,0:0:0:0:
109,192,154809,1,0,0:0:0:0:
182,192,154967,1,0,0:0:0:0:
256,192,155125,1,0,0:0:0:0:
182,192,155283,1,0,0:0:0:0:
329,192,155283,1,0,0:0:0:0:
109,192,155441,1,0,0:0:0:0:
182,192,155599,1,0,0:0:0:0:
109,192,155756,1,0,0:0:0:0:
36,192,155914,1,0,0:0:0:0:
402,192,155914,1,0,0:0:0:0:
329,192,156072,1,0,0:0:0:0:
109,192,156072,1,0,0:0:0:0:
402,192,156230,1,0,0:0:0:0:
182,192,156230,1,0,0:0:0:0:
475,192,156388,1,0,0:0:0:0:
256,192,156388,1,0,0:0:0:0:
182,192,156546,1,0,0:0:0:0:
109,192,156704,1,0,0:0:0:0:
402,192,156704,1,0,0:0:0:0:
182,192,156862,1,0,0:0:0:0:
329,192,156862,1,0,0:0:0:0:
109,192,157020,1,0,0:0:0:0:
36,192,157177,1,0,0:0:0:0:
402,192,157177,1,0,0:0:0:0:
109,192,157335,1,0,0:0:0:0:
182,192,157493,1,0,0:0:0:0:
256,192,157651,1,0,0:0:0:0:
182,192,157809,1,0,0:0:0:0:
109,192,157967,1,0,0:0:0:0:
182,192,158125,1,0,0:0:0:0:
109,192,158283,1,0,0:0:0:0:
36,192,158441,1,0,0:0:0:0:
402,192,158441,1,0,0:0:0:0:
329,192,158599,1,0,0:0:0:0:
109,192,158599,1,0,0:0:0:0:
402,192,158756,1,0,0:0:0:0:
182,192,158756,1,0,0:0:0:0:
475,192,158914,1,0,0:0:0:0:
256,192,158914,1,0,0:0:0:0:
182,192,159072,1,0,0:0:0:0:
402,192,159230,1,0,0:0:0:0:
109,192,159230,1,0,0:0:0:0:
329,192,159388,1,0,0:0:0:0:
182,192,159388,1,0,0:0:0:0:
109,192,159546,1,0,0:0:0:0:
402,192,159704,1,0,0:0:0:0:
256,192,159704,1,0,0:0:0:0:
36,192,159704,1,0,0:0:0:0:
109,192,159862,1,0,0:0:0:0:
329,192,159862,1,0,0:0:0:0:
182,192,160020,1,0,0:0:0:0:
402,192,160020,1,0,0:0:0:0:
256,192,160177,1,0,0:0:0:0:
475,192,160177,1,0,0:0:0:0:
182,192,160335,1,0,0:0:0:0:
329,192,160493,1,0,0:0:0:0:
256,192,160493,1,0,0:0:0:0:
109,192,160493,1,0,0:0:0:0:
475,192,160493,1,0,0:0:0:0:
182,192,160651,1,0,0:0:0:0:
402,192,160651,1,0,0:0:0:0:
109,192,160809,1,0,0:0:0:0:
36,192,160967,1,0,0:0:0:0:
329,192,160967,1,0,0:0:0:0:
475,192,160967,1,0,0:0:0:0:
109,192,161125,1,0,0:0:0:0:
182,192,161283,1,0,0:0:0:0:
256,192,161441,1,0,0:0:0:0:
182,192,161599,1,0,0:0:0:0:
329,192,161599,1,0,0:0:0:0:
475,192,161599,1,0,0:0:0:0:
109,192,161756,1,0,0:0:0:0:
182,192,161914,1,0,0:0:0:0:
402,192,161914,1,0,0:0:0:0:
475,192,161914,1,0,0:0:0:0:
109,192,162072,1,0,0:0:0:0:
36,192,162230,1,0,0:0:0:0:
475,192,162230,1,0,0:0:0:0:
109,192,162388,1,0,0:0:0:0:
402,192,162388,1,0,0:0:0:0:
182,192,162546,1,0,0:0:0:0:
329,192,162546,1,0,0:0:0:0:
256,192,162704,1,0,0:0:0:0:
402,192,162704,1,0,0:0:0:0:
182,192,162862,1,0,0:0:0:0:
475,192,162862,1,0,0:0:0:0:
109,192,163020,1,0,0:0:0:0:
402,192,163020,1,0,0:0:0:0:
182,192,163177,1,0,0:0:0:0:
329,192,163177,1,0,0:0:0:0:
109,192,163335,1,0,0:0:0:0:
256,192,163335,1,0,0:0:0:0:
36,192,163493,1,0,0:0:0:0:
402,192,163493,1,0,0:0:0:0:
329,192,163651,1,0,0:0:0:0:
109,192,163651,1,0,0:0:0:0:
402,192,163809,1,0,0:0:0:0:
182,192,163809,1,0,0:0:0:0:
475,192,163967,1,0,0:0:0:0:
256,192,163967,1,0,0:0:0:0:
182,192,164125,1,0,0:0:0:0:
109,192,164283,1,0,0:0:0:0:
402,192,164283,1,0,0:0:0:0:
182,192,164441,1,0,0:0:0:0:
329,192,164441,1,0,0:0:0:0:
109,192,164599,1,0,0:0:0:0:
36,192,164756,1,0,0:0:0:0:
475,192,164756,1,0,0:0:0:0:
402,192,164914,1,0,0:0:0:0:
109,192,164914,1,0,0:0:0:0:
329,192,165072,1,0,0:0:0:0:
182,192,165072,1,0,0:0:0:0:
402,192,165230,1,0,0:0:0:0:
256,192,165230,1,0,0:0:0:0:
475,192,165388,1,0,0:0:0:0:
182,192,165388,1,0,0:0:0:0:
402,192,165546,1,0,0:0:0:0:
109,192,165546,1,0,0:0:0:0:
329,192,165704,1,0,0:0:0:0:
182,192,165704,1,0,0:0:0:0:
256,192,165862,1,0,0:0:0:0:
109,192,165862,1,0,0:0:0:0:
36,192,166020,1,0,0:0:0:0:
402,192,166020,1,0,0:0:0:0:
329,192,166177,1,0,0:0:0:0:
109,192,166177,1,0,0:0:0:0:
402,192,166335,1,0,0:0:0:0:
182,192,166335,1,0,0:0:0:0:
475,192,166493,1,0,0:0:0:0:
256,192,166493,1,0,0:0:0:0:
182,192,166651,1,0,0:0:0:0:
109,192,166809,1,0,0:0:0:0:
402,192,166809,1,0,0:0:0:0:
182,192,166967,1,0,0:0:0:0:
329,192,166967,1,0,0:0:0:0:
109,192,167125,1,0,0:0:0:0:
36,192,167283,1,0,0:0:0:0:
475,192,167283,1,0,0:0:0:0:
402,192,167441,1,0,0:0:0:0:
109,192,167441,1,0,0:0:0:0:
329,192,167599,1,0,0:0:0:0:
182,192,167599,1,0,0:0:0:0:
402,192,167756,1,0,0:0:0:0:
256,192,167756,1,0,0:0:0:0:
475,192,167914,1,0,0:0:0:0:
182,192,167914,1,0,0:0:0:0:
402,192,168072,1,0,0:0:0:0:
109,192,168072,1,0,0:0:0:0:
329,192,168230,1,0,0:0:0:0:
182,192,168230,1,0,0:0:0:0:
256,192,168388,1,0,0:0:0:0:
109,192,168388,1,0,0:0:0:0:
402,192,168546,1,0,0:0:0:0:
36,192,168546,1,0,0:0:0:0:
329,192,168704,1,0,0:0:0:0:
109,192,168704,1,0,0:0:0:0:
402,192,168862,1,0,0:0:0:0:
182,192,168862,1,0,0:0:0:0:
475,192,169020,1,0,0:0:0:0:
256,192,169020,1,0,0:0:0:0:
182,192,169177,1,0,0:0:0:0:
402,192,169335,1,0,0:0:0:0:
109,192,169335,1,0,0:0:0:0:
329,192,169493,1,0,0:0:0:0:
182,192,169493,1,0,0:0:0:0:
109,192,169651,1,0,0:0:0:0:
402,192,169809,1,0,0:0:0:0:
36,192,169809,1,0,0:0:0:0:
256,192,169809,1,0,0:0:0:0:
109,192,169967,1,0,0:0:0:0:
329,192,169967,1,0,0:0:0:0:
182,192,170125,1,0,0:0:0:0:
402,192,170125,1,0,0:0:0:0:
256,192,170283,1,0,0:0:0:0:
475,192,170283,1,0,0:0:0:0:
182,192,170441,1,0,0:0:0:0:
109,192,170599,1,0,0:0:0:0:
329,192,170599,1,0,0:0:0:0:
475,192,170599,1,0,0:0:0:0:
182,192,170756,1,0,0:0:0:0:
402,192,170756,1,0,0:0:0:0:
109,192,170914,1,0,0:0:0:0:
475,192,171072,1,0,0:0:0:0:
329,192,171072,1,0,0:0:0:0:
36,192,171072,1,0,0:0:0:0:
109,192,171230,1,0,0:0:0:0:
182,192,171388,1,0,0:0:0:0:
256,192,171546,1,0,0:0:0:0:
182,192,171704,1,0,0:0:0:0:
475,192,171704,1,0,0:0:0:0:
329,192,171704,1,0,0:0:0:0:
109,192,171862,1,0,0:0:0:0:
182,192,172020,1,0,0:0:0:0:
475,192,172020,1,0,0:0:0:0:
402,192,172020,1,0,0:0:0:0:
109,192,172177,1,0,0:0:0:0:
36,192,172335,1,0,0:0:0:0:
475,192,172335,1,0,0:0:0:0:
402,192,172493,1,0,0:0:0:0:
109,192,172493,1,0,0:0:0:0:
329,192,172651,1,0,0:0:0:0:
182,192,172651,1,0,0:0:0:0:
402,192,172809,1,0,0:0:0:0:
256,192,172809,1,0,0:0:0:0:
475,192,172967,1,0,0:0:0:0:
182,192,172967,1,0,0:0:0:0:
402,192,173125,1,0,0:0:0:0:
109,192,173125,1,0,0:0:0:0:
329,192,173283,1,0,0:0:0:0:
182,192,173283,1,0,0:0:0:0:
256,192,173441,1,0,0:0:0:0:
109,192,173441,1,0,0:0:0:0:
36,192,173599,1,0,0:0:0:0:
475,192,173599,1,0,0:0:0:0:
402,192,173756,1,0,0:0:0:0:
109,192,173756,1,0,0:0:0:0:
329,192,173914,1,0,0:0:0:0:
182,192,173914,1,0,0:0:0:0:
402,192,174072,1,0,0:0:0:0:
256,192,174072,1,0,0:0:0:0:
475,192,174230,1,0,0:0:0:0:
182,192,174230,1,0,0:0:0:0:
402,192,174388,1,0,0:0:0:0:
109,192,174388,1,0,0:0:0:0:
329,192,174546,1,0,0:0:0:0:
182,192,174546,1,0,0:0:0:0:
256,192,174704,1,0,0:0:0:0:
109,192,174704,1,0,0:0:0:0:
36,192,174862,1,0,0:0:0:0:
475,192,174862,1,0,0:0:0:0:
182,192,175020,1,0,0:0:0:0:
402,192,175020,1,0,0:0:0:0:
109,192,175177,1,0,0:0:0:0:
329,192,175177,1,0,0:0:0:0:
36,192,175335,1,0,0:0:0:0:
256,192,175335,1,0,0:0:0:0:
475,192,175493,1,0,0:0:0:0:
182,192,175493,1,0,0:0:0:0:
402,192,175651,1,0,0:0:0:0:
109,192,175651,1,0,0:0:0:0:
329,192,175809,1,0,0:0:0:0:
182,192,175809,1,0,0:0:0:0:
256,192,175967,1,0,0:0:0:0:
109,192,175967,1,0,0:0:0:0:
182,192,176125,1,0,0:0:0:0:
36,192,176125,1,0,0:0:0:0:
256,192,176283,1,0,0:0:0:0:
109,192,176283,1,0,0:0:0:0:
329,192,176441,1,0,0:0:0:0:
182,192,176441,1,0,0:0:0:0:
402,192,176599,1,0,0:0:0:0:
256,192,176599,1,0,0:0:0:0:
475,192,176756,1,0,0:0:0:0:
329,192,176756,1,0,0:0:0:0:
36,192,176914,1,0,0:0:0:0:
402,192,176914,1,0,0:0:0:0:
109,192,177072,1,0,0:0:0:0:
329,192,177072,1,0,0:0:0:0:
182,192,177230,1,0,0:0:0:0:
402,192,177230,1,0,0:0:0:0:
256,192,177388,1,0,0:0:0:0:
36,192,177388,1,0,0:0:0:0:
329,192,177546,1,0,0:0:0:0:
109,192,177546,1,0,0:0:0:0:
256,192,177704,1,0,0:0:0:0:
182,192,177704,1,0,0:0:0:0:
329,192,177862,1,0,0:0:0:0:
109,192,177862,1,0,0:0:0:0:
402,192,178020,1,0,0:0:0:0:
256,192,178020,1,0,0:0:0:0:
329,192,178177,1,0,0:0:0:0:
182,192,178177,1,0,0:0:0:0:
402,192,178335,1,0,0:0:0:0:
109,192,178335,1,0,0:0:0:0:
182,192,178493,1,0,0:0:0:0:
475,192,178493,1,0,0:0:0:0:
36,192,178651,1,0,0:0:0:0:
475,192,178651,1,0,0:0:0:0:
402,192,178809,1,0,0:0:0:0:
109,192,178809,1,0,0:0:0:0:
329,192,178967,1,0,0:0:0:0:
182,192,178967,1,0,0:0:0:0:
402,192,179125,1,0,0:0:0:0:
256,192,179125,1,0,0:0:0:0:
475,192,179283,1,0,0:0:0:0:
182,192,179283,1,0,0:0:0:0:
402,192,179441,1,0,0:0:0:0:
109,192,179441,1,0,0:0:0:0:
329,192,179599,1,0,0:0:0:0:
182,192,179599,1,0,0:0:0:0:
256,192,179756,1,0,0:0:0:0:
109,192,179756,1,0,0:0:0:0:
36,192,179914,1,0,0:0:0:0:
475,192,179914,1,0,0:0:0:0:
182,192,180072,1,0,0:0:0:0:
402,192,180072,1,0,0:0:0:0:
109,192,180230,1,0,0:0:0:0:
329,192,180230,1,0,0:0:0:0:
36,192,180388,1,0,0:0:0:0:
256,192,180388,1,0,0:0:0:0:
475,192,180546,1,0,0:0:0:0:
182,192,180546,1,0,0:0:0:0:
402,192,180704,1,0,0:0:0:0:
109,192,180704,1,0,0:0:0:0:
329,192,180862,1,0,0:0:0:0:
182,192,180862,1,0,0:0:0:0:
256,192,181020,1,0,0:0:0:0:
109,192,181020,1,0,0:0:0:0:
182,192,181177,1,0,0:0:0:0:
36,192,181177,1,0,0:0:0:0:
256,192,181335,1,0,0:0:0:0:
109,192,181335,1,0,0:0:0:0:
329,192,181493,1,0,0:0:0:0:
182,192,181493,1,0,0:0:0:0:
402,192,181651,1,0,0:0:0:0:
256,192,181651,1,0,0:0:0:0:
475,192,181809,1,0,0:0:0:0:
329,192,181809,1,0,0:0:0:0:
36,192,181967,1,0,0:0:0:0:
402,192,181967,1,0,0:0:0:0:
109,192,182125,1,0,0:0:0:0:
329,192,182125,1,0,0:0:0:0:
182,192,182283,1,0,0:0:0:0:
402,192,182283,1,0,0:0:0:0:
256,192,182441,1,0,0:0:0:0:
36,192,182441,1,0,0:0:0:0:
329,192,182599,1,0,0:0:0:0:
109,192,182599,1,0,0:0:0:0:
256,192,182756,1,0,0:0:0:0:
182,192,182756,1,0,0:0:0:0:
329,192,182914,1,0,0:0:0:0:
109,192,182914,1,0,0:0:0:0:
402,192,183072,1,0,0:0:0:0:
256,192,183072,1,0,0:0:0:0:
329,192,183230,1,0,0:0:0:0:
182,192,183230,1,0,0:0:0:0:
402,192,183388,1,0,0:0:0:0:
109,192,183388,1,0,0:0:0:0:
182,192,183546,1,0,0:0:0:0:
475,192,183546,1,0,0:0:0:0:
36,192,183704,1,0,0:0:0:0:
329,192,183704,1,0,0:0:0:0:
256,192,183862,1,0,0:0:0:0:
182,192,184020,1,0,0:0:0:0:
329,192,184020,1,0,0:0:0:0:
475,192,184177,1,0,0:0:0:0:
256,192,184335,1,0,0:0:0:0:
402,192,184493,1,0,0:0:0:0:
182,192,184651,1,0,0:0:0:0:
329,192,184651,1,0,0:0:0:0:
256,192,184967,1,0,0:0:0:0:
402,192,184967,1,0,0:0:0:0:
109,192,184967,1,0,0:0:0:0:
329,192,185125,1,0,0:0:0:0:
182,192,185283,1,0,0:0:0:0:
402,192,185283,1,0,0:0:0:0:
475,192,185441,1,0,0:0:0:0:
256,192,185599,1,0,0:0:0:0:
475,192,185756,1,0,0:0:0:0:
182,192,185914,1,0,0:0:0:0:
402,192,185914,1,0,0:0:0:0:
36,192,186230,1,0,0:0:0:0:
329,192,186230,1,0,0:0:0:0:
256,192,186388,1,0,0:0:0:0:
182,192,186546,1,0,0:0:0:0:
329,192,186546,1,0,0:0:0:0:
475,192,186704,1,0,0:0:0:0:
256,192,186862,1,0,0:0:0:0:
402,192,187020,1,0,0:0:0:0:
182,192,187177,1,0,0:0:0:0:
329,192,187177,1,0,0:0:0:0:
402,192,187493,1,0,0:0:0:0:
256,192,187493,1,0,0:0:0:0:
109,192,187493,1,0,0:0:0:0:
329,192,187651,1,0,0:0:0:0:
182,192,187809,1,0,0:0:0:0:
402,192,187809,1,0,0:0:0:0:
475,192,187967,1,0,0:0:0:0:
256,192,188125,1,0,0:0:0:0:
475,192,188283,1,0,0:0:0:0:
182,192,188441,1,0,0:0:0:0:
402,192,188441,1,0,0:0:0:0:
36,192,188756,1,0,0:0:0:0:
329,192,188756,1,0,0:0:0:0:
256,192,188914,1,0,0:0:0:0:
182,192,189072,1,0,0:0:0:0:
329,192,189072,1,0,0:0:0:0:
475,192,189230,1,0,0:0:0:0:
256,192,189388,1,0,0:0:0:0:
402,192,189546,1,0,0:0:0:0:
182,192,189704,1,0,0:0:0:0:
329,192,189704,1,0,0:0:0:0:
36,192,190020,1,0,0:0:0:0:
402,192,190020,1,0,0:0:0:0:
256,192,190177,1,0,0:0:0:0:
182,192,190335,1,0,0:0:0:0:
402,192,190335,1,0,0:0:0:0:
475,192,190493,1,0,0:0:0:0:
256,192,190651,1,0,0:0:0:0:
402,192,190809,1,0,0:0:0:0:
182,192,190967,1,0,0:0:0:0:
329,192,190967,1,0,0:0:0:0:
109,192,191283,1,0,0:0:0:0:
475,192,191283,1,0,0:0:0:0:
402,192,191283,1,0,0:0:0:0:
182,192,191599,1,0,0:0:0:0:
475,192,191914,1,0,0:0:0:0:
402,192,191914,1,0,0:0:0:0:
256,192,191914,1,0,0:0:0:0:
402,192,192230,1,0,0:0:0:0:
329,192,192230,1,0,0:0:0:0:
182,192,192230,1,0,0:0:0:0:
109,192,192546,1,0,0:0:0:0:
475,192,192546,1,0,0:0:0:0:
402,192,192704,1,0,0:0:0:0:
182,192,192862,1,0,0:0:0:0:
329,192,192862,1,0,0:0:0:0:
402,192,193020,1,0,0:0:0:0:
256,192,193177,1,0,0:0:0:0:
475,192,193177,1,0,0:0:0:0:
402,192,193335,1,0,0:0:0:0:
182,192,193493,1,0,0:0:0:0:
329,192,193493,1,0,0:0:0:0:
109,192,193651,1,0,0:0:0:0:
36,192,193809,1,0,0:0:0:0:
329,192,193809,1,0,0:0:0:0:
256,192,193967,1,0,0:0:0:0:
182,192,194125,1,0,0:0:0:0:
329,192,194125,1,0,0:0:0:0:
475,192,194283,1,0,0:0:0:0:
256,192,194441,1,0,0:0:0:0:
402,192,194599,1,0,0:0:0:0:
182,192,194756,1,0,0:0:0:0:
329,192,194756,1,0,0:0:0:0:
256,192,195072,1,0,0:0:0:0:
402,192,195072,1,0,0:0:0:0:
109,192,195072,1,0,0:0:0:0:
329,192,195230,1,0,0:0:0:0:
182,192,195388,1,0,0:0:0:0:
402,192,195388,1,0,0:0:0:0:
475,192,195546,1,0,0:0:0:0:
256,192,195704,1,0,0:0:0:0:
475,192,195862,1,0,0:0:0:0:
182,192,196020,1,0,0:0:0:0:
402,192,196020,1,0,0:0:0:0:
36,192,196335,1,0,0:0:0:0:
329,192,196335,1,0,0:0:0:0:
256,192,196493,1,0,0:0:0:0:
182,192,196651,1,0,0:0:0:0:
329,192,196651,1,0,0:0:0:0:
475,192,196809,1,0,0:0:0:0:
256,192,196967,1,0,0:0:0:0:
402,192,197125,1,0,0:0:0:0:
182,192,197283,1,0,0:0:0:0:
329,192,197283,1,0,0:0:0:0:
402,192,197599,1,0,0:0:0:0:
256,192,197599,1,0,0:0:0:0:
109,192,197599,1,0,0:0:0:0:
329,192,197756,1,0,0:0:0:0:
182,192,197914,1,0,0:0:0:0:
402,192,197914,1,0,0:0:0:0:
475,192,198072,1,0,0:0:0:0:
256,192,198230,1,0,0:0:0:0:
475,192,198388,1,0,0:0:0:0:
182,192,198546,1,0,0:0:0:0:
402,192,198546,1,0,0:0:0:0:
36,192,198862,1,0,0:0:0:0:
329,192,198862,1,0,0:0:0:0:
256,192,199020,1,0,0:0:0:0:
182,192,199177,1,0,0:0:0:0:
329,192,199177,1,0,0:0:0:0:
475,192,199335,1,0,0:0:0:0:
256,192,199493,1,0,0:0:0:0:
402,192,199651,1,0,0:0:0:0:
182,192,199809,1,0,0:0:0:0:
329,192,199809,1,0,0:0:0:0:
36,192,200125,1,0,0:0:0:0:
402,192,200125,1,0,0:0:0:0:
256,192,200283,1,0,0:0:0:0:
182,192,200441,1,0,0:0:0:0:
402,192,200441,1,0,0:0:0:0:
475,192,200599,1,0,0:0:0:0:
256,192,200756,1,0,0:0:0:0:
402,192,200914,1,0,0:0:0:0:
182,192,201072,1,0,0:0:0:0:
329,192,201072,1,0,0:0:0:0:
402,192,201388,1,0,0:0:0:0:
475,192,201388,1,0,0:0:0:0:
109,192,201388,1,0,0:0:0:0:
182,192,201704,1,0,0:0:0:0:
475,192,202020,1,0,0:0:0:0:
402,192,202020,1,0,0:0:0:0:
256,192,202020,1,0,0:0:0:0:
402,192,202335,1,0,0:0:0:0:
329,192,202335,1,0,0:0:0:0:
182,192,202335,1,0,0:0:0:0:
109,192,202651,1,0,0:0:0:0:
475,192,202651,1,0,0:0:0:0:
402,192,202809,1,0,0:0:0:0:
182,192,202967,1,0,0:0:0:0:
329,192,202967,1,0,0:0:0:0:
402,192,203125,1,0,0:0:0:0:
256,192,203283,1,0,0:0:0:0:
475,192,203283,1,0,0:0:0:0:
402,192,203441,1,0,0:0:0:0:
329,192,203599,1,0,0:0:0:0:
182,192,203599,1,0,0:0:0:0:
109,192,203756,1,0,0:0:0:0:
329,192,203914,1,0,0:0:0:0:
36,192,203914,1,0,0:0:0:0:
256,192,204072,1,0,0:0:0:0:
182,192,204230,1,0,0:0:0:0:
329,192,204230,1,0,0:0:0:0:
475,192,204388,1,0,0:0:0:0:
256,192,204546,1,0,0:0:0:0:
402,192,204704,1,0,0:0:0:0:
182,192,204862,1,0,0:0:0:0:
329,192,204862,1,0,0:0:0:0:
109,192,205177,1,0,0:0:0:0:
402,192,205177,1,0,0:0:0:0:
182,192,205493,1,0,0:0:0:0:
329,192,205809,1,0,0:0:0:0:
256,192,205809,1,0,0:0:0:0:
182,192,206125,1,0,0:0:0:0:
36,192,206441,1,0,0:0:0:0:
329,192,206441,1,0,0:0:0:0:
256,192,206599,1,0,0:0:0:0:
182,192,206756,1,0,0:0:0:0:
329,192,206756,1,0,0:0:0:0:
475,192,206914,1,0,0:0:0:0:
256,192,207072,1,0,0:0:0:0:
402,192,207230,1,0,0:0:0:0:
182,192,207388,1,0,0:0:0:0:
329,192,207388,1,0,0:0:0:0:
402,192,207704,1,0,0:0:0:0:
256,192,207704,1,0,0:0:0:0:
109,192,207704,1,0,0:0:0:0:
182,192,208020,1,0,0:0:0:0:
256,192,208335,1,0,0:0:0:0:
182,192,208651,1,0,0:0:0:0:
36,192,208967,1,0,0:0:0:0:
329,192,208967,1,0,0:0:0:0:
256,192,209125,1,0,0:0:0:0:
182,192,209283,1,0,0:0:0:0:
329,192,209283,1,0,0:0:0:0:
475,192,209441,1,0,0:0:0:0:
256,192,209599,1,0,0:0:0:0:
402,192,209756,1,0,0:0:0:0:
182,192,209914,1,0,0:0:0:0:
329,192,209914,1,0,0:0:0:0:
402,192,210230,1,0,0:0:0:0:
109,192,210230,1,0,0:0:0:0:
329,192,210388,1,0,0:0:0:0:
182,192,210546,1,0,0:0:0:0:
402,192,210546,1,0,0:0:0:0:
475,192,210704,1,0,0:0:0:0:
256,192,210862,1,0,0:0:0:0:
402,192,211020,1,0,0:0:0:0:
182,192,211177,1,0,0:0:0:0:
329,192,211177,1,0,0:0:0:0:
402,192,211493,1,0,0:0:0:0:
475,192,211493,1,0,0:0:0:0:
36,192,211493,1,0,0:0:0:0:
182,192,211809,1,0,0:0:0:0:
475,192,212125,1,0,0:0:0:0:
402,192,212125,1,0,0:0:0:0:
256,192,212125,1,0,0:0:0:0:
402,192,212441,1,0,0:0:0:0:
329,192,212441,1,0,0:0:0:0:
182,192,212441,1,0,0:0:0:0:
475,192,212756,1,0,0:0:0:0:
256,192,212756,1,0,0:0:0:0:
402,192,212914,1,0,0:0:0:0:
182,192,212914,1,0,0:0:0:0:
329,192,213072,1,0,0:0:0:0:
109,192,213072,1,0,0:0:0:0:
402,192,213230,1,0,0:0:0:0:
36,192,213230,1,0,0:0:0:0:
475,192,213388,1,0,0:0:0:0:
182,192,213388,1,0,0:0:0:0:
402,192,213546,1,0,0:0:0:0:
109,192,213546,1,0,0:0:0:0:
329,192,213704,1,0,0:0:0:0:
36,192,213704,1,0,0:0:0:0:
256,192,213862,1,0,0:0:0:0:
109,192,213862,1,0,0:0:0:0:
475,192,214020,1,0,0:0:0:0:
182,192,214020,1,0,0:0:0:0:
329,192,214177,1,0,0:0:0:0:
109,192,214335,1,0,0:0:0:0:
402,192,214335,1,0,0:0:0:0:
256,192,214493,1,0,0:0:0:0:
475,192,214651,1,0,0:0:0:0:
36,192,214651,1,0,0:0:0:0:
329,192,214809,1,0,0:0:0:0:
402,192,214967,1,0,0:0:0:0:
109,192,214967,1,0,0:0:0:0:
329,192,215125,1,0,0:0:0:0:
256,192,215283,1,0,0:0:0:0:
475,192,215283,1,0,0:0:0:0:
109,192,215441,1,0,0:0:0:0:
182,192,215599,1,0,0:0:0:0:
402,192,215599,1,0,0:0:0:0:
36,192,215756,1,0,0:0:0:0:
329,192,215914,1,0,0:0:0:0:
256,192,215914,1,0,0:0:0:0:
109,192,216072,1,0,0:0:0:0:
182,192,216230,1,0,0:0:0:0:
402,192,216230,1,0,0:0:0:0:
109,192,216388,1,0,0:0:0:0:
475,192,216546,1,0,0:0:0:0:
182,192,216546,1,0,0:0:0:0:
36,192,216546,1,0,0:0:0:0:
329,192,216704,1,0,0:0:0:0:
109,192,216862,1,0,0:0:0:0:
402,192,216862,1,0,0:0:0:0:
256,192,217020,1,0,0:0:0:0:
475,192,217177,1,0,0:0:0:0:
36,192,217177,1,0,0:0:0:0:
329,192,217335,1,0,0:0:0:0:
402,192,217493,1,0,0:0:0:0:
109,192,217493,1,0,0:0:0:0:
329,192,217651,1,0,0:0:0:0:
256,192,217809,1,0,0:0:0:0:
475,192,217809,1,0,0:0:0:0:
109,192,217967,1,0,0:0:0:0:
182,192,218125,1,0,0:0:0:0:
402,192,218125,1,0,0:0:0:0:
36,192,218283,1,0,0:0:0:0:
329,192,218441,1,0,0:0:0:0:
256,192,218441,1,0,0:0:0:0:
109,192,218599,1,0,0:0:0:0:
182,192,218756,1,0,0:0:0:0:
402,192,218756,1,0,0:0:0:0:
36,192,218914,1,0,0:0:0:0:
475,192,219072,1,0,0:0:0:0:
182,192,219072,1,0,0:0:0:0:
402,192,219230,1,0,0:0:0:0:
256,192,219388,1,0,0:0:0:0:
109,192,219388,1,0,0:0:0:0:
329,192,219546,1,0,0:0:0:0:
475,192,219704,1,0,0:0:0:0:
36,192,219704,1,0,0:0:0:0:
402,192,219862,1,0,0:0:0:0:
256,192,220020,1,0,0:0:0:0:
109,192,220020,1,0,0:0:0:0:
329,192,220177,1,0,0:0:0:0:
256,192,220335,1,0,0:0:0:0:
475,192,220335,1,0,0:0:0:0:
182,192,220493,1,0,0:0:0:0:
36,192,220651,1,0,0:0:0:0:
402,192,220651,1,0,0:0:0:0:
109,192,220809,1,0,0:0:0:0:
256,192,220967,1,0,0:0:0:0:
329,192,220967,1,0,0:0:0:0:
182,192,221125,1,0,0:0:0:0:
36,192,221283,1,0,0:0:0:0:
402,192,221283,1,0,0:0:0:0:
109,192,221441,1,0,0:0:0:0:
475,192,221599,1,0,0:0:0:0:
182,192,221599,1,0,0:0:0:0:
402,192,221756,1,0,0:0:0:0:
256,192,221914,1,0,0:0:0:0:
109,192,221914,1,0,0:0:0:0:
329,192,222072,1,0,0:0:0:0:
475,192,222230,1,0,0:0:0:0:
36,192,222230,1,0,0:0:0:0:
402,192,222388,1,0,0:0:0:0:
256,192,222546,1,0,0:0:0:0:
109,192,222546,1,0,0:0:0:0:
329,192,222704,1,0,0:0:0:0:
475,192,222862,1,0,0:0:0:0:
256,192,222862,1,0,0:0:0:0:
182,192,223020,1,0,0:0:0:0:
402,192,223177,1,0,0:0:0:0:
36,192,223177,1,0,0:0:0:0:
109,192,223335,1,0,0:0:0:0:
329,192,223493,1,0,0:0:0:0:
256,192,223493,1,0,0:0:0:0:
182,192,223651,1,0,0:0:0:0:
402,192,223809,1,0,0:0:0:0:
36,192,223809,1,0,0:0:0:0:
109,192,223967,1,0,0:0:0:0:
475,192,224125,1,0,0:0:0:0:
182,192,224125,1,0,0:0:0:0:
329,192,224283,1,0,0:0:0:0:
109,192,224441,1,0,0:0:0:0:
402,192,224441,1,0,0:0:0:0:
256,192,224599,1,0,0:0:0:0:
475,192,224756,1,0,0:0:0:0:
36,192,224756,1,0,0:0:0:0:
329,192,224914,1,0,0:0:0:0:
402,192,225072,1,0,0:0:0:0:
109,192,225072,1,0,0:0:0:0:
329,192,225230,1,0,0:0:0:0:
256,192,225388,1,0,0:0:0:0:
475,192,225388,1,0,0:0:0:0:
109,192,225546,1,0,0:0:0:0:
182,192,225704,1,0,0:0:0:0:
402,192,225704,1,0,0:0:0:0:
36,192,225862,1,0,0:0:0:0:
329,192,226020,1,0,0:0:0:0:
256,192,226020,1,0,0:0:0:0:
109,192,226177,1,0,0:0:0:0:
182,192,226335,1,0,0:0:0:0:
402,192,226335,1,0,0:0:0:0:
109,192,226493,1,0,0:0:0:0:
475,192,226651,1,0,0:0:0:0:
182,192,226651,1,0,0:0:0:0:
36,192,226651,1,0,0:0:0:0:
329,192,226809,1,0,0:0:0:0:
109,192,226967,1,0,0:0:0:0:
402,192,226967,1,0,0:0:0:0:
256,192,227125,1,0,0:0:0:0:
475,192,227283,1,0,0:0:0:0:
36,192,227283,1,0,0:0:0:0:
329,192,227441,1,0,0:0:0:0:
402,192,227599,1,0,0:0:0:0:
109,192,227599,1,0,0:0:0:0:
329,192,227756,1,0,0:0:0:0:
256,192,227914,1,0,0:0:0:0:
475,192,227914,1,0,0:0:0:0:
109,192,228072,1,0,0:0:0:0:
182,192,228230,1,0,0:0:0:0:
402,192,228230,1,0,0:0:0:0:
36,192,228388,1,0,0:0:0:0:
329,192,228546,1,0,0:0:0:0:
256,192,228546,1,0,0:0:0:0:
109,192,228704,1,0,0:0:0:0:
182,192,228862,1,0,0:0:0:0:
402,192,228862,1,0,0:0:0:0:
109,192,229020,1,0,0:0:0:0:
475,192,229177,1,0,0:0:0:0:
36,192,229177,1,0,0:0:0:0:
182,192,229177,1,0,0:0:0:0:
402,192,229335,1,0,0:0:0:0:
256,192,229493,1,0,0:0:0:0:
109,192,229493,1,0,0:0:0:0:
329,192,229651,1,0,0:0:0:0:
475,192,229809,1,0,0:0:0:0:
36,192,229809,1,0,0:0:0:0:
402,192,229967,1,0,0:0:0:0:
256,192,230125,1,0,0:0:0:0:
109,192,230125,1,0,0:0:0:0:
329,192,230283,1,0,0:0:0:0:
256,192,230441,1,0,0:0:0:0:
475,192,230441,1,0,0:0:0:0:
182,192,230599,1,0,0:0:0:0:
36,192,230756,1,0,0:0:0:0:
402,192,230756,1,0,0:0:0:0:
109,192,230914,1,0,0:0:0:0:
256,192,231072,1,0,0:0:0:0:
329,192,231072,1,0,0:0:0:0:
182,192,231230,1,0,0:0:0:0:
36,192,231388,1,0,0:0:0:0:
402,192,231388,1,0,0:0:0:0:
109,192,231546,1,0,0:0:0:0:
475,192,231704,1,0,0:0:0:0:
182,192,231704,1,0,0:0:0:0:
36,192,231704,1,0,0:0:0:0:
402,192,231862,1,0,0:0:0:0:
256,192,232020,1,0,0:0:0:0:
109,192,232020,1,0,0:0:0:0:
329,192,232177,1,0,0:0:0:0:
475,192,232335,1,0,0:0:0:0:
36,192,232335,1,0,0:0:0:0:
402,192,232493,1,0,0:0:0:0:
256,192,232651,1,0,0:0:0:0:
109,192,232651,1,0,0:0:0:0:
329,192,232809,1,0,0:0:0:0:
256,192,232967,1,0,0:0:0:0:
475,192,232967,1,0,0:0:0:0:
182,192,233139,1,0,0:0:0:0:
36,192,233311,1,0,0:0:0:0:
402,192,233311,1,0,0:0:0:0:
109,192,233484,1,0,0:0:0:0:
256,192,233656,1,0,0:0:0:0:
329,192,233656,1,0,0:0:0:0:
182,192,233848,1,0,0:0:0:0:
402,192,234040,1,0,0:0:0:0:
36,192,234040,1,0,0:0:0:0:
109,192,234232,1,0,0:0:0:0:
36,192,235142,1,0,0:0:0:0:
109,192,235142,1,0,0:0:0:0:
475,192,235142,1,0,0:0:0:0:
402,192,235542,1,0,0:0:0:0:
329,192,235942,1,0,0:0:0:0:
256,192,236342,1,0,0:0:0:0:
182,192,236742,1,0,0:0:0:0:
36,192,236742,1,0,0:0:0:0:
329,192,236742,1,0,0:0:0:0:
256,192,237587,1,0,0:0:0:0:
329,192,238432,1,0,0:0:0:0:
109,192,238432,1,0,0:0:0:0:
182,192,238432,1,0,0:0:0:0:
402,192,240032,1,0,0:0:0:0:
329,192,240432,1,0,0:0:0:0:
256,192,240832,1,0,0:0:0:0:
36,192,241632,1,0,0:0:0:0:
109,192,241632,1,0,0:0:0:0:
329,192,241632,1,0,0:0:0:0:
256,192,242016,1,0,0:0:0:0:
329,192,242401,1,0,0:0:0:0:
402,192,242801,1,0,0:0:0:0:
475,192,243201,1,0,0:0:0:0:
329,192,243201,1,0,0:0:0:0:
36,192,243201,1,0,0:0:0:0:
182,192,243201,1,0,0:0:0:0:
402,192,244001,1,0,0:0:0:0:
329,192,244846,1,0,0:0:0:0:
475,192,244846,1,0,0:0:0:0:
182,192,244846,1,0,0:0:0:0:
256,192,245646,1,0,0:0:0:0:
182,192,246046,1,0,0:0:0:0:
109,192,246446,1,0,0:0:0:0:
109,192,248185,1,0,0:0:0:0:
36,192,248185,1,0,0:0:0:0:
475,192,248185,1,0,0:0:0:0:
402,192,248585,1,0,0:0:0:0:
329,192,248985,1,0,0:0:0:0:
256,192,249385,1,0,0:0:0:0:
329,192,249785,1,0,0:0:0:0:
36,192,249785,1,0,0:0:0:0:
182,192,249785,1,0,0:0:0:0:
256,192,250585,1,0,0:0:0:0:
329,192,251430,1,0,0:0:0:0:
109,192,251430,1,0,0:0:0:0:
182,192,251430,1,0,0:0:0:0:
402,192,252968,1,0,0:0:0:0:
329,192,253353,1,0,0:0:0:0:
256,192,253737,1,0,0:0:0:0:
329,192,254594,1,0,0:0:0:0:
36,192,254594,1,0,0:0:0:0:
109,192,254594,1,0,0:0:0:0:
256,192,254994,1,0,0:0:0:0:
329,192,255435,1,0,0:0:0:0:
402,192,255876,1,0,0:0:0:0:
475,192,256317,1,0,0:0:0:0:
329,192,256317,1,0,0:0:0:0:
182,192,256317,1,0,0:0:0:0:
36,192,256317,1,0,0:0:0:0:
402,192,257254,1,0,0:0:0:0:
36,192,258192,1,0,0:0:0:0:
329,192,258192,1,0,0:0:0:0:
475,192,258597,1,0,0:0:0:0:
402,192,259025,1,0,0:0:0:0:
329,192,259454,1,0,0:0:0:0:
256,192,259854,1,0,0:0:0:0:
182,192,260295,1,0,0:0:0:0:
109,192,260763,1,0,0:0:0:0:
36,192,261298,1,0,0:0:0:0:
109,192,261936,1,0,0:0:0:0:
256,192,261936,1,0,0:0:0:0:
402,192,261936,1,0,0:0:0:0:
36,192,264090,1,0,0:0:0:0:
