osu file format v14

[General]
AudioFilename: audio.mp3
AudioLeadIn: 0
PreviewTime: -1
Countdown: 1
SampleSet: None
StackLeniency: 0.7
Mode: 0
LetterboxInBreaks: 0
WidescreenStoryboard: 1

[Editor]
DistanceSpacing: 1
BeatDivisor: 4
GridSize: 16
TimelineZoom: 1

[Metadata]
Title:Luv Letter (Wisp X remix)
TitleUnicode:Luv Letter (Wisp X remix)
Artist:DJ Okawari
ArtistUnicode:DJ Okawari
Creator:blueloniess
Version:CS4 OD9 HP4
Source:
Tags:
BeatmapID:1467900
BeatmapSetID:693748

[Difficulty]
HPDrainRate:4
CircleSize:4
OverallDifficulty:9
ApproachRate:9.4
SliderMultiplier:1.7
SliderTickRate:2

[Events]
//Background and Video events
0,0,"no-game-no-life-warbeast-miko-izuna-hatsuse-kinoshita-neko-1920x1080.jpg",0,0
//Break Periods
2,96256,105551
//Storyboard Layer 0 (Background)
//Storyboard Layer 1 (Fail)
//Storyboard Layer 2 (Pass)
//Storyboard Layer 3 (Foreground)
//Storyboard Sound Samples

[TimingPoints]
57,352.941176470588,4,2,0,60,1,0
61,-200,4,2,0,30,0,0
25424,-100,4,2,0,45,0,0
36762,-100,4,2,0,50,0,0
43821,-100,4,2,0,60,0,0
48056,-100,4,2,0,65,0,0
67821,-100,4,2,0,10,0,0
69586,-100,4,2,0,20,0,0
69939,-100,4,2,0,35,0,0
70292,-100,4,2,0,50,0,0
70645,-66.6666666666667,4,2,0,70,0,1
96056,-66.6666666666667,4,2,0,30,0,0
96515,-200,4,2,0,20,0,0
108056,-200,4,2,0,30,0,0
118645,-66.6666666666667,4,2,0,50,0,0
118998,-66.6666666666667,4,2,0,60,0,0
141233,-66.6666666666667,4,2,0,60,0,0
142645,-50,4,2,0,60,0,0
144056,-40,4,2,0,60,0,0
145468,-33,4,2,0,60,0,0
146880,-28.6667,4,2,0,60,0,0
148292,-25,4,2,0,60,0,0
149704,-22,4,2,0,60,0,0
151115,-20,4,2,0,60,0,0
163821,-66.6666666666667,4,2,0,60,0,0

[HitObjects]
88,214,25468,6,0,L|73:104,2,85
317,234,25998,2,0,P|255:280|137:251,1,170
212,106,26527,2,0,L|224:191,1,85
189,371,26880,6,0,P|133:335|-2:334,1,170
323,371,27586,6,0,P|379:335|514:334,1,170
422,122,28115,1,0,0:0:0:0:
422,122,28292,6,0,L|427:219,2,85
181,72,28821,2,0,P|254:41|371:74,1,170
263,223,29351,2,0,L|267:138,1,85
163,229,29704,2,0,L|148:47,1,170
0,238,30409,2,0,P|100:252|187:214,1,170
247,46,31115,6,0,L|237:151,2,85
483,200,31645,2,0,P|361:179|296:186,1,170
163,229,32174,2,0,L|178:321,1,85
365,346,32527,6,0,L|269:345,2,85
450,346,33056,2,0,P|470:275|454:154,1,170
390,133,33586,2,0,P|386:65|396:33,1,85
466,11,33939,1,0,0:0:0:0:
466,11,34292,5,0,0:0:0:0:
325,106,34645,5,0,0:0:0:0:
155,124,34998,5,0,0:0:0:0:
12,30,35351,5,0,0:0:0:0:
354,159,36762,6,0,P|254:131|157:151,1,170
115,181,37292,1,0,0:0:0:0:
115,181,37380,1,0,0:0:0:0:
115,181,37468,2,0,P|116:256|126:299,1,85
204,359,37821,2,0,P|206:317|202:275,1,85
73,267,38174,2,0,P|149:261|183:170,1,170
180,53,38704,1,0,0:0:0:0:
180,53,38792,1,0,0:0:0:0:
180,53,38880,2,0,P|239:85|289:91,1,85
402,84,39233,2,0,L|420:-39,1,85
283,173,39586,6,0,L|297:285,2,85
512,250,40115,2,0,P|450:314|357:296,1,170
220,302,40645,2,0,P|152:299|107:315,1,85
262,384,40998,6,0,P|310:339|286:240,1,170
225,190,41527,1,0,0:0:0:0:
225,190,41615,1,0,0:0:0:0:
225,190,41704,2,0,P|202:147|200:97,1,85
365,63,42056,2,0,P|319:118|294:128,1,85
62,153,42409,5,0,0:0:0:0:
171,11,42586,1,0,0:0:0:0:
225,190,42762,1,0,0:0:0:0:
88,320,42939,2,0,L|60:142,1,170
302,161,43468,2,0,P|219:189|191:180,1,85
213,28,43821,5,0,0:0:0:0:
370,66,43998,1,0,0:0:0:0:
224,189,44174,1,0,0:0:0:0:
462,166,44351,2,0,P|493:214|459:344,1,170
286,50,44880,2,0,L|369:65,1,85
224,189,45233,5,0,0:0:0:0:
224,189,45939,5,0,0:0:0:0:
224,189,46292,5,0,0:0:0:0:
256,192,46645,12,0,47880,0:0:0:0:
97,54,48056,5,0,0:0:0:0:
104,96,48145,1,0,0:0:0:0:
111,137,48233,1,0,0:0:0:0:
151,265,48409,2,0,P|204:244|242:246,1,85
376,200,48762,1,0,0:0:0:0:
383,207,48939,1,0,0:0:0:0:
257,159,49115,1,0,0:0:0:0:
233,367,49292,2,0,P|317:347|319:259,1,170
257,159,49821,2,0,P|219:91|217:58,1,85
360,38,50174,1,0,0:0:0:0:
360,38,50351,1,0,0:0:0:0:
207,244,50527,2,0,P|121:240|100:245,1,85
413,353,50880,5,0,0:0:0:0:
332,169,51056,1,0,0:0:0:0:
262,357,51233,1,0,0:0:0:0:
496,180,51409,2,0,P|437:193|314:157,1,170
270,245,51939,1,0,0:0:0:0:
199,161,52115,2,0,P|136:138|113:39,1,170
270,245,52645,2,0,L|175:278,1,85
32,310,52998,1,0,0:0:0:0:
32,310,53174,1,0,0:0:0:0:
59,148,53351,2,0,P|85:220|80:254,1,85
259,94,53704,5,0,0:0:0:0:
85,227,53880,1,0,0:0:0:0:
301,273,54056,1,0,0:0:0:0:
0,148,54233,2,0,P|0:264|9:341,1,170
299,356,54762,2,0,P|304:287|290:243,1,85
96,88,55115,5,0,0:0:0:0:
300,272,55292,1,0,0:0:0:0:
267,70,55468,1,0,0:0:0:0:
130,349,55645,2,0,P|197:360|327:350,1,170
402,254,56174,2,0,P|465:245|504:253,1,85
298,355,56527,5,0,0:0:0:0:
86,217,56880,5,0,0:0:0:0:
242,44,57233,5,0,0:0:0:0:
465,201,57586,5,0,0:0:0:0:
298,355,57939,5,0,0:0:0:0:
298,355,59351,6,0,L|302:270,2,85
435,191,59880,2,0,P|394:250|271:258,1,170
149,172,60409,1,0,0:0:0:0:
132,384,60586,2,0,P|195:346|199:232,1,170
149,172,61115,2,0,P|132:116|139:80,1,85
270,26,61468,1,0,0:0:0:0:
270,26,61645,1,0,0:0:0:0:
122,287,61821,2,0,L|22:289,1,85
270,131,62174,5,0,0:0:0:0:
380,263,62351,1,0,0:0:0:0:
227,324,62527,1,0,0:0:0:0:
457,205,62704,2,0,P|472:296|408:356,1,170
227,324,63233,2,0,L|201:238,1,85
404,69,63586,6,0,P|364:125|256:122,1,170
169,58,64115,1,0,0:0:0:0:
70,120,64292,2,0,P|61:179|71:228,1,85
202,242,64645,1,0,0:0:0:0:
362,74,64821,5,0,0:0:0:0:
383,72,64909,1,0,0:0:0:0:
404,69,64998,2,0,P|477:61|501:59,1,85
385,238,65351,2,0,P|273:236|234:175,1,170
206,49,65880,1,0,0:0:0:0:
134,151,66056,2,0,P|135:203|123:246,1,85
21,362,66409,5,0,0:0:0:0:
64,71,66586,1,0,0:0:0:0:
198,305,66762,1,0,0:0:0:0:
0,188,66939,2,0,P|80:162|182:175,1,170
405,330,67468,2,0,P|436:268|438:215,1,85
206,49,67821,1,0,0:0:0:0:
241,61,69233,6,0,L|232:158,1,85
209,110,69586,6,0,L|223:206,1,85
181,179,69939,6,0,L|222:282,1,85
170,250,70292,6,0,L|236:348,1,85
458,300,70645,6,0,P|371:253|414:110,1,255.000009727478
481,29,71174,1,0,0:0:0:0:
255,129,71351,2,0,P|162:121|105:108,1,127.500004863739
10,27,71704,1,0,0:0:0:0:
219,34,71880,1,0,0:0:0:0:
108,247,72056,2,0,B|91:141|81:63|81:63|160:147,1,255.000009727478
233,254,72586,1,0,0:0:0:0:
125,355,72762,2,0,P|62:362|-20:345,1,127.500004863739
310,150,73115,2,0,P|373:143|455:160,1,127.500004863739
222,384,73468,6,0,P|179:329|226:142,1,255.000009727478
318,53,73998,1,0,0:0:0:0:
70,4,74174,2,0,P|94:83|120:131,1,127.500004863739
44,293,74527,2,0,P|133:291|195:244,1,127.500004863739
463,353,74880,6,0,P|424:276|237:286,1,255.000009727478
356,359,75409,1,0,0:0:0:0:
457,217,75586,2,0,L|449:78,1,127.500004863739
192,32,75939,2,0,L|190:172,1,127.500004863739
134,0,76292,6,0,L|133:280,1,255.000009727478
227,362,76821,1,0,0:0:0:0:
436,278,76998,2,0,P|376:254|299:277,1,127.500004863739
0,368,77351,2,0,L|139:374,1,127.500004863739
41,100,77704,2,0,P|138:121|78:277,1,255.000009727478
11,221,78233,1,0,0:0:0:0:
235,155,78409,2,0,P|323:156|391:169,1,127.500004863739
420,346,78762,1,0,0:0:0:0:
464,53,78939,1,0,0:0:0:0:
228,67,79115,6,0,P|161:46|57:57,1,127.500004863739
361,162,79468,2,0,P|288:192|245:252,1,127.500004863739
420,346,79821,6,0,P|480:296|495:220,1,127.500004863739
228,67,80174,6,0,L|12:96,1,191.250007295609
38,92,80527,6,0,L|324:55,1,255.000009727478
484,42,81056,1,0,0:0:0:0:
443,308,81233,1,0,0:0:0:0:
255,167,81409,2,0,P|333:205|258:333,1,255.000009727478
69,343,81939,6,0,P|44:255|41:74,1,255.000009727478
218,180,82468,1,0,0:0:0:0:
218,180,82556,1,0,0:0:0:0:
218,180,82645,2,0,P|206:284|196:316,1,127.500004863739
165,42,82998,1,0,0:0:0:0:
454,160,83174,2,0,P|331:210|185:154,1,255.000009727478
320,0,83704,2,0,P|339:81|327:147,1,127.500004863739
199,305,84056,1,0,0:0:0:0:
165,42,84233,1,0,0:0:0:0:
338,211,84409,1,0,0:0:0:0:
57,173,84586,1,0,0:0:0:0:
340,72,84762,6,0,B|528:88|528:88|485:104|445:156,1,255.000009727478
307,359,85292,2,0,P|410:350|447:198,1,255.000009727478
250,159,85821,2,0,L|104:158,1,127.500004863739
307,359,86174,5,0,0:0:0:0:
152,353,86527,5,0,0:0:0:0:
20,239,86880,5,0,0:0:0:0:
199,51,87233,5,0,0:0:0:0:
64,47,87586,5,0,0:0:0:0:
166,229,87762,1,0,0:0:0:0:
199,51,87939,5,0,0:0:0:0:
78,248,88115,1,0,0:0:0:0:
300,124,88292,5,0,0:0:0:0:
43,157,88468,1,0,0:0:0:0:
360,36,88645,5,0,0:0:0:0:
155,256,88821,1,0,0:0:0:0:
91,88,88998,5,0,0:0:0:0:
397,192,89174,1,0,0:0:0:0:
37,218,89351,5,0,0:0:0:0:
397,99,89527,1,0,0:0:0:0:
103,57,89704,5,0,0:0:0:0:
368,305,89880,1,0,0:0:0:0:
205,61,90056,5,0,0:0:0:0:
273,353,90233,1,0,0:0:0:0:
377,71,90409,5,0,0:0:0:0:
56,276,90586,1,0,0:0:0:0:
406,128,90762,5,0,0:0:0:0:
36,175,90939,1,0,0:0:0:0:
451,293,91115,5,0,0:0:0:0:
58,103,91292,1,0,0:0:0:0:
367,361,91468,5,0,0:0:0:0:
131,28,91645,1,0,0:0:0:0:
175,358,91821,5,0,0:0:0:0:
301,22,91998,1,0,0:0:0:0:
22,342,92174,5,0,0:0:0:0:
432,57,92351,1,0,0:0:0:0:
0,223,92527,5,0,0:0:0:0:
512,181,92704,1,0,0:0:0:0:
0,41,92880,5,0,0:0:0:0:
454,367,93056,1,0,0:0:0:0:
257,191,96056,5,0,0:0:0:0:
91,62,107351,5,6,0:0:0:0:
91,62,108056,6,0,P|82:127|66:151,1,85,2|0,0:0|0:0,0:0:0:0:
91,62,108762,2,0,P|159:58|178:62,1,85,2|0,0:0|0:0,0:0:0:0:
91,62,109468,2,0,P|41:61|11:46,1,85,2|0,0:0|0:0,0:0:0:0:
222,168,110174,5,12,0:0:0:0:
222,168,110880,2,0,P|280:177|311:196,1,85,2|0,0:0|0:0,0:0:0:0:
222,168,111586,2,0,P|209:218|181:251,1,85,2|0,0:0|0:0,0:0:0:0:
222,168,112292,2,0,P|172:116|168:94,1,85,2|0,0:0|0:0,0:0:0:0:
422,250,112998,5,6,0:0:0:0:
422,250,113351,2,0,L|409:342,1,85,8|2,0:0|0:0,0:0:0:0:
369,160,114056,1,8,0:0:0:0:
281,202,114409,6,0,L|267:297,1,85,2|0,0:0|0:0,0:0:0:0:
208,122,114939,2,0,L|194:217,1,85,2|0,0:0|0:0,0:0:0:0:
141,41,115468,2,0,L|131:96,1,42.5,2|0,0:0|0:0,0:0:0:0:
16,173,115821,6,0,P|80:173|111:155,1,85,2|8,0:0|0:0,0:0:0:0:
78,246,116527,2,0,P|95:199|97:151,1,85,2|8,0:0|0:0,0:0:0:0:
196,247,117233,2,0,P|179:200|177:152,1,85,2|8,0:0|0:0,0:0:0:0:
258,173,117762,1,0,0:0:0:0:
258,173,117939,1,0,0:0:0:0:
344,212,118115,2,0,P|351:256|351:264,1,42.5
308,333,118468,1,0,0:0:0:0:
375,131,118645,5,0,0:0:0:0:
399,189,118733,1,0,0:0:0:0:
395,252,118821,1,0,0:0:0:0:
368,309,118909,1,0,0:0:0:0:
308,333,118998,2,0,P|239:330|160:319,1,127.500004863739
22,152,119351,2,0,P|91:155|170:166,1,127.500004863739
267,214,119704,1,0,0:0:0:0:
55,304,119880,1,0,0:0:0:0:
174,70,120056,6,0,P|191:174|173:355,2,255.000009727478
255,250,121115,5,0,0:0:0:0:
314,226,121204,1,0,0:0:0:0:
376,215,121292,1,0,0:0:0:0:
438,224,121380,1,0,0:0:0:0:
495,250,121468,1,0,0:0:0:0:
200,372,121645,1,0,0:0:0:0:
136,370,121733,1,0,0:0:0:0:
74,352,121821,1,0,0:0:0:0:
128,128,121998,1,0,0:0:0:0:
229,268,122174,1,0,0:0:0:0:
25,250,122351,1,0,0:0:0:0:
22,38,122527,1,0,0:0:0:0:
403,181,122704,6,0,P|318:208|145:177,1,255.000009727478
22,38,123233,1,0,0:0:0:0:
47,96,123321,1,0,0:0:0:0:
59,158,123409,1,0,0:0:0:0:
60,222,123498,1,0,0:0:0:0:
51,285,123586,1,0,0:0:0:0:
221,376,123762,1,0,0:0:0:0:
359,245,123939,1,0,0:0:0:0:
148,151,124115,2,0,P|128:245|269:236,1,255.000009727478
419,149,124645,5,0,0:0:0:0:
358,130,124733,1,0,0:0:0:0:
294,130,124821,1,0,0:0:0:0:
239,162,124909,1,0,0:0:0:0:
197,211,124998,1,0,0:0:0:0:
366,365,125174,1,0,0:0:0:0:
115,322,125351,1,0,0:0:0:0:
77,113,125527,1,0,0:0:0:0:
77,113,125615,1,0,0:0:0:0:
77,113,125704,1,0,0:0:0:0:
225,192,125880,5,0,0:0:0:0:
9,227,126056,1,0,0:0:0:0:
194,46,126233,2,0,L|477:74,1,255.000009727478
453,251,126762,5,0,0:0:0:0:
417,197,126851,1,0,0:0:0:0:
380,144,126939,1,0,0:0:0:0:
338,95,127027,1,0,0:0:0:0:
293,49,127115,1,0,0:0:0:0:
238,371,127292,1,0,0:0:0:0:
333,199,127468,5,0,0:0:0:0:
96,256,127645,1,0,0:0:0:0:
441,70,127821,5,0,0:0:0:0:
25,162,128174,1,0,0:0:0:0:
404,373,128527,1,0,0:0:0:0:
190,14,128880,1,0,0:0:0:0:
36,342,129233,5,0,0:0:0:0:
499,31,129586,1,0,0:0:0:0:
381,236,129939,5,0,0:0:0:0:
323,262,130027,1,0,0:0:0:0:
259,264,130115,1,0,0:0:0:0:
195,251,130204,1,0,0:0:0:0:
142,215,130292,1,0,0:0:0:0:
259,13,130468,1,0,0:0:0:0:
34,73,130645,1,0,0:0:0:0:
277,137,130821,1,0,0:0:0:0:
319,90,130909,1,0,0:0:0:0:
365,45,130998,1,0,0:0:0:0:
117,127,131174,6,0,P|105:226|141:392,1,255.000009727478
418,336,131704,1,0,0:0:0:0:
374,290,131792,1,0,0:0:0:0:
314,267,131880,1,0,0:0:0:0:
250,260,131968,1,0,0:0:0:0:
189,280,132056,1,0,0:0:0:0:
339,384,132233,1,0,0:0:0:0:
336,109,132409,1,0,0:0:0:0:
189,280,132586,6,0,P|254:343|309:208,1,255.000009727478
151,26,133115,1,0,0:0:0:0:
99,64,133204,1,0,0:0:0:0:
67,118,133292,1,0,0:0:0:0:
58,181,133380,1,0,0:0:0:0:
79,240,133468,1,0,0:0:0:0:
287,339,133645,1,0,0:0:0:0:
152,145,133821,1,0,0:0:0:0:
121,337,133998,6,0,B|198:355|198:355|253:344|331:354|331:354|397:316,1,255.000009727478
443,88,134527,1,0,0:0:0:0:
457,150,134615,1,0,0:0:0:0:
469,213,134704,1,0,0:0:0:0:
479,275,134792,1,0,0:0:0:0:
493,337,134880,1,0,0:0:0:0:
222,254,135056,1,0,0:0:0:0:
380,136,135233,1,0,0:0:0:0:
227,342,135409,6,0,B|156:337|156:337|130:373|86:318|66:342|66:342|14:333|-7:289,1,255.000009727478
100,62,135939,1,0,0:0:0:0:
161,78,136027,1,0,0:0:0:0:
219,103,136115,1,0,0:0:0:0:
259,153,136204,1,0,0:0:0:0:
278,213,136292,1,0,0:0:0:0:
117,300,136468,1,0,0:0:0:0:
265,32,136645,1,0,0:0:0:0:
511,205,136821,2,0,P|390:253|255:190,1,255.000009727478
425,12,137351,2,0,P|495:106|484:142,1,127.500004863739
233,146,137704,2,0,P|232:74|283:21,1,127.500004863739
391,256,138056,1,0,0:0:0:0:
309,337,138233,6,0,L|38:339,1,255.000009727478
457,45,138762,1,0,0:0:0:0:
203,47,138938,1,0,0:0:0:0:
203,47,139115,6,0,L|457:45,1,255.000009727478
309,337,139645,1,0,0:0:0:0:
309,337,139822,6,0,L|54:338,1,255.000009727478
54,338,140351,1,0,0:0:0:0:
202,207,140527,6,0,L|456:205,1,255.000009727478
456,205,141056,1,0,0:0:0:0:
53,47,141233,6,0,P|51:125|67:192,1,127.500004863739
209,333,141586,2,0,P|211:255|195:188,1,127.500004863739
88,270,141939,1,0,0:0:0:0:
183,106,142115,1,0,0:0:0:0:
88,270,142292,1,0,0:0:0:0:
183,106,142468,1,0,0:0:0:0:
465,189,142645,6,0,P|344:216|267:185,1,170
183,106,142998,2,0,P|304:79|381:110,1,170
426,110,143351,1,0,0:0:0:0:
215,190,143527,1,0,0:0:0:0:
426,110,143704,1,0,0:0:0:0:
215,190,143880,1,0,0:0:0:0:
359,300,144056,6,0,P|362:161|337:69,1,212.5
108,38,144409,2,0,P|105:177|130:269,1,212.5
303,19,144762,1,0,0:0:0:0:
155,331,144939,1,0,0:0:0:0:
303,19,145115,1,0,0:0:0:0:
155,331,145292,1,0,0:0:0:0:
472,197,145468,6,0,P|321:192|187:230,1,212.5
41,360,145821,2,0,P|192:365|326:327,1,212.5
477,359,146174,1,0,0:0:0:0:
7,195,146351,1,0,0:0:0:0:
477,359,146527,1,0,0:0:0:0:
7,195,146704,1,0,0:0:0:0:
366,100,146880,6,0,P|386:247|325:402,1,296.511279370113
152,287,147233,2,0,P|132:140|193:-15,1,296.511279370113
335,15,147586,1,0,0:0:0:0:
181,376,147762,1,0,0:0:0:0:
335,15,147939,1,0,0:0:0:0:
181,376,148115,1,0,0:0:0:0:
412,313,148292,6,0,P|272:352|47:290,1,340
100,71,148645,2,0,P|240:32|465:94,1,340
17,190,148998,5,0,0:0:0:0:
485,187,149174,1,0,0:0:0:0:
17,190,149351,5,0,0:0:0:0:
485,187,149527,1,0,0:0:0:0:
117,362,149704,6,0,B|17:197|17:197|135:16,1,386.363636363636
395,362,150056,2,0,B|495:197|495:197|377:16,1,386.363636363636
257,375,150409,1,0,0:0:0:0:
255,3,150586,1,0,0:0:0:0:
257,375,150762,1,0,0:0:0:0:
255,3,150939,1,0,0:0:0:0:
512,330,151115,6,0,L|67:328,1,425
0,67,151468,2,0,L|445:69,1,425
508,202,151821,5,0,0:0:0:0:
42,99,152527,5,0,0:0:0:0:
100,263,152704,1,0,0:0:0:0:
36,47,152880,5,0,0:0:0:0:
191,171,153056,1,0,0:0:0:0:
371,36,153233,5,0,0:0:0:0:
158,88,153409,1,0,0:0:0:0:
371,36,153586,5,0,0:0:0:0:
227,235,153762,1,0,0:0:0:0:
443,130,153939,5,0,0:0:0:0:
183,140,154115,1,0,0:0:0:0:
462,80,154292,5,0,0:0:0:0:
296,305,154468,1,0,0:0:0:0:
126,151,154645,5,0,0:0:0:0:
390,133,154821,1,0,0:0:0:0:
232,330,154998,1,0,0:0:0:0:
231,42,155174,1,0,0:0:0:0:
387,221,155351,5,0,0:0:0:0:
80,152,155527,1,0,0:0:0:0:
319,67,155704,5,0,0:0:0:0:
132,300,155880,1,0,0:0:0:0:
88,73,156056,5,0,0:0:0:0:
425,269,156233,1,0,0:0:0:0:
401,4,156409,1,0,0:0:0:0:
130,337,156586,1,0,0:0:0:0:
71,168,156762,5,0,0:0:0:0:
401,302,156939,1,0,0:0:0:0:
120,41,157115,5,0,0:0:0:0:
284,369,157292,1,0,0:0:0:0:
415,79,157468,5,0,0:0:0:0:
35,304,157645,1,0,0:0:0:0:
259,16,157821,1,0,0:0:0:0:
167,354,157998,1,0,0:0:0:0:
43,88,158174,5,0,0:0:0:0:
351,100,158351,1,0,0:0:0:0:
100,188,158527,5,0,0:0:0:0:
457,25,158704,1,0,0:0:0:0:
221,282,158880,5,0,0:0:0:0:
402,143,159056,1,0,0:0:0:0:
179,29,159233,1,0,0:0:0:0:
238,350,159409,1,0,0:0:0:0:
321,47,159586,1,0,0:0:0:0:
104,291,159762,1,0,0:0:0:0:
446,150,159939,1,0,0:0:0:0:
84,95,160115,5,0,0:0:0:0:
313,318,160292,1,0,0:0:0:0:
207,48,160468,1,0,0:0:0:0:
78,256,160645,5,0,0:0:0:0:
425,150,160821,1,0,0:0:0:0:
319,48,160998,5,0,0:0:0:0:
241,111,161174,1,0,0:0:0:0:
133,138,161351,1,0,0:0:0:0:
70,58,161527,1,0,0:0:0:0:
181,78,161704,5,0,0:0:0:0:
187,182,161880,1,0,0:0:0:0:
112,292,162056,1,0,0:0:0:0:
6,329,162233,1,0,0:0:0:0:
68,173,162409,5,0,0:0:0:0:
285,200,162586,1,0,0:0:0:0:
433,288,162762,1,0,0:0:0:0:
241,373,162939,1,0,0:0:0:0:
124,198,163115,1,0,0:0:0:0:
155,42,163292,1,0,0:0:0:0:
352,32,163468,1,0,0:0:0:0:
200,232,163645,5,0,0:0:0:0:
433,124,163821,5,0,0:0:0:0:
406,181,163909,1,0,0:0:0:0:
379,239,163998,1,0,0:0:0:0:
351,296,164086,1,0,0:0:0:0:
315,348,164174,2,0,P|225:348|148:342,1,127.500004863739
54,130,164527,1,0,0:0:0:0:
117,132,164615,1,0,0:0:0:0:
178,151,164704,1,0,0:0:0:0:
235,178,164792,1,0,0:0:0:0:
269,231,164880,2,0,P|311:320|314:372,1,127.500004863739
79,384,165233,6,0,P|60:301|56:83,1,255.000009727478
125,29,165762,1,0,0:0:0:0:
439,17,165939,6,0,P|458:100|462:318,1,255.000009727478
393,372,166468,1,0,0:0:0:0:
51,131,166645,5,0,0:0:0:0:
113,120,166733,1,0,0:0:0:0:
176,119,166821,1,0,0:0:0:0:
239,126,166909,1,0,0:0:0:0:
297,151,166998,2,0,P|346:224|354:291,1,127.500004863739
176,36,167351,5,0,0:0:0:0:
239,35,167439,1,0,0:0:0:0:
302,40,167527,1,0,0:0:0:0:
362,61,167615,1,0,0:0:0:0:
420,86,167704,2,0,P|482:144|515:208,1,127.500004863739
444,329,168056,6,0,P|311:366|243:270,1,255.000009727478
420,86,168586,1,0,0:0:0:0:
68,55,168762,6,0,P|201:18|269:114,1,255.000009727478
92,298,169292,1,0,0:0:0:0:
357,210,169468,5,0,0:0:0:0:
303,175,169556,1,0,0:0:0:0:
240,159,169645,1,0,0:0:0:0:
176,152,169733,1,0,0:0:0:0:
112,154,169821,1,0,0:0:0:0:
112,154,169998,2,0,P|117:287|263:309,1,255.000009727478
303,175,170527,2,0,P|212:216|161:263,1,127.500004863739
104,362,170880,5,0,0:0:0:0:
167,361,170968,1,0,0:0:0:0:
230,361,171056,1,0,0:0:0:0:
294,360,171145,1,0,0:0:0:0:
357,359,171233,1,0,0:0:0:0:
357,359,171409,2,0,P|423:283|387:112,1,255.000009727478
190,232,171939,2,0,P|297:243|352:229,1,127.500004863739
251,40,172292,5,0,0:0:0:0:
187,43,172380,1,0,0:0:0:0:
125,60,172468,1,0,0:0:0:0:
71,93,172556,1,0,0:0:0:0:
29,141,172645,1,0,0:0:0:0:
29,141,172821,2,0,P|34:264|171:345,1,255.000009727478
251,233,173351,2,0,P|150:217|79:256,1,127.500004863739
0,383,173704,2,0,P|88:367|113:202,1,255.000009727478
43,35,174233,1,0,0:0:0:0:
364,89,174409,5,0,0:0:0:0:
303,111,174498,1,0,0:0:0:0:
239,118,174586,1,0,0:0:0:0:
175,110,174674,1,0,0:0:0:0:
114,91,174762,1,0,0:0:0:0:
462,15,174939,1,0,0:0:0:0:
459,142,175115,6,0,P|448:239|446:280,1,127.500004863739
364,89,175468,1,0,0:0:0:0:
437,374,175645,2,0,P|526:299|468:192,1,255.000009727478
198,370,176174,2,0,P|272:380|328:364,1,127.500004863739
363,175,176527,2,0,L|91:213,1,255.000009727478
307,334,177056,1,0,0:0:0:0:
371,328,177145,1,0,0:0:0:0:
434,324,177233,1,0,0:0:0:0:
207,114,177409,1,0,0:0:0:0:
110,210,177586,2,0,P|115:282|143:362,1,127.500004863739
366,51,177939,5,0,0:0:0:0:
207,114,178115,2,0,L|222:264,1,127.500004863739
434,324,178468,2,0,B|341:294|323:228|323:228|309:111,1,255.000009727478
489,40,178998,2,0,L|506:191,1,127.500004863739
230,367,179351,6,0,L|215:218,1,127.500004863739
188,31,179704,1,0,0:0:0:0:
65,153,179880,1,0,0:0:0:0:
127,164,179968,1,0,0:0:0:0:
190,165,180056,1,0,0:0:0:0:
253,154,180145,1,0,0:0:0:0:
310,126,180233,1,0,0:0:0:0:
62,26,180409,2,0,P|60:117|74:192,1,127.500004863739
217,240,180762,6,0,L|84:254,1,127.500004863739
310,126,181115,1,0,0:0:0:0:
114,363,181292,2,0,P|39:290|76:142,1,255.000009727478
312,3,181821,2,0,P|323:88|295:146,1,127.500004863739
31,264,182174,6,0,L|163:269,1,127.500004863739
398,133,182527,1,0,0:0:0:0:
281,360,182704,2,0,P|379:313|313:194,1,255.000009727478
158,11,183233,2,0,P|156:120|195:171,1,127.500004863739
459,365,183586,1,0,0:0:0:0:
467,358,184292,1,0,0:0:0:0:
476,349,184645,1,0,0:0:0:0:
405,36,184998,5,0,0:0:0:0:
170,136,185174,1,0,0:0:0:0:
320,341,185351,1,0,0:0:0:0:
487,149,185527,1,0,0:0:0:0:
242,75,185704,5,0,0:0:0:0:
170,180,185880,1,0,0:0:0:0:
270,258,186056,1,0,0:0:0:0:
339,150,186233,1,0,0:0:0:0:
65,47,186409,6,0,P|67:198|75:306,1,255.000009727478
174,382,186939,1,0,0:0:0:0:
303,312,187115,2,0,P|229:265|46:337,1,255.000009727478
174,382,187645,1,0,0:0:0:0:
301,312,187821,2,0,L|284:42,1,255.000009727478
369,9,188351,1,0,0:0:0:0:
479,29,188527,2,0,P|435:94|272:15,1,255.000009727478
369,9,189056,1,0,0:0:0:0:
488,216,189233,2,0,L|200:223,1,255.000009727478
111,64,189762,1,0,0:0:0:0:
75,343,189939,2,0,L|360:348,1,255.000009727478
461,48,190468,1,0,0:0:0:0:
391,384,190645,6,0,P|367:274|402:95,1,255.000009727478
469,35,191351,2,0,P|341:76|202:68,1,255.000009727478
77,59,192056,6,0,P|178:107|101:240,1,255.000009727478
305,115,192762,6,0,P|284:212|145:308,1,255.000009727478
396,298,193468,6,0,P|295:353|114:384,1,255.000009727478
48,290,193998,1,0,0:0:0:0:
180,125,194174,2,0,L|336:112,2,127.500004863739
35,30,194704,1,0,0:0:0:0:
317,233,194880,2,0,P|406:163|355:19,1,255.000009727478
226,7,195409,1,0,0:0:0:0:
180,125,195586,2,0,L|188:271,2,127.500004863739
226,7,196115,1,0,0:0:0:0:
223,350,196292,6,0,P|133:354|105:195,1,255.000009727478
226,7,196821,1,0,0:0:0:0:
134,109,196998,2,0,L|-22:119,1,127.500004863739
333,82,197351,2,0,P|355:143|337:247,1,127.500004863739
260,373,197704,6,0,L|226:67,1,255.000009727478
367,0,198233,1,0,0:0:0:0:
474,177,198409,2,0,P|370:206|306:189,1,127.500004863739
107,137,198762,2,0,P|213:117|271:128,1,127.500004863739
376,384,199115,6,0,P|289:329|291:162,1,255.000009727478
413,84,199645,1,0,0:0:0:0:
231,118,199821,2,0,P|125:138|67:127,1,127.500004863739
350,24,200174,2,0,P|370:90|363:159,1,127.500004863739
226,325,200527,6,0,P|220:219|86:135,1,255.000009727478
28,24,201056,1,0,0:0:0:0:
13,212,201233,2,0,P|13:318|35:385,1,127.500004863739
167,155,201586,2,0,P|167:49|145:-18,1,127.500004863739
19,119,201939,1,0,0:0:0:0:
112,384,202292,1,0,0:0:0:0:
353,253,202645,1,0,0:0:0:0:
106,270,202998,5,0,0:0:0:0:
285,364,203351,5,0,0:0:0:0:
232,217,203527,1,0,0:0:0:0:
288,361,203704,1,0,0:0:0:0:
225,212,203880,1,0,0:0:0:0:
350,193,204056,5,0,0:0:0:0:
219,349,204233,1,0,0:0:0:0:
350,183,204409,1,0,0:0:0:0:
201,360,204586,1,0,0:0:0:0:
374,309,204762,5,0,0:0:0:0:
115,258,204939,1,0,0:0:0:0:
393,310,205115,1,0,0:0:0:0:
99,260,205292,1,0,0:0:0:0:
428,258,205468,5,0,0:0:0:0:
21,336,205645,1,0,0:0:0:0:
421,249,205821,1,0,0:0:0:0:
25,325,205998,1,0,0:0:0:0:
447,372,206174,5,0,0:0:0:0:
47,209,206351,1,0,0:0:0:0:
480,368,206527,1,0,0:0:0:0:
29,180,206704,1,0,0:0:0:0:
481,123,206880,5,0,0:0:0:0:
18,355,207056,1,0,0:0:0:0:
480,116,207233,1,0,0:0:0:0:
7,358,207409,1,0,0:0:0:0:
512,369,207586,5,0,0:0:0:0:
5,120,207762,1,0,0:0:0:0:
501,355,207939,1,0,0:0:0:0:
0,98,208115,1,0,0:0:0:0:
499,97,208292,5,0,0:0:0:0:
19,380,208468,1,0,0:0:0:0:
500,77,208645,1,0,0:0:0:0:
7,358,208821,1,0,0:0:0:0:
241,14,208998,5,0,0:0:0:0:
