osu file format v14

[General]
AudioFilename: audio.mp3
AudioLeadIn: 0
PreviewTime: 163792
Countdown: 0
SampleSet: Soft
StackLeniency: 0.2
Mode: 0
LetterboxInBreaks: 0
WidescreenStoryboard: 1

[Editor]
Bookmarks: 16969,17322,17675,18027,18380,19792,22616,25439,36733,38145,38675,38851,39380,42380,48027,67792,76263,87557,88969,90380,96027,118616,141204,142616,144027,145439,146851,148263,149675,151086,152498,160969,165910,172616,172969,173322,175086,203322,231557,235792
DistanceSpacing: 1.3
BeatDivisor: 4
GridSize: 8
TimelineZoom: 1.5

[Metadata]
Title:Luv Letter (Wisp X Remix)
TitleUnicode:Luv Letter (Wisp X Remix)
Artist:DJ Okawari
ArtistUnicode:DJ Okawari
Creator:Omie
Version:Requieted Love
Source:
Tags:DJ, Okawari, Luv, Love, Letter, Wisp, X, Remix Requieted
BeatmapID:1618598
BeatmapSetID:769800

[Difficulty]
HPDrainRate:6
CircleSize:4
OverallDifficulty:8.5
ApproachRate:9
SliderMultiplier:1.2
SliderTickRate:1

[Events]
//Background and Video events
0,0,"background.jpg",0,0
//Break Periods
2,25639,36133
//Storyboard Layer 0 (Background)
//Storyboard Layer 1 (Fail)
//Storyboard Layer 2 (Pass)
//Storyboard Layer 3 (Foreground)
//Storyboard Sound Samples

[TimingPoints]
28,352.941176470588,4,2,0,40,1,0
28,-133.333333333333,4,2,0,40,0,0
19792,-149.253731343284,4,2,0,40,0,0
36733,-66.6666666666667,4,2,0,40,0,0
47763,-66.6666666666667,4,2,0,5,0,0
47939,-66.6666666666667,4,2,0,40,0,0
52263,-71.4285714285714,4,2,0,40,0,0
53498,-66.6666666666667,4,2,0,40,0,0
59145,-66.6666666666667,4,2,0,5,0,0
59322,-66.6666666666667,4,2,0,40,0,0
63557,-71.4285714285714,4,2,0,40,0,0
64880,-50,4,2,0,40,0,0
66380,-50,4,2,0,55,0,0
67704,-66.6666666666667,4,2,0,40,0,0
70616,-60.6060606060606,4,2,0,40,0,0
74851,-50,4,2,0,40,0,0
96380,-133.333333333333,4,2,0,40,0,0
117469,-83.3333333333333,4,2,0,40,0,0
141204,-133.333333333333,4,2,0,40,0,0
152498,-100,4,2,0,40,0,0
158145,-66.6666666666667,4,2,0,40,0,0
160969,-100,4,2,0,40,0,0
163086,-200,4,2,0,40,0,0
163792,-90.9090909090909,4,2,0,40,0,0
172263,-83.3333333333333,4,2,0,40,0,0
173675,-66.6666666666667,4,2,0,40,0,0
174027,-90.9090909090909,4,2,0,40,0,0
175086,-90.9090909090909,4,2,0,40,0,0
186380,-66.6666666666667,4,2,0,40,0,0
192027,-50,4,2,0,40,0,0
208969,-133.333333333333,4,2,0,40,0,0
235616,-100,4,2,0,5,0,0

[HitObjects]
148,84,28,6,0,P|194:63|247:68,3,90.0000034332277
118,239,1439,1,0,0:0:0:0:
211,176,2145,1,0,0:0:0:0:
304,239,2851,1,0,0:0:0:0:
390,142,4263,6,0,P|354:113|309:105,2,90.0000034332277
114,200,5675,6,0,P|156:176|196:172,3,90.0000034332277
189,289,7086,1,0,0:0:0:0:
365,241,7792,1,0,0:0:0:0:
196,172,8498,1,0,0:0:0:0:
302,66,9204,2,0,P|332:103|346:156,2,90.0000034332277
78,111,11322,5,0,0:0:0:0:
160,62,11675,1,0,0:0:0:0:
242,111,12027,1,0,0:0:0:0:
158,157,12380,1,0,0:0:0:0:
240,207,12733,1,0,0:0:0:0:
235,216,13439,5,0,0:0:0:0:
292,71,14145,1,0,0:0:0:0:
376,154,15557,5,0,0:0:0:0:
376,171,15910,1,0,0:0:0:0:
391,163,16263,1,0,0:0:0:0:
330,319,16969,5,0,0:0:0:0:
257,244,17322,1,0,0:0:0:0:
184,319,17675,1,0,0:0:0:0:
257,244,18027,1,0,0:0:0:0:
184,169,18380,1,0,0:0:0:0:
297,112,19086,1,0,0:0:0:0:
220,165,19792,6,0,B|241:111|254:77|245:25|217:8|186:7|158:22|149:64|149:64|117:32|86:35|61:52|47:82|61:131|92:154|139:175|139:175|169:186|200:201|216:220|218:240|219:258|214:279,1,602.999971476747,2|6,0:0|0:0,0:0:0:0:
290,218,22616,6,0,B|269:164|256:130|265:78|293:61|324:60|352:75|361:117|361:117|393:85|424:88|449:105|463:135|449:184|418:207|371:228|371:228|341:239|310:254|294:273|292:293|291:311|293:326|308:345|333:351,1,643.199969575197,2|6,0:0|0:0,0:0:0:0:
108,70,36733,5,0,0:0:0:0:
48,167,36910,1,0,0:0:0:0:
43,202,36998,1,0,0:0:0:0:
57,235,37086,1,0,0:0:0:0:
158,331,37263,2,0,P|174:280|170:223,1,90.0000034332277
274,340,37616,1,0,0:0:0:0:
293,224,37792,2,0,P|277:173|281:116,1,90.0000034332277
188,15,38145,2,0,B|217:55|220:84|197:157|175:236|185:264|213:289,1,270.000010299683
290,358,38851,2,0,B|319:318|322:289|299:216|277:137|287:109|315:84,1,270.000010299683
401,35,39557,5,0,0:0:0:0:
461,132,39734,1,0,0:0:0:0:
466,167,39822,1,0,0:0:0:0:
452,200,39910,1,0,0:0:0:0:
378,336,40087,2,0,P|362:285|366:228,1,90.0000034332277
262,345,40440,1,0,0:0:0:0:
243,229,40616,2,0,P|259:178|255:121,1,90.0000034332277
249,51,40969,1,0,0:0:0:0:
56,94,42380,5,0,0:0:0:0:
140,19,42557,1,0,0:0:0:0:
164,45,42645,1,0,0:0:0:0:
167,80,42733,1,0,0:0:0:0:
100,197,42910,2,0,P|146:175|197:182,1,90.0000034332277
272,279,43263,1,0,0:0:0:0:
167,340,43439,2,0,P|156:286|163:223,1,90.0000034332277
416,272,43792,5,0,0:0:0:0:
332,347,43969,1,0,0:0:0:0:
308,321,44057,1,0,0:0:0:0:
305,286,44145,1,0,0:0:0:0:
372,169,44322,2,0,P|326:191|275:184,1,90.0000034332277
200,87,44675,1,0,0:0:0:0:
305,26,44851,2,0,P|316:80|309:143,1,90.0000034332277
256,192,45204,12,0,47851,0:0:0:0:
66,42,48027,5,0,0:0:0:0:
178,30,48204,1,0,0:0:0:0:
81,83,48380,1,0,0:0:0:0:
174,135,48557,1,0,0:0:0:0:
169,150,48645,1,0,0:0:0:0:
165,165,48733,1,0,0:0:0:0:
137,263,48910,1,0,0:0:0:0:
66,189,49086,2,0,P|69:142|102:91,1,90.0000034332277
165,165,49439,5,0,0:0:0:0:
236,240,49616,1,0,0:0:0:0:
200,141,49792,1,0,0:0:0:0:
306,199,49969,1,0,0:0:0:0:
321,200,50057,1,0,0:0:0:0:
337,201,50145,1,0,0:0:0:0:
452,215,50322,1,0,0:0:0:0:
382,307,50498,2,0,P|336:320|288:309,1,90.0000034332277
337,201,50851,5,0,0:0:0:0:
227,245,51027,1,0,0:0:0:0:
312,162,51204,1,0,0:0:0:0:
198,130,51380,1,0,0:0:0:0:
183,131,51468,1,0,0:0:0:0:
167,132,51556,1,0,0:0:0:0:
54,143,51733,1,0,0:0:0:0:
100,39,51910,2,0,P|142:16|204:22,1,90.0000034332277
167,132,52263,2,0,B|181:119|195:112|212:113|232:115|249:129|259:144|261:156|258:173|254:185|251:197|257:214|270:232|278:250|288:262|300:271|314:273|330:279|346:280|356:284|362:287|382:287|388:281|402:265|419:259|426:239|422:232|432:224|430:216|431:208|432:197|434:186|430:169|421:159|408:144|402:134|394:126|384:120|368:115|357:111|341:118|327:125|319:139|319:161|324:177|329:183|335:196|343:205|358:205|360:198|360:198,1,587.999982055665
351,200,53675,5,0,0:0:0:0:
308,77,53851,1,0,0:0:0:0:
265,200,54027,1,0,0:0:0:0:
222,77,54204,1,0,0:0:0:0:
206,81,54292,1,0,0:0:0:0:
192,86,54380,1,0,0:0:0:0:
83,127,54557,1,0,0:0:0:0:
101,12,54733,2,0,P|46:15|-3:54,1,90.0000034332277
83,127,55086,5,0,0:0:0:0:
56,261,55263,1,0,0:0:0:0:
143,156,55439,1,0,0:0:0:0:
116,290,55616,1,0,0:0:0:0:
130,294,55704,1,0,0:0:0:0:
145,301,55792,1,0,0:0:0:0:
246,346,55969,1,0,0:0:0:0:
346,293,56145,2,0,P|320:254|272:233,1,90.0000034332277
391,160,56498,6,0,P|423:193|488:205,1,90.0000034332277
299,230,56851,6,0,P|278:194|270:144,1,90.0000034332277
70,269,57204,2,0,P|112:268|157:288,1,90.0000034332277
150,52,57557,2,0,P|128:88|89:117,1,90.0000034332277
256,192,57910,12,0,59233,0:0:0:0:
342,38,59322,5,0,0:0:0:0:
381,191,59498,1,0,0:0:0:0:
258,92,59675,1,0,0:0:0:0:
279,212,59851,1,0,0:0:0:0:
275,254,59939,1,0,0:0:0:0:
271,296,60028,1,0,0:0:0:0:
145,246,60204,1,0,0:0:0:0:
32,312,60380,2,0,P|14:265|17:221,1,90.0000034332277
49,43,60733,5,0,0:0:0:0:
21,197,60909,1,0,0:0:0:0:
124,80,61086,1,0,0:0:0:0:
124,212,61263,1,0,0:0:0:0:
136,251,61351,1,0,0:0:0:0:
149,292,61440,1,0,0:0:0:0:
259,188,61616,1,0,0:0:0:0:
275,318,61792,2,0,P|315:307|354:278,1,90.0000034332277
474,183,62145,5,0,0:0:0:0:
321,158,62322,1,0,0:0:0:0:
462,92,62498,1,0,0:0:0:0:
334,48,62675,1,0,0:0:0:0:
292,42,62763,1,0,0:0:0:0:
250,38,62852,1,0,0:0:0:0:
321,158,63027,1,0,0:0:0:0:
197,115,63203,2,0,P|189:156|198:203,1,90.0000034332277
249,38,63557,2,0,B|281:65|300:102|300:126|302:142|301:168|295:195|295:215|293:230|291:316|301:327|345:319|368:309|401:309|421:285|432:250|423:208|388:178|356:178|338:184|319:191|281:247|266:266|255:275|242:280|218:289|186:296,1,587.999982055665
352,249,64969,5,0,0:0:0:0:
371,130,65145,1,0,0:0:0:0:
376,95,65233,1,0,0:0:0:0:
381,60,65322,1,0,0:0:0:0:
352,249,65498,1,0,0:0:0:0:
352,249,65851,1,0,0:0:0:0:
381,60,66027,2,0,L|363:189,1,120
246,324,66380,5,0,0:0:0:0:
216,139,66556,1,0,0:0:0:0:
208,85,66644,1,0,0:0:0:0:
201,31,66733,1,0,0:0:0:0:
246,324,66909,1,0,0:0:0:0:
246,324,67262,1,0,0:0:0:0:
201,31,67439,2,0,L|217:151,1,120
256,192,67792,12,0,70439,0:0:0:0:
102,53,70616,6,0,L|119:166,1,99.0000009441376
207,191,70969,2,0,L|222:94,1,99.0000009441376
118,76,71322,6,0,L|135:189,1,99.0000009441376
223,214,71675,2,0,L|237:116,1,99.0000009441376
395,233,72027,6,0,L|410:331,1,99.0000009441376
290,290,72380,2,0,L|304:192,1,99.0000009441376
379,210,72733,6,0,L|394:308,1,99.0000009441376
274,267,73086,2,0,L|289:170,1,99.0000009441376
353,81,73439,6,0,P|308:53|257:65,1,99.0000009441376
159,303,73792,2,0,P|204:331|255:319,1,99.0000009441376
111,65,74145,6,0,P|74:124|90:190,1,99.0000009441376
400,318,74498,2,0,P|437:259|421:193,1,99.0000009441376
325,236,74851,5,0,0:0:0:0:
140,126,75027,1,0,0:0:0:0:
354,99,75204,1,0,0:0:0:0:
59,216,75380,5,0,0:0:0:0:
112,224,75469,1,0,0:0:0:0:
165,232,75557,1,0,0:0:0:0:
140,126,75733,5,0,0:0:0:0:
193,134,75822,1,0,0:0:0:0:
246,142,75910,1,0,0:0:0:0:
82,329,76086,1,0,0:0:0:0:
165,232,76263,6,0,L|134:104,1,120
423,208,76616,2,0,L|394:324,1,120
143,194,76969,6,0,L|112:66,1,120
401,170,77322,2,0,L|372:286,1,120
121,156,77675,6,0,L|90:28,1,120
282,209,78027,1,0,0:0:0:0:
99,248,78204,1,0,0:0:0:0:
192,270,78380,1,0,0:0:0:0:
375,309,78557,1,0,0:0:0:0:
282,252,78733,1,0,0:0:0:0:
99,291,78910,1,0,0:0:0:0:
192,313,79086,6,0,P|186:245|132:198,1,120
282,252,79439,2,0,P|311:201|368:189,1,120
218,131,79792,2,0,P|160:118|131:68,1,120
74,149,80145,2,0,P|92:204|62:254,1,120
163,264,80498,2,0,P|201:220|260:220,1,120
234,298,80851,1,0,0:0:0:0:
321,34,81027,2,0,L|282:161,1,120
147,34,81380,1,0,0:0:0:0:
234,298,81556,2,0,L|198:183,1,120
111,99,81910,6,0,P|155:55|227:71,1,120
379,121,82263,1,0,0:0:0:0:
111,99,82439,2,0,P|155:55|227:71,1,120
379,121,82792,1,0,0:0:0:0:
249,123,82969,2,0,P|200:84|135:86,1,120
169,176,83322,2,0,L|128:299,1,120
187,199,83675,2,0,L|179:328,1,120
210,216,84027,2,0,L|235:343,1,120
236,226,84380,2,0,L|289:333,1,120
399,111,84733,6,0,P|335:51|282:46,1,120
76,127,85086,1,0,0:0:0:0:
399,111,85263,2,0,P|335:51|282:46,1,120
76,127,85616,1,0,0:0:0:0:
283,331,85792,1,0,0:0:0:0:
344,300,85880,1,0,0:0:0:0:
389,246,85968,1,0,0:0:0:0:
408,180,86056,1,0,0:0:0:0:
399,111,86144,1,0,0:0:0:0:
256,128,87557,5,0,0:0:0:0:
319,192,87733,1,0,0:0:0:0:
256,255,87910,1,0,0:0:0:0:
192,192,88086,1,0,0:0:0:0:
301,147,88263,5,0,0:0:0:0:
301,237,88439,1,0,0:0:0:0:
211,237,88616,1,0,0:0:0:0:
211,147,88792,1,0,0:0:0:0:
364,192,88969,5,0,0:0:0:0:
256,300,89145,1,0,0:0:0:0:
147,192,89322,1,0,0:0:0:0:
256,83,89498,1,0,0:0:0:0:
332,268,89675,5,0,0:0:0:0:
179,268,89851,1,0,0:0:0:0:
179,115,90028,1,0,0:0:0:0:
332,115,90204,1,0,0:0:0:0:
256,354,90380,5,0,0:0:0:0:
93,192,90556,1,0,0:0:0:0:
256,29,90733,1,0,0:0:0:0:
418,192,90909,1,0,0:0:0:0:
141,306,91086,5,0,0:0:0:0:
141,77,91262,1,0,0:0:0:0:
370,77,91439,1,0,0:0:0:0:
370,306,91615,1,0,0:0:0:0:
93,192,91792,5,0,0:0:0:0:
256,29,91968,1,0,0:0:0:0:
418,192,92145,1,0,0:0:0:0:
256,354,92321,1,0,0:0:0:0:
141,77,92498,5,0,0:0:0:0:
370,77,92674,1,0,0:0:0:0:
370,306,92851,1,0,0:0:0:0:
141,306,93027,1,0,0:0:0:0:
256,192,93204,12,0,96027,0:0:0:0:
407,59,96380,5,0,0:0:0:0:
347,125,96557,1,0,0:0:0:0:
381,208,96733,2,0,P|315:208|265:160,1,135.000005149841
347,125,97439,1,0,0:0:0:0:
334,213,97792,1,0,0:0:0:0:
321,301,98145,1,0,0:0:0:0:
105,59,99204,5,0,0:0:0:0:
165,125,99381,1,0,0:0:0:0:
131,208,99557,2,0,P|197:208|247:160,1,135.000005149841
165,125,100263,1,0,0:0:0:0:
178,213,100616,1,0,0:0:0:0:
191,301,100969,1,0,0:0:0:0:
395,134,101851,5,0,0:0:0:0:
351,140,102027,1,0,0:0:0:0:
307,147,102204,1,0,0:0:0:0:
395,134,103086,1,0,0:0:0:0:
307,147,103439,1,0,0:0:0:0:
219,160,103792,1,0,0:0:0:0:
34,306,104675,5,0,0:0:0:0:
88,226,104851,1,0,0:0:0:0:
130,312,105027,1,0,0:0:0:0:
184,232,105204,1,0,0:0:0:0:
226,318,105380,1,0,0:0:0:0:
280,238,105557,1,0,0:0:0:0:
238,152,105733,2,0,P|210:139|179:137,1,45.0000017166138
333,158,106086,1,0,0:0:0:0:
291,73,106263,1,0,0:0:0:0:
238,152,106439,1,0,0:0:0:0:
196,66,106616,2,0,L|139:85,1,45.0000017166138
238,152,106969,2,0,L|325:123,1,90.0000034332277
87,43,108027,5,0,0:0:0:0:
98,183,108380,1,0,0:0:0:0:
112,106,108733,1,0,0:0:0:0:
123,246,109086,1,0,0:0:0:0:
148,309,109439,1,0,0:0:0:0:
137,169,109792,1,0,0:0:0:0:
403,69,110851,5,0,0:0:0:0:
392,209,111204,1,0,0:0:0:0:
378,132,111557,1,0,0:0:0:0:
367,272,111910,1,0,0:0:0:0:
342,335,112263,1,0,0:0:0:0:
353,195,112616,1,0,0:0:0:0:
244,326,113322,5,0,0:0:0:0:
212,237,113675,1,0,0:0:0:0:
279,171,114027,1,0,0:0:0:0:
190,142,114380,1,0,0:0:0:0:
252,72,114733,1,0,0:0:0:0:
252,72,114910,1,0,0:0:0:0:
136,267,115439,6,0,P|125:286|120:308,2,45.0000017166138
211,319,116145,1,0,0:0:0:0:
285,267,116498,1,0,0:0:0:0:
359,319,116851,1,0,0:0:0:0:
368,229,117204,1,0,0:0:0:0:
211,319,117557,5,0,0:0:0:0:
185,189,117733,2,0,L|169:101,1,71.9999978027344
285,278,118086,1,0,0:0:0:0:
297,145,118262,2,0,L|303:55,1,71.9999978027344
380,160,118616,2,0,B|375:202|375:202|357:226,1,71.9999978027344
123,120,118969,5,0,0:0:0:0:
193,27,119145,1,0,0:0:0:0:
226,256,119322,1,0,0:0:0:0:
321,233,119498,2,0,P|308:199|284:174,1,71.9999978027344
344,328,119851,1,0,0:0:0:0:
413,259,120027,6,0,P|441:235|467:211,1,71.9999978027344
395,169,120380,2,0,L|434:109,1,71.9999978027344
353,86,120733,2,0,L|376:17,1,71.9999978027344
246,42,121086,1,0,0:0:0:0:
248,172,121263,1,0,0:0:0:0:
248,209,121351,1,0,0:0:0:0:
248,246,121439,2,0,B|248:295|213:330,1,71.9999978027344
121,200,121792,5,0,0:0:0:0:
124,317,121969,1,0,0:0:0:0:
329,211,122145,1,0,0:0:0:0:
380,297,122322,2,0,P|343:309|293:302,1,71.9999978027344
329,211,122675,1,0,0:0:0:0:
394,135,122852,2,0,P|416:163|426:197,1,71.9999978027344
329,211,123204,5,0,0:0:0:0:
196,52,123380,1,0,0:0:0:0:
177,258,123557,1,0,0:0:0:0:
96,202,123733,2,0,P|124:175|166:160,1,71.9999978027344
270,126,124086,1,0,0:0:0:0:
303,113,124174,1,0,0:0:0:0:
338,100,124262,2,0,B|384:83|384:83|426:99,1,71.9999978027344
348,206,124616,5,0,0:0:0:0:
219,258,124792,1,0,0:0:0:0:
281,41,124969,1,0,0:0:0:0:
181,50,125145,2,0,P|189:84|211:113,1,71.9999978027344
99,91,125498,1,0,0:0:0:0:
95,184,125675,2,0,P|130:181|164:194,1,71.9999978027344
256,257,126027,1,0,0:0:0:0:
440,131,126204,1,0,0:0:0:0:
228,60,126380,1,0,0:0:0:0:
316,14,126557,6,0,P|327:49|323:89,1,71.9999978027344
234,173,126910,1,0,0:0:0:0:
249,205,126998,1,0,0:0:0:0:
264,239,127086,2,0,B|289:283|289:283|330:295,1,71.9999978027344
133,240,127439,5,0,0:0:0:0:
27,300,127616,1,0,0:0:0:0:
46,157,127792,2,0,L|52:68,1,71.9999978027344
137,41,128145,2,0,L|131:130,1,71.9999978027344
39,165,128498,2,0,L|46:63,1,71.9999978027344
143,32,128851,2,0,L|136:134,1,71.9999978027344
31,175,129204,2,0,L|38:75,1,71.9999978027344
151,22,129557,2,0,L|144:122,1,71.9999978027344
134,213,130086,5,0,0:0:0:0:
85,326,130263,1,0,0:0:0:0:
208,310,130439,2,0,B|255:298|290:322|290:322|342:265,1,143.999995605469
328,279,130969,1,0,0:0:0:0:
388,206,131675,5,0,0:0:0:0:
437,93,131852,1,0,0:0:0:0:
314,109,132028,2,0,B|278:77|235:92|235:92,1,71.9999978027344
247,89,132380,1,0,0:0:0:0:
98,145,132910,5,0,0:0:0:0:
86,266,133087,1,0,0:0:0:0:
199,214,133263,1,0,0:0:0:0:
254,332,133439,2,0,P|276:292|299:273,1,71.9999978027344
378,309,133792,2,0,P|381:262|392:236,1,71.9999978027344
313,176,134498,5,0,0:0:0:0:
362,63,134675,1,0,0:0:0:0:
239,79,134851,2,0,B|203:47|160:62|160:62,1,71.9999978027344
172,59,135203,1,0,0:0:0:0:
47,188,135910,5,0,0:0:0:0:
160,141,136087,1,0,0:0:0:0:
140,264,136263,2,0,B|159:307|211:308,1,71.9999978027344
421,110,136969,5,0,0:0:0:0:
308,63,137146,1,0,0:0:0:0:
328,186,137322,2,0,P|320:228|280:260,1,71.9999978027344
301,249,137675,1,0,0:0:0:0:
96,110,138380,5,0,0:0:0:0:
141,327,138557,2,0,P|179:338|215:330,1,71.9999978027344
181,256,138910,5,0,0:0:0:0:
226,39,139087,2,0,P|260:25|293:31,1,71.9999978027344
243,279,139616,5,0,0:0:0:0:
288,62,139793,2,0,P|322:48|355:54,1,71.9999978027344
350,85,140498,1,0,0:0:0:0:
134,329,141204,5,0,0:0:0:0:
114,149,141380,1,0,0:0:0:0:
124,239,141557,5,0,0:0:0:0:
104,59,141733,2,0,L|120:201,1,135.000005149841
134,329,142616,5,0,0:0:0:0:
114,149,142792,1,0,0:0:0:0:
124,239,142969,5,0,0:0:0:0:
104,59,143145,2,0,L|120:201,1,135.000005149841
306,292,144027,5,0,0:0:0:0:
326,112,144203,1,0,0:0:0:0:
316,202,144380,5,0,0:0:0:0:
336,22,144556,2,0,L|320:164,1,135.000005149841
306,292,145439,5,0,0:0:0:0:
326,112,145615,1,0,0:0:0:0:
316,202,145792,5,0,0:0:0:0:
336,22,145968,2,0,L|320:164,1,135.000005149841
136,346,146851,5,0,0:0:0:0:
122,165,147027,1,0,0:0:0:0:
129,255,147204,5,0,0:0:0:0:
115,75,147380,2,0,L|126:217,1,135.000005149841
136,346,148263,5,0,0:0:0:0:
122,165,148439,1,0,0:0:0:0:
129,255,148616,5,0,0:0:0:0:
115,75,148792,2,0,L|126:217,1,135.000005149841
386,304,149675,5,0,0:0:0:0:
401,121,149851,1,0,0:0:0:0:
393,212,150028,5,0,0:0:0:0:
409,32,150204,2,0,L|396:173,1,135.000005149841
386,304,151086,5,0,0:0:0:0:
401,121,151262,1,0,0:0:0:0:
393,212,151439,5,0,0:0:0:0:
409,32,151616,1,0,0:0:0:0:
401,121,151792,2,0,L|392:223,1,90.0000034332277
95,318,152498,5,0,0:0:0:0:
161,256,152675,1,0,0:0:0:0:
95,194,152851,5,0,0:0:0:0:
161,132,153027,1,0,0:0:0:0:
161,132,153116,1,0,0:0:0:0:
161,132,153204,2,0,B|174:64|174:64|163:5,1,120
243,124,153910,5,0,0:0:0:0:
309,186,154087,1,0,0:0:0:0:
243,248,154263,5,0,0:0:0:0:
309,310,154439,1,0,0:0:0:0:
256,137,155322,5,0,0:0:0:0:
322,199,155499,1,0,0:0:0:0:
256,261,155675,5,0,0:0:0:0:
322,323,155851,1,0,0:0:0:0:
269,150,156733,5,0,0:0:0:0:
335,212,156910,1,0,0:0:0:0:
269,274,157086,5,0,0:0:0:0:
335,336,157262,1,0,0:0:0:0:
282,163,158145,5,0,0:0:0:0:
348,225,158322,1,0,0:0:0:0:
282,287,158498,5,0,0:0:0:0:
348,349,158674,1,0,0:0:0:0:
176,294,158851,1,0,0:0:0:0:
385,213,159027,1,0,0:0:0:0:
197,17,159204,2,0,P|216:112|221:203,1,180.000006866455
336,336,160263,5,0,0:0:0:0:
127,255,160439,1,0,0:0:0:0:
315,59,160616,2,0,P|301:112|299:159,1,90.0000034332277
303,256,160969,5,0,0:0:0:0:
206,205,161145,2,0,L|196:125,1,60
128,61,161498,1,0,0:0:0:0:
90,163,161675,2,0,L|107:297,1,120
233,346,162204,5,0,0:0:0:0:
307,266,162381,2,0,L|318:187,1,60
220,190,162733,2,0,L|209:111,1,60
307,114,163086,2,0,L|318:35,1,60
454,234,163792,6,0,P|415:228|379:238,1,66.0000020141602
324,308,164145,1,0,0:0:0:0:
279,223,164322,1,0,0:0:0:0:
275,198,164410,1,0,0:0:0:0:
272,173,164498,1,0,0:0:0:0:
268,149,164586,1,0,0:0:0:0:
265,124,164674,1,0,0:0:0:0:
192,35,164851,2,0,P|184:73|182:114,1,66.0000020141602
121,226,165204,6,0,P|71:164|156:169,1,198.000006042481
189,218,165910,6,0,P|269:216|220:152,1,198.000006042481
57,183,166616,6,0,P|57:220|64:258,1,66.0000020141602
132,317,166969,1,0,0:0:0:0:
179,230,167145,1,0,0:0:0:0:
183,205,167233,1,0,0:0:0:0:
186,180,167321,1,0,0:0:0:0:
190,156,167409,1,0,0:0:0:0:
193,131,167497,1,0,0:0:0:0:
266,42,167674,2,0,P|274:80|276:121,1,66.0000020141602
291,253,168027,6,0,P|306:199|326:173,1,66.0000020141602
364,84,168380,1,0,0:0:0:0:
421,188,168557,1,0,0:0:0:0:
424,213,168645,1,0,0:0:0:0:
428,237,168733,1,0,0:0:0:0:
431,262,168821,1,0,0:0:0:0:
435,287,168909,1,0,0:0:0:0:
336,353,169086,2,0,P|308:328|272:317,1,66.0000020141602
333,203,169439,2,0,L|339:118,1,66.0000020141602
271,36,169792,1,0,0:0:0:0:
216,141,169969,5,0,0:0:0:0:
207,182,170057,1,0,0:0:0:0:
205,223,170145,1,0,0:0:0:0:
209,264,170233,1,0,0:0:0:0:
220,304,170321,1,0,0:0:0:0:
295,357,170498,2,0,P|309:319|307:287,1,66.0000020141602
88,161,170851,2,0,L|82:246,1,66.0000020141602
150,328,171204,1,0,0:0:0:0:
205,223,171381,5,0,0:0:0:0:
214,182,171469,1,0,0:0:0:0:
216,141,171557,1,0,0:0:0:0:
212,100,171645,1,0,0:0:0:0:
201,60,171733,1,0,0:0:0:0:
126,7,171910,2,0,P|112:45|114:77,1,66.0000020141602
114,276,172263,6,0,P|87:243|41:220,1,71.9999978027344
202,193,172616,2,0,P|240:210|292:211,1,71.9999978027344
350,94,172969,2,0,P|370:139|366:184,1,71.9999978027344
290,281,173322,2,0,P|270:236|274:191,1,71.9999978027344
220,40,173675,2,0,P|216:92|197:138,1,90.0000034332277
135,240,174027,1,0,0:0:0:0:
27,230,174204,5,0,0:0:0:0:
26,270,174292,1,0,0:0:0:0:
43,308,174380,1,0,0:0:0:0:
74,335,174468,1,0,0:0:0:0:
113,347,174556,1,0,0:0:0:0:
213,329,174733,2,0,P|227:294|230:261,1,66.0000020141602
290,42,175086,6,0,P|302:79|299:112,1,66.0000020141602
245,194,175439,1,0,0:0:0:0:
191,108,175616,5,0,0:0:0:0:
162,137,175704,1,0,0:0:0:0:
148,176,175792,1,0,0:0:0:0:
149,217,175880,1,0,0:0:0:0:
166,254,175968,1,0,0:0:0:0:
257,292,176145,2,0,L|328:282,1,66.0000020141602
414,220,176498,2,0,B|349:183|349:183|218:200,1,198.000006042481
134,262,177204,2,0,B|199:298|199:298|329:281,1,198.000006042481
414,220,177910,6,0,P|415:181|403:150,1,66.0000020141602
366,43,178263,1,0,0:0:0:0:
302,130,178439,5,0,0:0:0:0:
304,171,178527,1,0,0:0:0:0:
307,212,178615,1,0,0:0:0:0:
310,253,178703,1,0,0:0:0:0:
313,294,178791,1,0,0:0:0:0:
247,369,178969,2,0,P|222:337|214:301,1,66.0000020141602
165,136,179322,2,0,P|162:180|139:209,1,66.0000020141602
91,285,179675,1,0,0:0:0:0:
45,189,179851,5,0,0:0:0:0:
31,150,179939,1,0,0:0:0:0:
32,109,180027,1,0,0:0:0:0:
47,70,180115,1,0,0:0:0:0:
73,39,180203,1,0,0:0:0:0:
156,111,180380,2,0,L|161:183,1,66.0000020141602
196,273,180733,5,0,0:0:0:0:
267,337,180909,1,0,0:0:0:0:
333,264,181086,1,0,0:0:0:0:
261,198,181262,1,0,0:0:0:0:
259,165,181350,1,0,0:0:0:0:
257,132,181438,1,0,0:0:0:0:
322,43,181616,1,0,0:0:0:0:
395,108,181792,2,0,L|399:189,1,66.0000020141602
252,338,182145,5,0,0:0:0:0:
93,195,182322,1,0,0:0:0:0:
238,26,182498,1,0,0:0:0:0:
398,173,182675,1,0,0:0:0:0:
399,205,182763,1,0,0:0:0:0:
401,238,182851,1,0,0:0:0:0:
200,358,183027,5,0,0:0:0:0:
82,177,183204,2,0,L|78:96,1,66.0000020141602
312,26,183557,5,0,0:0:0:0:
312,26,184263,5,0,0:0:0:0:
319,44,184616,1,0,0:0:0:0:
326,62,184969,5,0,0:0:0:0:
357,149,185145,1,0,0:0:0:0:
356,241,185322,1,0,0:0:0:0:
325,327,185498,1,0,0:0:0:0:
187,265,185675,5,0,0:0:0:0:
156,178,185851,1,0,0:0:0:0:
157,86,186028,1,0,0:0:0:0:
188,0,186204,1,0,0:0:0:0:
310,87,186380,2,0,L|320:202,1,90.0000034332277
148,267,186733,2,0,L|158:152,1,90.0000034332277
299,76,187086,2,0,L|309:191,1,90.0000034332277
137,256,187439,2,0,L|147:141,1,90.0000034332277
287,255,187792,6,0,L|294:344,1,90.0000034332277
467,270,188145,6,0,L|474:180,1,90.0000034332277
297,267,188498,6,0,L|304:356,1,90.0000034332277
477,282,188851,6,0,L|484:192,1,90.0000034332277
347,36,189204,6,0,L|339:125,1,90.0000034332277
165,348,189557,6,0,L|172:258,1,90.0000034332277
27,100,189910,6,0,L|159:108,1,90.0000034332277
484,283,190263,6,0,L|352:275,1,90.0000034332277
256,192,190616,1,0,0:0:0:0:
45,237,190792,1,0,0:0:0:0:
244,321,190969,1,0,0:0:0:0:
353,256,191145,1,0,0:0:0:0:
358,211,191233,1,0,0:0:0:0:
363,166,191321,1,0,0:0:0:0:
266,102,191498,5,0,0:0:0:0:
261,147,191586,1,0,0:0:0:0:
256,192,191674,1,0,0:0:0:0:
244,321,191851,1,0,0:0:0:0:
138,246,192027,6,0,L|122:109,1,120
376,46,192380,2,0,L|363:166,1,120
124,234,192733,2,0,L|108:97,1,120
362,34,193086,2,0,L|348:153,1,120
110,222,193439,2,0,L|94:85,1,120
0,237,193792,5,0,0:0:0:0:
249,302,193969,1,0,0:0:0:0:
73,332,194145,1,0,0:0:0:0:
281,138,194322,1,0,0:0:0:0:
105,169,194498,1,0,0:0:0:0:
404,248,194675,1,0,0:0:0:0:
249,302,194851,6,0,P|246:231|191:188,1,120
354,163,195204,2,0,P|357:92|412:49,1,120
222,103,195557,2,0,P|152:88|118:27,1,120
139,196,195910,2,0,P|161:263|125:323,1,120
261,222,196263,2,0,P|306:171|380:157,1,120
363,268,196616,5,0,0:0:0:0:
426,38,196792,2,0,L|393:157,1,120
253,44,197145,1,0,0:0:0:0:
299,316,197322,2,0,L|277:187,1,120
51,173,197675,6,0,P|89:117|161:117,1,120
349,142,198027,1,0,0:0:0:0:
51,173,198204,6,0,P|89:117|161:117,1,120
349,142,198556,1,0,0:0:0:0:
206,173,198733,6,0,P|151:144|92:154,1,120
137,240,199086,2,0,L|126:375,1,120
315,267,199439,2,0,L|305:147,1,120
80,67,199792,2,0,L|69:202,1,120
379,119,200145,2,0,L|369:0,1,120
115,240,200498,6,0,P|120:313|168:357,1,120
396,260,200851,1,0,0:0:0:0:
115,240,201027,6,0,P|120:313|168:357,1,120
396,260,201380,1,0,0:0:0:0:
268,44,201557,5,0,0:0:0:0:
200,63,201645,1,0,0:0:0:0:
148,108,201733,1,0,0:0:0:0:
118,174,201821,1,0,0:0:0:0:
115,240,201909,1,0,0:0:0:0:
322,91,203322,5,0,0:0:0:0:
347,275,203498,1,0,0:0:0:0:
189,91,203675,1,0,0:0:0:0:
164,275,203851,1,0,0:0:0:0:
322,91,204027,1,0,0:0:0:0:
347,275,204203,1,0,0:0:0:0:
189,91,204380,1,0,0:0:0:0:
164,275,204556,1,0,0:0:0:0:
342,63,204733,5,0,0:0:0:0:
374,302,204909,1,0,0:0:0:0:
168,63,205086,1,0,0:0:0:0:
136,302,205262,1,0,0:0:0:0:
342,63,205438,1,0,0:0:0:0:
374,302,205614,1,0,0:0:0:0:
168,63,205791,1,0,0:0:0:0:
136,302,205967,1,0,0:0:0:0:
359,40,206145,5,0,0:0:0:0:
397,325,206321,1,0,0:0:0:0:
151,40,206498,1,0,0:0:0:0:
113,325,206674,1,0,0:0:0:0:
359,40,206850,1,0,0:0:0:0:
397,325,207026,1,0,0:0:0:0:
151,40,207203,1,0,0:0:0:0:
113,325,207379,1,0,0:0:0:0:
380,11,207557,5,0,0:0:0:0:
425,354,207733,1,0,0:0:0:0:
130,11,207910,1,0,0:0:0:0:
85,354,208086,1,0,0:0:0:0:
380,11,208262,1,0,0:0:0:0:
425,354,208438,1,0,0:0:0:0:
130,11,208615,1,0,0:0:0:0:
85,354,208792,1,0,0:0:0:0:
228,154,208969,6,0,P|213:100|176:72,3,90.0000034332277
206,269,210380,1,0,0:0:0:0:
303,139,211086,1,0,0:0:0:0:
206,9,211792,1,0,0:0:0:0:
206,9,213204,5,0,0:0:0:0:
174,131,213557,1,0,0:0:0:0:
193,255,213910,1,0,0:0:0:0:
351,340,214616,6,0,P|380:298|385:248,3,90.0000034332277
343,111,216027,1,0,0:0:0:0:
256,224,216733,1,0,0:0:0:0:
169,111,217439,1,0,0:0:0:0:
82,224,218145,2,0,P|65:180|67:121,2,90.0000034332277
403,262,220263,5,0,0:0:0:0:
321,311,220616,1,0,0:0:0:0:
239,262,220968,1,0,0:0:0:0:
323,216,221321,1,0,0:0:0:0:
241,166,221674,1,0,0:0:0:0:
246,157,222380,5,0,0:0:0:0:
189,302,223086,1,0,0:0:0:0:
91,78,224498,5,0,0:0:0:0:
52,188,224851,1,0,0:0:0:0:
74,302,225204,1,0,0:0:0:0:
250,130,225910,5,0,0:0:0:0:
323,205,226263,1,0,0:0:0:0:
396,130,226616,1,0,0:0:0:0:
323,205,226968,1,0,0:0:0:0:
396,280,227321,1,0,0:0:0:0:
283,337,228027,1,0,0:0:0:0:
213,237,228733,5,0,0:0:0:0:
106,193,229086,1,0,0:0:0:0:
149,88,229439,1,0,0:0:0:0:
255,130,229792,1,0,0:0:0:0:
150,237,230145,5,0,0:0:0:0:
105,131,230498,1,0,0:0:0:0:
210,87,230851,1,0,0:0:0:0:
255,191,231204,1,0,0:0:0:0:
256,192,231557,12,0,235792,0:0:0:0:
