osu file format v14

[General]
AudioFilename: audio.mp3
AudioLeadIn: 0
PreviewTime: 193539
Countdown: 0
SampleSet: Soft
StackLeniency: 0.5
Mode: 0
LetterboxInBreaks: 0
WidescreenStoryboard: 1

[Editor]
Bookmarks: 30773,51198,71624,92049,112475,132900,153326,173752,194177,214603,235028,255454,255773,256252,256411,256810,256970,257129,257289,257767,257927,258087,258246,258645,258805,258964,259124,259523,259762,260002,260161,260400,260640,260879,261119,261278,261517,261837,261996,262315,262475,262794,263113
DistanceSpacing: 1.8
BeatDivisor: 8
GridSize: 8
TimelineZoom: 3

[Metadata]
Title:Addiction
TitleUnicode:Addiction
Artist:DJ OKAWARI x Celeina Ann
ArtistUnicode:DJ OKAWARI × Celeina Ann
Creator:-Zel
Version:Light Insane
Source:
Tags:Hip Hop English Nightfall nu jazz downtempo hip-hop セレイナ・アン 2019
BeatmapID:3496042
BeatmapSetID:1641079

[Difficulty]
HPDrainRate:6
CircleSize:4
OverallDifficulty:8
ApproachRate:9
SliderMultiplier:2.6
SliderTickRate:1

[Events]
//Background and Video events
0,0,"hssh dfsh fdsh fshf sh213213 .jpg",0,0
//Break Periods
2,133100,136769
2,143313,146981
2,173952,175705
2,179058,180811
2,184164,185917
2,190347,191024
//Storyboard Layer 0 (Background)
//Storyboard Layer 1 (Fail)
//Storyboard Layer 2 (Pass)
//Storyboard Layer 3 (Foreground)
//Storyboard Layer 4 (Overlay)
//Storyboard Sound Samples

[TimingPoints]
135,638.297872340426,4,1,1,70,1,0
135,-133.333333333333,4,1,1,70,0,0
773,-200,4,1,1,70,0,0
1252,-100,4,1,1,70,0,0
2049,-100,4,1,1,70,0,0
2369,-100,4,1,1,70,0,0
2688,-200,4,1,1,70,0,0
3326,-200,4,1,1,70,0,0
3964,-66.6666666666667,4,1,1,70,0,0
4603,-100,4,1,2,70,0,0
4922,-100,4,1,2,70,0,0
5241,-133.333333333333,4,1,2,70,0,0
5879,-200,4,1,1,70,0,0
6358,-100,4,1,1,70,0,0
7156,-100,4,1,1,70,0,0
7475,-100,4,1,1,70,0,0
7794,-200,4,1,1,70,0,0
8432,-200,4,1,1,70,0,0
9071,-66.6666666666667,4,1,1,70,0,0
9709,-100,4,1,1,70,0,0
10028,-100,4,1,1,70,0,0
10347,-133.333333333333,4,1,1,70,0,0
10985,-200,4,1,1,70,0,0
11464,-100,4,1,2,70,0,0
12422,-111.111111111111,4,1,2,70,0,0
12900,-200,4,1,2,70,0,0
13538,-200,4,1,1,70,0,0
14176,-66.6666666666667,4,1,1,70,0,0
14815,-125,4,1,2,70,0,0
15453,-100,4,1,2,70,0,0
15773,-100,4,1,2,70,0,0
15932,-100,4,1,2,70,0,0
16570,-100,4,1,2,70,0,0
17049,-100,4,1,1,70,0,0
17368,-100,4,1,1,70,0,0
17687,-83.3333333333333,4,1,1,70,0,0
18006,-200,4,1,1,70,0,0
18644,-200,4,1,1,70,0,0
19283,-66.6666666666666,4,1,1,70,0,0
19921,-111.111111111111,4,1,2,70,0,0
20240,-83.3333333333333,4,1,2,70,0,0
20560,-133.333333333333,4,1,1,70,0,0
21198,-200,4,1,1,70,0,0
21677,-100,4,1,2,70,0,0
22635,-111.111111111111,4,1,2,70,0,0
23113,-250,4,1,2,70,0,0
23751,-250,4,1,1,70,0,0
24389,-83.3333333333333,4,1,1,70,0,0
25028,-117.647058823529,4,1,2,70,0,0
25666,-100,4,1,2,70,0,0
25906,-74.0740740740741,4,1,2,70,0,0
25986,-100,4,1,2,70,0,0
26145,-200,4,1,2,70,0,0
26304,-100,4,1,1,70,0,0
26624,-100,4,1,2,70,0,0
26783,-100,4,1,2,70,0,0
27581,-100,4,1,1,70,0,0
27900,-100,4,1,1,70,0,0
28219,-222.222222222222,4,1,1,70,0,0
28857,-222.222222222222,4,1,1,70,0,0
29496,-74.0740740740741,4,1,1,70,0,0
29975,-74.0740740740741,4,1,3,70,0,0
30134,-100,4,1,2,70,0,0
30453,-100,4,1,2,70,0,0
30772,-133.333333333333,4,1,2,80,0,0
31411,-125,4,1,1,80,0,0
31810,-125,4,1,1,5,0,0
31890,-125,4,1,1,80,0,0
32049,-125,4,1,1,80,0,0
32209,-125,4,1,1,80,0,0
32688,-125,4,1,2,80,0,0
33007,-125,4,1,2,80,0,0
33326,-125,4,1,2,80,0,0
33645,-125,4,1,2,80,0,0
33805,-125,4,1,2,80,0,0
34124,-125,4,1,2,80,0,0
34283,-125,4,1,2,80,0,0
34603,-125,4,1,2,80,0,0
34762,-125,4,1,2,80,0,0
35002,-125,4,1,2,5,0,0
35081,-125,4,1,2,80,0,0
35241,-125,4,1,1,80,0,0
35560,-125,4,1,1,80,0,0
35879,-166.666666666667,4,1,1,80,0,0
36517,-125,4,1,1,80,0,0
37156,-125,4,1,1,80,0,0
37475,-125,4,1,1,80,0,0
37794,-125,4,1,2,80,0,0
38113,-125,4,1,2,80,0,0
38432,-125,4,1,2,80,0,0
38752,-125,4,1,2,80,0,0
38911,-125,4,1,2,80,0,0
39230,-125,4,1,2,80,0,0
39390,-125,4,1,2,80,0,0
39709,-125,4,1,2,80,0,0
39857,-125,4,1,2,80,0,0
40108,-125,4,1,2,5,0,0
40188,-125,4,1,2,80,0,0
40347,-125,4,1,1,80,0,0
40666,-125,4,1,1,80,0,0
40986,-166.666666666667,4,1,1,80,0,0
41624,-125,4,1,1,80,0,0
42023,-125,4,1,1,5,0,0
42103,-125,4,1,1,80,0,0
42262,-125,4,1,1,80,0,0
42900,-125,4,1,2,80,0,0
43220,-125,4,1,2,80,0,0
43539,-125,4,1,2,80,0,0
43858,-125,4,1,1,80,0,0
44017,-125,4,1,2,80,0,0
44337,-125,4,1,2,80,0,0
44496,-125,4,1,2,80,0,0
44815,-125,4,1,1,80,0,0
44975,-125,4,1,2,80,0,0
45294,-125,4,1,2,80,0,0
45454,-125,4,1,2,80,0,0
46092,-125,4,1,2,80,0,0
46411,-125,4,1,2,80,0,0
47369,-200,4,1,1,80,0,0
47688,-125,4,1,1,80,0,0
48007,-125,4,1,2,80,0,0
48326,-125,4,1,2,80,0,0
48645,-125,4,1,1,80,0,0
50560,-125,4,1,1,80,0,0
50879,-125,4,1,1,80,0,0
51198,-83.3333333333333,4,1,4,95,0,1
51677,-83.3333333333333,4,1,4,95,0,1
51837,-83.3333333333333,4,1,4,95,0,1
52475,-133.333333333333,4,1,4,95,0,1
52794,-83.3333333333333,4,1,4,95,0,1
53752,-153.846153846154,4,1,4,95,0,1
54390,-83.3333333333333,4,1,4,95,0,1
54549,-83.3333333333333,4,1,4,95,0,1
55028,-83.3333333333333,4,1,1,95,0,1
55347,-83.3333333333333,4,1,1,95,0,1
55666,-133.333333333333,4,1,4,95,0,1
55986,-83.3333333333333,4,1,4,95,0,1
56305,-83.3333333333333,4,1,4,95,0,1
56943,-83.3333333333333,4,1,4,95,0,1
57422,-83.3333333333333,4,1,4,95,0,1
57741,-83.3333333333333,4,1,4,95,0,1
58858,-133.333333333333,4,1,4,95,0,1
59496,-83.3333333333333,4,1,4,95,0,1
60135,-83.3333333333333,4,1,1,95,0,1
60454,-83.3333333333333,4,1,1,95,0,1
60773,-100,4,1,4,95,0,1
61411,-83.3333333333333,4,1,4,95,0,1
62049,-83.3333333333333,4,1,4,95,0,1
62688,-133.333333333333,4,1,4,95,0,1
63964,-133.333333333333,4,1,4,95,0,1
64603,-83.3333333333333,4,1,4,95,0,1
65241,-83.3333333333333,4,1,1,95,0,1
65560,-83.3333333333333,4,1,1,95,0,1
65879,-133.333333333333,4,1,4,95,0,1
66198,-83.3333333333333,4,1,4,95,0,1
66517,-83.3333333333333,4,1,4,95,0,1
67156,-83.3333333333333,4,1,4,95,0,1
67794,-83.3333333333333,4,1,4,95,0,1
68432,-133.333333333333,4,1,4,95,0,1
69071,-133.333333333333,4,1,4,95,0,1
69709,-83.3333333333333,4,1,4,95,0,1
70347,-83.3333333333333,4,1,1,95,0,1
70666,-83.3333333333333,4,1,1,95,0,1
70986,-83.3333333333333,4,1,4,95,0,1
71145,-83.3333333333333,4,1,1,95,0,1
71624,-133.333333333333,4,1,1,70,0,0
72262,-200,4,1,1,70,0,0
72741,-100,4,1,2,70,0,0
72900,-100,4,1,2,70,0,0
73539,-133.333333333333,4,1,2,70,0,0
74177,-250,4,1,2,70,0,0
74815,-250,4,1,1,70,0,0
75454,-83.3333333333333,4,1,2,70,0,0
75773,-83.3333333333333,4,1,2,70,0,0
76092,-100,4,1,2,70,0,0
76411,-100,4,1,2,70,0,0
76730,-100,4,1,2,70,0,0
77049,-100,4,1,2,70,0,0
77209,-100,4,1,2,70,0,0
77688,-100,4,1,2,70,0,0
78007,-100,4,1,1,70,0,0
78326,-100,4,1,1,70,0,0
78645,-100,4,1,2,70,0,0
78964,-100,4,1,2,70,0,0
79283,-250,4,1,2,70,0,0
79922,-250,4,1,1,70,0,0
80560,-83.3333333333333,4,1,1,70,0,0
80879,-83.3333333333333,4,1,1,70,0,0
81198,-100,4,1,2,70,0,0
81517,-100,4,1,2,70,0,0
81837,-133.333333333333,4,1,2,70,0,0
82475,-200,4,1,1,70,0,0
82954,-100,4,1,2,70,0,0
83752,-100,4,1,2,70,0,0
84071,-100,4,1,2,70,0,0
84111,-100,4,1,2,50,0,0
84150,-100,4,1,2,45,0,0
84190,-100,4,1,2,40,0,0
84230,-100,4,1,2,35,0,0
84270,-100,4,1,2,30,0,0
84310,-100,4,1,2,25,0,0
84390,-250,4,1,2,70,0,0
85028,-250,4,1,1,70,0,0
85666,-83.3333333333333,4,1,1,70,0,0
85986,-83.3333333333333,4,1,1,70,0,0
86065,-83.3333333333333,4,1,1,5,0,0
86145,-100,4,1,1,70,0,0
86305,-100,4,1,2,70,0,0
86624,-100,4,1,2,70,0,0
86943,-133.333333333333,4,1,2,70,0,0
87262,-100,4,1,2,70,0,0
87422,-100,4,1,2,70,0,0
87581,-200,4,1,1,70,0,0
87900,-100,4,1,2,70,0,0
88060,-100,4,1,2,70,0,0
88379,-100,4,1,2,70,0,0
88858,-100,4,1,1,70,0,0
89177,-100,4,1,1,70,0,0
89217,-100,4,1,1,50,0,0
89257,-100,4,1,1,45,0,0
89297,-100,4,1,1,40,0,0
89337,-100,4,1,1,35,0,0
89377,-100,4,1,1,30,0,0
89416,-100,4,1,1,25,0,0
89496,-133.333333333333,4,1,1,70,0,0
90135,-200,4,1,1,70,0,0
90613,-100,4,1,1,70,0,0
91092,-100,4,1,1,70,0,0
91411,-100,4,1,2,70,0,0
91730,-100,4,1,2,70,0,0
92049,-133.333333333333,4,1,2,80,0,0
92688,-125,4,1,1,80,0,0
93326,-125,4,1,1,80,0,0
93645,-125,4,1,1,80,0,0
93964,-125,4,1,2,80,0,0
94283,-83.3333333333333,4,1,2,80,0,0
94323,-100,4,1,2,50,0,0
94362,-100,4,1,2,45,0,0
94402,-100,4,1,2,40,0,0
94442,-100,4,1,2,35,0,0
94482,-100,4,1,2,30,0,0
94522,-100,4,1,2,25,0,0
94603,-100,4,1,2,80,0,0
95081,-100,4,1,2,80,0,0
95560,-100,4,1,2,80,0,0
96039,-100,4,1,2,80,0,0
96358,-100,4,1,2,80,0,0
96517,-125,4,1,1,80,0,0
97156,-133.333333333333,4,1,1,80,0,0
97794,-125,4,1,1,80,0,0
98432,-125,4,1,1,80,0,0
98752,-125,4,1,1,80,0,0
99071,-125,4,1,1,80,0,0
99390,-100,4,1,1,80,0,0
99430,-100,4,1,1,50,0,0
99470,-100,4,1,1,45,0,0
99510,-100,4,1,1,40,0,0
99550,-100,4,1,1,35,0,0
99589,-100,4,1,1,30,0,0
99629,-100,4,1,1,25,0,0
99709,-100,4,1,2,80,0,0
100188,-100,4,1,2,80,0,0
100666,-100,4,1,2,80,0,0
101145,-100,4,1,2,80,0,0
101464,-125,4,1,2,80,0,0
101624,-125,4,1,1,80,0,0
102262,-133.333333333333,4,1,1,80,0,0
102900,-125,4,1,1,80,0,0
103378,-125,4,1,1,80,0,0
103539,-125,4,1,1,80,0,0
103858,-125,4,1,1,80,0,0
104177,-125,4,1,2,80,0,0
104496,-100,4,1,2,80,0,0
104536,-100,4,1,2,50,0,0
104575,-100,4,1,2,45,0,0
104615,-100,4,1,2,40,0,0
104655,-100,4,1,2,35,0,0
104695,-100,4,1,2,30,0,0
104735,-100,4,1,2,25,0,0
104815,-100,4,1,2,80,0,0
105294,-100,4,1,2,80,0,0
105773,-100,4,1,2,80,0,0
106252,-100,4,1,2,80,0,0
106491,-100,4,1,2,5,0,0
106571,-125,4,1,2,80,0,0
106730,-125,4,1,2,80,0,0
107369,-125,4,1,2,80,0,0
107688,-125,4,1,2,80,0,0
108645,-125,4,1,1,80,0,0
109283,-125,4,1,2,80,0,0
109603,-83.3333333333333,4,1,2,80,0,0
109642,-125,4,1,2,50,0,0
109681,-125,4,1,2,45,0,0
109721,-125,4,1,2,40,0,0
109761,-125,4,1,2,35,0,0
109801,-125,4,1,2,30,0,0
109841,-125,4,1,2,25,0,0
109922,-125,4,1,1,80,0,0
111837,-125,4,1,1,80,0,0
112156,-125,4,1,1,80,0,0
112475,-83.3333333333333,4,1,4,95,0,1
112954,-83.3333333333333,4,1,4,95,0,1
113113,-83.3333333333333,4,1,4,95,0,1
113752,-133.333333333333,4,1,4,95,0,1
114071,-83.3333333333333,4,1,4,95,0,1
115028,-133.333333333333,4,1,4,95,0,1
115666,-83.3333333333333,4,1,4,95,0,1
115986,-83.3333333333333,4,1,4,95,0,1
116305,-83.3333333333333,4,1,1,95,0,1
116624,-83.3333333333333,4,1,1,95,0,1
116943,-133.333333333333,4,1,4,95,0,1
117262,-83.3333333333333,4,1,4,95,0,1
117581,-83.3333333333333,4,1,4,95,0,1
118219,-83.3333333333333,4,1,4,95,0,1
118698,-83.3333333333333,4,1,4,95,0,1
119017,-83.3333333333333,4,1,4,95,0,1
120134,-133.333333333333,4,1,4,95,0,1
120772,-83.3333333333333,4,1,4,95,0,1
121411,-83.3333333333333,4,1,1,95,0,1
121730,-83.3333333333333,4,1,1,95,0,1
122049,-100,4,1,4,95,0,1
122688,-83.3333333333333,4,1,4,95,0,1
123326,-83.3333333333333,4,1,4,95,0,1
123964,-133.333333333333,4,1,4,95,0,1
124283,-83.3333333333333,4,1,4,95,0,1
125241,-133.333333333333,4,1,4,95,0,1
125879,-133.333333333333,4,1,4,95,0,1
126039,-83.3333333333333,4,1,4,95,0,1
126517,-83.3333333333333,4,1,1,95,0,1
126837,-83.3333333333333,4,1,1,95,0,1
127156,-133.333333333333,4,1,4,95,0,1
127475,-83.3333333333333,4,1,4,95,0,1
127794,-83.3333333333333,4,1,4,95,0,1
128432,-83.3333333333333,4,1,4,95,0,1
129709,-133.333333333333,4,1,4,95,0,1
130347,-133.333333333333,4,1,4,95,0,1
130986,-83.3333333333333,4,1,4,95,0,1
131624,-83.3333333333333,4,1,1,95,0,1
132262,-83.3333333333333,4,1,4,95,0,1
132422,-83.3333333333333,4,1,4,95,0,1
132900,-166.666666666667,4,2,1,70,0,0
132980,-166.666666666667,4,2,1,30,0,0
134815,-166.666666666667,4,2,1,70,0,0
134895,-166.666666666667,4,2,2,30,0,0
135773,-166.666666666667,4,2,1,30,0,0
135932,-166.666666666667,4,2,1,70,0,0
136092,-166.666666666667,4,2,1,70,0,0
137369,-166.666666666667,4,2,2,70,0,0
137688,-166.666666666667,4,2,2,70,0,0
138007,-166.666666666667,4,2,1,70,0,0
139124,-166.666666666667,4,2,2,70,0,0
139922,-166.666666666667,4,2,1,70,0,0
140560,-166.666666666667,4,2,1,70,0,0
141358,-166.666666666667,4,2,1,70,0,0
141837,-166.666666666667,4,2,1,70,0,0
142475,-166.666666666667,4,2,2,70,0,0
142635,-166.666666666667,4,2,1,70,0,0
142794,-166.666666666667,4,2,1,70,0,0
143113,-166.666666666667,4,2,1,70,0,0
143193,-166.666666666667,4,2,1,30,0,0
145028,-166.666666666667,4,2,1,70,0,0
145108,-166.666666666667,4,2,2,30,0,0
145986,-166.666666666667,4,2,2,30,0,0
146145,-166.666666666667,4,2,1,70,0,0
146305,-166.666666666667,4,2,1,70,0,0
146783,-166.666666666667,4,2,2,70,0,0
147581,-166.666666666667,4,2,2,70,0,0
148220,-166.666666666667,4,2,1,70,0,0
148858,-166.666666666667,4,2,1,70,0,0
149337,-166.666666666667,4,2,1,70,0,0
150135,-166.666666666667,4,2,2,70,0,0
150454,-166.666666666667,4,2,2,70,0,0
150773,-166.666666666667,4,2,1,70,0,0
151571,-166.666666666667,4,2,1,70,0,0
152369,-83.3333333333333,4,3,3,95,0,0
152688,-83.3333333333333,4,3,2,95,0,0
152847,-83.3333333333333,4,3,3,95,0,0
153326,-83.3333333333333,4,3,3,95,0,0
153805,-83.3333333333333,4,3,3,95,0,0
153964,-83.3333333333333,4,3,2,95,0,0
154443,-83.3333333333333,4,3,3,95,0,0
154603,-83.3333333333333,4,3,3,95,0,0
154922,-83.3333333333333,4,3,9,95,0,0
155081,-83.3333333333333,4,3,3,95,0,0
155241,-111.111111111111,4,3,2,95,0,0
155879,-83.3333333333333,4,3,3,95,0,0
156517,-83.3333333333333,4,3,2,95,0,0
156677,-83.3333333333333,4,3,1,95,0,0
157156,-83.3333333333333,4,3,3,95,0,0
157475,-83.3333333333333,4,3,9,95,0,0
157714,-83.3333333333333,4,3,3,95,0,0
157794,-133.333333333333,4,3,2,95,0,0
158113,-83.3333333333333,4,3,3,95,0,0
158432,-83.3333333333333,4,3,3,95,0,0
159071,-83.3333333333333,4,3,2,95,0,0
159388,-83.3333333333333,4,3,3,95,0,0
160028,-83.3333333333333,4,3,9,95,0,0
160188,-83.3333333333333,4,3,3,95,0,0
160986,-83.3333333333333,4,3,3,95,0,0
161305,-83.3333333333333,4,3,2,95,0,0
161624,-83.3333333333333,4,3,2,95,0,0
162581,-83.3333333333333,4,3,9,95,0,0
162741,-83.3333333333333,4,3,3,95,0,0
164496,-83.3333333333333,4,3,3,95,0,0
164815,-83.3333333333333,4,3,3,95,0,0
165135,-133.333333333333,4,3,9,95,0,0
165294,-133.333333333333,4,3,3,95,0,0
165454,-83.3333333333333,4,3,2,95,0,0
166092,-83.3333333333333,4,3,3,95,0,0
167369,-83.3333333333333,4,3,2,95,0,0
167688,-83.3333333333333,4,3,9,95,0,0
168007,-133.333333333333,4,3,2,95,0,0
168166,-83.3333333333333,4,3,3,95,0,0
168486,-83.3333333333333,4,3,2,95,0,0
168645,-83.3333333333333,4,3,2,95,0,0
168964,-83.3333333333333,4,3,3,95,0,0
170241,-83.3333333333333,4,3,9,95,0,0
170400,-83.3333333333333,4,3,3,95,0,0
170879,-83.3333333333333,4,3,3,95,0,0
171358,-133.333333333333,4,3,3,95,0,0
171677,-83.3333333333333,4,3,2,95,0,0
171837,-83.3333333333333,4,3,2,95,0,0
172156,-83.3333333333333,4,3,2,95,0,0
172475,-83.3333333333333,4,3,3,95,0,0
172635,-83.3333333333333,4,3,3,95,0,0
172794,-83.3333333333333,4,3,9,95,0,0
172874,-83.3333333333333,4,3,3,95,0,0
172954,-83.3333333333333,4,3,3,95,0,0
173113,-83.3333333333333,4,3,3,95,0,0
173273,-83.3333333333333,4,3,3,95,0,0
173432,-83.3333333333333,4,3,2,95,0,0
173752,-200,4,2,1,60,0,0
178220,-200,4,2,2,60,0,0
178539,-200,4,2,2,60,0,0
178858,-200,4,2,1,60,0,0
183326,-200,4,2,2,60,0,0
183645,-200,4,2,2,60,0,0
183964,-200,4,2,1,60,0,0
188432,-200,4,2,2,60,0,0
188752,-200,4,2,2,60,0,0
191624,-142.857142857143,4,2,1,70,0,0
193539,-100,4,1,1,80,0,0
193858,-100,4,1,1,95,0,0
194177,-83.3333333333333,4,1,4,95,0,1
194815,-83.3333333333333,4,1,4,95,0,1
195454,-133.333333333333,4,1,4,95,0,1
195773,-83.3333333333333,4,1,4,95,0,1
196730,-133.333333333333,4,1,4,95,0,1
197369,-83.3333333333333,4,1,4,95,0,1
198007,-83.3333333333333,4,1,4,95,0,1
198326,-83.3333333333333,4,1,4,95,0,1
198645,-83.3333333333333,4,1,4,95,0,1
198964,-83.3333333333333,4,1,4,95,0,1
199283,-83.3333333333333,4,1,4,95,0,1
199922,-83.3333333333333,4,1,4,95,0,1
200400,-83.3333333333333,4,1,4,95,0,1
200720,-83.3333333333333,4,1,4,95,0,1
201837,-133.333333333333,4,1,4,95,0,1
202475,-83.3333333333333,4,1,4,95,0,1
203113,-83.3333333333333,4,1,1,95,0,1
203432,-83.3333333333333,4,1,1,95,0,1
203752,-133.333333333333,4,1,4,95,0,1
204071,-83.3333333333333,4,1,4,95,0,1
204390,-83.3333333333333,4,1,4,95,0,1
205028,-83.3333333333333,4,1,4,95,0,1
205666,-133.333333333333,4,1,4,95,0,1
205986,-83.3333333333333,4,1,4,95,0,1
206943,-133.333333333333,4,1,4,95,0,1
207581,-83.3333333333333,4,1,4,95,0,1
208220,-83.3333333333333,4,1,1,95,0,1
208539,-83.3333333333333,4,1,1,95,0,1
208858,-133.333333333333,4,1,3,95,0,1
209177,-83.3333333333333,4,1,4,95,0,1
209496,-83.3333333333333,4,1,4,95,0,1
210135,-83.3333333333333,4,1,4,95,0,1
211092,-83.3333333333333,4,1,4,95,0,1
211411,-133.333333333333,4,1,4,95,0,1
211730,-100,4,1,4,95,0,1
212049,-83.3333333333333,4,1,4,90,0,1
212528,-83.3333333333333,4,1,4,90,0,0
213166,-83.3333333333333,4,1,1,90,0,0
213326,-83.3333333333333,4,1,3,90,0,0
213645,-83.3333333333333,4,1,1,90,0,0
213805,-83.3333333333333,4,1,4,90,0,0
214603,-83.3333333333333,4,1,4,95,0,1
215241,-83.3333333333333,4,1,4,95,0,1
215879,-133.333333333333,4,1,1,95,0,1
216198,-83.3333333333333,4,1,4,95,0,1
216517,-83.3333333333333,4,1,4,95,0,1
217156,-83.3333333333333,4,3,3,95,0,1
217794,-83.3333333333333,4,3,2,95,0,1
218273,-83.3333333333333,4,3,3,95,0,1
218432,-83.3333333333333,4,3,1,95,0,1
219071,-133.333333333333,4,1,4,95,0,1
219709,-83.3333333333333,4,1,4,95,0,1
220347,-83.3333333333333,4,1,4,95,0,1
220826,-83.3333333333333,4,1,4,95,0,1
222262,-83.3333333333333,4,3,3,95,0,1
222900,-83.3333333333333,4,3,2,95,0,1
223379,-83.3333333333333,4,3,3,95,0,1
223539,-83.3333333333333,4,3,1,95,0,1
224017,-83.3333333333333,4,3,3,95,0,1
224177,-133.333333333333,4,1,4,95,0,1
224815,-83.3333333333333,4,1,4,95,0,1
225454,-83.3333333333333,4,1,4,95,0,1
226092,-133.333333333333,4,1,4,95,0,1
226411,-83.3333333333333,4,1,4,95,0,1
227369,-83.3333333333333,4,3,3,95,0,1
228645,-83.3333333333333,4,3,2,95,0,1
229124,-83.3333333333333,4,3,3,95,0,1
229283,-133.333333333333,4,1,4,95,0,1
229922,-83.3333333333333,4,1,4,95,0,1
230560,-83.3333333333333,4,1,4,95,0,1
231039,-83.3333333333333,4,1,4,95,0,1
231198,-83.3333333333333,4,1,4,95,0,1
231517,-83.3333333333333,4,1,4,95,0,1
231837,-133.333333333333,4,1,4,95,0,1
232475,-83.3333333333333,4,3,3,95,0,1
233752,-83.3333333333333,4,3,1,95,0,1
234230,-83.3333333333333,4,3,3,95,0,1
234390,-133.333333333333,4,1,4,100,0,0
235028,-133.333333333333,4,1,2,90,0,1
235986,-100,4,1,2,90,0,1
236305,-100,4,1,1,90,0,1
236464,-100,4,1,2,90,0,1
236943,-133.333333333333,4,1,2,90,0,1
237262,-100,4,1,2,90,0,1
237581,-83.3333333333333,4,3,3,90,0,1
238220,-83.3333333333333,4,3,2,90,0,1
238858,-83.3333333333333,4,3,2,90,0,1
239337,-83.3333333333333,4,3,3,90,0,1
239496,-133.333333333333,4,1,2,90,0,1
240135,-133.333333333333,4,1,2,90,0,1
241092,-100,4,1,2,90,0,1
242049,-133.333333333333,4,1,2,90,0,1
242688,-83.3333333333333,4,3,3,90,0,1
243326,-83.3333333333333,4,3,2,90,0,1
243805,-83.3333333333333,4,3,3,90,0,1
243964,-83.3333333333333,4,3,2,90,0,1
244443,-83.3333333333333,4,3,3,90,0,1
244603,-133.333333333333,4,1,2,90,0,1
245241,-133.333333333333,4,1,2,80,0,1
246198,-100,4,1,2,80,0,1
246517,-100,4,1,2,80,0,1
246837,-100,4,1,2,80,0,1
247156,-133.333333333333,4,1,2,80,0,1
247475,-100,4,1,2,80,0,1
247794,-83.3333333333333,4,3,3,80,0,1
248432,-83.3333333333333,4,3,2,80,0,1
248911,-83.3333333333333,4,3,3,80,0,1
249070,-83.3333333333333,4,3,1,80,0,1
249549,-83.3333333333333,4,3,3,80,0,1
249709,-133.333333333333,4,1,2,80,0,1
250347,-133.333333333333,4,1,2,80,0,1
251305,-100,4,1,2,80,0,1
251624,-100,4,1,1,80,0,1
251783,-100,4,1,2,80,0,1
252262,-133.333333333333,4,1,2,80,0,1
252900,-83.3333333333333,4,3,3,80,0,1
253539,-83.3333333333333,4,3,3,80,0,1
254017,-83.3333333333333,4,3,3,80,0,1
254177,-83.3333333333333,4,3,1,80,0,1
254496,-83.3333333333333,4,3,3,95,0,1
254815,-83.3333333333333,4,3,2,95,0,1
254975,-83.3333333333333,4,3,3,95,0,1
255454,-83.3333333333333,4,3,3,95,0,1
255533,-100,4,1,1,80,0,0
256092,-100,4,1,1,75,0,0
256730,-100,4,1,1,70,0,0
257369,-100,4,1,1,65,0,0
258007,-100,4,1,1,60,0,0
258645,-100,4,1,1,55,0,0
259283,-100,4,1,1,50,0,0
259922,-100,4,1,1,45,0,0
260560,-100,4,1,1,40,0,0
261198,-100,4,1,1,35,0,0
261837,-100,4,1,1,30,0,0
262475,-100,4,1,1,25,0,0
263113,-100,4,1,1,20,0,0

[Colours]
Combo1 : 165,255,98
Combo2 : 123,255,26
Combo3 : 255,85,149
Combo4 : 254,169,252

[HitObjects]
54,270,135,6,0,B|149:295|104:222|198:241,1,146.250005578995,8|2,0:3|0:3,0:0:0:0:
229,361,773,6,0,P|235:329|246:299,1,65,8|0,0:0|0:0,0:0:0:0:
319,263,1252,6,0,P|351:244|359:213,1,65,2|0,0:0|0:0,0:0:0:0:
430,179,1571,2,0,P|429:141|406:119,1,65,2|0,0:0|0:0,0:0:0:0:
282,190,1890,1,2,0:3:0:0:
382,49,2049,5,8,0:0:0:0:
382,49,2369,2,0,P|387:29|401:14,2,32.5,2|2|2,0:3|0:3|0:3,0:3:0:0:
213,88,2688,6,0,B|198:65|172:57|172:57|192:55|203:59|215:76,1,97.5,8|0,0:3|0:0,0:0:0:0:
286,132,3326,6,0,B|303:110|302:83|302:83|310:102|310:113|298:130,1,97.5,8|0,0:0|0:0,0:0:0:0:
154,146,3964,6,0,B|127:153|111:175|111:175|116:155|123:146|143:140,1,97.5,2|0,0:0|0:0,0:0:0:0:
268,213,4283,2,0,B|293:222|319:213|319:213|303:227|293:230|273:223,1,97.50000371933,2|0,0:0|0:0,0:0:0:0:
186,221,4603,6,0,P|195:267|186:301,1,65,8|0,0:0|0:0,0:0:0:0:
240,354,4922,2,0,P|226:370|199:378,2,32.5,2|0|2,0:3|0:0|0:3,0:0:0:0:
318,315,5241,6,0,B|363:290|408:314|408:314|415:351|457:362,1,146.250005578995,8|2,0:3|0:3,0:0:0:0:
500,227,5879,6,0,P|488:269|484:298,1,65,8|0,0:0|0:0,0:0:0:0:
447,151,6358,6,0,P|419:164|419:195,1,65,2|0,0:0|0:0,0:0:0:0:
332,211,6677,2,0,P|328:242|354:257,1,65,2|0,0:0|0:0,0:0:0:0:
354,257,6996,1,2,0:3:0:0:
268,159,7156,5,8,0:0:0:0:
268,159,7475,2,0,P|239:167|230:177,2,32.5,2|2|2,0:3|0:3|0:3,0:3:0:0:
332,212,7794,6,0,B|344:248|313:269|313:269|303:249|315:234,1,97.4999970245362,8|0,0:3|0:0,0:0:0:0:
382,86,8432,6,0,B|393:48|430:50|430:50|429:73|416:75,1,97.4999970245362,8|0,0:0|0:0,0:0:0:0:
298,81,9071,6,0,B|266:58|279:23|279:23|301:31|298:45,1,97.4999970245362,2|0,0:0|0:0,0:0:0:0:
404,168,9390,2,0,B|442:167|453:203|453:203|430:209|424:197,1,97.4999970245362,2|0,0:0|0:0,0:0:0:0:
268,159,9709,6,0,P|224:172|194:202,1,65
135,210,10028,2,0,P|127:233|132:255,2,32.5,2|0|2,0:3|0:0|0:3,0:0:0:0:
85,146,10347,6,0,P|97:71|123:-4,1,146.250005578995,8|2,3:0|0:3,0:0:0:0:
25,27,10986,6,0,P|4:54|13:82,1,65,8|0,0:0|0:0,0:0:0:0:
199,7,11464,5,2,0:0:0:0:
219,123,11624,2,0,P|188:113|177:84,1,65,2|0,0:0|0:0,0:0:0:0:
309,182,11943,1,2,0:0:0:0:
309,182,12103,2,0,P|286:203|255:198,1,65,2|0,0:0|0:0,0:0:0:0:
271,57,12422,6,0,B|344:50|305:106|394:89,1,116.999996429443,2|2,0:0|0:3,0:0:0:0:
424,180,12900,6,0,B|458:164|452:126|452:126|444:149|425:156,1,97.5,8|0,0:3|0:0,0:0:0:0:
365,305,13539,6,0,B|346:337|374:365|374:365|367:341|378:325,1,97.5,8|0,0:0|0:0,0:0:0:0:
302,246,14177,6,0,B|265:238|247:273|247:273|267:259|287:264,1,97.5,2|0,0:0|0:0,0:0:0:0:
440,264,14496,2,0,B|465:291|500:273|500:273|475:273|463:257,1,97.5,2|0,0:0|0:0,0:0:0:0:
318,146,14815,6,0,B|273:101|222:130|222:130|216:164|184:177,1,156,8|2,0:0|0:3,0:0:0:0:
2,207,15454,6,0,P|67:208|130:225,1,130,8|2,0:3|0:0,0:0:0:0:
237,345,15932,1,2,0:0:0:0:
162,377,16092,6,0,B|144:342|163:299|163:299|193:288|202:254,1,130,0|2,0:0|0:0,0:0:0:0:
264,219,16571,2,0,P|272:180|258:154,1,65,2|0,0:0|0:0,0:0:0:0:
294,84,16890,2,0,P|264:57|234:56,1,65,2|2,0:0|0:0,0:0:0:0:
190,121,17209,1,0,0:0:0:0:
99,20,17369,6,0,P|118:53|121:87,1,65,8|0,0:0|0:0,0:0:0:0:
48,161,17688,2,0,P|47:142|57:125,2,38.9999988098145,2|2|2,0:3|0:3|0:3,0:0:0:0:
157,219,18007,6,0,B|134:225|108:216|108:216|133:228|149:252,1,97.5,8|0,0:3|0:0,0:0:0:0:
311,258,18645,6,0,B|327:239|352:231|352:231|321:235|298:226,1,97.5
248,350,19283,6,0,B|269:356|285:381|285:381|273:350|273:328,1,97.50000371933,2|0,0:0|0:0,0:0:0:0:
240,172,19603,2,0,B|227:148|227:124|227:124|225:148|206:174,1,97.50000371933,2|0,0:0|0:0,0:0:0:0:
141,322,19922,6,0,P|138:293|127:267,1,58.4999982147217,8|0,0:0|0:0,0:0:0:0:
58,315,20241,2,0,P|55:341|44:365,2,38.9999988098145,2|0|2,0:3|0:0|0:3,0:0:0:0:
80,206,20560,6,0,B|100:161|76:124|68:152|35:99|61:59,1,146.250005578995,8|2,0:3|0:3,0:0:0:0:
157,17,21198,6,0,P|135:52|139:76,1,65,8|0,0:0|0:0,0:0:0:0:
220,65,21677,5,2,0:0:0:0:
286,16,21837,2,0,P|313:0|344:3,1,65,2|0,0:0|0:0,0:0:0:0:
220,65,22156,1,2,0:0:0:0:
331,85,22315,2,0,P|359:100|370:129,1,65,2|0,0:0|0:0,0:0:0:0:
436,182,22635,6,0,P|416:234|410:310,1,116.999996429443,2|2,0:0|0:3,0:0:0:0:
344,349,23113,6,0,P|305:336|296:301,1,78,8|0,0:3|0:0,0:0:0:0:
299,106,23752,6,0,P|322:139|309:173,1,78,8|0,0:0|0:0,0:0:0:0:
168,179,24390,6,0,P|207:166|235:189,1,78,2|0,0:0|0:0,0:0:0:0:
410,211,24709,2,0,P|385:244|349:241,1,78,2|0,0:0|0:0,0:0:0:0:
195,328,25028,6,0,B|163:319|145:282|145:282|115:323|56:325,1,165.75000316143,8|2,0:0|0:3,0:0:0:0:
54,175,25666,6,0,B|95:156|129:183|102:194|145:218|187:197,1,130,8|2,0:3|0:0,0:0:0:0:
237,151,26145,6,0,P|242:119|253:89,1,65,2|0,0:3|0:0,0:0:0:0:
203,23,26624,5,2,0:0:0:0:
364,114,26783,2,0,P|347:74|306:67,1,65,2|0,0:0|0:0,0:0:0:0:
401,225,27103,1,2,0:0:0:0:
401,225,27262,2,0,P|427:190|412:152,1,65,2|0,0:0|0:0,0:0:0:0:
510,62,27581,6,0,P|498:92|489:144,1,65,8|0,0:0|0:0,0:0:0:0:
430,42,27900,2,0,P|422:15|412:1,2,32.5,2|2|2,0:3|0:3|0:3,0:0:0:0:
339,97,28220,6,0,B|339:75|353:55|353:55|332:67|305:60,1,87.7499973220826,8|0,0:3|0:0,0:0:0:0:
215,233,28858,6,0,B|227:250|227:275|227:275|238:252|263:242,1,87.7499973220826
235,51,29496,6,0,B|214:44|200:24|200:24|204:48|189:71,1,87.7499973220826,2|0,0:0|0:0,0:0:0:0:
160,179,29815,2,0,B|147:163|122:159|122:159|146:152|158:135,1,87.7499973220826,10|2,0:0|0:3,0:0:0:0:
325,210,30135,6,0,B|359:179|403:195|403:195|413:225|456:230,1,130,8|2,0:0|0:3,0:0:0:0:
469,314,30613,1,2,0:3:0:0:
469,314,30693,1,2,0:3:0:0:
469,314,30773,6,0,P|353:291|257:285,1,195,8|8,0:3|0:0,0:0:0:0:
276,285,31730,1,0,0:0:0:0:
222,347,31890,2,0,P|197:328|196:307,1,52,2|2,0:3|0:0,0:0:0:0:
287,206,32209,2,0,P|299:177|288:158,2,52,0|2|0,0:0|0:0|0:0,0:0:0:0:
208,229,32688,1,8,0:0:0:0:
208,229,33007,2,0,L|196:272,3,26,2|2|2|2,0:3|0:3|0:3|0:3,0:0:0:0:
150,173,33326,6,0,P|138:112|167:65,1,104,10|2,0:0|0:3,0:0:0:0:
287,206,33805,6,0,P|318:165|318:114,1,104,10|2,0:0|0:3,0:0:0:0:
127,252,34283,6,0,P|69:231|42:183,1,104,10|2,0:0|0:3,0:0:0:0:
264,285,34762,6,0,P|314:291|359:266,1,104,10|2,0:0|0:3,0:0:0:0:
249,55,35241,1,8,0:0:0:0:
249,55,35560,2,0,P|250:37|256:20,2,26,2|2|2,0:3|0:3|0:3,0:0:0:0:
473,65,35879,6,0,B|404:75|404:75|380:47|380:47|313:57,1,155.999995239258,10|8,0:3|0:0,0:0:0:0:
331,54,36837,1,0,0:0:0:0:
291,125,36996,2,0,P|306:147|316:177,1,52,0|2,0:0|0:0,0:0:0:0:
386,209,37315,2,0,P|388:235|384:261,2,52,0|2|0,0:0|0:0|0:0,0:0:0:0:
442,150,37794,1,8,0:0:0:0:
442,150,38113,2,0,L|486:145,3,26,2|2|2|2,0:3|0:3|0:3|0:3,0:3:0:0:
385,208,38432,6,0,P|335:216|302:255,1,104,10|2,0:0|0:3,0:0:0:0:
252,81,38911,6,0,P|233:128|250:176,1,104,10|2,0:0|0:3,0:0:0:0:
75,132,39390,6,0,P|106:171|156:180,1,104,10|2,0:0|0:3,0:0:0:0:
30,311,39869,6,0,P|80:303|112:264,1,104,10|2,0:0|3:0,0:0:0:0:
199,31,40347,1,8,0:0:0:0:
199,31,40666,2,0,P|202:10|212:-7,2,26,2|2|2,0:3|0:3|0:3,0:0:0:0:
120,44,40986,6,0,P|136:88|155:204,1,155.999995239258,8|8,3:0|0:0,0:0:0:0:
154,195,41943,1,0,0:0:0:0:
75,286,42103,2,0,P|79:252|97:226,1,52,2|2,3:0|0:0,0:0:0:0:
225,230,42422,2,0,P|250:228|274:217,2,52,0|2|0,0:0|0:0|0:0,0:0:0:0:
151,114,42900,1,8,0:0:0:0:
151,114,43220,2,0,L|105:125,3,26,2|0|0|0,0:3|0:0|0:0|0:0,0:0:0:0:
218,61,43539,6,0,B|237:45|243:15|243:15|250:46|277:58,1,104,10|2,0:0|0:3,0:0:0:0:
380,135,44017,6,0,B|376:112|400:90|400:90|371:100|348:90,1,104,10|2,0:0|0:3,0:0:0:0:
129,163,44496,6,0,B|125:138|102:118|102:118|133:127|156:110,1,104,10|2,0:0|0:3,0:0:0:0:
380,265,44975,6,0,B|398:250|429:260|429:260|405:240|402:215,1,104,10|2,0:0|3:0,0:0:0:0:
223,359,45454,1,0,0:0:0:0:
223,359,45773,2,0,L|225:386,2,26,2|2|2,3:0|3:0|3:0,0:0:0:0:
158,304,46092,6,0,P|130:282|99:274,1,52,8|0,3:0|0:0,0:0:0:0:
115,278,46411,1,2,0:0:0:0:
239,278,46571,2,0,P|242:242|234:212,1,52,2|8,0:0|0:0,0:0:0:0:
239,227,46890,1,2,0:0:0:0:
301,334,47049,2,0,P|333:319|355:298,1,52,2|0,0:0|0:0,0:0:0:0:
223,359,47369,6,0,B|145:338|181:394|90:374,1,130,2|8,0:0|0:0,0:0:0:0:
2,288,48326,2,0,P|-1:274|2:255,3,26,2|2|2|2,3:0|3:0|3:0|3:0,3:0:0:0:
10,370,48645,5,12,3:0:0:0:
463,272,50560,2,0,B|396:253|431:297|352:282,1,104,8|2,0:0|0:3,0:0:0:0:
306,354,51039,1,2,0:3:0:0:
306,354,51119,1,0,0:0:0:0:
306,354,51198,6,0,P|322:308|317:182,1,155.999995239258,8|0,0:3|0:0,0:0:0:0:
393,368,51677,1,2,0:0:0:0:
243,188,51837,2,0,P|245:150|278:133,1,77.999997619629,8|0,0:0|0:0,0:0:0:0:
434,66,52156,2,0,P|445:30|420:2,1,77.999997619629,2|0,0:0|0:0,0:0:0:0:
327,39,52475,6,0,P|351:86|358:134,1,97.50000371933,2|8,0:0|0:3,0:0:0:0:
357,129,53113,5,10,0:0:0:0:
217,188,53273,1,2,0:0:0:0:
339,280,53432,1,2,0:0:0:0:
309,205,53592,1,2,0:0:0:0:
309,205,53672,1,2,0:3:0:0:
309,205,53752,6,0,B|278:242|297:285|297:285|334:309|338:356,1,168.999992263794,8|8,0:3|0:0,0:0:0:0:
203,374,54549,2,0,P|201:328|225:291,1,77.999997619629,0|8,0:0|0:3,0:0:0:0:
215,300,54869,1,0,0:0:0:0:
201,222,55028,6,0,P|179:190|144:173,1,77.999997619629,2|0,0:0|0:0,0:0:0:0:
282,247,55347,2,0,P|320:244|352:222,1,77.999997619629,10|0,0:0|0:0,0:0:0:0:
266,159,55666,6,0,B|296:107|246:118|278:66,1,97.50000371933,8|2,0:0|0:3,0:0:0:0:
146,11,56145,1,2,0:3:0:0:
146,11,56225,1,0,0:0:0:0:
146,11,56305,6,0,P|167:78|180:185,1,155.999995239258,8|2,0:3|0:0,0:0:0:0:
56,17,56783,1,2,0:3:0:0:
280,73,56943,2,0,P|280:127|228:136,1,77.999997619629,8|0,0:0|0:0,0:0:0:0:
264,138,57262,1,2,0:0:0:0:
109,219,57422,2,0,P|84:190|93:153,1,77.999997619629,2|0,0:0|0:0,0:0:0:0:
268,225,57741,2,0,P|229:228|188:243,1,77.999997619629,2|0,0:0|0:0,0:0:0:0:
192,241,58060,5,2,0:0:0:0:
259,302,58220,1,10,0:0:0:0:
338,271,58379,1,2,0:0:0:0:
246,383,58539,1,10,0:0:0:0:
415,321,58698,1,2,0:0:0:0:
415,321,58778,1,2,0:3:0:0:
415,321,58858,6,0,P|434:221|465:134,1,195.00000743866,8|8,0:3|0:0,0:0:0:0:
438,58,59656,2,0,P|394:77|389:110,1,77.999997619629
388,103,59975,1,0,0:0:0:0:
298,68,60135,6,0,P|275:38|284:1,1,77.999997619629,2|0,0:0|0:0,0:0:0:0:
159,105,60454,2,0,P|187:132|224:126,1,77.999997619629,10|0,0:0|0:0,0:0:0:0:
316,161,60773,6,0,B|286:194|304:238|304:238|333:248|344:279,1,130,8|2,0:0|0:3,0:0:0:0:
134,345,61252,1,2,0:3:0:0:
134,345,61331,1,2,0:3:0:0:
134,345,61411,6,0,B|177:368|212:337|197:316|233:291|274:311,1,155.999995239258,8|2,0:3|0:0,0:0:0:0:
345,346,61890,1,2,0:3:0:0:
177,242,62049,2,0,P|189:198|224:179,1,77.999997619629,8|0,0:0|0:0,0:0:0:0:
208,102,62369,2,0,P|252:90|286:111,1,77.999997619629,2|2,0:0|0:3,0:0:0:0:
336,164,62688,6,0,L|451:153,1,97.50000371933,2|8,0:0|0:3,0:0:0:0:
433,154,63326,5,10,0:0:0:0:
403,76,63486,1,2,0:0:0:0:
263,108,63645,1,2,0:0:0:0:
307,40,63805,1,2,0:0:0:0:
307,40,63885,1,2,0:3:0:0:
307,40,63964,6,0,B|245:-8|185:28|185:28|182:64|152:81,1,195.00000743866,8|8,0:3|0:0,0:0:0:0:
52,53,64762,2,0,P|70:17|109:16,1,77.999997619629,0|8,0:0|0:3,0:0:0:0:
104,14,65081,1,0,0:0:0:0:
179,181,65241,6,0,P|138:183|118:150,1,77.999997619629,2|0,0:0|0:0,0:0:0:0:
227,8,65560,2,0,P|249:41|230:75,1,77.999997619629,10|0,0:0|0:0,0:0:0:0:
283,142,65879,6,0,P|269:198|265:260,1,97.50000371933,8|2,0:0|0:3,0:0:0:0:
304,346,66358,1,2,0:3:0:0:
304,346,66438,1,2,0:3:0:0:
304,346,66517,6,0,P|289:294|185:290,1,155.999995239258,8|2,0:3|0:0,0:0:0:0:
22,379,66996,1,2,0:3:0:0:
118,270,67156,2,0,P|90:310|98:352,1,77.999997619629,8|0,0:0|0:0,0:0:0:0:
199,278,67475,1,2,0:0:0:0:
52,217,67635,6,0,B|72:158|25:121|25:121|-6:114|-21:77,1,155.999995239258,2|0,0:3|0:0,0:0:0:0:
50,42,68113,2,0,P|77:15|115:14,1,77.999997619629,8|0,0:3|0:0,0:0:0:0:
180,64,68432,6,0,B|239:69|216:31|273:37,1,97.50000371933,10|2,0:0|0:3,0:0:0:0:
145,142,68911,1,2,0:3:0:0:
145,142,68991,1,0,0:0:0:0:
145,142,69071,6,0,B|161:173|197:184|197:184|152:308,1,195.00000743866,8|8,0:3|0:0,0:0:0:0:
181,378,69869,2,0,P|226:353|226:323,1,77.999997619629
228,331,70188,1,0,0:0:0:0:
307,294,70347,6,0,P|343:286|370:311,1,77.999997619629,2|0,0:0|0:0,0:0:0:0:
451,284,70666,2,0,P|476:311|467:348,1,77.999997619629,10|0,0:0|0:0,0:0:0:0:
395,221,70986,6,0,B|407:190|407:190|402:179|402:179|418:134,1,77.999997619629,8|2,0:0|0:0,0:0:0:0:
412,148,71305,1,2,0:0:0:0:
412,148,71464,1,2,0:0:0:0:
483,41,71624,6,0,B|450:23|403:36|430:61|383:86|339:60,1,146.250005578995,8|2,3:0|0:3,0:0:0:0:
222,22,72262,6,0,L|286:13,1,65,8|0,0:0|0:0,0:0:0:0:
240,154,72741,5,2,0:0:0:0:
240,154,72900,2,0,P|213:121|218:98,1,65,2|0,0:0|0:0,0:0:0:0:
111,102,73219,2,0,P|126:62|148:54,1,65,2|2,0:0|0:0,0:0:0:0:
0,6,73539,6,0,P|25:72|34:151,1,146.250005578995,0|2,0:0|0:3,0:0:0:0:
69,239,74177,6,0,P|105:208|104:172,1,78,8|0,0:3|0:0,0:0:0:0:
292,335,74815,6,0,P|244:337|224:368,1,78,8|0,0:0|0:0,0:0:0:0:
169,126,75454,6,0,P|208:151|243:138,1,78,2|0,0:0|0:0,0:0:0:0:
145,366,75773,2,0,P|127:321|92:311,1,78,2|0,0:0|0:0,0:0:0:0:
307,186,76092,6,0,P|341:179|397:174,1,65,8|0,0:0|0:0,0:0:0:0:
449,137,76411,2,0,P|439:108|409:98,1,65,2|0,0:3|0:3,0:3:0:0:
447,222,76730,6,0,B|426:259|449:298|454:282|477:308|463:348,1,130,8|2,0:3|0:0,0:0:0:0:
286,260,77209,1,2,0:0:0:0:
383,367,77369,6,0,B|356:332|362:292|362:292|352:319|326:332,1,130,0|2,0:0|0:0,0:0:0:0:
261,375,77847,2,0,P|233:349|199:349,1,65,0|2,0:0|0:0,0:0:0:0:
146,289,78166,1,0,0:0:0:0:
146,289,78326,2,0,P|109:300|92:329,1,65,2|0,0:0|0:0,0:0:0:0:
11,325,78645,5,8,0:0:0:0:
11,325,78964,2,0,B|-6:344|-8:355|-8:355|-9:336|6:318,1,65,2|0,0:0|0:3,0:0:0:0:
41,250,79283,6,0,B|38:218|64:203|64:203|63:229,1,78,8|0,0:3|0:0,0:0:0:0:
123,34,79922,6,0,B|144:58|131:85|131:85|118:64,1,78,8|0,0:0|0:0,0:0:0:0:
184,254,80560,6,0,B|151:246|146:216|146:216|169:226,1,78,2|0,0:0|0:0,0:0:0:0:
4,113,80879,2,0,B|34:99|55:121|55:121|31:126,1,78,2|0,0:0|0:0,0:0:0:0:
234,122,81198,6,0,B|303:131,1,65,8|0,0:0|0:0,0:0:0:0:
218,36,81517,2,0,P|176:47|170:77,1,65,2|2,0:3|0:3,0:0:0:0:
319,295,81837,6,0,B|298:247|322:207|322:207|349:200|364:172,1,146.250005578995,8|2,0:3|0:3,0:0:0:0:
287,67,82475,6,0,P|296:113|299:143,1,65,8|0,0:0|0:0,0:0:0:0:
345,11,82954,1,2,0:0:0:0:
205,0,83113,6,0,P|200:50|210:66,1,65,0|2,0:0|0:0,0:0:0:0:
154,122,83432,1,2,0:0:0:0:
287,67,83592,1,0,0:0:0:0:
154,122,83752,2,0,P|194:151|213:150,1,65,8|2,0:0|0:0,0:0:0:0:
267,211,84071,2,0,P|289:200|293:192,2,32.5,2|2|2,0:3|0:3|0:3,0:3:0:0:
191,255,84390,6,0,P|161:250|187:234,1,78,8|0,0:3|0:0,0:0:0:0:
358,263,85028,6,0,P|379:285|349:284,1,78,8|0,0:0|0:0,0:0:0:0:
226,159,85667,6,0,P|222:128|246:148,1,78,2|0,0:0|0:0,0:0:0:0:
272,320,85986,2,0,P|258:347|250:318,1,78,2|0,0:0|0:0,0:0:0:0:
330,164,86305,6,0,B|358:166|378:148|378:148|400:156|400:156|405:190|436:208,1,130,8|2,0:0|0:3,0:0:0:0:
503,281,86783,1,2,0:3:0:0:
503,281,86863,1,2,0:3:0:0:
503,281,86943,6,0,B|404:262|458:333|355:317,1,146.250005578995,8|2,0:3|0:3,0:0:0:0:
311,371,87581,6,0,B|296:360|293:342|293:342|283:357|269:362,1,65,8|2,0:0|0:0,0:0:0:0:
370,318,88060,1,2,0:0:0:0:
193,332,88220,2,0,P|173:297|188:270,2,65,0|2|0,0:0|0:0|0:0,0:0:0:0:
264,262,88698,1,0,0:0:0:0:
93,245,88858,2,0,P|113:210|144:209,1,65,8|0,0:0|0:0,0:0:0:0:
174,135,89177,2,0,P|194:135|202:148,2,32.5,2|2|2,0:3|0:3|0:3,0:3:0:0:
0,82,89496,6,0,P|52:77|161:55,1,146.250005578995,8|0,0:3|0:0,0:0:0:0:
251,57,90135,6,0,P|243:25|215:14,1,65,8|0,0:0|0:0,0:0:0:0:
215,14,90613,1,2,0:3:0:0:
307,120,90773,6,0,B|332:112|355:119|355:119|372:146,1,65,2|0,0:0|0:0,0:0:0:0:
441,52,91092,2,0,P|438:31|438:51,1,65,10|0,0:3|0:0,0:0:0:0:
498,145,91411,6,0,B|506:186|472:216|472:199|442:217|448:261,1,130,8|2,0:0|0:3,0:0:0:0:
502,356,91890,1,2,0:3:0:0:
502,356,91970,1,2,0:3:0:0:
502,356,92049,6,0,P|388:322|293:313,1,195.00000743866,8|8,0:3|0:0,0:0:0:0:
312,313,93007,1,0,0:0:0:0:
307,198,93166,2,0,P|330:209|337:233,1,52,2|2,0:3|0:0,0:0:0:0:
312,313,93486,1,0,0:0:0:0:
200,269,93645,2,0,P|221:254|245:260,1,52,2|0,0:0|0:0,0:0:0:0:
233,344,93964,1,8,0:0:0:0:
233,344,94283,2,0,P|230:358|230:374,6,19.4999994049072,2|2|2|2|2|2|2,0:3|0:3|0:3|0:3|0:3|0:3|0:3,0:3:0:0:
312,310,94603,6,0,B|353:271|406:287|406:287|435:320,1,130,2|2,0:0|0:3,0:0:0:0:
262,234,95081,6,0,B|278:179|331:167|331:167|373:181,1,130,2|2,0:0|0:3,0:0:0:0:
180,193,95560,6,0,B|166:137|207:100|207:100|250:91,1,130,2|2,0:0|0:3,0:0:0:0:
88,197,96039,6,0,B|48:156|65:103|65:103|98:74,1,130,2|2,0:0|0:3,0:0:0:0:
165,55,96517,1,8,0:0:0:0:
165,55,96837,2,0,L|175:18,2,26,2|2|2,0:3|0:3|0:3,0:0:0:0:
272,200,97156,6,0,B|244:149|243:68|243:68|235:108|206:123,1,195.00000743866,8|8,0:3|0:0,0:0:0:0:
214,117,98113,1,0,0:0:0:0:
182,190,98273,2,0,P|153:178|144:156,1,52,0|2,0:0|0:0,0:0:0:0:
238,11,98592,1,0,0:0:0:0:
79,106,98752,2,0,P|72:81|84:59,1,52,2|0,0:0|0:0,0:0:0:0:
165,55,99071,5,0,0:0:0:0:
165,55,99390,2,0,L|168:34,6,16.25,2|2|2|2|2|2|2,0:3|0:3|0:3|0:3|0:3|0:3|0:3,0:3:0:0:
202,126,99709,6,0,B|230:114|241:88|241:88|281:77|318:110,1,130,2|2,0:0|0:3,0:0:0:0:
275,179,100188,6,0,B|299:196|327:193|327:193|356:222|346:271,1,130,2|2,0:0|0:3,0:0:0:0:
264,268,100666,6,0,B|260:297|277:320|277:320|267:360|220:376,1,130,2|2,0:0|0:3,0:0:0:0:
181,304,101145,6,0,B|153:316|142:342|142:342|102:353|65:320,1,130,2|2,0:0|0:3,0:0:0:0:
228,372,101624,1,8,0:0:0:0:
228,372,101943,2,0,P|252:369|266:362,2,26,2|2|2,0:3|0:3|0:3,0:0:0:0:
445,268,102262,6,0,B|465:311|428:340|428:340|312:316,1,195.00000743866,8|8,0:3|0:0,0:0:0:0:
316,316,103220,1,0,0:0:0:0:
366,247,103379,2,0,P|340:221|304:221,1,52,2|2,0:3|0:0,0:0:0:0:
316,316,103698,1,0,0:0:0:0:
279,150,103858,2,0,P|243:159|225:190,1,52,2|0,0:0|0:0,0:0:0:0:
250,251,104177,5,8,0:0:0:0:
250,251,104496,2,0,L|245:270,6,16.25,2|2|2|2|2|2|2,0:3|0:3|0:3|0:3|0:3|0:3|0:3,0:3:0:0:
165,257,104815,6,0,B|111:234|109:180|109:180|116:199|139:209,1,130,2|2,0:0|0:3,0:0:0:0:
320,298,105294,6,0,B|377:305|406:259|406:259|390:272|365:269,1,130,2|2,0:0|0:3,0:0:0:0:
202,180,105773,6,0,B|194:122|240:93|240:93|227:109|230:134,1,130,2|2,0:0|0:3,0:0:0:0:
325,213,106252,6,0,B|360:166|334:118|334:118|338:139|322:159,1,130,2|2,0:0|0:3,0:0:0:0:
303,42,106730,5,0,0:0:0:0:
303,42,107049,2,0,P|305:27|312:7,2,26,2|2|2,0:3|0:3|0:3,0:0:0:0:
375,84,107369,6,0,P|402:65|433:71,1,52,8|0,0:3|0:0,0:0:0:0:
426,147,107688,1,2,0:0:0:0:
507,135,107847,2,0,P|509:167|488:192,1,52,2|0,0:0|0:0,0:0:0:0:
426,147,108166,1,2,0:0:0:0:
396,224,108326,2,0,P|366:209|355:179,1,52,2|0,0:0|0:0,0:0:0:0:
473,264,108645,6,0,P|392:261|279:316,1,208,2|8,0:0|0:0,0:0:0:0:
197,298,109603,2,0,P|190:285|182:278,6,19.4999994049072,2|2|2|2|2|2|2,0:3|0:3|0:3|0:3|3:3|0:3|0:3,0:3:0:0:
223,375,109922,5,12,3:0:0:0:
291,49,111837,2,0,B|277:38|273:19|273:19|276:56|262:97,1,104,8|2,0:0|0:3,0:0:0:0:
192,189,112315,1,2,0:3:0:0:
192,189,112395,1,0,0:0:0:0:
192,189,112475,6,0,B|237:211|278:191|255:166|299:143|347:168,1,155.999995239258,8|0,0:3|0:0,0:0:0:0:
397,214,112954,1,2,0:0:0:0:
434,73,113113,2,0,P|383:71|366:91,1,77.999997619629,8|0,0:0|0:0,0:0:0:0:
479,193,113432,2,0,P|506:149|497:125,1,77.999997619629,2|0,0:0|0:0,0:0:0:0:
397,214,113752,6,0,P|411:255|416:309,1,97.50000371933,2|8,0:0|0:3,0:0:0:0:
416,308,114389,5,10,0:0:0:0:
334,162,114549,1,2,0:0:0:0:
198,244,114709,1,2,0:0:0:0:
264,314,114868,1,2,0:0:0:0:
264,314,114948,1,2,0:3:0:0:
264,314,115028,6,0,B|200:257|130:294|130:294|151:316|151:352,1,195.00000743866,8|8,0:3|0:0,0:0:0:0:
41,365,115826,2,0,P|32:324|54:296,1,77.999997619629,0|8,0:0|0:3,0:0:0:0:
193,165,116145,1,0,0:0:0:0:
51,213,116305,6,0,P|82:184|117:189,1,77.999997619629,2|0,0:0|0:0,0:0:0:0:
76,67,116624,2,0,P|116:79|129:112,1,77.999997619629,10|0,0:0|0:0,0:0:0:0:
193,165,116943,6,0,B|256:147|230:190|293:177,1,97.50000371933,8|2,0:0|0:3,0:0:0:0:
319,266,117422,1,2,0:3:0:0:
319,266,117502,1,0,0:0:0:0:
319,266,117581,6,0,P|328:168|353:83,1,155.999995239258,8|2,0:3|0:0,0:0:0:0:
318,0,118060,1,2,0:3:0:0:
245,38,118220,2,0,P|245:95|274:113,1,77.999997619629,8|0,0:0|0:0,0:0:0:0:
258,106,118539,1,0,0:0:0:0:
474,32,118698,2,0,P|425:61|423:95,1,77.999997619629,2|0,0:0|0:0,0:0:0:0:
468,205,119017,2,0,P|473:167|485:130,1,77.999997619629,2|0,0:0|0:0,0:0:0:0:
499,287,119337,5,2,0:0:0:0:
427,341,119496,1,10,0:0:0:0:
382,207,119656,1,2,0:0:0:0:
468,205,119815,1,10,0:0:0:0:
359,297,119975,1,2,0:0:0:0:
359,297,120055,1,2,0:3:0:0:
359,297,120135,6,0,B|318:293|290:262|290:262|271:325|207:351,1,195.00000743866,8|8,0:3|0:0,0:0:0:0:
149,194,120932,2,0,L|233:204,1,77.999997619629
226,203,121252,1,0,0:0:0:0:
79,262,121411,6,0,P|116:271|152:305,1,77.999997619629,2|0,0:0|0:0,0:0:0:0:
92,124,121730,2,0,P|129:115|165:81,1,77.999997619629,10|0,0:0|0:0,0:0:0:0:
230,207,122049,6,0,B|251:231|271:240|271:240|253:320,1,130,8|2,0:0|0:3,0:0:0:0:
385,345,122528,1,2,0:3:0:0:
385,345,122608,1,2,0:3:0:0:
385,345,122688,6,0,B|410:302|382:253|362:286|334:240|360:187,1,155.999995239258,8|0,0:3|0:0,0:0:0:0:
433,211,123166,1,2,0:3:0:0:
309,139,123326,2,0,P|314:94|340:83,1,77.999997619629,8|0,0:0|0:0,0:0:0:0:
201,8,123645,2,0,P|233:26|232:63,1,77.999997619629,2|0,0:0|0:0,0:0:0:0:
145,66,123964,6,0,P|80:54|30:51,1,97.50000371933,2|8,0:0|0:3,0:0:0:0:
48,54,124603,5,10,0:0:0:0:
180,141,124762,1,2,0:0:0:0:
31,203,124922,1,2,0:0:0:0:
93,141,125081,1,2,0:0:0:0:
93,141,125161,1,2,0:3:0:0:
93,141,125241,6,0,B|47:199|71:269|71:269|104:285|112:327,1,195.00000743866,8|8,0:3|0:0,0:0:0:0:
180,384,126039,2,0,P|195:333|174:303,1,77.999997619629,0|8,0:0|0:3,0:0:0:0:
34,341,126358,1,0,0:0:0:0:
238,254,126517,6,0,P|275:262|296:293,1,77.999997619629,2|0,0:0|0:0,0:0:0:0:
212,177,126837,2,0,P|237:148|275:146,1,77.999997619629,10|0,0:0|0:0,0:0:0:0:
390,261,127156,6,0,P|376:310|367:376,1,97.50000371933,8|2,0:0|0:3,0:0:0:0:
461,221,127635,1,2,0:3:0:0:
461,221,127714,1,2,0:3:0:0:
461,221,127794,6,0,B|484:181|461:134|431:161|407:102|443:61,1,155.999995239258,8|0,0:3|0:0,0:0:0:0:
504,46,128273,1,2,0:3:0:0:
329,7,128432,2,0,P|346:43|350:92,1,77.999997619629,8|0,0:0|0:0,0:0:0:0:
282,122,128752,1,0,0:0:0:0:
367,231,128911,6,0,B|337:214|329:188|329:188|293:227|220:213,1,155.999995239258,2|0,0:3|0:0,0:0:0:0:
299,365,129390,2,0,P|305:317|316:272,1,77.999997619629,8|0,0:3|0:0,0:0:0:0:
141,149,129709,6,0,P|155:203|159:252,1,97.50000371933,10|2,0:0|0:3,0:0:0:0:
73,361,130188,1,2,0:3:0:0:
73,361,130267,1,0,0:0:0:0:
73,361,130347,6,0,P|78:317|209:333,1,195.00000743866,8|8,0:3|0:0,0:0:0:0:
274,369,131145,2,0,P|287:311|304:278,1,77.999997619629
295,294,131464,1,0,0:0:0:0:
243,233,131624,6,0,P|237:196|262:167,1,77.999997619629,2|0,0:0|0:0,0:0:0:0:
376,271,131943,2,0,P|399:241|394:204,1,77.999997619629,10|0,0:0|0:0,0:0:0:0:
361,74,132262,6,0,L|338:148,1,77.999997619629,8|2,0:0|0:3,0:0:0:0:
241,3,132581,1,2,0:3:0:0:
241,3,132661,1,2,0:3:0:0:
241,3,132741,1,2,0:3:0:0:
273,79,132900,5,8,0:0:0:0:
483,246,137369,5,8,0:1:0:0:
483,246,137688,2,0,P|490:271|478:296,1,38.9999988098145,2|2,0:3|0:3,0:3:0:0:
429,336,138007,6,8,B|389:340|360:313|360:313|343:358|291:368,1,155.999995239258,8|8,0:0|0:1,0:0:0:0:
233,325,139124,2,0,P|220:302|224:281,1,38.9999988098145,2|0,0:1|0:0,0:0:0:0:
143,288,139443,2,0,P|143:261|157:245,1,38.9999988098145,2|0,0:1|0:0,0:0:0:0:
149,251,139762,1,2,0:3:0:0:
338,136,139922,5,8,0:1:0:0:
338,136,140241,2,0,P|329:116|309:114,1,38.9999988098145,2|2,0:3|0:3,0:3:0:0:
272,187,140560,6,0,P|289:243|304:352,1,155.999995239258,8|8,0:0|0:1,0:0:0:0:
456,350,141837,2,0,L|470:305,1,38.9999988098145,2|2,0:1|0:0,0:0:0:0:
385,301,142156,2,0,L|374:264,1,38.9999988098145,2|2,0:1|0:0,0:0:0:0:
506,242,142475,5,8,0:1:0:0:
456,28,142794,2,0,L|449:-8,2,19.4999994049072,2|2|2,0:3|0:3|0:3,0:0:0:0:
472,104,143113,5,8,0:0:0:0:
372,39,147581,6,0,B|335:0|270:17|270:17|304:28|312:76,1,155.999995239258,8|8,0:1|0:0,0:0:0:0:
426,102,148858,1,8,0:1:0:0:
426,102,149337,2,0,P|410:149|404:198,1,77.999997619629,2|2,0:0|0:0,0:0:0:0:
257,235,150135,1,8,0:1:0:0:
336,266,150294,2,0,P|354:264|364:248,2,38.9999988098145,0|2|2,0:0|0:3|0:3,0:0:0:0:
257,235,150773,6,0,P|252:164|230:61,1,155.999995239258,8|8,0:0|0:1,0:0:0:0:
395,56,151571,2,0,P|401:38|409:20,2,38.9999988098145,2|0|2,0:0|0:0|0:0,0:0:0:0:
235,80,152049,5,2,0:1:0:0:
186,13,152369,5,2,0:0:0:0:
317,70,152528,1,2,0:0:0:0:
202,154,152688,1,8,0:1:0:0:
251,222,152847,5,2,0:0:0:0:
235,80,153007,1,2,0:0:0:0:
365,137,153166,1,2,0:0:0:0:
284,147,153326,6,0,B|275:193|275:193|277:198|277:198|255:323,1,155.999995239258,8|0,0:0|0:0,0:0:0:0:
318,363,153805,1,2,0:0:0:0:
479,289,153964,6,0,B|384:249|384:249|371:279|321:295,1,155.999995239258,2|2,0:1|0:0,0:0:0:0:
206,25,154443,1,2,0:0:0:0:
283,59,154603,6,0,P|310:159|314:239,1,155.999995239258,8|4,0:0|0:0,0:0:0:0:
388,119,155081,1,2,0:0:0:0:
218,241,155241,6,0,B|185:234|160:195|160:195|131:245|62:245,1,175.499994644165,8|0,0:1|0:0,0:0:0:0:
254,366,155879,6,0,P|282:325|261:273,1,77.999997619629,10|0,0:0|0:0,0:0:0:0:
16,179,156198,2,0,P|16:140|41:111,1,77.999997619629,2|0,0:0|0:0,0:0:0:0:
134,87,156517,5,8,0:1:0:0:
134,87,156677,2,0,P|118:136|114:177,1,77.999997619629,2|0,0:2|0:0,0:0:0:0:
326,237,156996,1,2,0:2:0:0:
188,200,157156,6,0,P|224:180|268:192,1,77.999997619629,2|0,0:0|0:0,0:0:0:0:
323,388,157475,2,0,B|300:350|300:350|314:312,1,77.999997619629,6|0,0:0|0:0,0:0:0:0:
403,203,157794,6,0,B|465:194|447:230|501:224,1,97.50000371933,8|2,0:1|0:0,0:0:0:0:
342,140,158273,1,2,0:0:0:0:
342,140,158353,1,0,0:0:0:0:
342,140,158432,5,10,0:0:0:0:
491,85,158592,1,2,0:0:0:0:
402,76,158752,2,0,B|442:83|442:83|445:86|445:86|491:94,1,77.999997619629,2|0,0:0|0:0,0:0:0:0:
316,216,159071,6,0,B|276:223|276:223|273:226|273:226|227:234,1,77.999997619629,8|0,0:1|0:0,0:0:0:0:
377,280,159390,1,2,0:0:0:0:
229,226,159549,1,2,0:0:0:0:
257,382,159709,6,0,B|285:349|285:349|273:305,1,77.999997619629,2|0,0:0|0:0,0:0:0:0:
144,232,160028,2,0,B|134:198|134:198|162:165,1,77.999997619629,14|0,0:0|0:0,0:0:0:0:
237,47,160347,5,8,0:1:0:0:
103,98,160507,1,2,0:0:0:0:
246,135,160666,1,2,0:0:0:0:
154,27,160826,1,2,0:0:0:0:
237,47,160986,6,0,B|273:44|273:44|277:41|277:41|329:38,1,77.999997619629,8|0,0:0|0:0,0:0:0:0:
380,92,161305,2,0,B|374:115|374:115|380:134,2,38.9999988098145,2|2|2,0:0|0:0|0:0,0:0:0:0:
503,19,161624,6,0,B|465:8|465:8|433:36,1,77.999997619629,8|0,0:1|0:0,0:0:0:0:
503,19,162103,1,2,0:0:0:0:
313,38,162262,6,0,B|284:62|284:62|297:113,1,77.999997619629,2|0,0:0|0:0,0:0:0:0:
483,171,162581,2,0,B|512:147|512:147|499:96,1,77.999997619629,14|2,0:0|0:0,0:0:0:0:
403,194,162900,6,0,B|367:182|367:182|359:185|359:185|309:169,1,77.999997619629,8|2,0:1|0:0,0:0:0:0:
472,257,163220,1,2,0:0:0:0:
472,257,163299,1,0,0:0:0:0:
472,257,163379,1,0,0:0:0:0:
294,291,163539,6,0,P|263:243|283:214,1,77.999997619629,10|2,0:0|0:0,0:0:0:0:
94,166,163858,2,0,P|125:214|105:243,1,77.999997619629,2|2,0:0|0:0,0:0:0:0:
2,266,164177,6,0,P|13:183|6:99,2,155.999995239258,8|2|2,0:1|0:0|0:0,0:0:0:0:
80,299,164975,1,0,0:0:0:0:
89,80,165135,6,0,P|76:36|31:34,1,97.50000371933,14|8,0:0|0:1,0:0:0:0:
19,120,165932,1,2,0:0:0:0:
19,120,166012,1,2,0:0:0:0:
19,120,166092,6,0,B|58:112|58:112|92:139,1,77.999997619629,10|0,0:0|0:0,0:0:0:0:
146,10,166411,2,0,B|107:2|107:2|73:29,1,77.999997619629,2|0,0:0|0:0,0:0:0:0:
161,93,166730,5,8,0:1:0:0:
116,219,166890,1,2,0:0:0:0:
242,264,167049,1,2,0:0:0:0:
201,178,167209,1,2,0:0:0:0:
299,187,167369,6,0,P|335:174|374:171,1,77.999997619629,2|0,0:0|0:0,0:0:0:0:
145,17,167688,2,0,P|157:54|161:93,1,77.999997619629,6|0,0:0|0:0,0:0:0:0:
124,168,168007,6,0,P|80:155|78:110,1,97.50000371933,8|0,0:1|0:0,0:0:0:0:
241,12,168486,1,2,0:0:0:0:
241,12,168565,1,0,0:0:0:0:
241,12,168645,6,0,B|284:21|284:21|288:19|288:19|342:29,1,77.999997619629,8|0,0:0|0:0,0:0:0:0:
317,24,168964,2,0,P|335:70|313:103,1,77.999997619629,2|0,0:0|0:0,0:0:0:0:
162,260,169283,5,8,0:1:0:0:
185,131,169443,1,2,0:0:0:0:
122,188,169603,1,2,0:0:0:0:
248,242,169762,6,0,B|306:255|306:255|323:295|323:295|378:311,1,155.999995239258,2|2,0:0|0:0,0:0:0:0:
421,377,170241,2,0,P|453:359|455:321,1,77.999997619629,6|2,0:0|0:0,0:0:0:0:
377,163,170560,5,8,0:1:0:0:
450,123,170720,2,0,B|468:151|468:151|453:196,1,77.999997619629,2|0,0:0|0:0,0:0:0:0:
337,236,171039,1,0,0:0:0:0:
337,236,171119,1,0,0:0:0:0:
337,236,171198,5,8,0:0:0:0:
217,54,171358,2,0,P|249:121|253:215,1,146.250005578995,2|8,0:0|0:1,0:0:0:0:
256,192,172156,5,2,0:0:0:0:
311,263,172475,5,2,0:0:0:0:
235,280,172635,1,2,0:0:0:0:
311,124,172794,1,14,0:0:0:0:
175,154,172954,1,2,0:0:0:0:
344,193,173113,1,10,0:1:0:0:
175,231,173273,1,2,0:0:0:0:
235,107,173432,1,2,0:0:0:0:
256,192,173752,5,8,0:0:0:0:
256,192,176305,6,0,P|275:144|346:163,1,130,8|8,0:0|0:1,0:0:0:0:
334,45,177262,2,0,P|385:37|404:108,1,130,2|8,0:0|0:3,0:0:0:0:
408,101,178220,1,12,0:1:0:0:
483,138,178539,2,0,L|508:129,2,16.25,2|2|2,0:3|0:3|0:3,0:0:0:0:
256,192,178858,5,8,0:0:0:0:
256,192,181411,6,0,P|204:199|185:128,1,130,8|8,0:0|0:1,0:0:0:0:
89,197,182368,2,0,P|56:156|108:104,1,130,2|8,0:0|0:3,0:0:0:0:
98,104,183326,1,12,0:1:0:0:
95,22,183645,2,0,L|75:4,2,16.25,2|2|2,0:3|0:3|0:3,0:0:0:0:
256,192,183964,5,8,0:0:0:0:
256,192,186517,6,0,P|275:144|346:163,1,130,8|8,0:0|0:1,0:0:0:0:
256,192,187475,2,0,P|237:144|166:163,1,130,2|8,0:0|0:3,0:0:0:0:
256,288,188432,1,12,0:1:0:0:
256,288,188751,2,0,L|255:261,2,16.25,2|2|0,0:3|0:3|0:3,0:3:0:0:
256,368,189070,5,0,0:0:0:0:
256,368,191624,6,0,B|287:313|248:266|237:292|199:235|240:188,1,181.999994445801,4|0,0:3|0:0,0:0:0:0:
231,200,193539,6,0,B|256:161|233:119|233:119|205:105|199:79,1,130,0|2,0:0|0:3,0:0:0:0:
279,50,194017,1,6,0:3:0:0:
279,50,194097,1,0,0:0:0:0:
279,50,194177,6,0,B|318:36|362:49|329:80|382:97|427:77,1,155.999995239258,8|0,0:3|0:0,0:0:0:0:
474,148,194656,1,2,0:0:0:0:
404,243,194815,2,0,P|398:183|374:161,1,77.999997619629,8|0,0:0|0:0,0:0:0:0:
424,342,195135,2,0,P|472:306|480:275,1,77.999997619629,2|0,0:0|0:0,0:0:0:0:
300,129,195454,6,0,B|247:113|270:166|194:146,1,97.50000371933,2|8,0:0|0:3,0:0:0:0:
58,109,196092,5,10,0:0:0:0:
210,150,196252,1,2,0:0:0:0:
95,263,196411,1,2,0:0:0:0:
194,240,196571,1,2,0:0:0:0:
194,240,196650,1,2,0:3:0:0:
194,240,196730,6,0,B|242:245|270:210|270:210|291:266|360:285,1,195.00000743866,8|8,0:3|0:0,0:0:0:0:
247,318,197528,1,0,0:0:0:0:
431,252,197688,2,0,P|455:212|439:173,1,77.999997619629,2|0,0:0|0:0,0:0:0:0:
332,88,198007,6,0,P|354:128|396:134,1,77.999997619629,2|0,0:0|0:0,0:0:0:0:
439,73,198326,2,0,P|416:32|374:26,1,77.999997619629,2|0,0:0|0:0,0:0:0:0:
257,56,198645,2,0,P|232:96|248:135,1,77.999997619629,10|0,0:0|0:0,0:0:0:0:
304,191,198964,1,2,0:3:0:0:
304,191,199044,1,2,0:3:0:0:
304,191,199124,1,2,0:3:0:0:
226,230,199283,6,0,B|143:205|162:302|70:264,1,155.999995239258,8|2,0:3|0:0,0:0:0:0:
40,197,199762,1,2,0:3:0:0:
279,295,199922,2,0,P|296:344|260:369,1,77.999997619629,8|0,0:0|0:0,0:0:0:0:
205,334,200241,1,2,0:0:0:0:
311,219,200400,2,0,P|361:228|365:272,1,77.999997619629,2|0,0:0|0:0,0:0:0:0:
201,193,200720,2,0,P|234:153|274:172,1,77.999997619629,2|0,0:0|0:0,0:0:0:0:
442,294,201039,5,2,0:0:0:0:
485,222,201198,1,10,0:0:0:0:
405,128,201358,1,2,0:0:0:0:
465,70,201517,1,10,0:0:0:0:
388,51,201677,1,2,0:0:0:0:
388,51,201757,1,2,0:3:0:0:
388,51,201837,6,0,B|316:7|261:50|261:50|259:89|218:110,1,195.00000743866,8|8,0:3|0:0,0:0:0:0:
178,38,202635,1,0,0:0:0:0:
234,99,202794,2,0,P|255:150|242:179,1,77.999997619629,2|2,0:0|0:0,0:0:0:0:
269,247,203113,6,0,P|298:270|337:269,1,77.999997619629,2|0,0:0|0:0,0:0:0:0:
191,225,203432,2,0,P|155:239|137:272,1,77.999997619629,10|0,0:0|0:0,0:0:0:0:
88,360,203752,6,0,B|71:342|69:317|69:317|57:338|29:345,1,97.50000371933,8|2,0:0|0:3,0:0:0:0:
29,241,204230,1,2,0:3:0:0:
29,241,204310,1,2,0:3:0:0:
29,241,204390,6,0,P|23:141|5:62,1,155.999995239258,8|2,0:3|0:0,0:0:0:0:
185,61,204869,1,2,0:3:0:0:
130,2,205028,2,0,P|96:18|88:55,1,77.999997619629,8|0,0:0|0:0,0:0:0:0:
231,160,205347,2,0,P|259:135|256:97,1,77.999997619629,2|2,0:0|0:3,0:0:0:0:
160,204,205666,6,0,P|174:249|177:310,1,97.50000371933,2|8,0:0|0:3,0:0:0:0:
289,175,206305,5,10,0:0:0:0:
177,299,206464,1,2,0:0:0:0:
340,335,206624,1,2,0:0:0:0:
277,268,206783,1,2,0:0:0:0:
277,268,206863,1,2,0:3:0:0:
277,268,206943,6,0,B|338:254|372:299|340:318|395:354|445:337,1,195.00000743866,8|8,0:3|0:0,0:0:0:0:
430,186,207741,1,0,0:0:0:0:
506,284,207900,2,0,P|515:230|490:203,1,77.999997619629,8|0,0:3|0:0,0:0:0:0:
415,108,208220,6,0,P|438:78|476:71,1,77.999997619629,2|0,0:0|0:0,0:0:0:0:
339,159,208539,2,0,P|323:123|336:87,1,77.999997619629,10|0,0:0|0:0,0:0:0:0:
359,244,208858,6,0,B|300:232|321:273|261:262,1,97.50000371933,8|2,0:0|0:3,0:0:0:0:
163,65,209337,1,2,0:3:0:0:
163,65,209416,1,2,0:3:0:0:
163,65,209496,6,0,P|187:135|196:234,1,155.999995239258,8|2,0:3|0:0,0:0:0:0:
125,263,209975,1,2,0:3:0:0:
253,70,210135,2,0,P|253:23|214:3,1,77.999997619629,8|0,0:0|0:0,0:0:0:0:
163,65,210454,1,2,0:0:0:0:
277,168,210613,2,0,P|317:144|315:100,1,77.999997619629,2|2,0:3|0:0,0:0:0:0:
425,15,210932,1,0,0:0:0:0:
425,15,211092,2,0,P|410:56|400:111,1,77.999997619629,8|0,0:3|0:0,0:0:0:0:
504,210,211411,6,0,P|509:171|452:152,1,97.50000371933,10|2,0:0|0:3,0:0:0:0:
434,374,211890,1,2,0:3:0:0:
434,374,211970,1,0,0:0:0:0:
434,374,212049,2,0,P|439:316|413:201,1,155.999995239258,8|0,0:3|0:0,0:0:0:0:
285,149,212528,5,2,0:3:0:0:
312,283,212688,2,0,P|339:241|336:216,1,77.999997619629,10|0,0:0|0:0,0:0:0:0:
335,215,213007,1,2,0:3:0:0:
132,157,213166,5,0,0:0:0:0:
222,260,213326,2,0,P|224:211|209:190,1,77.999997619629,2|0,0:0|0:0,0:0:0:0:
207,190,213645,1,8,0:3:0:0:
9,240,213805,5,0,0:0:0:0:
138,284,213965,2,0,P|115:240|91:229,1,77.999997619629,10|0,0:0|0:0,0:0:0:0:
90,231,214284,1,2,0:3:0:0:
81,347,214443,1,2,0:3:0:0:
81,347,214523,1,0,0:0:0:0:
81,347,214603,6,0,P|157:330|234:329,1,155.999995239258,8|0,0:3|0:0,0:0:0:0:
374,260,215081,1,2,0:3:0:0:
298,382,215241,2,0,P|326:344|301:307,1,77.999997619629,10|0,0:0|0:0,0:0:0:0:
494,271,215560,2,0,P|475:227|430:230,1,77.999997619629,2|0,0:0|0:0,0:0:0:0:
363,84,215879,6,0,P|377:131|383:187,1,97.50000371933,2|8,0:0|0:3,0:0:0:0:
258,143,216517,5,10,0:0:0:0:
383,181,216677,1,2,0:0:0:0:
345,306,216837,1,2,0:0:0:0:
301,231,216996,1,2,0:0:0:0:
301,231,217076,1,2,0:3:0:0:
301,231,217156,6,0,B|205:214|205:214|189:251|135:259,1,155.999995239258,10|0,0:3|0:0,0:0:0:0:
57,191,217635,1,2,0:0:0:0:
129,42,217794,6,0,B|170:90|170:90|124:205,1,155.999995239258,10|0,0:1|0:0,0:0:0:0:
28,321,218273,1,2,0:0:0:0:
103,359,218432,6,0,P|240:340|283:340,1,155.999995239258,10|0,0:0|0:0,0:0:0:0:
257,339,218911,1,2,0:0:0:0:
384,330,219071,6,0,P|366:288|311:285,1,97.50000371933,8|2,3:1|0:3,3:1:0:0:
468,380,219549,1,2,0:3:0:0:
468,380,219629,1,2,0:3:0:0:
468,380,219709,6,0,P|481:270|501:205,1,155.999995239258,8|0,0:3|0:0,0:0:0:0:
384,330,220188,1,2,0:3:0:0:
463,155,220347,2,0,P|427:165|418:203,1,77.999997619629,8|0,0:0|0:0,0:0:0:0:
495,229,220666,1,2,0:0:0:0:
334,190,220826,2,0,P|325:226|353:252,1,77.999997619629,2|0,0:0|0:0,0:0:0:0:
203,350,221145,2,0,P|229:323|220:287,1,77.999997619629,2|0,0:0|0:0,0:0:0:0:
141,299,221464,5,2,0:0:0:0:
233,207,221624,1,8,0:0:0:0:
104,227,221783,1,2,0:0:0:0:
220,287,221943,1,2,0:0:0:0:
168,177,222103,1,2,0:0:0:0:
168,177,222183,1,2,0:3:0:0:
168,177,222262,6,0,B|148:116|174:81|174:81|211:72|223:28,1,155.999995239258,10|0,0:3|0:0,0:0:0:0:
149,4,222741,1,2,0:0:0:0:
244,209,222900,6,0,B|281:198|299:171|299:171|324:214|374:222,1,155.999995239258,10|0,0:1|0:0,0:1:0:0:
293,281,223379,1,2,0:0:0:0:
451,312,223539,6,0,P|448:230|463:141,1,155.999995239258,10|0,0:0|0:0,0:0:0:0:
458,157,224017,1,2,0:0:0:0:
347,63,224177,6,0,P|388:54|408:105,1,97.50000371933,8|2,3:1|0:3,3:1:0:0:
349,150,224656,1,2,0:3:0:0:
349,150,224736,1,2,0:3:0:0:
349,150,224815,6,0,B|311:122|268:145|281:164|244:185|205:171,1,155.999995239258,8|0,0:3|0:0,0:0:0:0:
97,120,225294,1,2,0:3:0:0:
176,98,225454,2,0,P|190:62|173:29,1,77.999997619629,10|0,0:0|0:0,0:0:0:0:
76,199,225773,2,0,P|99:228|137:230,1,77.999997619629,2|0,0:0|0:0,0:0:0:0:
207,275,226092,6,0,P|259:257|313:258,1,97.50000371933,2|8,0:0|0:3,0:0:0:0:
370,304,226730,5,10,0:0:0:0:
299,257,226890,1,2,0:0:0:0:
447,160,227049,1,2,0:0:0:0:
378,124,227209,1,2,0:0:0:0:
378,124,227289,1,2,0:3:0:0:
378,124,227369,6,0,B|327:92|281:122|281:122|276:163|233:173,1,155.999995239258,10|0,0:3|0:0,0:0:0:0:
339,194,227847,1,2,0:0:0:0:
157,90,228007,6,0,P|171:152|181:264,1,155.999995239258,10|0,0:1|0:0,0:0:0:0:
107,277,228486,1,2,0:0:0:0:
295,369,228645,6,0,B|265:325|259:268|259:268|250:295|226:313,1,155.999995239258,10|0,0:0|0:0,0:0:0:0:
232,308,229124,1,2,0:0:0:0:
169,357,229283,6,0,B|108:340|130:383|73:370,1,97.50000371933,8|2,3:1|0:3,3:1:0:0:
61,199,229762,1,2,0:3:0:0:
61,199,229842,1,2,0:3:0:0:
61,199,229922,6,0,P|136:208|161:283,1,155.999995239258,8|0,0:3|0:0,0:0:0:0:
236,311,230400,1,2,0:0:0:0:
358,228,230560,2,0,P|311:229|282:254,1,77.999997619629,8|0,0:1|0:0,0:0:0:0:
236,311,230879,1,0,0:0:0:0:
428,383,231039,6,0,B|384:334|405:300|405:300|444:276|440:224,1,155.999995239258,2|2,0:0|0:0,0:0:0:0:
491,138,231517,2,0,P|515:178|502:205,1,77.999997619629,8|0,0:1|0:0,0:0:0:0:
415,172,231837,6,0,B|361:155|379:199|317:182,1,97.50000371933,8|2,0:0|0:3,0:0:0:0:
218,112,232315,1,2,0:3:0:0:
218,112,232395,1,0,0:0:0:0:
218,112,232475,6,0,P|236:172|243:287,1,155.999995239258,10|0,0:0|0:0,0:0:0:0:
292,72,232954,1,2,0:0:0:0:
169,303,233113,6,0,B|134:287|125:256|125:256|95:305|31:299,1,155.999995239258,10|0,0:1|0:0,0:0:0:0:
0,236,233592,1,2,0:0:0:0:
46,60,233752,6,0,B|62:90|88:104|88:104|67:204,1,155.999995239258,10|0,0:0|0:0,0:0:0:0:
68,196,234230,1,2,0:0:0:0:
124,28,234390,6,0,P|170:34|194:74,1,97.50000371933,8|2,3:1|0:3,3:1:0:0:
283,73,234869,1,2,0:3:0:0:
283,73,234948,1,0,0:0:0:0:
283,73,235028,6,0,P|264:174|259:272,1,195.00000743866,8|8,0:3|0:1,0:0:0:0:
258,265,235986,2,0,P|280:232|317:227,1,65,2|0,0:0|0:0,0:0:0:0:
326,362,236305,2,0,P|286:359|263:329,1,65,2|2,0:0|0:0,0:0:0:0:
377,255,236624,2,0,P|394:290|380:325,1,65,2|0,0:0|0:0,0:0:0:0:
258,265,236943,6,0,B|194:252|218:299|149:280,1,97.50000371933,8|0,0:0|0:0,0:0:0:0:
82,361,237422,1,0,0:0:0:0:
82,361,237502,1,0,0:0:0:0:
82,361,237581,6,0,P|85:283|67:202,1,155.999995239258,8|0,0:3|0:0,0:0:0:0:
198,32,238060,1,2,0:0:0:0:
190,199,238220,6,0,B|165:155|166:105|166:105|155:128|131:150,1,155.999995239258,8|0,0:1|0:0,0:0:0:0:
69,209,238698,1,2,0:0:0:0:
258,250,238858,6,0,B|297:221|336:234|336:234|350:283|417:284,1,155.999995239258,2|0,0:0|0:0,0:0:0:0:
387,280,239337,1,2,0:0:0:0:
440,113,239496,6,0,P|419:157|409:210,1,97.50000371933,8|2,3:1|0:3,3:1:0:0:
389,48,239975,1,2,0:3:0:0:
389,48,240055,1,0,0:0:0:0:
389,48,240135,6,0,B|336:24|285:48|315:80|256:116|198:89,1,195.00000743866,8|8,0:3|0:1,0:0:0:0:
213,94,241092,2,0,P|248:115|255:147,1,65,2|0,0:0|0:0,0:0:0:0:
393,198,241411,2,0,B|363:171|321:181|321:181|302:211|269:214,1,130,8|2,0:3|0:0,0:0:0:0:
146,236,241890,1,0,0:0:0:0:
223,270,242049,6,0,P|242:324|246:374,1,97.50000371933,8|2,0:0|0:3,0:0:0:0:
442,313,242528,1,2,0:3:0:0:
442,313,242608,1,0,0:0:0:0:
442,313,242688,6,0,B|409:295|397:267|397:267|362:312|307:309,1,155.999995239258,8|0,0:3|0:0,0:0:0:0:
391,374,243166,1,2,0:0:0:0:
476,237,243326,6,0,P|489:136|512:62,1,155.999995239258,8|0,0:1|0:0,0:0:0:0:
302,14,243805,1,2,0:0:0:0:
404,140,243964,6,0,B|382:89|381:41|381:41|367:71|349:83,1,155.999995239258,2|0,0:0|0:0,0:0:0:0:
348,83,244443,1,2,0:0:0:0:
322,162,244603,6,0,B|260:166|283:135|227:142,1,97.50000371933,8|2,3:1|0:3,3:1:0:0:
43,14,245081,1,2,0:3:0:0:
43,14,245161,1,0,0:0:0:0:
43,14,245241,6,0,P|135:-3|183:75,1,195.00000743866,8|0,0:3|0:0,0:0:0:0:
182,73,246198,2,0,P|153:45|116:48,1,65,2|0,0:0|0:0,0:0:0:0:
135,182,246517,2,0,P|173:171|189:137,1,65,2|0,0:0|0:0,0:0:0:0:
63,87,246836,2,0,P|53:125|74:156,1,65,2|0,0:0|0:0,0:0:0:0:
135,182,247156,6,0,P|119:237|113:295,1,97.50000371933,2|2,0:0|0:3,0:0:0:0:
277,351,247635,1,2,0:3:0:0:
277,351,247714,1,0,0:0:0:0:
277,351,247794,6,0,B|235:299|190:311|190:311|176:341|146:354,1,155.999995239258,8|0,0:3|0:0,0:0:0:0:
251,35,248273,1,2,0:0:0:0:
308,96,248432,6,0,P|285:171|271:248,1,155.999995239258,8|0,0:1|0:0,0:0:0:0:
207,149,248911,1,2,0:0:0:0:
441,318,249071,6,0,B|342:287|342:287|327:316|290:328,1,155.999995239258,2|0,0:0|0:0,0:0:0:0:
304,322,249549,1,2,0:0:0:0:
410,226,249709,6,0,P|420:168|436:123,1,97.50000371933,8|2,3:1|0:3,3:1:0:0:
393,60,250188,1,2,0:3:0:0:
393,60,250267,1,0,0:0:0:0:
393,60,250347,6,0,B|343:44|320:0|320:0|306:42|257:70,1,195.00000743866,8|8,0:3|0:0,0:1:0:0:
257,69,251305,6,0,B|180:47|212:114|121:91,1,130,2|2,0:0|0:0,0:0:0:0:
72,44,251783,1,2,0:0:0:0:
67,162,251943,2,0,P|35:133|37:101,1,65,2|0,0:0|0:0,0:0:0:0:
149,174,252262,6,0,P|133:220|129:276,1,97.50000371933,2|2,0:0|0:3,0:0:0:0:
0,340,252741,1,2,0:3:0:0:
0,340,252821,1,0,0:0:0:0:
0,340,252900,6,0,B|23:299|28:246|28:246|30:280|69:308,1,155.999995239258,8|0,0:3|0:0,0:0:0:0:
101,366,253379,1,2,0:0:0:0:
309,339,253539,6,0,B|269:300|229:303|229:303|210:343|146:343,1,155.999995239258,8|0,0:1|0:0,0:0:0:0:
49,87,254017,1,2,0:0:0:0:
126,106,254177,6,0,P|146:151|153:200,1,77.999997619629,2|0,0:1|0:0,0:0:0:0:
159,260,254496,5,2,0:0:0:0:
281,160,254656,1,2,0:0:0:0:
306,315,254815,1,8,0:1:0:0:
373,142,254975,5,2,0:0:0:0:
251,243,255134,1,2,0:3:0:0:
398,298,255294,1,2,0:3:0:0:
341,228,255454,5,8,0:3:0:0:
256,192,255533,12,0,263113,0:0:0:0:
