osu file format v14

[General]
AudioFilename: audio.mp3
AudioLeadIn: 0
PreviewTime: 193539
Countdown: 0
SampleSet: Normal
StackLeniency: 0.5
Mode: 0
LetterboxInBreaks: 0
WidescreenStoryboard: 0

[Editor]
Bookmarks: 30773,51198,71624,92049,112475,132900,153326,173752,194177,214603,235028,255454,255773,256252,256411,256810,256970,257129,257289,257767,257927,258087,258246,258645,258805,258964,259124,259523,259762,260002,260161,260400,260640,260879,261119,261278,261517,261837,261996,262315,262475,262794,263113
DistanceSpacing: 1.6
BeatDivisor: 8
GridSize: 32
TimelineZoom: 4.499998

[Metadata]
Title:Addiction
TitleUnicode:Addiction
Artist:DJ OKAWARI x Celeina Ann
ArtistUnicode:DJ OKAWARI × Celeina Ann
Creator:-Zel
Version:Insane
Source:
Tags:Hip Hop English Nightfall nu jazz downtempo hip-hop セレイナ・アン 2019
BeatmapID:3349497
BeatmapSetID:1641079

[Difficulty]
HPDrainRate:6
CircleSize:4
OverallDifficulty:8.2
ApproachRate:9.2
SliderMultiplier:2.6
SliderTickRate:1

[Events]
//Background and Video events
0,0,"hssh dfsh fdsh fshf sh213213 .jpg",0,0
//Break Periods
2,190347,191054
//Storyboard Layer 0 (Background)
//Storyboard Layer 1 (Fail)
//Storyboard Layer 2 (Pass)
//Storyboard Layer 3 (Foreground)
//Storyboard Layer 4 (Overlay)
//Storyboard Sound Samples

[TimingPoints]
135,638.297872340426,4,1,1,70,1,0
135,-133.333333333333,4,1,1,70,0,0
773,-79.9999999999999,4,1,1,70,0,0
1252,-133.333333333333,4,1,1,70,0,0
2049,-200,4,1,1,70,0,0
2369,-79.9999999999999,4,1,1,70,0,0
2688,-133.333333333333,4,1,1,70,0,0
3326,-80,4,1,1,70,0,0
3964,-200,4,1,1,70,0,0
4603,-100,4,1,2,70,0,0
4922,-399.999999999997,4,1,2,70,0,0
5241,-79.9999999999999,4,1,2,70,0,0
5879,-200,4,1,1,70,0,0
6358,-100,4,1,1,70,0,0
7156,-200,4,1,1,70,0,0
7475,-133.333333333333,4,1,1,70,0,0
7794,-79.9999999999999,4,1,1,70,0,0
8432,-133.333333333333,4,1,1,70,0,0
9071,-79.9999999999999,4,1,1,70,0,0
9709,-200,4,1,1,70,0,0
10028,-79.9999999999999,4,1,1,70,0,0
10347,-133.333333333333,4,1,1,70,0,0
10985,-79.9999999999999,4,1,1,70,0,0
11464,-133.333333333333,4,1,2,70,0,0
12422,-79.9999999999999,4,1,2,70,0,0
12741,-79.9999999999999,4,1,2,70,0,0
12900,-133.333333333333,4,1,2,70,0,0
13538,-80,4,1,1,70,0,0
14176,-200,4,1,1,70,0,0
14815,-100,4,1,2,70,0,0
15453,-79.9999999999999,4,1,2,70,0,0
15773,-79.9999999999999,4,1,2,70,0,0
15932,-133.333333333333,4,1,2,70,0,0
16570,-100,4,1,2,70,0,0
17049,-100,4,1,1,70,0,0
17368,-200,4,1,1,70,0,0
17687,-133.333333333333,4,1,1,70,0,0
18006,-79.9999999999999,4,1,1,70,0,0
18644,-133.333333333333,4,1,1,70,0,0
19283,-100,4,1,1,70,0,0
19921,-200,4,1,2,70,0,0
20240,-79.9999999999999,4,1,2,70,0,0
20560,-79.9999999999999,4,1,1,70,0,0
21198,-100,4,1,1,70,0,0
21677,-133.333333333333,4,1,2,70,0,0
22635,-133.333333333333,4,1,2,70,0,0
22954,-133.333333333333,4,1,2,70,0,0
23113,-100,4,1,2,70,0,0
23751,-66.6666666666667,4,1,1,70,0,0
24389,-200,4,1,1,70,0,0
25028,-100,4,1,2,70,0,0
25347,-200,4,1,2,70,0,0
25666,-79.9999999999999,4,1,2,70,0,0
25986,-79.9999999999999,4,1,2,70,0,0
26145,-79.9999999999999,4,1,2,70,0,0
26304,-133.333333333333,4,1,1,70,0,0
26624,-133.333333333333,4,1,2,70,0,0
26783,-79.9999999999999,4,1,2,70,0,0
27581,-200,4,1,1,70,0,0
27900,-133.333333333333,4,1,1,70,0,0
28219,-79.9999999999999,4,1,1,70,0,0
28857,-133.333333333333,4,1,1,70,0,0
29496,-133.333333333333,4,1,1,70,0,0
29975,-133.333333333333,4,1,3,70,0,0
30134,-79.9999999999999,4,1,2,70,0,0
30453,-79.9999999999999,4,1,2,70,0,0
30772,-100,4,1,2,80,0,0
31411,-79.9999999999999,4,1,1,80,0,0
31810,-79.9999999999999,4,1,1,5,0,0
31890,-79.9999999999999,4,1,1,80,0,0
32049,-133.333333333333,4,1,1,80,0,0
32688,-100,4,1,2,80,0,0
33007,-100,4,1,2,80,0,0
33326,-100,4,1,2,80,0,0
33645,-100,4,1,2,80,0,0
33805,-71.4285714285714,4,1,2,80,0,0
34124,-71.4285714285714,4,1,2,80,0,0
34283,-55.5555555555556,4,1,2,80,0,0
34603,-55.5555555555556,4,1,2,80,0,0
34762,-100,4,1,2,80,0,0
35002,-100,4,1,2,5,0,0
35081,-100,4,1,2,80,0,0
35241,-100,4,1,1,80,0,0
35560,-133.333333333333,4,1,1,80,0,0
35879,-200,4,1,1,80,0,0
36517,-66.6666666666667,4,1,1,80,0,0
37156,-200,4,1,1,80,0,0
37475,-100,4,1,1,80,0,0
37794,-79.9999999999999,4,1,2,80,0,0
38113,-133.333333333333,4,1,2,80,0,0
38432,-100,4,1,2,80,0,0
38752,-100,4,1,2,80,0,0
38911,-66.6666666666667,4,1,2,80,0,0
39230,-66.6666666666667,4,1,2,80,0,0
39390,-100,4,1,2,80,0,0
39709,-100,4,1,2,80,0,0
39857,-133.333333333333,4,1,2,80,0,0
40108,-133.333333333333,4,1,2,5,0,0
40188,-133.333333333333,4,1,2,80,0,0
40347,-200,4,1,1,80,0,0
40666,-100,4,1,1,80,0,0
40986,-133.333333333333,4,1,1,80,0,0
41624,-66.6666666666667,4,1,1,80,0,0
42023,-66.6666666666667,4,1,1,5,0,0
42103,-66.6666666666667,4,1,1,80,0,0
42262,-133.333333333333,4,1,1,80,0,0
42900,-79.9999999999999,4,1,2,80,0,0
43220,-100,4,1,2,80,0,0
43539,-100,4,1,2,80,0,0
43858,-100,4,1,1,80,0,0
44017,-66.6666666666667,4,1,2,80,0,0
44337,-66.6666666666667,4,1,2,80,0,0
44496,-50,4,1,2,80,0,0
44815,-50,4,1,1,80,0,0
44975,-100,4,1,2,80,0,0
45215,-100,4,1,2,5,0,0
45294,-100,4,1,2,80,0,0
45454,-133.333333333333,4,1,2,80,0,0
46092,-100,4,1,2,80,0,0
46411,-100,4,1,2,80,0,0
47369,-80,4,1,1,80,0,0
47688,-133.333333333333,4,1,1,80,0,0
48007,-66.6666666666667,4,1,2,80,0,0
48326,-100,4,1,2,80,0,0
48645,-133.333333333333,4,1,1,80,0,0
50560,-200,4,1,1,80,0,0
50879,-66.6666666666667,4,1,1,80,0,0
51198,-66.6666666666667,4,1,4,100,0,1
51677,-57.1428571428571,4,1,4,100,0,1
51837,-133.333333333333,4,1,4,100,0,1
52475,-57.1428571428571,4,1,4,100,0,1
52714,-57.1428571428571,4,1,4,5,0,1
52794,-133.333333333333,4,1,4,100,0,1
53752,-117.647058823529,4,1,4,100,0,1
54310,-117.647058823529,4,1,4,5,0,1
54390,-117.647058823529,4,1,4,95,0,1
54549,-100,4,1,4,95,0,1
55028,-79.9999999999999,4,1,1,95,0,1
55347,-57.1428571428571,4,1,1,95,0,1
55666,-200,4,1,4,95,0,1
55986,-100,4,1,4,95,0,1
56305,-100,4,1,4,95,0,1
56943,-79.9999999999999,4,1,4,95,0,1
57422,-100,4,1,4,95,0,1
57741,-66.6666666666667,4,1,4,95,0,1
58858,-79.9999999999999,4,1,4,95,0,1
59496,-133.333333333333,4,1,4,95,0,1
60135,-100,4,1,1,95,0,1
60454,-66.6666666666667,4,1,1,95,0,1
60773,-133.333333333333,4,1,4,95,0,1
61411,-100,4,1,4,95,0,1
62049,-66.6666666666667,4,1,4,95,0,1
62688,-79.9999999999999,4,1,4,95,0,1
63964,-100,4,1,4,95,0,1
64603,-100,4,1,4,95,0,1
65241,-66.6666666666667,4,1,1,95,0,1
65560,-100,4,1,1,95,0,1
65879,-66.6666666666667,4,1,4,95,0,1
66198,-133.333333333333,4,1,4,95,0,1
66517,-79.9999999999999,4,1,4,95,0,1
67156,-66.6666666666667,4,1,4,95,0,1
67794,-100,4,1,4,95,0,1
68432,-66.6666666666667,4,1,4,95,0,1
69071,-133.333333333333,4,1,4,95,0,1
69709,-76.9230769230769,4,1,4,95,0,1
70347,-79.9999999999999,4,1,1,95,0,1
70666,-133.333333333333,4,1,1,95,0,1
70986,-66.6666666666667,4,1,4,95,0,1
71065,-66.6666666666667,4,1,4,5,0,1
71145,-66.6666666666667,4,1,1,95,0,1
71624,-133.333333333333,4,1,1,70,0,0
72262,-100,4,1,1,70,0,0
72741,-100,4,1,2,70,0,0
72900,-133.333333333333,4,1,2,70,0,0
74017,-133.333333333333,4,1,2,70,0,0
74177,-200,4,1,2,70,0,0
74815,-79.9999999999999,4,1,1,70,0,0
75454,-66.6666666666667,4,1,2,70,0,0
75773,-100,4,1,2,70,0,0
76092,-100,4,1,2,70,0,0
76411,-66.6666666666667,4,1,2,70,0,0
76730,-133.333333333333,4,1,2,70,0,0
77049,-133.333333333333,4,1,2,70,0,0
77209,-86.9565217391303,4,1,2,70,0,0
77688,-66.6666666666667,4,1,2,70,0,0
78007,-200,4,1,1,70,0,0
78326,-79.9999999999999,4,1,1,70,0,0
78645,-133.333333333333,4,1,2,70,0,0
78964,-66.6666666666667,4,1,2,70,0,0
79283,-79.9999999999999,4,1,2,70,0,0
79922,-200,4,1,1,70,0,0
80560,-133.333333333333,4,1,1,70,0,0
80879,-100,4,1,1,70,0,0
81198,-100,4,1,2,70,0,0
81517,-100,4,1,2,70,0,0
81837,-79.9999999999999,4,1,2,70,0,0
82475,-100,4,1,1,70,0,0
82954,-100,4,1,2,70,0,0
83752,-66.6666666666667,4,1,2,70,0,0
84071,-66.6666666666667,4,1,2,70,0,0
84111,-66.6666666666667,4,1,2,50,0,0
84150,-66.6666666666667,4,1,2,45,0,0
84190,-66.6666666666667,4,1,2,40,0,0
84230,-66.6666666666667,4,1,2,35,0,0
84270,-66.6666666666667,4,1,2,30,0,0
84310,-66.6666666666667,4,1,2,25,0,0
84390,-100,4,1,2,70,0,0
85028,-133.333333333333,4,1,1,70,0,0
85666,-79.9999999999999,4,1,1,70,0,0
85986,-66.6666666666667,4,1,1,70,0,0
86065,-66.6666666666667,4,1,1,5,0,0
86145,-79.9999999999999,4,1,1,70,0,0
86305,-79.9999999999999,4,1,2,70,0,0
86624,-79.9999999999999,4,1,2,70,0,0
86943,-133.333333333333,4,1,2,70,0,0
87262,-133.333333333333,4,1,2,70,0,0
87422,-133.333333333333,4,1,2,70,0,0
87581,-79.9999999999999,4,1,1,70,0,0
87900,-79.9999999999999,4,1,2,70,0,0
88060,-100,4,1,2,70,0,0
88379,-66.6666666666667,4,1,2,70,0,0
88858,-133.333333333333,4,1,1,70,0,0
89177,-66.6666666666667,4,1,1,70,0,0
89217,-66.6666666666667,4,1,1,50,0,0
89257,-66.6666666666667,4,1,1,45,0,0
89297,-66.6666666666667,4,1,1,40,0,0
89337,-66.6666666666667,4,1,1,35,0,0
89377,-66.6666666666667,4,1,1,30,0,0
89416,-66.6666666666667,4,1,1,25,0,0
89496,-100,4,1,1,70,0,0
90135,-79.9999999999999,4,1,1,70,0,0
91092,-133.333333333333,4,1,1,70,0,0
91411,-66.6666666666667,4,1,2,70,0,0
91730,-66.6666666666667,4,1,2,70,0,0
92049,-133.333333333333,4,1,2,80,0,0
92688,-79.9999999999999,4,1,1,80,0,0
93326,-133.333333333333,4,1,1,80,0,0
93645,-79.9999999999999,4,1,1,80,0,0
93964,-66.6666666666667,4,1,2,80,0,0
94283,-66.6666666666667,4,1,2,80,0,0
94323,-66.6666666666667,4,1,2,50,0,0
94362,-66.6666666666667,4,1,2,45,0,0
94402,-66.6666666666667,4,1,2,40,0,0
94442,-66.6666666666667,4,1,2,35,0,0
94482,-66.6666666666667,4,1,2,30,0,0
94522,-66.6666666666667,4,1,2,25,0,0
94603,-133.333333333333,4,1,2,80,0,0
95081,-79.9999999999999,4,1,2,80,0,0
95560,-66.6666666666667,4,1,2,80,0,0
96039,-100,4,1,2,80,0,0
96278,-100,4,1,2,5,0,0
96358,-100,4,1,2,80,0,0
96517,-200,4,1,1,80,0,0
97156,-200,4,1,1,80,0,0
97794,-79.9999999999999,4,1,1,80,0,0
98432,-133.333333333333,4,1,1,80,0,0
98752,-79.9999999999999,4,1,1,80,0,0
99071,-133.333333333333,4,1,1,80,0,0
99390,-79.9999999999999,4,1,1,80,0,0
99430,-66.6666666666667,4,1,1,50,0,0
99470,-66.6666666666667,4,1,1,45,0,0
99510,-66.6666666666667,4,1,1,40,0,0
99549,-66.6666666666667,4,1,1,35,0,0
99589,-66.6666666666667,4,1,1,30,0,0
99629,-66.6666666666667,4,1,1,25,0,0
99709,-133.333333333333,4,1,2,80,0,0
100188,-79.9999999999999,4,1,2,80,0,0
100666,-57.1428571428571,4,1,2,80,0,0
101145,-133.333333333333,4,1,2,80,0,0
101385,-133.333333333333,4,1,2,5,0,0
101464,-200,4,1,2,80,0,0
101624,-200,4,1,1,80,0,0
102262,-200,4,1,1,80,0,0
102900,-79.9999999999999,4,1,1,80,0,0
103300,-79.9999999999999,4,1,1,5,0,0
103378,-79.9999999999999,4,1,1,80,0,0
103539,-133.333333333333,4,1,1,80,0,0
103858,-79.9999999999999,4,1,1,80,0,0
104177,-100,4,1,2,80,0,0
104496,-57.1428571428571,4,1,2,80,0,0
104536,-66.6666666666667,4,1,2,50,0,0
104575,-66.6666666666667,4,1,2,45,0,0
104615,-66.6666666666667,4,1,2,40,0,0
104655,-66.6666666666667,4,1,2,35,0,0
104695,-66.6666666666667,4,1,2,30,0,0
104735,-66.6666666666667,4,1,2,25,0,0
104815,-100,4,1,2,80,0,0
105294,-79.9999999999999,4,1,2,80,0,0
105773,-66.6666666666667,4,1,2,80,0,0
106252,-200,4,1,2,80,0,0
106491,-200,4,1,2,5,0,0
106571,-200,4,1,2,80,0,0
106730,-133.333333333333,4,1,2,80,0,0
107369,-100,4,1,2,80,0,0
107688,-100,4,1,2,80,0,0
108645,-133.333333333333,4,1,1,80,0,0
109283,-79.9999999999999,4,1,2,80,0,0
109603,-66.6666666666667,4,1,2,80,0,0
109642,-66.6666666666667,4,1,2,50,0,0
109681,-66.6666666666667,4,1,2,45,0,0
109721,-66.6666666666667,4,1,2,40,0,0
109761,-66.6666666666667,4,1,2,35,0,0
109801,-66.6666666666667,4,1,2,30,0,0
109841,-66.6666666666667,4,1,2,25,0,0
109922,-133.333333333333,4,1,1,80,0,0
111837,-100,4,1,1,80,0,0
112156,-66.6666666666667,4,1,1,80,0,0
112475,-66.6666666666667,4,1,4,95,0,1
112954,-66.6666666666667,4,1,4,95,0,1
113113,-133.333333333333,4,1,4,95,0,1
113752,-79.9999999999999,4,1,4,95,0,1
113991,-79.9999999999999,4,1,4,5,0,1
114071,-133.333333333333,4,1,4,95,0,1
115028,-100,4,1,4,95,0,1
115587,-100,4,1,4,5,0,1
115666,-100,4,1,4,95,0,1
115986,-100,4,1,4,95,0,1
116305,-133.333333333333,4,1,1,95,0,1
116624,-66.6666666666667,4,1,1,95,0,1
116943,-133.333333333333,4,1,4,95,0,1
117262,-100,4,1,4,95,0,1
117581,-79.9999999999999,4,1,4,95,0,1
118219,-100,4,1,4,95,0,1
118698,-80,4,1,4,95,0,1
119017,-133.333333333333,4,1,4,95,0,1
120134,-100,4,1,4,95,0,1
120772,-153.846153846153,4,1,4,95,0,1
121411,-100,4,1,1,95,0,1
121730,-66.6666666666667,4,1,1,95,0,1
122049,-133.333333333333,4,1,4,95,0,1
122688,-80,4,1,4,95,0,1
123326,-133.333333333333,4,1,4,95,0,1
123964,-66.6666666666667,4,1,4,95,0,1
124204,-66.6666666666667,4,1,4,5,0,1
124283,-133.333333333333,4,1,4,95,0,1
125241,-133.333333333333,4,1,4,95,0,1
125799,-133.333333333333,4,1,4,5,0,1
125879,-133.333333333333,4,1,4,95,0,1
126198,-100,4,1,4,95,0,1
126517,-66.6666666666667,4,1,1,95,0,1
126837,-100,4,1,1,95,0,1
127156,-133.333333333333,4,1,4,95,0,1
127475,-100,4,1,4,95,0,1
127794,-79.9999999999999,4,1,4,95,0,1
128432,-100,4,1,4,95,0,1
129709,-66.6666666666667,4,1,4,95,0,1
130347,-133.333333333333,4,1,4,95,0,1
130986,-66.6666666666667,4,1,4,95,0,1
131624,-100,4,1,1,95,0,1
132262,-66.6666666666667,4,1,4,95,0,1
132422,-66.6666666666667,4,1,4,95,0,1
132900,-250,4,2,1,30,0,0
134815,-200,4,2,1,70,0,0
134895,-200,4,2,2,30,0,0
135773,-200,4,2,1,30,0,0
135932,-200,4,2,1,70,0,0
136092,-133.333333333333,4,2,1,70,0,0
137369,-100,4,2,2,70,0,0
137688,-100,4,2,2,70,0,0
138007,-133.333333333333,4,2,1,70,0,0
139124,-133.333333333333,4,2,2,70,0,0
139922,-200,4,2,1,70,0,0
140560,-100,4,2,1,70,0,0
141358,-133.333333333333,4,2,1,70,0,0
141837,-100,4,2,1,70,0,0
142475,-100,4,2,2,70,0,0
142635,-100,4,2,1,70,0,0
142794,-66.6666666666667,4,2,1,70,0,0
143113,-333.333333333333,4,2,1,70,0,0
143193,-333.333333333333,4,2,1,30,0,0
145028,-166.666666666667,4,2,1,70,0,0
145108,-166.666666666667,4,2,2,30,0,0
145986,-166.666666666667,4,2,2,30,0,0
146145,-166.666666666667,4,2,1,70,0,0
146305,-133.333333333333,4,2,1,70,0,0
146783,-133.333333333333,4,2,2,70,0,0
147581,-100,4,2,2,70,0,0
148220,-133.333333333333,4,2,1,70,0,0
148858,-200,4,2,1,70,0,0
149337,-133.333333333333,4,2,1,70,0,0
150135,-200,4,2,2,70,0,0
150454,-100,4,2,2,70,0,0
150773,-133.333333333333,4,2,1,70,0,0
151571,-133.333333333333,4,2,1,70,0,0
152369,-133.333333333333,4,3,3,95,0,0
152688,-133.333333333333,4,3,2,95,0,0
152847,-133.333333333333,4,3,3,95,0,0
153326,-100,4,3,3,95,0,0
153805,-133.333333333333,4,3,3,95,0,0
153964,-79.9999999999999,4,3,2,95,0,0
154443,-133.333333333333,4,3,3,95,0,0
154603,-66.6666666666667,4,3,3,95,0,0
154922,-66.6666666666667,4,3,9,95,0,0
155081,-133.333333333333,4,3,3,95,0,0
155241,-133.333333333333,4,3,2,95,0,0
155879,-66.6666666666667,4,3,3,95,0,0
156517,-66.6666666666667,4,3,2,95,0,0
156677,-100,4,3,1,95,0,0
157156,-66.6666666666667,4,3,3,95,0,0
157475,-100,4,3,9,95,0,0
157714,-100,4,3,3,5,0,0
157794,-66.6666666666667,4,3,2,95,0,0
158113,-133.333333333333,4,3,3,95,0,0
158432,-100,4,3,3,95,0,0
159071,-66.6666666666667,4,3,2,95,0,0
159388,-66.6666666666667,4,3,3,95,0,0
160028,-66.6666666666667,4,3,9,95,0,0
160188,-66.6666666666667,4,3,3,95,0,0
160986,-79.9999999999999,4,3,3,95,0,0
161305,-79.9999999999999,4,3,2,95,0,0
161624,-66.6666666666667,4,3,2,95,0,0
162581,-66.6666666666667,4,3,9,95,0,0
162741,-66.6666666666667,4,3,3,95,0,0
164496,-133.333333333333,4,3,3,95,0,0
164815,-133.333333333333,4,3,3,95,0,0
165055,-133.333333333333,4,3,3,5,0,0
165135,-66.6666666666667,4,3,9,95,0,0
165294,-66.6666666666667,4,3,3,95,0,0
165454,-200,4,3,2,95,0,0
166092,-66.6666666666667,4,3,3,95,0,0
167369,-133.333333333333,4,3,2,95,0,0
167688,-133.333333333333,4,3,9,95,0,0
167927,-133.333333333333,4,3,3,5,0,0
168007,-66.6666666666667,4,3,2,95,0,0
168166,-66.6666666666667,4,3,3,95,0,0
168486,-66.6666666666667,4,3,2,95,0,0
168645,-100,4,3,2,95,0,0
168964,-66.6666666666667,4,3,3,95,0,0
170241,-66.6666666666667,4,3,9,95,0,0
170321,-66.6666666666667,4,3,2,95,0,0
170400,-66.6666666666667,4,3,3,95,0,0
170560,-100,4,3,2,95,0,0
170879,-66.6666666666667,4,3,3,95,0,0
171358,-100,4,3,3,95,0,0
171677,-100,4,3,2,95,0,0
171837,-66.6666666666667,4,3,2,95,0,0
172156,-133.333333333333,4,3,2,95,0,0
172475,-66.6666666666667,4,3,3,95,0,0
172555,-66.6666666666667,4,3,3,5,0,0
172635,-66.6666666666667,4,3,3,95,0,0
172714,-66.6666666666667,4,3,3,5,0,0
172794,-50,4,3,9,95,0,0
172874,-50,4,3,3,5,0,0
172954,-50,4,3,3,95,0,0
173033,-50,4,3,3,5,0,0
173113,-66.6666666666667,4,3,3,95,0,0
173193,-66.6666666666667,4,3,3,5,0,0
173273,-66.6666666666667,4,3,3,95,0,0
173353,-66.6666666666667,4,3,3,5,0,0
173432,-100,4,3,3,70,0,0
173752,-133.333333333333,4,2,1,60,0,0
178220,-133.333333333333,4,2,2,60,0,0
178539,-133.333333333333,4,2,2,60,0,0
183326,-133.333333333333,4,2,2,60,0,0
183645,-133.333333333333,4,2,2,60,0,0
183964,-133.333333333333,4,2,1,60,0,0
188432,-133.333333333333,4,2,2,60,0,0
188752,-133.333333333333,4,2,2,60,0,0
191624,-133.333333333333,4,2,1,70,0,0
193539,-200,4,1,1,80,0,0
193858,-66.6666666666667,4,1,1,95,0,0
194177,-79.9999999999999,4,1,4,95,0,1
194815,-100,4,1,4,95,0,1
195454,-57.1428571428571,4,1,4,95,0,1
195693,-57.1428571428571,4,1,4,5,0,1
195773,-133.333333333333,4,1,4,95,0,1
196730,-100,4,1,4,95,0,1
197288,-100,4,1,4,5,0,1
197369,-79.9999999999999,4,1,4,95,0,1
198007,-133.333333333333,4,1,4,95,0,1
198326,-66.6666666666667,4,1,4,95,0,1
198645,-133.333333333333,4,1,4,95,0,1
198964,-79.9999999999999,4,1,4,95,0,1
199283,-79.9999999999999,4,1,4,95,0,1
199922,-133.333333333333,4,1,4,95,0,1
200400,-100,4,1,4,95,0,1
200720,-79.9999999999999,4,1,4,95,0,1
201837,-100,4,1,4,95,0,1
202475,-79.9999999999999,4,1,4,95,0,1
203113,-133.333333333333,4,1,1,95,0,1
203432,-66.6666666666667,4,1,1,95,0,1
203752,-133.333333333333,4,1,4,95,0,1
204071,-100,4,1,4,95,0,1
204390,-79.9999999999999,4,1,4,95,0,1
205028,-100,4,1,4,95,0,1
205666,-57.1428571428571,4,1,4,95,0,1
205906,-57.1428571428571,4,1,4,5,0,1
205986,-133.333333333333,4,1,4,95,0,1
206943,-133.333333333333,4,1,4,95,0,1
207502,-133.333333333333,4,1,4,5,0,1
207581,-100,4,1,4,95,0,1
208220,-66.6666666666667,4,1,1,95,0,1
208539,-133.333333333333,4,1,1,95,0,1
208858,-66.6666666666667,4,1,3,95,0,1
209177,-100,4,1,4,95,0,1
209496,-79.9999999999999,4,1,4,95,0,1
210135,-66.6666666666667,4,1,4,95,0,1
211092,-100,4,1,4,95,0,1
211411,-66.6666666666667,4,1,4,95,0,1
211730,-133.333333333333,4,1,4,95,0,1
212049,-200,4,1,4,90,0,1
212528,-133.333333333333,4,1,4,90,0,0
213166,-100,4,1,1,90,0,0
213326,-100,4,1,3,90,0,0
213645,-100,4,1,1,90,0,0
213805,-66.6666666666667,4,1,4,90,0,0
214603,-79.9999999999999,4,1,4,95,0,1
215241,-133.333333333333,4,1,4,95,0,1
215879,-66.6666666666667,4,1,1,95,0,1
216119,-66.6666666666667,4,1,1,5,0,1
216198,-79.9999999999999,4,1,4,95,0,1
216517,-79.9999999999999,4,1,4,95,0,1
217156,-66.6666666666667,4,3,3,95,0,1
217794,-66.6666666666667,4,3,2,95,0,1
218273,-66.6666666666667,4,3,3,95,0,1
218432,-100,4,3,1,95,0,1
219071,-66.6666666666667,4,1,4,95,0,1
219390,-66.6666666666667,4,1,4,95,0,1
219709,-79.9999999999999,4,1,4,95,0,1
220347,-133.333333333333,4,1,4,95,0,1
220826,-100,4,1,4,95,0,1
222262,-66.6666666666667,4,3,3,95,0,1
222900,-66.6666666666667,4,3,2,95,0,1
223379,-66.6666666666667,4,3,3,95,0,1
223539,-100,4,3,1,95,0,1
224017,-100,4,3,3,95,0,1
224177,-66.6666666666667,4,1,4,95,0,1
224815,-79.9999999999999,4,1,4,95,0,1
225454,-133.333333333333,4,1,4,95,0,1
226092,-66.6666666666667,4,1,4,95,0,1
226331,-66.6666666666667,4,1,4,95,0,1
226411,-100,4,1,4,95,0,1
227369,-66.6666666666667,4,3,3,95,0,1
228645,-100,4,3,2,95,0,1
229124,-100,4,3,3,95,0,1
229283,-100,4,1,4,95,0,1
229922,-79.9999999999999,4,1,4,95,0,1
230560,-79.9999999999999,4,1,4,95,0,1
231039,-79.9999999999999,4,1,4,95,0,1
231198,-100,4,1,4,95,0,1
231517,-100,4,1,4,95,0,1
231837,-66.6666666666667,4,1,4,95,0,1
232475,-66.6666666666667,4,3,3,95,0,1
233752,-100,4,3,1,95,0,1
234230,-100,4,3,3,95,0,1
234390,-66.6666666666667,4,1,4,95,0,0
235028,-133.333333333333,4,1,2,90,0,1
235986,-100,4,1,2,90,0,1
236305,-100,4,1,1,90,0,1
236464,-100,4,1,2,90,0,1
236943,-79.9999999999999,4,1,2,90,0,1
237262,-66.6666666666667,4,1,2,90,0,1
237581,-66.6666666666667,4,3,3,90,0,1
238220,-79.9999999999999,4,3,2,90,0,1
238858,-100,4,3,2,90,0,1
239337,-100,4,3,3,90,0,1
239496,-66.6666666666667,4,1,2,90,0,1
240135,-133.333333333333,4,1,2,90,0,1
241092,-100,4,1,2,90,0,1
242049,-66.6666666666667,4,1,2,90,0,1
242688,-66.6666666666667,4,3,3,90,0,1
243326,-79.9999999999999,4,3,2,90,0,1
243805,-79.9999999999999,4,3,3,90,0,1
243964,-100,4,3,2,90,0,1
244443,-100,4,3,3,90,0,1
244603,-66.6666666666667,4,1,2,90,0,1
245241,-133.333333333333,4,1,2,80,0,1
246198,-133.333333333333,4,1,2,80,0,1
246517,-100,4,1,2,80,0,1
246837,-133.333333333333,4,1,2,80,0,1
247156,-66.6666666666667,4,1,2,80,0,1
247475,-100,4,1,2,80,0,1
247794,-66.6666666666667,4,3,3,80,0,1
248432,-79.9999999999999,4,3,2,80,0,1
248911,-79.9999999999999,4,3,3,80,0,1
249070,-100,4,3,1,80,0,1
249549,-100,4,3,3,80,0,1
249709,-66.6666666666667,4,1,2,80,0,1
250347,-133.333333333333,4,1,2,80,0,1
251305,-100,4,1,2,80,0,1
251624,-100,4,1,1,80,0,1
251783,-100,4,1,2,80,0,1
252900,-66.6666666666667,4,3,3,80,0,1
253539,-79.9999999999999,4,3,3,80,0,1
254017,-79.9999999999999,4,3,3,80,0,1
254177,-100,4,3,1,80,0,1
254496,-100,4,3,3,95,0,1
254815,-100,4,3,2,95,0,1
254975,-100,4,3,3,95,0,1
255454,-100,4,3,3,95,0,1
255533,-100,4,1,1,80,0,0
256092,-100,4,1,1,75,0,0
256730,-100,4,1,1,70,0,0
257369,-100,4,1,1,65,0,0
258007,-100,4,1,1,60,0,0
258645,-100,4,1,1,55,0,0
259283,-100,4,1,1,50,0,0
259922,-100,4,1,1,45,0,0
260560,-100,4,1,1,40,0,0
261198,-100,4,1,1,35,0,0
261837,-100,4,1,1,30,0,0
262475,-100,4,1,1,25,0,0
263113,-100,4,1,1,20,0,0

[Colours]
Combo1 : 165,255,98
Combo2 : 123,255,26
Combo3 : 255,85,149
Combo4 : 254,169,252

[HitObjects]
429,275,135,6,0,P|422:259|436:278,1,97.50000371933,8|0,0:3|0:0,0:0:0:0:
439,265,613,1,2,0:3:0:0:
277,315,773,6,0,B|239:308|239:308|235:309|235:309|181:298,1,81.25,8|0,0:0|0:0,0:0:0:0:
197,302,1092,1,0,0:0:0:0:
235,226,1252,6,0,P|245:204|248:180,1,48.750001859665,2|0,0:0|0:0,0:0:0:0:
128,252,1571,2,0,P|109:238|96:218,1,48.750001859665,2|0,0:0|0:0,0:0:0:0:
201,306,1890,5,2,0:3:0:0:
156,142,2049,2,0,B|150:125|150:125|151:122|151:122|144:100,1,32.5,8|0,0:0|0:0,0:0:0:0:
319,31,2369,6,0,P|320:51|312:73,2,40.625,2|2|2,0:3|0:3|0:3,0:3:0:0:
213,13,2688,6,0,B|189:52|215:100|233:73|261:102|239:153,1,146.250005578995,8|0,0:3|0:0,0:0:0:0:
149,246,3326,2,0,B|196:225|209:185|209:185|280:177|280:177|306:219|369:229,1,243.75,8|0,0:0|0:0,0:0:0:0:
424,269,3964,6,0,P|439:277|450:288,1,32.5,2|0,0:0|0:0,0:0:0:0:
254,261,4283,6,0,P|239:266|226:277,1,32.5,2|0,0:0|0:0,0:0:0:0:
345,135,4603,6,0,L|342:200,1,65,8|0,0:0|0:0,0:0:0:0:
333,341,4922,6,0,L|334:325,1,16.25,2|2,0:3|0:3,0:0:0:0:
341,353,5241,6,0,B|346:328|330:305|313:298|313:298|210:330,1,162.5,8|0,0:3|0:0,0:0:0:0:
47,340,5720,1,2,0:3:0:0:
110,384,5879,6,0,P|119:361|123:337,1,32.5,8|0,0:0|0:0,0:0:0:0:
34,179,6198,1,0,0:0:0:0:
106,207,6358,6,0,P|132:188|164:188,1,65,2|0,0:0|0:0,0:0:0:0:
144,91,6677,2,0,P|174:95|197:117,1,65,2|0,0:0|0:0,0:0:0:0:
243,187,6996,1,2,0:3:0:0:
449,218,7156,6,0,L|494:224,1,32.5,8|0,0:0|0:0,0:0:0:0:
275,340,7475,2,0,P|259:330|248:320,2,24.3750009298325,2|2|2,0:3|0:3|0:3,0:3:0:0:
345,378,7794,6,0,B|305:326|295:278|332:220|332:220|369:213|388:172,1,243.75,8|0,0:3|0:0,0:0:0:0:
283,0,8432,2,0,P|301:69|314:142,1,146.250005578995,8|0,0:0|0:0,0:0:0:0:
298,223,9071,6,0,P|284:262|291:301,1,81.25,2|0,0:0|0:0,0:0:0:0:
437,241,9390,6,0,P|410:209|372:195,1,81.25,2|0,0:0|0:0,0:0:0:0:
45,296,9709,6,0,L|40:264,1,32.5
211,298,10028,6,0,L|198:218,1,81.25,2|2,0:3|0:3,0:0:0:0:
38,60,10347,6,0,B|82:71|82:71|87:68|87:68|138:81,1,97.50000371933,8|0,3:0|0:0,0:0:0:0:
132,79,10826,1,2,0:3:0:0:
198,23,10986,6,0,P|241:25|268:56,1,81.25,8|0,0:0|0:0,0:0:0:0:
265,51,11305,1,0,0:0:0:0:
174,227,11464,5,2,0:0:0:0:
187,151,11624,2,0,P|203:124|232:119,1,48.750001859665,2|0,0:0|0:0,0:0:0:0:
339,94,11943,5,2,0:0:0:0:
307,206,12103,2,0,P|292:178|302:150,1,48.750001859665,2|0,0:0|0:0,0:0:0:0:
295,161,12422,6,0,B|330:170|330:170|338:167|338:167|389:179,1,81.25,2|0,0:0|0:0,0:0:0:0:
464,286,12741,1,2,0:3:0:0:
458,292,12821,1,2,0:3:0:0:
451,296,12900,6,0,B|417:279|413:238|413:238|388:274|348:276,1,146.250005578995,8|0,0:3|0:0,0:0:0:0:
299,337,13539,2,0,P|317:256|325:85,1,243.75,8|0,0:0|0:0,0:0:0:0:
259,0,14177,6,0,P|263:15|271:29,1,32.5,2|0,0:0|0:0,0:0:0:0:
325,95,14496,6,0,P|340:99|356:99,1,32.5,2|0,0:0|0:0,0:0:0:0:
121,171,14815,6,0,P|148:154|159:120,1,65,8|0,0:0|0:0,0:0:0:0:
91,58,15135,6,0,P|73:59|55:71,2,32.5,2|2|2,0:3|0:3|0:3,0:3:0:0:
186,48,15454,6,0,P|167:88|159:133,1,81.25,8|0,0:3|0:0,0:0:0:0:
253,325,15773,5,2,0:0:0:0:
189,274,15932,2,0,B|183:243|197:221|209:240|224:210|211:170,1,97.50000371933,2|2,0:0|0:0,0:0:0:0:
134,179,16411,5,2,0:0:0:0:
61,136,16571,2,0,P|81:109|113:99,1,65,2|0,0:0|0:0,0:0:0:0:
134,179,16890,5,2,0:0:0:0:
159,32,17049,2,0,P|191:31|218:48,1,65,2|0,0:0|0:0,0:0:0:0:
294,80,17369,6,0,P|306:97|308:121,1,32.5,8|0,0:0|0:0,0:0:0:0:
376,339,17688,5,2,0:3:0:0:
374,329,17768,1,2,0:3:0:0:
371,318,17847,1,2,0:3:0:0:
369,308,17927,1,2,0:3:0:0:
366,300,18007,6,0,B|425:217|354:143|354:143|268:164,1,243.75,8|0,0:3|0:0,0:0:0:0:
210,200,18645,2,0,B|197:229|234:269|234:269|208:237|224:194,1,146.250005578995
287,160,19283,6,0,B|318:166|318:166|323:170|323:170|351:176,1,65,2|0,0:0|0:0,0:0:0:0:
420,234,19603,6,0,B|451:227|451:227|456:223|456:223|484:218,1,65,2|0,0:0|0:0,0:0:0:0:
329,353,19922,6,0,L|298:361,1,32.5,8|0,0:0|0:0,0:0:0:0:
165,65,20241,6,0,B|130:54|130:54|126:55|126:55|88:45,1,81.25,2|2,0:3|0:3,0:0:0:0:
86,44,20560,6,0,B|62:88|67:148|116:109|120:164|95:216,1,162.5,8|0,0:3|0:0,0:0:0:0:
196,141,21039,1,2,0:3:0:0:
93,205,21198,6,0,P|86:244|108:276,1,65,8|0,0:0|0:0,0:0:0:0:
165,65,21517,1,0,0:0:0:0:
231,212,21677,5,2,0:0:0:0:
305,180,21837,2,0,P|336:188|363:226,1,48.750001859665,2|0,0:0|0:0,0:0:0:0:
209,291,22156,5,2,0:0:0:0:
380,217,22315,2,0,P|388:248|368:291,1,48.750001859665,2|0,0:0|0:0,0:0:0:0:
274,340,22635,6,0,P|242:331|215:293,1,48.750001859665,2|0,0:0|0:0,0:0:0:0:
293,250,22953,1,2,0:3:0:0:
291,239,23033,1,2,0:3:0:0:
288,229,23113,6,0,B|257:160|323:109|323:109|382:136,1,195,8|0,0:3|0:0,0:0:0:0:
450,341,23752,2,0,B|462:310|496:305|496:305|462:255|428:244|364:262|364:262|344:308|292:310,1,292.50001115799,8|0,0:0|0:0,0:0:0:0:
231,374,24390,6,0,L|237:331,1,32.5,2|0,0:0|0:0,0:0:0:0:
161,336,24709,6,0,L|167:293,1,32.5,2|0,0:0|0:0,0:0:0:0:
28,382,25028,6,0,B|32:351|32:351|35:349|35:349|37:318,1,65,8|0,0:0|0:0,0:0:0:0:
175,26,25347,6,0,L|172:9,2,16.25,2|2|2,0:3|0:3|0:3,0:0:0:0:
80,94,25666,6,0,B|182:118|126:43|248:75,1,162.5,8|2,0:3|0:0,0:0:0:0:
233,71,26145,1,2,0:3:0:0:
321,210,26305,6,0,P|311:242|307:265,1,48.750001859665,8|0,0:0|0:0,0:0:0:0:
236,299,26624,1,2,0:0:0:0:
366,362,26783,6,0,B|325:374|325:374|309:339,1,81.25,2|0,0:0|0:0,0:0:0:0:
368,282,27103,1,2,0:0:0:0:
466,115,27262,6,0,B|450:80|450:80|409:92,1,81.25,2|0,0:0|0:0,0:0:0:0:
411,174,27581,6,0,L|397:212,1,32.5,8|0,0:0|0:0,0:0:0:0:
115,241,27900,5,2,0:3:0:0:
120,230,27979,1,2,0:3:0:0:
125,219,28059,1,2,0:3:0:0:
130,208,28139,1,2,0:3:0:0:
135,197,28220,6,0,B|48:224|48:224|10:299|76:367,1,243.75,8|0,0:3|0:0,0:0:0:0:
219,350,28858,6,0,B|237:264|237:264|208:240|209:211,1,146.250005578995
286,202,29496,6,0,P|289:171|312:147,1,48.750001859665,2|0,0:0|0:0,0:0:0:0:
373,209,29815,5,10,0:0:0:0:
245,276,29975,1,2,0:3:0:0:
398,297,30135,6,0,P|364:272|351:230,1,81.25,8|0,0:0|0:0,0:0:0:0:
229,317,30454,5,2,0:3:0:0:
219,305,30533,1,2,0:3:0:0:
220,290,30613,1,2,0:3:0:0:
229,278,30693,1,2,0:3:0:0:
245,276,30773,6,0,B|206:316|154:284|154:284|176:293|197:281,1,130,8|0,0:3|0:0,0:0:0:0:
183,286,31411,2,0,B|231:224|204:139|204:139|177:125|165:92,1,203.125,8|0,0:0|0:0,0:0:0:0:
237,69,31890,1,2,0:3:0:0:
166,110,32049,6,0,P|148:129|144:156,1,48.750001859665,2|0,0:0|0:0,0:0:0:0:
389,238,32369,2,0,L|342:248,1,48.750001859665,2|0,0:0|0:0,0:0:0:0:
109,259,32688,6,0,P|87:237|79:206,1,65,8|0,0:0|0:0,0:0:0:0:
362,252,33007,2,0,L|394:246,3,32.5,2|2|2|2,0:3|0:3|0:3|0:3,0:0:0:0:
422,359,33326,6,0,B|441:346|441:346|397:337|397:337|395:340|395:340|316:322,1,130,10|2,0:0|0:3,0:0:0:0:
49,254,33805,6,0,B|36:243|16:240|16:240|52:221|92:248|65:260|99:290|156:267,1,181.999994445801,10|2,0:0|0:3,0:0:0:0:
350,175,34283,6,0,B|362:145|391:136|391:136|371:117|329:107|280:126|280:126|272:159|219:169,1,233.999992858887,10|2,0:0|0:3,0:0:0:0:
174,0,34762,6,0,B|186:43|186:43|195:46|195:46|208:103,1,97.5,10|0,0:0|0:0,0:0:0:0:
204,88,35081,1,2,0:3:0:0:
386,257,35241,6,0,B|376:291|376:291|379:295|379:295|370:331,1,65,8|0,0:0|0:0,0:0:0:0:
464,222,35560,1,2,0:3:0:0:
464,222,35640,1,2,0:3:0:0:
464,222,35720,1,2,0:3:0:0:
203,234,35879,6,0,B|196:199|196:199|212:239,1,65,10|0,0:3|0:0,0:0:0:0:
208,228,36517,2,0,B|240:251|239:291|239:291|280:253|317:171|211:202|236:130|261:78,1,292.50001115799,8|0,0:0|0:0,0:0:0:0:
254,91,37156,6,0,P|272:94|288:109,1,32.5,2|0,0:0|0:0,0:0:0:0:
360,123,37475,2,0,P|370:150|361:184,1,65,2|0,0:0|0:0,0:0:0:0:
64,228,37794,6,0,P|91:196|131:186,1,81.25,8|0,0:0|0:0,0:0:0:0:
96,323,38113,2,0,P|91:311|94:299,3,24.3750009298325,2|2|2|2,0:3|0:3|0:3|0:3,0:3:0:0:
180,334,38432,6,0,P|139:286|147:201,1,130,10|2,0:0|0:3,0:0:0:0:
305,88,38911,6,0,P|231:152|227:248,1,195.00000743866,10|2,0:0|0:3,0:0:0:0:
320,376,39390,6,0,P|388:349|418:296,1,130,10|2,0:0|0:3,0:0:0:0:
334,207,39869,6,0,P|338:243|319:275,1,73.1250027894975,10|0,0:0|0:0,0:0:0:0:
321,274,40188,1,2,3:0:0:0:
34,371,40347,6,0,P|49:374|66:374,1,32.5,8|0,0:0|0:0,0:0:0:0:
132,329,40666,1,2,0:3:0:0:
140,321,40745,1,2,0:3:0:0:
145,310,40825,1,2,0:3:0:0:
145,299,40905,1,2,0:3:0:0:
141,287,40986,6,0,B|130:253|102:252|102:252|127:264|139:292,1,97.50000371933,8|0,3:0|0:0,0:0:0:0:
141,287,41624,2,0,B|194:262|203:187|203:187|244:248|318:255,1,243.750009298325,8|0,0:0|0:0,0:0:0:0:
300,252,42103,1,2,3:0:0:0:
236,318,42262,6,0,L|250:365,1,48.750001859665,2|0,0:0|0:0,0:0:0:0:
477,200,42581,2,0,L|463:153,1,48.750001859665,2|0,0:0|0:0,0:0:0:0:
160,294,42900,6,0,B|150:260|150:260|146:258|146:258|134:218,1,81.25,8|0,0:0|0:0,0:0:0:0:
484,46,43220,2,0,L|493:78,3,32.5,2|2|2|2,0:3|0:3|0:3|0:3,0:0:0:0:
394,82,43539,6,0,B|384:49|425:26|425:26|484:46,1,130,10|2,0:0|0:3,0:0:0:0:
298,199,44017,6,0,B|252:195|221:172|222:107|222:107|249:114|282:105,1,195.00000743866,10|2,0:0|0:3,0:0:0:0:
335,324,44496,6,0,B|265:342|265:342|261:347|261:347|194:363|194:363|145:330|167:264,1,260,10|2,0:0|0:3,0:0:0:0:
444,210,44975,6,0,P|427:194|444:212,1,97.5,10|0,0:0|0:0,0:0:0:0:
428,212,45294,1,2,3:0:0:0:
389,112,45454,6,0,B|396:89|396:89|395:83|395:83|401:66,1,48.750001859665
472,26,45773,1,2,3:0:0:0:
472,26,45853,1,2,3:0:0:0:
472,26,45932,1,2,3:0:0:0:
289,97,46092,6,0,P|255:111|253:141,1,65,8|0,3:0|0:0,0:0:0:0:
358,239,46411,1,2,0:0:0:0:
185,178,46571,6,0,P|180:214|205:231,1,65,2|8,0:0|0:0,0:0:0:0:
282,214,46890,1,2,0:0:0:0:
203,308,47049,6,0,P|231:330|258:317,1,65,2|0,0:0|0:0,0:0:0:0:
255,319,47369,6,0,P|252:278|270:242,1,81.25,2|0,0:0|0:0,0:0:0:0:
346,252,47688,2,0,P|368:237|396:235,1,48.750001859665,2|0,0:0|0:0,0:0:0:0:
346,24,48007,6,0,P|362:73|407:106,1,97.50000371933,8|0,0:0|0:0,0:0:0:0:
455,166,48326,2,0,P|470:171|486:170,3,32.5,2|2|2|2,3:0|3:0|3:0|3:0,3:0:0:0:
396,101,48645,6,0,P|415:156|427:296,1,195.00000743866,12|8,3:0|0:0,0:0:0:0:
502,273,50560,6,0,P|494:300|486:308,1,32.5,8|0,0:0|0:0,0:0:0:0:
457,156,50879,5,2,0:3:0:0:
457,156,50959,1,2,0:3:0:0:
457,156,51039,2,0,P|477:170|489:192,1,48.750001859665,2|0,0:3|0:0,0:0:0:0:
502,273,51198,6,0,B|440:277|403:226|403:226|387:273|348:280,1,195.00000743866,8|0,0:3|0:0,0:0:0:0:
249,325,51677,1,2,0:0:0:0:
324,200,51837,2,0,P|308:181|286:173,1,48.750001859665,8|0,0:0|0:0,0:0:0:0:
181,220,52156,2,0,P|175:243|181:266,1,48.750001859665,2|0,0:0|0:0,0:0:0:0:
278,83,52475,6,0,P|271:169|256:266,1,170.625001627207,2|0,0:0|0:0,0:0:0:0:
258,252,52794,2,0,P|274:229|267:199,1,48.750001859665,8|0,0:3|0:0,0:0:0:0:
212,34,53113,5,10,0:0:0:0:
347,180,53273,1,2,0:0:0:0:
182,267,53432,1,2,0:0:0:0:
305,341,53592,5,2,0:0:0:0:
305,341,53672,1,2,0:3:0:0:
305,341,53752,2,0,B|257:278|193:292|193:292|177:328|139:332,1,193.375003688335,8|0,0:3|0:0,0:0:0:0:
70,302,54390,5,8,0:0:0:0:
29,368,54549,1,0,0:0:0:0:
141,333,54709,2,0,P|169:362|168:390,1,65,8|0,0:3|0:0,0:0:0:0:
169,384,55028,6,0,L|180:300,1,81.25,2|0,0:0|0:0,0:0:0:0:
261,267,55347,6,0,B|271:213|271:213|266:207|266:207|275:153,1,113.750001084805,10|0,0:0|0:0,0:0:0:0:
474,384,55666,6,0,B|476:369|476:369|475:367|475:367|477:352,1,32.5,8|0,0:0|0:0,0:0:0:0:
407,269,55986,5,2,0:3:0:0:
407,269,56065,1,2,0:3:0:0:
407,269,56145,2,0,P|404:257|410:237,1,32.5,2|0,0:3|0:0,0:0:0:0:
475,96,56305,6,0,B|396:76|442:141|326:115,1,130,8|2,0:3|0:0,0:0:0:0:
407,269,56783,1,2,0:3:0:0:
346,118,56943,2,0,P|279:55|204:70,1,162.5,8|2,0:0|0:0,0:0:0:0:
210,68,57422,6,0,B|239:73|239:73|242:77|242:77|282:85,1,65,2|0,0:0|0:0,0:0:0:0:
46,307,57741,2,0,B|95:321|95:321|100:317|100:317|168:336,1,97.50000371933,2|0,0:0|0:0,0:0:0:0:
138,327,58060,5,2,0:0:0:0:
11,172,58220,1,10,0:0:0:0:
217,134,58379,1,2,0:0:0:0:
79,274,58539,1,10,0:0:0:0:
148,336,58698,5,2,0:0:0:0:
148,336,58778,1,2,0:3:0:0:
148,336,58858,2,0,P|130:252|139:85,1,243.75,8|0,0:3|0:0,0:0:0:0:
136,94,59496,6,0,P|93:131|99:221,1,146.250005578995,8|0,0:0|0:0,0:0:0:0:
254,372,60135,6,0,P|286:371|314:355,1,65,2|0,0:0|0:0,0:0:0:0:
384,326,60454,6,0,P|404:283|397:236,1,97.50000371933,10|0,0:0|0:0,0:0:0:0:
211,6,60773,6,0,P|197:26|193:49,1,48.750001859665,8|0,0:0|0:0,0:0:0:0:
292,123,61092,5,2,0:3:0:0:
282,115,61172,1,2,0:3:0:0:
271,109,61252,1,2,0:3:0:0:
260,106,61332,1,2,0:3:0:0:
249,106,61411,6,0,B|221:98|206:74|206:74|177:100|132:93,1,130,8|2,0:3|0:0,0:0:0:0:
210,193,61890,1,2,0:3:0:0:
76,41,62049,6,0,P|105:134|118:231,1,195,8|2,0:0|0:0,0:0:0:0:
64,358,62528,1,2,0:3:0:0:
114,235,62688,6,0,P|156:205|194:209,1,81.25,2|0,0:0|0:0,0:0:0:0:
294,104,63007,2,0,P|332:112|355:145,1,81.25,8|0,0:3|0:0,0:0:0:0:
502,265,63326,5,10,0:0:0:0:
276,193,63486,1,2,0:0:0:0:
359,280,63645,1,2,0:0:0:0:
217,342,63805,5,2,0:0:0:0:
217,342,63885,1,2,0:3:0:0:
217,342,63964,2,0,B|177:304|99:301|64:348|64:348|100:340|138:370,1,227.5,8|0,0:3|0:0,0:0:0:0:
118,357,64603,5,8,0:0:0:0:
20,266,64762,1,0,0:0:0:0:
75,205,64922,2,0,P|53:227|45:259,1,65,8|0,0:3|0:0,0:0:0:0:
121,359,65241,6,0,P|169:360|208:323,1,97.50000371933,2|0,0:0|0:0,0:0:0:0:
285,320,65560,6,0,P|300:293|293:262,1,65,10|0,0:0|0:0,0:0:0:0:
482,110,65879,6,0,P|435:111|397:81,1,97.50000371933,8|0,0:0|0:0,0:0:0:0:
319,75,66198,5,2,0:3:0:0:
311,66,66277,1,2,0:3:0:0:
306,55,66357,1,2,0:3:0:0:
306,43,66437,1,2,0:3:0:0:
311,31,66517,6,0,B|334:81|294:120|294:120|272:91|223:90,1,162.5,8|2,0:3|0:0,0:0:0:0:
234,173,66996,1,2,0:3:0:0:
317,328,67156,6,0,B|286:286|287:236|313:197|313:197|346:187|368:151,1,195.00000743866,8|2,0:0|0:0,0:0:0:0:
375,259,67635,1,2,0:3:0:0:
479,305,67794,5,2,0:0:0:0:
437,376,67954,1,0,0:0:0:0:
474,311,68113,2,0,L|461:382,1,65,8|0,0:3|0:0,0:0:0:0:
137,377,68432,6,0,B|92:366|92:366|86:369|86:369|17:353,1,97.50000371933,10|0,0:0|0:0,0:0:0:0:
206,226,68752,5,2,0:3:0:0:
206,226,68831,1,2,0:3:0:0:
206,226,68911,2,0,P|201:251|175:264,1,48.750001859665,2|0,0:3|0:0,0:0:0:0:
119,209,69071,6,0,B|100:169|126:126|145:163|169:117|145:62,1,146.250005578995,8|0,0:3|0:0,0:0:0:0:
102,23,69709,6,0,P|135:151|158:283,1,253.499988395691,8|0,0:0|0:0,0:0:0:0:
156,270,70347,6,0,P|176:301|167:347,1,81.25,2|0,0:0|0:0,0:0:0:0:
42,272,70666,6,0,P|51:252|77:244,1,48.750001859665,10|0,0:0|0:0,0:0:0:0:
321,336,70986,6,0,P|341:351|367:349,1,48.750001859665,8|0,0:0|0:0,0:0:0:0:
382,346,71145,1,2,0:0:0:0:
427,278,71305,1,2,0:0:0:0:
356,178,71464,1,2,0:0:0:0:
433,12,71624,6,0,B|422:60|422:60|424:64|424:64|411:119,1,97.50000371933,8|0,3:0|0:0,0:0:0:0:
413,106,72103,1,2,0:3:0:0:
471,176,72262,6,0,B|490:217|463:251|447:224|418:257|447:300,1,130,8|0,0:0|0:0,0:0:0:0:
502,357,72741,1,2,0:0:0:0:
448,291,72900,6,0,P|463:320|463:355,1,48.750001859665,2|0,0:0|0:0,0:0:0:0:
275,377,73220,1,2,0:0:0:0:
382,342,73379,6,0,P|369:362|351:378,1,48.750001859665,2|0,0:0|0:0,0:0:0:0:
432,245,73698,2,0,P|442:266|447:289,1,48.750001859665,2|0,0:0|0:0,0:0:0:0:
275,377,74017,1,2,0:3:0:0:
344,185,74177,6,0,B|328:140|358:123|358:123|351:140|355:153,1,97.5,8|0,0:3|0:0,0:0:0:0:
344,185,74815,2,0,B|312:133|240:109|187:147|187:147|225:154|242:188,1,243.75,8|0,0:0|0:0,0:0:0:0:
237,180,75454,6,0,P|218:131|174:104,1,97.50000371933,2|0,0:0|0:0,0:0:0:0:
132,46,75773,6,0,P|97:40|67:56,1,65,2|0,0:0|0:0,0:0:0:0:
19,279,76092,5,8,0:0:0:0:
174,362,76252,1,0,0:0:0:0:
80,327,76411,6,0,B|126:335|126:335|132:329|132:329|190:339,1,97.50000371933,2|0,0:3|0:3,0:3:0:0:
253,368,76730,6,0,P|278:354|294:331,1,48.750001859665,8|0,0:3|0:0,0:0:0:0:
290,338,77049,1,2,0:0:0:0:
309,140,77209,2,0,B|286:164|286:164|285:189|303:214,1,74.7500014257431,2|0,0:0|0:0,0:0:0:0:
336,274,77528,1,2,0:0:0:0:
496,262,77688,2,0,B|467:241|437:255|437:255|427:278|398:289,1,97.50000371933,2|0,0:0|0:0,0:0:0:0:
414,280,78007,6,0,L|448:284,1,32.5,2|0,0:0|0:0,0:0:0:0:
379,351,78326,6,0,L|459:362,1,81.25,2|0,0:0|0:0,0:0:0:0:
78,311,78645,6,0,L|25:304,1,48.750001859665,8|0,0:0|0:0,0:0:0:0:
29,304,78964,6,0,B|25:276|45:263|45:263|66:249|59:201,1,97.50000371933,2|0,0:0|0:3,0:0:0:0:
68,384,79283,6,0,P|64:318|0:139,1,243.75,8|0,0:3|0:0,0:0:0:0:
7,150,79922,2,0,B|43:181|43:181|25:232,1,97.5,8|0,0:0|0:0,0:0:0:0:
98,316,80560,6,0,B|121:322|121:322|125:321|125:321|151:326,1,48.750001859665,2|0,0:0|0:0,0:0:0:0:
105,239,80879,6,0,B|133:246|133:246|137:244|137:244|168:251,1,65,2|0,0:0|0:0,0:0:0:0:
178,242,81198,5,8,0:0:0:0:
99,267,81358,1,0,0:0:0:0:
304,352,81517,1,2,0:3:0:0:
220,321,81677,1,2,0:3:0:0:
292,345,81837,6,0,B|309:309|296:259|259:290|237:233|258:187,1,162.5,8|0,0:3|0:0,0:0:0:0:
349,56,82315,1,2,0:3:0:0:
230,120,82475,6,0,P|257:92|286:93,1,65,8|0,0:0|0:0,0:0:0:0:
281,91,82794,1,0,0:0:0:0:
147,152,82954,6,0,P|135:181|147:211,1,65,2|0,0:0|0:0,0:0:0:0:
350,261,83273,1,2,0:0:0:0:
133,297,83432,6,0,P|152:323|184:328,1,65,2|0,0:0|0:0,0:0:0:0:
254,267,83752,6,0,B|229:256|226:229|226:229|253:178,1,97.50000371933,8|2,0:0|0:0,0:0:0:0:
402,101,84071,2,0,L|443:112,6,24.3750009298325,2|2|2|2|2|2|2,0:3|0:3|0:3|0:3|0:3|0:3|0:3,0:3:0:0:
332,62,84390,6,0,B|368:104|377:147|366:191|366:191|334:205|326:241,1,195,8|0,0:3|0:0,0:0:0:0:
401,264,85028,2,0,B|397:305|425:329|425:329|378:310|393:270,1,146.250005578995,8|0,0:0|0:0,0:0:0:0:
329,232,85666,6,0,B|321:188|321:188|318:187|318:187|311:139,1,81.25,2|0,0:0|0:0,0:0:0:0:
236,106,85986,6,0,B|241:76|241:76|243:76|243:76|246:54,1,48.750001859665,2|0,0:0|0:0,0:0:0:0:
281,45,86145,1,0,0:0:0:0:
120,175,86305,6,0,B|76:141|95:91|95:91|170:54,1,162.5,8|2,0:0|0:3,0:0:0:0:
285,257,86783,1,2,0:3:0:0:
281,265,86863,1,2,0:3:0:0:
272,270,86943,6,0,B|250:252|252:225|252:225|237:248|198:248,1,97.50000371933,8|2,0:3|0:0,0:0:0:0:
219,325,87422,1,2,0:3:0:0:
151,202,87581,6,0,P|113:214|101:251,1,81.25,8|0,0:0|0:0,0:0:0:0:
299,326,87900,1,2,0:0:0:0:
219,319,88060,6,0,B|215:355|215:355|236:376,1,65,2|0,0:0|0:0,0:0:0:0:
287,168,88379,2,0,B|321:192|321:192|312:253,1,97.50000371933,2|0,0:0|0:0,0:0:0:0:
299,326,88698,1,0,0:0:0:0:
207,154,88858,6,0,B|189:101,1,48.750001859665,8|0,0:0|0:0,0:0:0:0:
447,317,89177,2,0,L|473:311,6,24.3750009298325,2|2|2|2|2|2|2,0:3|0:3|0:3|0:3|0:3|0:3|0:3,0:3:0:0:
220,244,89496,6,0,B|268:189|330:226|330:226|335:269|377:282,1,195,8|0,0:3|0:0,0:0:0:0:
512,191,90135,2,0,B|470:233|408:212|408:212|437:231|446:259,1,162.5,8|0,0:0|0:0,0:0:0:0:
441,248,90613,1,2,0:3:0:0:
383,57,90773,5,2,0:0:0:0:
282,82,90932,1,0,0:0:0:0:
383,57,91092,6,0,P|359:37|329:43,1,48.750001859665,10|0,0:3|0:0,0:0:0:0:
155,328,91411,2,0,P|131:368|84:368,1,97.50000371933,8|0,0:0|0:0,0:0:0:0:
17,250,91730,5,2,0:3:0:0:
40,242,91810,1,2,0:3:0:0:
64,248,91890,1,2,0:3:0:0:
80,266,91970,1,2,0:3:0:0:
86,289,92049,6,0,B|76:256|92:235|92:235|91:261|118:286,1,97.50000371933,8|0,0:3|0:0,0:0:0:0:
140,345,92688,6,0,B|116:278|178:201|256:242|256:242|226:240|205:273,1,243.75,8|2,0:0|0:3,0:0:0:0:
219,255,93326,6,0,B|213:276|213:276|215:279|215:279|210:302,1,48.750001859665,2|0,0:0|0:0,0:0:0:0:
292,336,93645,2,0,B|300:299|300:299|297:294|297:294|305:257,1,81.25,2|0,0:0|0:0,0:0:0:0:
32,63,93964,6,0,B|41:108|41:108|38:114|38:114|47:157,1,97.50000371933,8|0,0:0|0:0,0:0:0:0:
121,112,94283,2,0,B|118:102|118:102|120:100|120:100|117:89,6,24.3750009298325,2|2|2|2|2|2|2,0:3|0:3|0:3|0:3|0:3|0:3|0:3,0:3:0:0:
177,177,94603,6,0,B|150:143|173:110|173:110|196:101,1,97.50000371933,2|2,0:0|0:3,0:0:0:0:
288,211,95081,6,0,B|322:190|357:203|357:203|371:145|326:110,1,162.5,2|2,0:0|0:3,0:0:0:0:
111,273,95560,6,0,B|62:238|48:190|66:149|66:149|70:177|103:194,1,195.00000743866,2|2,0:0|0:3,0:0:0:0:
291,327,96039,6,0,B|314:330|330:299|330:299|309:319|285:321,1,97.5,2|0,0:0|0:0,0:0:0:0:
289,320,96358,1,2,0:3:0:0:
161,342,96517,6,0,L|128:347,1,32.5,8|0,0:0|0:0,0:0:0:0:
19,354,96837,1,2,0:3:0:0:
29,364,96916,1,2,0:3:0:0:
42,368,96996,1,2,0:3:0:0:
86,199,97156,6,0,P|68:198|88:196,1,65,8|0,0:3|0:3,0:0:0:0:
80,193,97794,2,0,B|105:180|109:148|109:148|137:288|137:288|140:256|169:242,1,243.75,8|0,0:0|0:0,0:0:0:0:
158,248,98432,6,0,P|181:251|198:268,1,48.750001859665,2|0,0:0|0:0,0:0:0:0:
275,283,98752,2,0,P|290:320|279:359,1,81.25,2|0,0:0|0:0,0:0:0:0:
460,147,99071,6,0,P|442:163|438:187,1,48.750001859665
383,243,99390,2,0,P|385:252|393:259,6,20.3125,2|2|2|2|2|2|2,0:3|0:3|0:3|0:3|0:3|0:3|0:3,0:3:0:0:
277,356,99709,6,0,P|276:311|320:301,1,97.50000371933,2|2,0:0|0:3,0:0:0:0:
104,238,100188,6,0,B|84:208|84:208|95:162|142:142|182:172,1,162.5,2|2,0:0|0:3,0:0:0:0:
338,69,100666,6,0,B|330:43|308:30|308:30|335:5|374:-1|408:22|429:53|411:107,1,227.500002169609,2|2,0:0|0:3,0:0:0:0:
412,101,101145,6,0,B|405:129|405:129|409:137|409:137|397:186,1,73.1250027894975,2|0,0:0|0:0,0:0:0:0:
401,172,101464,1,2,0:3:0:0:
267,95,101624,6,0,L|273:127,1,32.5,8|0,0:0|0:0,0:0:0:0:
465,260,101943,1,2,0:3:0:0:
468,244,102023,1,2,0:3:0:0:
464,228,102103,1,2,0:3:0:0:
454,216,102182,1,2,0:3:0:0:
439,208,102262,6,0,B|410:218|410:218|421:249,1,65,8|0,0:3|0:0,0:0:0:0:
510,164,102900,2,0,B|457:202|435:266|443:325|443:325|472:281|511:293,1,243.75,8|2,0:0|0:3,0:0:0:0:
490,291,103539,6,0,P|469:270|431:266,1,48.750001859665,2|0,0:0|0:0,0:0:0:0:
379,292,103858,2,0,P|370:330|387:367,1,81.25,2|0,0:0|0:0,0:0:0:0:
67,98,104177,6,0,P|75:128|98:151,1,65,8|0,0:0|0:0,0:0:0:0:
146,29,104496,2,0,P|133:24|119:26,6,28.4375002712011,2|2|2|2|2|2|2,0:3|0:3|0:3|0:3|0:3|0:3|0:3,0:3:0:0:
185,108,104815,6,0,P|237:70|227:4,1,130,2|2,0:0|0:3,0:0:0:0:
374,217,105294,6,0,P|306:182|306:104,1,162.5,2|2,0:0|0:3,0:0:0:0:
144,345,105773,6,0,P|226:302|227:206,1,195.00000743866,2|2,0:0|0:3,0:0:0:0:
332,375,106252,6,0,P|311:364|311:341,1,48.75,2|0,0:0|0:0,0:0:0:0:
387,323,106571,1,2,0:3:0:0:
77,365,106730,6,0,L|30:354,1,48.750001859665
13,323,107049,1,2,0:3:0:0:
13,323,107129,1,2,0:3:0:0:
13,323,107209,1,2,0:3:0:0:
175,227,107369,6,0,B|167:260|167:260|169:265|169:265|163:290,1,65,8|0,0:3|0:0,0:0:0:0:
228,346,107688,1,2,0:0:0:0:
207,148,107847,6,0,B|232:171|232:171|236:172|236:172|255:189,1,65,2|0,0:0|0:0,0:0:0:0:
255,190,108166,1,2,0:0:0:0:
154,80,108326,6,0,B|186:69|186:69|189:66|189:66|214:58,1,65,2|0,0:0|0:0,0:0:0:0:
214,58,108645,6,0,P|243:61|259:85,1,48.750001859665,2|0,0:0|0:0,0:0:0:0:
85,109,108964,6,0,P|69:126|69:150,1,48.750001859665,2|0,0:0|0:0,0:0:0:0:
194,192,109283,6,0,B|210:234|210:234|213:235|213:235|224:266,1,81.25,8|0,0:0|0:0,0:0:0:0:
129,37,109603,6,0,L|119:14,6,24.3750009298325,2|2|2|2|2|2|2,0:3|0:3|0:3|0:3|3:3|0:3|0:3,0:0:0:0:
160,112,109922,6,0,B|191:162|141:200|141:200|98:231|122:283,1,195.00000743866,12|8,3:0|0:0,0:0:0:0:
117,282,111837,6,0,B|125:245|125:245|112:279,1,65,8|0,0:0|0:0,0:0:0:0:
202,369,112156,5,2,0:3:0:0:
202,369,112236,1,2,0:3:0:0:
202,369,112315,2,0,B|232:364|232:364|233:362|233:362|261:356,1,48.750001859665,2|0,0:3|0:0,0:0:0:0:
324,250,112475,6,0,B|348:292|310:320|310:320|180:291,1,195.00000743866,8|0,0:3|0:0,0:0:0:0:
169,152,112954,1,2,0:0:0:0:
199,287,113113,2,0,P|214:260|188:239,1,48.750001859665,8|0,0:0|0:0,0:0:0:0:
27,108,113432,2,0,P|42:134|74:122,1,48.750001859665,2|0,0:0|0:0,0:0:0:0:
235,79,113752,6,0,B|267:49|307:65|307:65|323:94|359:92,1,121.875,2|0,0:0|0:0,0:0:0:0:
447,120,114071,2,0,P|423:124|401:136,1,48.750001859665,8|0,0:3|0:0,0:0:0:0:
331,165,114390,5,10,0:0:0:0:
233,327,114549,1,2,0:0:0:0:
332,384,114709,1,2,0:0:0:0:
240,179,114869,5,2,0:0:0:0:
240,179,114948,1,2,0:3:0:0:
240,179,115028,2,0,B|224:133|248:88|289:69|347:79|347:79|323:104|329:146,1,227.5,8|0,0:3|0:0,0:0:0:0:
407,127,115666,5,8,0:0:0:0:
330,133,115826,1,0,0:0:0:0:
437,199,115986,2,0,P|429:150|408:133,1,65,8|0,0:3|0:0,0:0:0:0:
356,213,116305,6,0,B|363:236|363:236|362:238|362:238|370:265,1,48.750001859665,2|0,0:0|0:0,0:0:0:0:
258,89,116624,6,0,B|272:136|272:136|270:139|270:139|286:193,1,97.50000371933,10|0,0:0|0:0,0:0:0:0:
93,318,116943,6,0,B|100:342|100:342|99:343|99:343|106:365,1,48.750001859665,8|0,0:0|0:0,0:0:0:0:
14,246,117262,5,2,0:3:0:0:
14,246,117342,1,2,0:3:0:0:
14,246,117422,2,0,L|23:278,1,32.5,2|0,0:3|0:0,0:0:0:0:
179,323,117581,6,0,B|215:289|202:236|202:236|136:214,1,162.5,8|2,0:3|0:0,0:0:0:0:
15,362,118060,1,2,0:3:0:0:
179,323,118220,6,0,B|210:308|247:325|229:341|265:358|300:346,1,130,8|0,0:0|0:0,0:0:0:0:
360,293,118698,6,0,P|340:247|346:211,1,81.25,2|0,0:0|0:0,0:0:0:0:
297,148,119017,2,0,P|307:126|305:102,1,48.750001859665,2|0,0:0|0:0,0:0:0:0:
253,40,119337,5,2,0:0:0:0:
388,132,119496,1,10,0:0:0:0:
235,196,119656,1,2,0:0:0:0:
331,1,119815,1,10,0:0:0:0:
408,52,119975,5,2,0:0:0:0:
408,52,120055,1,2,0:3:0:0:
408,52,120135,2,0,B|359:30|300:40|338:89|278:110|215:81,1,195,8|0,0:3|0:0,0:0:0:0:
230,86,120773,6,0,B|243:50|285:52|285:52|249:61|236:100,1,126.749994197846,8|0,0:0|0:0,0:0:0:0:
225,163,121411,6,0,B|193:178|193:178|196:207,1,65,2|0,0:0|0:0,0:0:0:0:
441,241,121730,6,0,B|470:281|470:281|445:323,1,97.50000371933,10|0,0:0|0:0,0:0:0:0:
202,333,122049,6,0,B|200:357|200:357|223:370,1,48.750001859665,8|0,0:0|0:0,0:0:0:0:
289,264,122369,5,2,0:3:0:0:
286,275,122448,1,2,0:3:0:0:
283,287,122528,1,2,0:3:0:0:
280,299,122608,1,2,0:3:0:0:
278,311,122688,6,0,B|307:290|310:256|292:225|292:225|248:203|256:156,1,162.5,8|0,0:3|0:0,0:0:0:0:
204,340,123166,1,2,0:3:0:0:
261,167,123326,6,0,P|246:147|219:137,1,48.750001859665,8|0,0:0|0:0,0:0:0:0:
106,233,123645,2,0,P|104:209|113:187,1,48.750001859665,2|0,0:0|0:0,0:0:0:0:
193,219,123964,6,0,B|212:179|184:152|184:152|152:123|171:86,1,146.250005578995,2|0,0:0|0:0,0:0:0:0:
237,13,124283,2,0,B|253:31|253:31|241:53,1,48.750001859665,8|0,0:3|0:0,0:0:0:0:
152,2,124603,5,10,0:0:0:0:
287,123,124762,1,2,0:0:0:0:
97,262,124922,1,2,0:0:0:0:
139,189,125081,5,2,0:0:0:0:
139,189,125161,1,2,0:3:0:0:
139,189,125241,2,0,B|112:218|127:257|127:257|231:288,1,170.625006508827,8|0,0:3|0:0,0:0:0:0:
292,250,125879,5,8,0:0:0:0:
376,273,126039,1,0,0:0:0:0:
301,256,126198,2,0,B|330:251|330:251|331:249|331:249|363:244,1,65,8|0,0:3|0:0,0:0:0:0:
506,241,126517,6,0,P|478:202|431:201,1,97.50000371933,2|0,0:0|0:0,0:0:0:0:
364,244,126837,6,0,P|347:270|316:273,1,65,10|0,0:0|0:0,0:0:0:0:
356,161,127156,6,0,P|343:142|320:141,1,48.750001859665,8|0,0:0|0:0,0:0:0:0:
163,366,127475,5,2,0:3:0:0:
175,367,127555,1,2,0:3:0:0:
187,363,127635,1,2,0:3:0:0:
194,354,127715,1,2,0:3:0:0:
199,342,127794,6,0,B|219:318|216:273|193:248|193:248|151:235|146:182,1,162.5,8|0,0:3|0:0,0:0:0:0:
312,1,128273,1,2,0:3:0:0:
220,175,128432,6,0,P|227:110|248:48,1,130,8|0,0:0|0:0,0:0:0:0:
247,49,128911,1,2,0:3:0:0:
151,207,129071,5,2,0:0:0:0:
303,139,129230,1,0,0:0:0:0:
218,171,129390,2,0,P|248:156|283:162,1,65,8|0,0:3|0:0,0:0:0:0:
350,196,129709,6,0,P|402:193|432:149,1,97.50000371933,10|0,0:0|0:0,0:0:0:0:
476,360,130028,1,2,0:3:0:0:
476,360,130108,1,2,0:3:0:0:
476,360,130188,2,0,P|487:331|487:305,1,48.750001859665,2|0,0:3|0:0,0:0:0:0:
429,161,130347,6,0,B|419:115|452:97|452:97|490:75|477:35,1,146.250005578995,8|0,0:3|0:0,0:0:0:0:
491,226,130986,6,0,P|361:160|217:140,1,292.50001115799,8|0,0:0|0:0,0:0:0:0:
217,140,131624,6,0,P|229:103|257:103,1,65,2|0,0:0|0:0,0:0:0:0:
189,219,131943,6,0,P|150:227|136:202,1,65,10|0,0:0|0:0,0:0:0:0:
270,206,132262,6,0,P|288:226|278:244,1,48.750001859665,8|0,0:0|0:0,0:0:0:0:
157,268,132422,1,2,0:3:0:0:
288,376,132581,5,2,0:3:0:0:
288,376,132661,1,2,0:3:0:0:
288,376,132741,2,0,P|265:381|247:366,1,48.750001859665,2|0,0:3|0:0,0:0:0:0:
227,295,132900,6,0,B|289:244|301:185|273:128|224:121|176:145|178:197|192:208,1,260,8|8,0:0|0:3,0:0:0:0:
185,194,134815,6,0,B|230:170|293:201|240:239|311:268|360:244,1,195,8|2,0:1|0:3,0:0:0:0:
354,246,135932,1,2,0:3:0:0:
428,215,136092,5,8,0:1:0:0:
304,143,136252,2,0,P|306:119|321:100,1,48.750001859665,2|0,0:0|0:0,0:0:0:0:
378,153,136571,1,2,0:0:0:0:
221,153,136730,6,0,P|206:133|204:109,1,48.750001859665,2|0,0:1|0:0,0:0:0:0:
256,47,137049,2,0,P|265:24|285:11,1,48.750001859665,2|0,0:1|0:0,0:0:0:0:
461,145,137369,6,0,B|469:117|469:117|468:113|468:113|477:83,1,65,8|0,0:1|0:0,0:0:0:0:
404,224,137688,2,0,P|395:210|393:195,2,32.5,2|2|2,0:3|0:3|0:3,0:3:0:0:
471,271,138007,6,8,P|425:266|386:350,1,146.250005578995,8|0,0:0|0:0,0:0:0:0:
473,376,138645,2,0,P|498:355|497:323,1,48.750001859665,8|0,0:1|0:0,0:0:0:0:
310,318,138964,1,2,0:3:0:0:
383,344,139124,6,0,P|388:304|378:288,1,48.750001859665,2|0,0:1|0:0,0:0:0:0:
230,180,139443,2,0,P|213:197|208:221,1,48.750001859665,2|0,0:1|0:0,0:0:0:0:
310,318,139762,1,2,0:3:0:0:
244,361,139922,6,0,L|200:349,1,32.5,8|0,0:1|0:0,0:0:0:0:
63,273,140241,2,0,L|36:280,2,16.25,2|2|2,0:3|0:3|0:3,0:3:0:0:
142,252,140560,6,0,B|80:291|100:349|100:349|136:374|136:374|125:349|140:323,1,195,8|0,0:0|0:0,0:0:0:0:
133,339,141198,1,8,0:1:0:0:
28,272,141358,2,0,P|14:239|26:207,1,48.750001859665,2|0,0:0|0:0,0:0:0:0:
178,175,141677,1,2,0:0:0:0:
52,152,141837,6,0,B|67:145|74:130|74:130|92:128|107:141,1,65,2|2,0:1|0:0,0:0:0:0:
234,279,142156,2,0,P|194:274|182:253,1,65,2|2,0:1|0:0,0:0:0:0:
239,70,142475,2,0,B|252:89|252:89|254:111|243:129,1,65,8|0,0:1|0:0,0:0:0:0:
185,181,142794,5,2,0:3:0:0:
185,181,142874,1,2,0:3:0:0:
185,181,142954,2,0,P|152:169|141:139,1,48.750001859665,2|0,0:3|0:0,0:0:0:0:
118,246,143113,6,0,P|101:150|74:56,1,194.999994049072,8|8,0:0|0:3,0:0:0:0:
74,56,145028,6,0,B|93:77|118:68|121:18|66:-12|9:23|5:90|36:142|88:153,1,233.999992858887,8|2,0:0|0:3,0:0:0:0:
27,211,146145,1,2,0:3:0:0:
81,148,146305,6,0,P|109:135|133:147,1,48.750001859665,8|0,0:1|0:0,0:0:0:0:
116,216,146624,1,2,0:3:0:0:
229,167,146783,6,0,P|221:144|200:133,1,48.750001859665,2|0,0:1|0:0,0:0:0:0:
58,265,147103,2,0,P|54:288|67:309,1,48.750001859665,2|0,0:1|0:0,0:0:0:0:
226,274,147422,1,2,0:3:0:0:
138,277,147581,6,0,B|167:285|167:285|176:283|176:283|202:291,1,65,8|0,0:1|0:0,0:0:0:0:
270,343,147900,2,0,P|279:362|273:386,2,32.5,2|2|2,0:3|0:3|0:3,0:3:0:0:
166,203,148220,6,0,B|212:114|122:158|170:47,1,146.250005578995,8|0,0:0|0:0,0:0:0:0:
168,60,148858,6,0,P|142:80|143:124,1,65,8|0,0:1|0:0,0:0:0:0:
204,160,149337,1,2,0:0:0:0:
100,221,149656,6,0,P|85:202|83:179,1,48.750001859665,2|0,0:0|0:0,0:0:0:0:
243,78,149975,1,2,0:3:0:0:
307,117,150135,6,0,L|341:112,1,32.5,8|0,0:1|0:0,0:0:0:0:
476,54,150454,2,0,B|490:58|490:58|490:60|490:60|507:67,2,32.5,2|2|2,0:3|0:3|0:3,0:3:0:0:
404,4,150773,6,0,P|432:71|441:144,1,146.250005578995,8|0,0:0|0:0,0:0:0:0:
368,125,151411,5,8,0:1:0:0:
448,150,151571,2,0,P|455:127|447:104,1,48.750001859665,2|0,0:0|0:0,0:0:0:0:
495,217,151890,5,2,0:0:0:0:
357,279,152049,2,0,P|350:302|358:324,1,48.750001859665,2|0,0:1|0:0,0:0:0:0:
435,301,152369,5,2,0:0:0:0:
239,233,152528,1,2,0:0:0:0:
323,198,152688,1,8,0:1:0:0:
83,110,152847,5,2,0:0:0:0:
239,233,153007,1,2,0:0:0:0:
53,310,153166,1,2,0:0:0:0:
136,285,153326,6,0,P|144:221|162:157,1,130,8|0,0:0|0:0,0:0:0:0:
62,199,153805,1,2,0:0:0:0:
228,275,153964,6,0,B|279:284|320:260|320:260|336:298|364:307,1,162.5,2|2,0:1|0:0,0:0:0:0:
414,373,154443,1,2,0:0:0:0:
261,194,154603,6,0,B|305:96|305:96|287:41|229:58,1,195.00000743866,8|4,0:0|0:0,0:0:0:0:
228,275,155081,1,2,0:0:0:0:
163,13,155241,6,0,B|123:-2|82:1|110:42|73:54|18:32,1,146.250005578995,8|0,0:1|0:0,0:0:0:0:
446,18,155879,6,0,P|478:48|462:108,1,97.50000371933,10|0,0:0|0:0,0:0:0:0:
309,106,156198,6,0,B|357:118|357:118|362:127|362:127|398:138,1,97.50000371933,2|0,0:0|0:0,0:0:0:0:
254,31,156517,5,8,0:1:0:0:
145,110,156677,2,0,P|148:77|171:57,1,65,2|0,0:2|0:0,0:0:0:0:
254,31,156996,1,2,0:2:0:0:
227,201,157156,6,0,B|254:179|280:183|280:183|290:203|314:214,1,97.50000371933,2|0,0:0|0:0,0:0:0:0:
344,366,157475,2,0,B|359:343|354:320|354:320|350:319|350:319|342:292|363:263,1,97.5,6|0,0:0|0:0,0:0:0:0:
355,275,157794,6,0,B|373:263|382:242|382:242|412:236|440:266,1,97.50000371933,8|0,0:1|0:0,0:0:0:0:
461,331,158113,1,2,0:0:0:0:
303,203,158273,1,2,0:0:0:0:
486,128,158432,5,10,0:0:0:0:
412,99,158592,1,2,0:0:0:0:
486,128,158752,2,0,B|455:115|455:115|432:138,1,65,2|0,0:0|0:0,0:0:0:0:
236,267,159071,6,0,B|281:251|281:251|311:292,1,97.50000371933,8|0,0:1|0:0,0:0:0:0:
223,268,159390,1,2,0:0:0:0:
378,219,159549,1,2,0:0:0:0:
220,69,159709,6,0,B|261:85|261:85|270:82|270:82|310:98,1,97.50000371933,2|0,0:0|0:0,0:0:0:0:
148,210,160028,6,0,P|119:162|139:126,1,97.50000371933,14|0,0:0|0:0,0:0:0:0:
261,196,160347,5,8,0:1:0:0:
201,372,160507,1,2,0:0:0:0:
256,320,160666,5,2,0:0:0:0:
215,258,160826,1,2,0:0:0:0:
337,168,160986,6,0,B|371:175|371:175|381:187|381:187|418:195,1,81.25,8|0,0:0|0:0,0:0:0:0:
423,199,161305,2,0,P|442:193|457:179,2,40.625,2|2|2,0:0|0:0|0:0,0:0:0:0:
55,60,161624,6,0,B|79:44|105:49|105:49|129:92,1,97.50000371933,8|0,0:1|0:0,0:0:0:0:
41,221,162103,1,2,0:0:0:0:
203,80,162262,6,0,P|158:66|122:96,1,97.50000371933,2|0,0:0|0:0,0:0:0:0:
256,23,162581,5,14,0:0:0:0:
119,103,162741,1,2,0:0:0:0:
347,117,162900,6,0,P|354:163|320:195,1,97.50000371933,8|2,0:1|0:0,0:0:0:0:
216,300,163220,6,0,P|172:283|161:237,1,97.50000371933,2|0,0:0|0:0,0:0:0:0:
227,175,163459,1,0,0:0:0:0:
227,175,163539,5,10,0:0:0:0:
173,26,163698,1,2,0:0:0:0:
261,95,163858,5,2,0:0:0:0:
227,175,164017,1,2,0:0:0:0:
371,111,164177,6,0,B|361:70|361:70|366:58|366:58|354:17,1,97.50000371933,8|0,0:1|0:0,0:0:0:0:
402,41,164496,6,0,B|397:66|397:66|395:67|395:67|391:88,1,48.750001859665,2|0,0:0|0:0,0:0:0:0:
357,280,164815,6,0,P|338:253|351:216,1,73.1250027894975,2|0,0:0|0:0,0:0:0:0:
502,146,165135,2,0,P|514:99|478:64,1,97.50000371933,14|0,0:0|0:0,0:0:0:0:
470,353,165454,6,0,L|481:395,1,32.5,8|0,0:1|0:0,0:0:0:0:
401,45,165932,1,2,0:0:0:0:
401,45,166012,1,2,0:0:0:0:
401,45,166092,6,0,B|411:88|411:88|406:101|406:101|419:151,1,97.50000371933,10|0,0:0|0:0,0:0:0:0:
145,137,166411,6,0,B|177:105|177:105|190:104|190:104|227:69,1,97.50000371933,2|0,0:0|0:0,0:0:0:0:
356,319,166730,5,8,0:1:0:0:
265,279,166890,1,2,0:0:0:0:
194,372,167049,5,2,0:0:0:0:
365,317,167209,1,2,0:0:0:0:
194,372,167369,6,0,L|259:382,1,48.750001859665,2|0,0:0|0:0,0:0:0:0:
482,300,167688,2,0,P|467:268|433:266,1,73.1250027894975,6|0,0:0|0:0,0:0:0:0:
314,381,168007,5,8,0:1:0:0:
365,317,168166,2,0,B|355:275|355:275|350:271|350:271|335:208,1,97.50000371933,2|0,0:0|0:0,0:0:0:0:
442,257,168486,1,2,0:0:0:0:
330,220,168645,6,0,P|311:185|314:150,1,65,8|0,0:0|0:0,0:0:0:0:
391,46,168964,6,0,B|413:40|441:57|423:67|447:82|480:76,1,97.50000371933,2|0,0:0|0:0,0:0:0:0:
411,164,169283,5,8,0:1:0:0:
227,107,169443,1,2,0:0:0:0:
271,280,169603,1,2,0:0:0:0:
304,191,169762,6,0,B|322:163|301:133|301:133|309:154|291:190,1,97.50000371933,2|0,0:0|0:0,0:0:0:0:
271,280,170081,1,2,0:0:0:0:
339,360,170241,1,6,0:0:0:0:
339,360,170321,1,2,0:0:0:0:
339,360,170400,1,2,0:0:0:0:
177,296,170560,6,0,P|142:316|145:345,1,65,8|0,0:1|0:0,0:0:0:0:
146,343,170879,2,0,B|142:293|142:293|137:289|137:289|131:231,1,97.50000371933,2|0,0:0|0:0,0:0:0:0:
156,120,171198,5,8,0:0:0:0:
119,248,171358,2,0,P|100:215|104:187,1,65,2|0,0:0|0:0,0:0:0:0:
351,377,171677,1,2,0:0:0:0:
375,286,171837,6,0,B|335:294|335:294|329:301|329:301|282:312,1,97.50000371933,8|0,0:1|0:0,0:0:0:0:
272,313,172156,2,0,P|279:292|318:280,1,48.750001859665,2|0,0:0|0:0,0:0:0:0:
188,378,172475,6,0,B|169:356|169:356|180:330,1,48.750001859665,2|0,0:0|0:0,0:0:0:0:
272,313,172635,2,0,B|270:293|270:293|243:283,1,48.750001859665,2|0,0:0|0:0,0:0:0:0:
119,275,172794,6,0,B|112:236|112:236|133:220,1,65,14|0,0:0|0:0,0:0:0:0:
285,212,172954,2,0,B|307:196|307:196|299:157,1,65,2|0,0:0|0:0,0:0:0:0:
174,153,173113,6,0,B|148:143|148:143|146:121,1,48.750001859665,10|0,0:1|0:0,0:0:0:0:
239,107,173273,2,0,B|248:87|248:87|230:66,1,48.750001859665,2|0,0:0|0:0,0:0:0:0:
153,46,173432,6,0,P|146:27|158:8,2,32.5,2|2|2,0:1|0:0|0:0,0:0:0:0:
397,200,173752,6,0,P|406:102|423:7,1,195.00000743866,8|8,0:0|0:1,0:0:0:0:
476,249,174709,5,2,0:0:0:0:
501,319,175188,1,2,0:0:0:0:
428,306,175666,1,2,0:0:0:0:
469,292,175986,5,2,0:3:0:0:
407,349,176305,6,0,B|357:371|295:338|336:316|285:278|233:305,1,195.00000743866,8|8,0:0|0:1,0:0:0:0:
62,270,177262,6,0,B|64:231|101:205|148:202|179:242|179:242|160:259|155:285,1,195.00000743866,2|8,0:0|0:3,0:0:0:0:
157,274,178220,6,0,P|173:290|179:317,1,48.750001859665,12|0,0:1|0:0,0:0:0:0:
360,322,178539,1,2,0:3:0:0:
353,345,178618,1,2,0:3:0:0:
335,361,178698,1,2,0:3:0:0:
268,293,178858,6,0,P|280:161|262:87,1,195.00000743866,8|8,0:0|0:1,0:0:0:0:
266,101,179815,5,2,0:0:0:0:
22,33,180293,1,2,0:0:0:0:
83,282,180773,1,2,0:0:0:0:
106,207,181092,5,2,0:3:0:0:
83,282,181411,6,0,B|92:258|79:230|79:230|129:254|129:254|142:302|97:346,1,195.00000743866,8|8,0:0|0:1,0:0:0:0:
108,333,182369,6,0,P|100:233|83:138,1,195.00000743866,2|8,0:0|0:3,0:0:0:0:
83,139,183326,6,0,P|67:170|71:193,1,48.750001859665,12|0,0:1|0:0,0:0:0:0:
139,226,183645,1,2,0:3:0:0:
152,245,183724,1,2,0:3:0:0:
154,269,183804,1,2,0:3:0:0:
107,334,183964,6,0,B|140:303|189:303|230:338|230:338|236:373|269:383,1,195.00000743866,8|8,0:0|0:1,0:0:0:0:
338,345,184922,5,2,0:0:0:0:
325,325,185400,1,2,0:0:0:0:
432,275,185879,1,2,0:0:0:0:
380,209,186198,5,2,0:3:0:0:
380,209,186517,6,0,B|407:84|407:84|386:121|354:120,1,195.00000743866,8|8,0:0|0:1,0:0:0:0:
223,187,187475,6,0,B|190:241|237:308|237:308|248:274|281:262,1,195.00000743866,2|8,0:0|0:3,0:0:0:0:
280,262,188432,6,0,P|251:249|235:223,1,48.750001859665,12|0,0:1|0:0,0:0:0:0:
173,192,188752,2,0,P|171:174|179:158,2,24.3750009298325,2|2|0,0:3|0:3|0:3,0:3:0:0:
273,13,191624,6,0,B|308:68|258:105|258:105|214:141|246:192,1,195.00000743866,4|0,0:3|0:0,0:0:0:0:
253,184,192581,1,2,0:0:0:0:
184,258,193060,1,2,0:0:0:0:
315,323,193539,6,0,L|306:362,1,32.5
318,364,193858,5,2,0:3:0:0:
174,248,194017,2,0,B|175:221|175:221|166:248,1,48.750001859665,6|0,0:3|0:0,0:0:0:0:
91,289,194177,6,0,B|176:278|176:278|179:274|179:274|251:265,1,162.5,8|0,0:3|0:0,0:0:0:0:
331,231,194656,1,2,0:0:0:0:
256,266,194815,6,0,P|240:293|247:324,1,65,8|0,0:0|0:0,0:0:0:0:
264,181,195135,2,0,P|247:153|217:143,1,65,2|0,0:0|0:0,0:0:0:0:
489,276,195454,6,0,B|428:263|428:263|415:247|415:247|324:229,1,170.625001627207,2|0,0:0|0:0,0:0:0:0:
330,230,195773,2,0,P|355:229|374:212,1,48.750001859665,8|0,0:3|0:0,0:0:0:0:
29,78,196092,5,10,0:0:0:0:
140,161,196252,1,2,0:0:0:0:
171,25,196411,1,2,0:0:0:0:
120,88,196571,5,2,0:0:0:0:
120,88,196650,1,2,0:3:0:0:
120,88,196730,2,0,B|84:154|100:233|100:233|78:191|36:183,1,227.5,8|0,0:3|0:0,0:0:0:0:
42,184,197369,5,8,0:0:0:0:
110,238,197528,1,0,0:0:0:0:
38,301,197688,2,0,P|54:264|92:253,1,81.25,2|0,0:0|0:0,0:0:0:0:
167,293,198007,6,0,P|172:316|164:338,1,48.750001859665,2|0,0:0|0:0,0:0:0:0:
167,210,198326,2,0,P|203:178|250:186,1,97.50000371933,2|0,0:0|0:0,0:0:0:0:
421,137,198645,6,0,P|397:130|382:112,1,48.750001859665,10|0,0:0|0:0,0:0:0:0:
493,53,198964,1,2,0:3:0:0:
493,53,199044,1,2,0:3:0:0:
493,53,199124,2,0,P|498:72|491:91,1,40.625,2|0,0:3|0:0,0:0:0:0:
421,137,199283,6,0,B|387:171|417:232|432:186|466:243|427:283,1,162.5,8|2,0:3|0:0,0:0:0:0:
354,318,199762,1,2,0:3:0:0:
509,317,199922,6,0,P|470:281|411:288,1,97.50000371933,8|2,0:0|0:0,0:0:0:0:
354,318,200400,6,0,B|344:352|344:352|346:355|346:355|338:386,1,65,2|0,0:0|0:0,0:0:0:0:
248,260,200720,2,0,B|259:299|259:299|257:302|257:302|266:338,1,81.25,2|0,0:0|0:0,0:0:0:0:
251,350,201039,5,2,0:0:0:0:
179,314,201198,1,10,0:0:0:0:
324,237,201358,1,2,0:0:0:0:
104,159,201517,1,10,0:0:0:0:
208,39,201677,5,2,0:0:0:0:
208,39,201757,1,2,0:3:0:0:
208,39,201837,2,0,B|164:70|164:70|185:157,1,130,8|2,0:3|0:0,0:0:0:0:
257,169,202315,1,2,0:0:0:0:
309,109,202475,6,0,B|332:87|332:87|383:108,1,81.25,8|0,0:0|0:0,0:0:0:0:
281,242,202794,1,2,0:0:0:0:
257,169,202954,1,2,0:0:0:0:
301,314,203113,6,0,B|307:292|307:292|305:289|305:289|312:268,1,48.750001859665,2|0,0:0|0:0,0:0:0:0:
459,384,203432,6,0,B|416:373|416:373|412:376|412:376|366:364,1,97.50000371933,10|0,0:0|0:0,0:0:0:0:
23,260,203752,6,0,B|29:238|29:238|27:235|27:235|33:213,1,48.750001859665,8|0,0:0|0:0,0:0:0:0:
108,350,204071,5,2,0:3:0:0:
93,346,204150,1,2,0:3:0:0:
78,342,204230,1,2,0:3:0:0:
63,338,204310,1,2,0:3:0:0:
48,334,204390,6,0,B|69:363|103:366|134:348|134:348|156:304|203:312,1,162.5,8|2,0:3|0:0,0:0:0:0:
204,384,204869,1,2,0:3:0:0:
58,232,205028,6,0,P|27:236|15:265,1,65,8|0,0:0|0:0,0:0:0:0:
159,190,205347,2,0,P|140:165|110:170,1,65,2|2,0:0|0:3,0:0:0:0:
126,259,205666,6,0,B|167:215|227:230|227:230|239:267|280:275,1,170.625001627207,2|0,0:0|0:0,0:0:0:0:
267,272,205986,2,0,P|244:281|230:301,1,48.750001859665,8|0,0:3|0:0,0:0:0:0:
346,260,206305,5,10,0:0:0:0:
234,326,206464,1,2,0:0:0:0:
432,274,206624,1,2,0:0:0:0:
280,144,206783,5,2,0:0:0:0:
280,144,206863,1,2,0:3:0:0:
280,144,206943,2,0,B|286:123|270:96|270:96|309:118|314:170|289:204,1,170.625006508827,8|0,0:3|0:0,0:0:0:0:
346,260,207581,5,8,0:0:0:0:
209,210,207741,1,0,0:0:0:0:
291,201,207900,2,0,B|262:194|262:194|257:196|257:196|223:187,1,65,8|0,0:3|0:0,0:0:0:0:
85,131,208220,6,0,P|130:144|136:204,1,97.50000371933,2|0,0:0|0:0,0:0:0:0:
185,255,208539,6,0,P|184:279|165:302,1,48.750001859665,10|0,0:0|0:0,0:0:0:0:
334,191,208858,6,0,P|299:223|244:199,1,97.50000371933,8|0,0:0|0:0,0:0:0:0:
185,255,209177,5,2,0:3:0:0:
170,248,209256,1,2,0:3:0:0:
158,237,209336,1,2,0:3:0:0:
150,223,209416,1,2,0:3:0:0:
147,207,209496,6,0,P|156:130|174:45,1,162.5,8|2,0:3|0:0,0:0:0:0:
173,46,209975,1,2,0:3:0:0:
0,310,210135,6,0,B|33:322|40:365|40:365|39:293|94:247,1,195.00000743866,8|2,0:0|0:0,0:0:0:0:
147,207,210613,1,2,0:3:0:0:
147,109,210773,5,2,0:0:0:0:
191,267,210932,1,0,0:0:0:0:
147,207,211092,6,0,B|154:175|154:175|160:172|160:172|171:125,1,65,8|0,0:3|0:0,0:0:0:0:
434,143,211411,6,0,B|423:101|423:101|415:95|415:95|400:32,1,97.50000371933,10|0,0:0|0:0,0:0:0:0:
491,25,211730,5,2,0:3:0:0:
491,25,211810,1,2,0:3:0:0:
491,25,211890,2,0,L|482:60,1,24.3750009298325,2|0,0:3|0:0,0:0:0:0:
430,262,212049,6,0,P|438:249|431:265,1,65,8|0,0:3|0:0,0:0:0:0:
442,260,212528,5,2,0:3:0:0:
391,362,212688,2,0,P|373:346|374:323,1,48.750001859665,10|0,0:0|0:0,0:0:0:0:
386,323,213007,1,2,0:3:0:0:
313,230,213166,5,0,0:0:0:0:
203,321,213326,2,0,P|195:291|212:264,1,65,2|0,0:0|0:0,0:0:0:0:
223,267,213645,1,8,0:3:0:0:
174,164,213805,5,0,0:0:0:0:
20,199,213964,2,0,P|33:154|77:137,1,97.50000371933,10|0,0:0|0:0,0:0:0:0:
78,267,214283,5,2,0:3:0:0:
78,267,214363,1,2,0:3:0:0:
78,267,214443,2,0,P|106:270|131:249,1,48.750001859665,2|0,0:3|0:0,0:0:0:0:
181,324,214603,6,0,P|167:261|177:150,1,162.5,8|0,0:3|0:0,0:0:0:0:
257,359,215081,1,2,0:3:0:0:
165,163,215241,6,0,P|150:181|148:205,1,48.750001859665,10|0,0:0|0:0,0:0:0:0:
331,323,215560,2,0,P|322:300|303:286,1,48.750001859665,2|0,0:0|0:0,0:0:0:0:
238,215,215879,6,0,B|281:222|301:186|301:186|336:175|375:202,1,146.250005578995,2|0,0:0|0:0,0:0:0:0:
451,183,216198,2,0,B|411:173|411:173|380:205,1,81.25,8|0,0:3|0:0,0:0:0:0:
511,128,216517,5,10,0:0:0:0:
440,263,216677,1,2,0:0:0:0:
383,47,216837,1,2,0:0:0:0:
430,125,216996,5,2,0:0:0:0:
430,125,217075,1,2,0:3:0:0:
430,125,217156,2,0,B|392:81|339:79|296:115|296:115|313:132|316:180,1,195.00000743866,10|0,0:3|0:0,0:0:0:0:
108,304,217635,1,2,0:0:0:0:
192,357,217794,6,0,P|203:253|236:156,1,195.00000743866,10|0,0:1|0:0,0:0:0:0:
142,8,218273,1,2,0:0:0:0:
230,167,218432,6,0,B|282:148|314:161|314:161|316:185|352:207,1,130,10|0,0:0|0:0,0:0:0:0:
372,101,218911,1,2,0:0:0:0:
435,373,219071,6,0,B|427:327|427:327|421:324|421:324|412:269,1,97.50000371933,8|0,3:1|3:1,3:1:0:0:
433,33,219390,5,2,0:3:0:0:
444,30,219469,1,2,0:3:0:0:
456,33,219549,1,2,0:3:0:0:
465,41,219629,1,2,0:3:0:0:
468,52,219709,6,0,B|429:100|390:80|390:80|372:28|301:39,1,162.5,8|0,0:3|0:0,0:0:0:0:
506,147,220188,1,2,0:3:0:0:
444,256,220347,6,0,P|438:231|445:208,1,48.750001859665,8|0,0:0|0:0,0:0:0:0:
457,213,220666,1,2,0:0:0:0:
365,148,220826,6,0,P|383:130|431:132,1,65,2|0,0:0|0:0,0:0:0:0:
276,335,221145,2,0,P|251:327|229:285,1,65,2|0,0:0|0:0,0:0:0:0:
206,82,221464,5,2,0:0:0:0:
288,250,221624,1,8,0:0:0:0:
282,36,221783,5,2,0:0:0:0:
196,285,221943,1,2,0:0:0:0:
246,176,222103,5,2,0:0:0:0:
246,176,222182,1,2,0:3:0:0:
246,176,222262,2,0,B|282:179|302:140|302:140|281:232|311:297,1,195.00000743866,10|0,0:3|0:0,0:0:0:0:
381,308,222741,1,2,0:0:0:0:
206,103,222900,6,0,B|148:74|91:120|91:120|94:165|54:190,1,195.00000743866,10|0,0:1|0:0,0:1:0:0:
19,77,223379,1,2,0:0:0:0:
105,316,223539,6,0,B|139:317|163:287|163:287|158:324|178:345,1,130,10|0,0:0|0:0,0:0:0:0:
260,320,224017,1,2,0:0:0:0:
126,141,224177,6,0,P|131:94|173:73,1,97.50000371933,8|0,3:1|3:1,3:1:0:0:
434,221,224496,5,2,0:3:0:0:
436,232,224575,1,2,0:3:0:0:
439,244,224655,1,2,0:3:0:0:
442,256,224735,1,2,0:3:0:0:
445,268,224815,6,0,B|411:224|437:175|437:175|482:161|484:114,1,162.5,8|0,0:3|0:0,0:0:0:0:
327,199,225294,1,2,0:3:0:0:
485,123,225454,6,0,P|473:87|453:74,1,48.750001859665,10|0,0:0|0:0,0:0:0:0:
327,199,225773,2,0,P|311:217|307:241,1,48.750001859665,2|0,0:0|0:0,0:0:0:0:
228,0,226092,6,0,P|262:69|282:155,1,146.250005578995,2|0,0:0|0:0,0:0:0:0:
186,215,226411,2,0,P|182:181|214:164,1,65,8|0,0:3|0:0,0:0:0:0:
481,343,226730,5,10,0:0:0:0:
327,199,226890,1,2,0:0:0:0:
270,384,227049,5,2,0:0:0:0:
416,187,227209,1,2,0:0:0:0:
416,187,227288,1,2,0:3:0:0:
416,187,227369,6,0,B|424:134|367:103|367:103|266:128,1,195.00000743866,10|0,0:3|0:0,0:0:0:0:
223,62,227847,1,2,0:0:0:0:
260,309,228007,6,0,B|284:321|296:361|296:361|303:279|345:222,1,195.00000743866,10|0,0:1|0:0,0:0:0:0:
491,140,228486,1,2,0:0:0:0:
247,223,228645,6,0,B|187:212|187:212|190:215|190:215|112:202,1,130,10|0,0:0|0:0,0:0:0:0:
126,204,229124,1,2,0:0:0:0:
448,259,229283,6,0,L|511:270,1,65,8|0,3:1|3:1,3:1:0:0:
169,302,229603,5,2,0:3:0:0:
159,315,229683,1,2,0:3:0:0:
157,330,229763,1,2,0:3:0:0:
165,345,229843,1,2,0:3:0:0:
179,353,229922,6,0,B|211:293|175:249|175:249|142:232|141:192,1,162.5,8|0,0:3|0:0,0:0:0:0:
310,80,230400,1,2,0:0:0:0:
245,22,230560,6,0,P|230:83|217:190,1,162.5,8|0,0:1|0:0,0:0:0:0:
151,55,231039,1,2,0:0:0:0:
217,181,231198,5,8,0:0:0:0:
180,256,231358,1,2,0:0:0:0:
217,181,231517,6,0,B|211:151|211:151|209:148|209:148|200:108,1,65,8|0,0:1|0:0,0:0:0:0:
280,343,231837,6,0,B|289:299|289:299|291:303|291:303|299:255,1,97.50000371933,8|0,0:0|0:0,0:0:0:0:
271,34,232156,5,2,0:3:0:0:
271,34,232236,1,2,0:3:0:0:
271,34,232315,2,0,P|288:11|323:14,1,48.750001859665,2|0,0:3|0:0,0:0:0:0:
465,130,232475,6,0,B|435:75|383:65|336:86|336:86|357:101|361:124,1,195.00000743866,10|0,0:0|0:0,0:0:0:0:
507,216,232954,1,2,0:0:0:0:
319,333,233113,6,0,P|308:236|280:142,1,195.00000743866,10|0,0:1|0:0,0:0:0:0:
428,12,233592,1,2,0:0:0:0:
280,142,233752,6,0,B|198:113|235:188|139:152,1,130,10|0,0:0|0:0,0:0:0:0:
109,219,234230,1,2,0:0:0:0:
125,384,234390,6,0,P|146:344|135:285,1,97.50000371933,8|0,3:1|3:1,3:1:0:0:
78,143,234709,5,2,0:3:0:0:
78,143,234789,1,2,0:3:0:0:
78,143,234869,2,0,P|81:108|99:91,1,48.750001859665,2|0,0:3|0:0,0:0:0:0:
196,48,235028,6,0,P|171:115|148:252,1,195,8|8,0:3|0:1,0:0:0:0:
321,384,235826,1,2,0:3:0:0:
243,358,235986,2,0,P|225:306|241:285,1,65,2|0,0:0|0:0,0:0:0:0:
337,211,236305,5,2,0:0:0:0:
299,277,236464,1,2,0:0:0:0:
337,211,236624,2,0,P|300:252|274:249,1,65,2|0,0:0|0:0,0:0:0:0:
219,218,236943,6,0,P|195:175|146:173,1,81.25,8|0,0:0|0:0,0:0:0:0:
141,85,237262,1,0,0:0:0:0:
141,85,237342,1,0,0:0:0:0:
141,85,237422,2,0,P|113:105|90:109,1,48.750001859665
30,149,237581,6,0,B|69:119|139:142|109:187|155:216|216:179,1,195.00000743866,8|0,0:3|0:0,0:0:0:0:
383,29,238060,1,2,0:0:0:0:
306,69,238220,6,0,P|291:136|288:244,1,162.5,8|0,0:1|0:0,0:0:0:0:
218,71,238698,1,2,0:0:0:0:
376,357,238858,6,0,B|349:322|355:276|355:276|346:302|320:311,1,130,2|0,0:0|0:0,0:0:0:0:
326,308,239337,1,2,0:0:0:0:
418,208,239496,6,0,P|451:247|436:295,1,97.50000371933,8|0,3:1|3:1,3:1:0:0:
330,170,239815,1,2,0:3:0:0:
330,170,239895,1,2,0:3:0:0:
330,170,239975,2,0,P|353:147|363:119,1,48.750001859665,2|0,0:3|0:0,0:0:0:0:
275,86,240135,6,0,B|236:119|269:200|281:148|340:207|293:262,1,195.00000743866,8|8,0:3|0:1,0:0:0:0:
244,319,240932,1,2,0:3:0:0:
193,249,241092,2,0,P|219:288|216:320,1,65,2|0,0:0|0:0,0:0:0:0:
64,190,241411,5,8,0:3:0:0:
203,149,241571,1,2,0:0:0:0:
139,192,241730,2,0,P|159:149|188:136,1,65,2|0,0:0|0:0,0:0:0:0:
94,316,242049,6,0,P|62:268|70:227,1,97.50000371933,8|0,0:0|0:0,0:0:0:0:
209,273,242369,1,2,0:3:0:0:
209,273,242448,1,2,0:3:0:0:
209,273,242528,2,0,P|187:283|178:305,1,48.750001859665,2|0,0:3|0:0,0:0:0:0:
229,374,242688,6,0,P|332:343|423:336,1,195.00000743866,8|0,0:3|0:0,0:0:0:0:
222,276,243166,1,2,0:0:0:0:
421,153,243326,6,0,B|382:135|348:157|348:157|332:198|282:203,1,162.5,8|0,0:1|0:0,0:0:0:0:
70,35,243805,1,2,0:0:0:0:
164,21,243964,6,0,P|144:79|131:156,1,130,2|0,0:0|0:0,0:0:0:0:
67,205,244443,1,2,0:0:0:0:
195,286,244603,6,0,P|194:337|154:358,1,97.50000371933,8|0,3:1|3:1,3:1:0:0:
202,203,244922,1,2,0:3:0:0:
202,203,245002,1,2,0:3:0:0:
202,203,245081,2,0,P|233:183|258:182,1,48.750001859665,2|0,0:3|0:0,0:0:0:0:
300,250,245241,6,0,B|276:209|279:166|307:129|307:129|345:115|353:74,1,195.00000743866,8|0,0:3|0:0,0:0:0:0:
276,53,246039,1,2,0:3:0:0:
357,86,246198,6,0,P|376:106|380:126,1,48.750001859665,2|0,0:0|0:0,0:0:0:0:
330,187,246517,2,0,P|292:182|274:156,1,65,2|0,0:0|0:0,0:0:0:0:
408,206,246837,6,0,P|427:226|431:246,1,48.750001859665,2|0,0:0|0:0,0:0:0:0:
288,263,247156,2,0,P|294:211|330:186,1,97.50000371933,2|0,0:0|0:0,0:0:0:0:
254,351,247475,6,0,P|242:339|237:319,2,32.5,2|2|2,0:3|0:3|0:3,0:3:0:0:
432,297,247794,6,0,B|467:255|473:216|463:172|463:172|429:163|412:118,1,195.00000743866,8|0,0:3|0:0,0:0:0:0:
393,51,248273,1,2,0:0:0:0:
314,229,248432,6,0,B|269:166|269:166|279:116|331:99,1,162.5,8|0,0:1|0:0,0:0:0:0:
393,51,248911,1,2,0:0:0:0:
263,36,249071,6,0,B|247:24|226:21|226:21|315:10,1,130,2|0,0:0|0:0,0:0:0:0:
314,10,249549,1,2,0:0:0:0:
212,100,249709,6,0,P|181:135|195:180,1,97.50000371933,8|0,3:1|3:1,3:1:0:0:
275,243,250028,1,2,0:3:0:0:
275,243,250108,1,2,0:3:0:0:
275,243,250188,2,0,P|285:271|268:302,1,48.750001859665,2|0,0:3|0:0,0:0:0:0:
320,366,250347,6,0,P|329:282|371:164,1,195.00000743866,8|8,0:3|0:0,0:1:0:0:
423,116,251145,1,0,0:0:0:0:
493,158,251305,2,0,P|462:132|435:134,1,65,2|0,0:0|0:0,0:0:0:0:
315,211,251624,5,2,0:0:0:0:
369,160,251783,1,2,0:0:0:0:
315,211,251943,2,0,P|353:197|364:172,1,65,2|0,0:0|0:0,0:0:0:0:
208,248,252262,6,0,P|238:274|265:272,1,65,2|0,0:0|0:0,0:0:0:0:
372,94,252581,2,0,P|376:68|366:54,2,32.5,2|2|2,0:3|0:3|0:3,0:0:0:0:
182,353,252900,6,0,P|172:256|147:163,1,195.00000743866,8|0,0:3|0:0,0:0:0:0:
341,0,253379,1,2,0:0:0:0:
256,32,253539,6,0,B|207:80|251:139|251:139|293:119,1,162.5,8|0,0:1|0:0,0:0:0:0:
359,162,254017,1,2,0:0:0:0:
157,125,254177,6,0,P|125:123|97:140,1,65,2|0,0:1|0:0,0:0:0:0:
26,99,254496,5,2,0:0:0:0:
187,217,254656,1,2,0:0:0:0:
105,317,254815,1,8,0:1:0:0:
26,183,254975,5,2,0:0:0:0:
81,238,255135,1,2,0:3:0:0:
102,162,255294,1,2,0:3:0:0:
70,195,255454,5,8,0:3:0:0:
256,192,255533,12,0,263113,0:0:0:0:
