osu file format v14

[General]
AudioFilename: I Love You.mp3
AudioLeadIn: 0
PreviewTime: 47534
Countdown: 0
SampleSet: Soft
StackLeniency: 0.7
Mode: 2
LetterboxInBreaks: 0
WidescreenStoryboard: 0

[Editor]
Bookmarks: 17534,52443,69898,87352,96080,104807,106989
DistanceSpacing: 1
BeatDivisor: 4
GridSize: 16
TimelineZoom: 3.399999

[Metadata]
Title:I Love You
TitleUnicode:好きです
Artist:DJ OKAWARI ft. Rem (CV: Minase Inori)
ArtistUnicode:DJ OKAWARI ft. Rem (CV: Minase Inori)
Creator:Hareimu
Version:Unconditional Love for Rem's Hero
Source:Re:ゼロから始める異世界生活
Tags:re: zero kara hajimeru isekai seikatsu life in a different world from zero re:zero rezero レム rem 水瀬いのり minase inori たらこ 音MAD flower dance
BeatmapID:1176048
BeatmapSetID:555680

[Difficulty]
HPDrainRate:4.5
CircleSize:4
OverallDifficulty:9.3
ApproachRate:9.3
SliderMultiplier:1.92
SliderTickRate:4

[Events]
//Background and Video events
0,0,"BG.jpg",0,0
//Break Periods
//Storyboard Layer 0 (Background)
//Storyboard Layer 1 (Fail)
//Storyboard Layer 2 (Pass)
//Storyboard Layer 3 (Foreground)
//Storyboard Sound Samples

[TimingPoints]
80,545.454545454546,4,2,1,50,1,0
17534,-100,4,2,1,50,0,1
34989,-100,4,2,1,50,0,0
48080,-100,4,2,1,50,0,1
48148,-100,4,2,1,50,0,0
52443,-100,4,2,1,50,0,1
69898,-100,4,2,1,50,0,0
104807,-50,4,2,1,50,0,0
106989,-50,4,2,1,50,0,1
141898,-100,4,2,1,50,0,0
144080,560.747663551402,4,2,1,50,1,0
146322,571.428571428571,4,2,1,50,1,0
148607,600,4,2,1,50,1,0
151007,609.137055837563,4,2,1,50,1,0
153443,705.882352941176,4,2,1,50,1,0
156266,710.059171597633,4,2,1,50,1,0
159106,-100,4,2,1,25,0,0
160526,-100,4,2,1,10,0,0

[Colours]
Combo1 : 192,192,192
Combo2 : 61,149,237
Combo3 : 255,128,192

[HitObjects]
144,288,80,5,0,0:0:0:0:
192,192,216,1,0,0:0:0:0:
352,96,352,2,0,P|432:160|432:192,1,144,0|2,0:0|0:0,0:0:0:0:
416,240,898,1,0,0:0:0:0:
368,272,1034,1,2,0:0:0:0:
192,288,1170,2,0,L|96:288,1,96,2|0,0:0|0:0,0:0:0:0:
352,192,1716,2,0,L|256:192,1,96,2|0,0:0|0:0,0:0:0:0:
208,96,2125,1,0,0:0:0:0:
384,272,2261,6,0,L|432:272,1,48,2|0,0:0|0:0,0:0:0:0:
336,96,2534,2,0,L|384:96,1,48,0|2,0:0|0:0,0:0:0:0:
208,96,2807,2,0,L|64:96,1,144,2|0,0:0|0:0,0:0:0:0:
224,192,3352,2,0,L|320:192,1,96,2|0,0:0|0:0,0:0:0:0:
64,288,3898,2,0,L|160:288,1,96,2|0,0:0|0:0,0:0:0:0:
400,192,4443,6,0,L|352:192,1,48,2|0,0:0|0:0,0:0:0:0:
192,96,4716,2,0,L|144:96,1,48
304,288,4989,2,0,L|400:288,1,96,2|0,0:0|0:0,0:0:0:0:
352,192,5398,1,0,0:0:0:0:
192,96,5534,2,0,L|96:96,1,96,2|2,0:0|0:0,0:0:0:0:
48,160,5898,1,2,0:0:0:0:
112,208,5989,1,2,0:0:0:0:
256,192,6080,2,0,L|352:192,1,96,2|0,0:0|0:0,0:0:0:0:
112,304,6625,5,2,0:0:0:0:
208,96,6898,1,0,0:0:0:0:
352,272,7170,1,0,0:0:0:0:
112,304,7443,1,2,0:0:0:0:
400,80,7716,1,2,0:0:0:0:
304,288,7989,1,0,0:0:0:0:
160,112,8261,1,0,0:0:0:0:
400,80,8534,1,2,0:0:0:0:
112,192,8807,6,0,L|208:192,2,96,2|0|0,0:0|0:0|0:0,0:0:0:0:
160,272,9489,1,2,0:0:0:0:
320,272,9625,2,0,L|368:272,1,48,0|2,0:0|0:0,0:0:0:0:
208,112,9898,2,0,L|112:112,1,96,2|0,0:0|0:0,0:0:0:0:
352,192,10443,1,2,0:0:0:0:
112,192,10989,6,0,L|208:192,1,96,0|2,0:0|0:0,0:0:0:0:
400,112,11534,1,2,0:0:0:0:
160,304,11807,1,2,0:0:0:0:
368,192,12080,2,0,L|320:192,1,48,0|2,0:0|0:0,0:0:0:0:
144,112,12352,2,0,L|192:112,1,48,0|2,0:0|0:0,0:0:0:0:
352,272,12625,2,0,L|400:272,1,48,0|2,0:0|0:0,0:0:0:0:
160,272,12898,2,0,L|112:272,1,48,0|2,0:0|0:0,0:0:0:0:
352,112,13170,5,0,0:0:0:0:
464,272,13307,1,2,0:0:0:0:
352,272,13443,1,0,0:0:0:0:
464,112,13580,1,2,0:0:0:0:
304,192,13716,1,0,0:0:0:0:
208,128,13852,1,2,0:0:0:0:
304,80,13989,1,0,0:0:0:0:
400,192,14125,1,2,0:0:0:0:
160,112,14261,5,0,0:0:0:0:
48,272,14398,1,2,0:0:0:0:
160,272,14534,1,0,0:0:0:0:
48,112,14671,1,2,0:0:0:0:
208,192,14807,1,0,0:0:0:0:
304,128,14944,1,2,0:0:0:0:
208,80,15080,1,0,0:0:0:0:
112,192,15217,1,2,0:0:0:0:
448,272,15352,5,0,0:0:0:0:
448,112,15489,1,2,0:0:0:0:
208,272,15625,1,0,0:0:0:0:
304,272,15762,1,2,0:0:0:0:
64,272,15898,1,0,0:0:0:0:
64,112,16035,1,2,0:0:0:0:
304,112,16171,1,0,0:0:0:0:
208,112,16308,1,2,0:0:0:0:
448,192,16443,5,0,0:0:0:0:
336,352,16580,1,2,0:0:0:0:
64,192,16716,1,2,1:3:0:0:
176,32,16853,1,0,0:0:0:0:
448,304,16989,1,8,1:0:0:0:
64,80,17261,1,2,1:3:0:0:
448,192,17534,5,12,1:2:0:0:
336,256,17670,1,0,0:0:0:0:
448,320,17807,1,2,0:3:0:0:
64,192,18080,1,8,1:0:0:0:
160,256,18216,1,0,0:0:0:0:
400,192,18352,1,2,0:3:0:0:
448,112,18489,1,0,0:0:0:0:
160,128,18625,5,2,0:3:0:0:
64,192,18761,1,0,0:0:0:0:
304,64,18898,1,2,1:3:0:0:
208,320,19034,1,0,0:0:0:0:
448,256,19170,1,8,1:0:0:0:
336,192,19307,1,0,0:0:0:0:
448,128,19443,1,2,0:3:0:0:
336,64,19580,1,0,0:0:0:0:
64,192,19716,5,2,1:3:0:0:
176,256,19852,1,0,0:0:0:0:
64,320,19989,1,2,0:3:0:0:
176,128,20125,1,0,0:0:0:0:
400,128,20261,1,8,1:0:0:0:
416,224,20398,1,0,0:0:0:0:
112,256,20534,1,2,0:3:0:0:
96,160,20671,1,0,0:0:0:0:
352,80,20807,5,2,0:3:0:0:
448,176,20943,1,0,0:0:0:0:
160,304,21080,1,2,1:3:0:0:
64,208,21216,1,0,0:0:0:0:
304,224,21352,1,8,1:0:0:0:
208,160,21489,1,0,0:0:0:0:
448,176,21625,1,2,0:3:0:0:
352,80,21762,1,0,0:0:0:0:
64,192,21898,5,2,1:3:0:0:
176,128,22034,1,0,0:0:0:0:
64,64,22170,1,2,0:3:0:0:
176,256,22307,1,0,0:0:0:0:
448,288,22443,1,8,1:0:0:0:
464,96,22579,1,0,0:0:0:0:
208,288,22715,1,2,0:3:0:0:
304,288,22852,1,0,0:0:0:0:
64,96,22989,5,2,0:3:0:0:
48,288,23125,1,0,0:0:0:0:
304,96,23261,1,2,1:3:0:0:
208,96,23398,1,0,0:0:0:0:
448,160,23534,1,8,1:0:0:0:
336,224,23670,1,0,0:0:0:0:
448,288,23806,1,2,0:3:0:0:
336,96,23943,1,0,0:0:0:0:
64,192,24080,5,2,1:3:0:0:
160,96,24216,1,0,0:0:0:0:
448,192,24352,1,2,0:3:0:0:
352,288,24488,1,0,0:0:0:0:
128,256,24625,1,8,1:0:0:0:
160,96,24761,1,0,0:0:0:0:
384,128,24898,1,2,0:3:0:0:
352,288,25034,1,0,0:0:0:0:
80,160,25170,5,2,0:3:0:0:
432,224,25443,1,2,1:3:0:0:
336,160,25580,1,0,0:0:0:0:
64,256,25716,1,8,1:0:0:0:
112,128,25852,1,0,0:0:0:0:
448,112,25989,1,2,0:3:0:0:
352,48,26125,1,0,0:0:0:0:
112,240,26261,5,2,1:3:0:0:
208,160,26398,1,0,0:0:0:0:
80,128,26534,1,2,0:3:0:0:
176,48,26670,1,0,0:0:0:0:
400,144,26807,1,8,1:0:0:0:
304,224,26944,1,0,0:0:0:0:
432,256,27080,1,2,0:3:0:0:
336,336,27216,1,0,0:0:0:0:
112,208,27352,5,2,0:3:0:0:
208,256,27489,1,0,0:0:0:0:
112,320,27625,1,2,0:3:0:0:
48,224,27716,1,0,0:0:0:0:
80,112,27807,1,0,0:0:0:0:
256,96,27898,1,8,1:0:0:0:
352,192,28034,1,0,0:0:0:0:
256,288,28170,1,2,0:1:0:0:
160,192,28306,1,0,0:0:0:0:
448,144,28443,5,2,1:3:0:0:
336,208,28580,1,0,0:0:0:0:
448,272,28716,1,2,0:3:0:0:
336,80,28852,1,0,0:0:0:0:
96,192,28989,1,8,1:0:0:0:
64,288,29125,1,0,0:0:0:0:
416,192,29261,1,2,0:3:0:0:
448,96,29397,1,0,0:0:0:0:
64,96,29534,5,2,0:3:0:0:
448,288,29807,1,2,1:3:0:0:
416,192,29943,1,0,0:0:0:0:
160,144,30080,1,8,1:0:0:0:
64,240,30216,1,0,0:0:0:0:
352,112,30352,1,2,0:3:0:0:
448,96,30488,1,0,0:0:0:0:
64,144,30625,5,2,1:3:0:0:
176,144,30762,1,0,0:0:0:0:
64,144,30898,1,2,0:3:0:0:
176,144,31034,1,0,0:0:0:0:
448,144,31170,1,8,1:0:0:0:
416,240,31307,1,0,0:0:0:0:
96,240,31443,1,2,0:3:0:0:
64,144,31580,1,0,0:0:0:0:
304,144,31716,5,2,0:3:0:0:
208,144,31852,1,0,0:0:0:0:
448,192,31989,1,2,1:3:0:0:
352,192,32125,1,0,0:0:0:0:
64,192,32261,1,10,1:0:0:0:
448,192,32534,1,2,0:3:0:0:
400,112,32670,1,0,0:0:0:0:
176,112,32807,5,2,1:3:0:0:
80,112,32943,1,0,0:0:0:0:
320,272,33080,1,2,0:3:0:0:
256,272,33170,1,0,0:0:0:0:
192,272,33261,1,0,0:0:0:0:
400,192,33352,1,8,1:0:0:0:
64,192,33625,1,2,0:3:0:0:
160,192,33761,1,0,0:0:0:0:
448,96,33898,5,2,0:3:0:0:
64,96,34170,1,2,1:3:0:0:
448,288,34443,1,8,1:0:0:0:
112,288,34580,1,0,0:0:0:0:
400,96,34716,1,2,0:3:0:0:
64,96,34852,1,0,0:0:0:0:
352,192,34989,5,2,1:3:0:0:
400,272,35125,1,0,0:0:0:0:
64,288,35261,1,2,0:3:0:0:
448,192,35534,1,8,1:0:0:0:
400,112,35670,1,0,0:0:0:0:
304,112,35807,1,2,0:3:0:0:
160,112,35943,1,0,0:0:0:0:
448,272,36080,5,2,0:3:0:0:
64,272,36352,1,2,1:3:0:0:
448,112,36625,1,8,1:0:0:0:
352,112,36761,1,0,0:0:0:0:
448,224,36898,1,2,0:3:0:0:
352,224,37034,1,0,0:0:0:0:
144,192,37170,5,2,1:3:0:0:
48,192,37306,1,0,0:0:0:0:
144,272,37443,1,2,0:3:0:0:
400,112,37580,1,0,0:0:0:0:
64,112,37716,1,8,1:0:0:0:
160,112,37852,1,0,0:0:0:0:
64,272,37989,1,2,0:3:0:0:
400,272,38125,1,0,0:0:0:0:
160,272,38261,5,2,0:3:0:0:
64,112,38398,1,0,0:0:0:0:
448,192,38534,1,2,1:3:0:0:
352,112,38670,1,0,0:0:0:0:
64,272,38807,1,8,1:0:0:0:
448,112,39080,1,2,0:3:0:0:
64,112,39352,5,2,1:3:0:0:
256,272,39625,1,2,0:3:0:0:
160,272,39761,1,0,0:0:0:0:
448,112,39898,1,8,1:0:0:0:
64,112,40170,1,2,0:3:0:0:
448,272,40443,5,2,0:3:0:0:
64,272,40716,1,2,1:3:0:0:
144,272,40807,1,0,0:0:0:0:
64,112,40898,1,0,0:0:0:0:
256,112,40989,1,8,1:0:0:0:
448,112,41261,1,2,0:3:0:0:
64,272,41534,5,2,1:3:0:0:
256,272,41807,1,2,0:3:0:0:
352,112,41943,1,0,0:0:0:0:
112,112,42080,1,8,1:0:0:0:
208,112,42216,1,0,0:0:0:0:
448,112,42352,1,2,0:3:0:0:
64,272,42625,5,2,0:3:0:0:
320,272,42898,1,2,1:3:0:0:
192,112,43170,1,8,1:0:0:0:
448,112,43443,1,2,0:3:0:0:
352,112,43580,1,0,0:0:0:0:
64,112,43716,5,2,1:3:0:0:
448,272,43989,1,2,0:3:0:0:
400,192,44125,1,0,0:0:0:0:
160,192,44261,1,8,1:0:0:0:
64,192,44398,1,0,0:0:0:0:
304,112,44534,1,2,0:3:0:0:
208,112,44671,1,0,0:0:0:0:
448,192,44807,5,2,0:3:0:0:
192,192,45080,1,2,1:3:0:0:
320,192,45352,1,8,1:0:0:0:
64,192,45625,1,2,0:3:0:0:
448,192,45898,5,2,1:3:0:0:
352,192,46170,1,2,0:3:0:0:
256,192,46443,1,8,1:0:0:0:
160,192,46716,1,2,0:3:0:0:
64,192,46989,5,2,0:3:0:0:
112,112,47125,1,0,0:0:0:0:
256,112,47261,1,2,1:3:0:0:
304,192,47398,1,0,0:0:0:0:
448,192,47534,1,8,1:0:0:0:
144,192,47670,1,0,0:0:0:0:
368,288,47807,1,2,0:3:0:0:
64,192,47943,1,0,0:0:0:0:
448,80,48080,5,12,1:2:0:0:
352,80,48216,1,2,0:0:0:0:
64,80,48352,1,2,0:3:0:0:
160,80,48488,1,2,0:0:0:0:
448,304,48625,1,2,0:3:0:0:
336,304,48761,1,2,0:0:0:0:
64,304,48897,1,2,0:3:0:0:
176,304,49033,1,2,0:0:0:0:
448,192,49170,5,2,0:3:0:0:
320,192,49306,1,2,0:0:0:0:
64,192,49442,1,2,0:3:0:0:
192,192,49578,1,2,0:0:0:0:
464,96,49716,5,2,0:3:0:0:
128,96,49852,1,2,0:0:0:0:
384,96,49989,1,2,0:3:0:0:
64,288,50125,1,2,0:0:0:0:
176,288,50261,5,2,0:3:0:0:
384,288,50397,1,2,0:0:0:0:
64,96,50534,1,2,0:3:0:0:
464,96,50670,1,2,0:0:0:0:
144,288,50807,5,2,0:3:0:0:
416,192,50943,1,2,0:0:0:0:
304,80,51080,1,2,0:3:0:0:
96,80,51216,1,2,0:0:0:0:
368,192,51352,5,2,0:3:0:0:
144,192,51488,1,2,0:0:0:0:
400,288,51625,1,0,1:2:0:0:
112,288,51761,1,0,0:0:0:0:
464,80,51898,1,10,1:0:0:0:
16,80,52170,1,2,1:0:0:0:
480,304,52443,5,12,1:2:0:0:
256,304,52580,1,0,0:0:0:0:
32,192,52716,1,2,0:3:0:0:
256,192,52853,1,0,0:0:0:0:
32,64,52989,1,8,1:0:0:0:
304,64,53125,1,0,0:0:0:0:
208,320,53261,1,2,0:3:0:0:
480,320,53397,1,0,0:0:0:0:
160,192,53534,5,2,0:3:0:0:
48,192,53670,1,0,0:0:0:0:
160,96,53807,1,2,1:3:0:0:
48,96,53943,1,0,0:0:0:0:
448,192,54080,1,8,1:0:0:0:
64,304,54352,1,2,0:3:0:0:
160,304,54489,1,0,0:0:0:0:
448,80,54625,5,2,1:3:0:0:
352,80,54762,1,0,0:0:0:0:
448,304,54898,1,2,0:3:0:0:
352,304,55035,1,0,0:0:0:0:
64,192,55170,1,8,1:0:0:0:
80,96,55307,1,0,0:0:0:0:
304,96,55443,1,2,0:3:0:0:
208,96,55580,1,0,0:0:0:0:
432,192,55716,5,2,0:3:0:0:
416,96,55853,1,0,0:0:0:0:
144,192,55989,1,2,1:3:0:0:
368,288,56126,1,0,0:0:0:0:
80,96,56261,1,8,1:0:0:0:
448,192,56534,1,2,0:3:0:0:
352,192,56670,1,0,0:0:0:0:
64,320,56807,5,2,1:3:0:0:
448,320,57080,1,2,0:3:0:0:
64,192,57352,1,8,1:0:0:0:
48,96,57489,1,0,0:0:0:0:
160,288,57625,1,2,0:3:0:0:
80,288,57761,1,0,0:0:0:0:
432,288,57898,5,2,0:3:0:0:
352,288,58034,1,0,0:0:0:0:
464,96,58170,1,2,1:3:0:0:
448,192,58307,1,0,0:0:0:0:
208,192,58443,1,8,1:0:0:0:
304,192,58580,1,0,0:0:0:0:
48,96,58716,1,2,0:3:0:0:
64,192,58853,1,0,0:0:0:0:
320,192,58989,5,2,1:3:0:0:
448,192,59125,1,0,0:0:0:0:
320,96,59261,1,2,0:3:0:0:
448,96,59398,1,0,0:0:0:0:
64,320,59534,1,8,1:0:0:0:
304,320,59670,1,0,0:0:0:0:
208,320,59806,1,2,0:3:0:0:
448,320,59943,1,0,0:0:0:0:
64,80,60080,5,2,0:3:0:0:
448,80,60352,1,2,1:3:0:0:
336,80,60489,1,0,0:0:0:0:
48,192,60625,1,8,1:0:0:0:
464,304,60762,1,0,0:0:0:0:
256,304,60898,1,2,0:3:0:0:
48,304,61035,1,0,0:0:0:0:
448,192,61170,5,2,1:3:0:0:
352,192,61307,1,0,0:0:0:0:
448,96,61443,1,2,0:3:0:0:
352,96,61580,1,0,0:0:0:0:
64,192,61716,1,8,1:0:0:0:
160,192,61853,1,0,0:0:0:0:
448,192,61989,1,2,0:3:0:0:
64,304,62261,5,2,0:3:0:0:
464,48,62534,1,2,1:3:0:0:
256,48,62670,1,0,0:0:0:0:
48,48,62807,1,8,1:0:0:0:
112,112,62943,1,0,0:0:0:0:
400,272,63080,1,2,0:3:0:0:
464,192,63216,1,0,0:0:0:0:
208,192,63352,5,2,1:3:0:0:
304,192,63489,1,0,0:0:0:0:
64,304,63625,1,2,0:3:0:0:
160,304,63762,1,0,0:0:0:0:
448,192,63898,1,8,1:0:0:0:
64,192,64170,1,2,0:3:0:0:
160,192,64307,1,0,0:0:0:0:
448,192,64443,5,2,0:3:0:0:
368,128,64580,1,0,0:0:0:0:
144,272,64716,1,2,1:3:0:0:
64,336,64853,1,0,0:0:0:0:
352,192,64989,1,8,1:0:0:0:
144,128,65125,1,0,0:0:0:0:
64,192,65262,1,2,0:3:0:0:
448,64,65534,5,2,1:3:0:0:
112,64,65671,1,0,0:0:0:0:
400,272,65807,1,2,0:3:0:0:
64,272,65943,1,0,0:0:0:0:
448,192,66080,1,8,1:0:0:0:
464,96,66216,1,0,0:0:0:0:
208,192,66352,1,2,0:3:0:0:
304,192,66489,1,0,0:0:0:0:
64,128,66625,5,2,0:3:0:0:
400,48,66762,1,0,0:0:0:0:
448,128,66898,1,2,1:3:0:0:
112,336,67034,1,0,0:0:0:0:
400,336,67171,1,8,1:0:0:0:
448,256,67307,1,0,0:0:0:0:
160,208,67443,1,2,0:3:0:0:
64,208,67579,1,0,0:0:0:0:
448,64,67716,5,2,1:3:0:0:
64,64,67989,1,2,0:3:0:0:
448,144,68261,1,8,1:0:0:0:
64,144,68398,1,0,0:0:0:0:
448,224,68534,1,2,0:3:0:0:
64,224,68671,1,0,0:0:0:0:
448,304,68807,5,2,0:3:0:0:
256,304,69080,1,2,1:3:0:0:
64,112,69352,1,8,1:0:0:0:
448,112,69625,1,2,0:3:0:0:
64,272,69898,5,12,0:0:0:0:
272,272,70034,1,0,0:0:0:0:
64,112,70170,1,0,0:0:0:0:
176,112,70306,1,0,0:0:0:0:
448,272,70443,1,2,0:0:0:0:
240,272,70579,1,0,0:0:0:0:
448,112,70715,1,0,0:0:0:0:
336,112,70851,1,0,0:0:0:0:
48,112,70989,5,2,0:0:0:0:
160,112,71125,1,0,0:0:0:0:
48,272,71261,1,0,0:0:0:0:
256,272,71397,1,0,0:0:0:0:
464,112,71534,1,2,0:0:0:0:
352,112,71670,1,0,0:0:0:0:
112,272,71807,1,2,0:0:0:0:
400,272,71943,1,0,0:0:0:0:
160,112,72080,5,2,0:0:0:0:
64,112,72216,1,0,0:0:0:0:
304,192,72352,1,2,0:0:0:0:
208,192,72488,1,0,0:0:0:0:
448,272,72625,1,2,0:0:0:0:
352,272,72761,1,0,0:0:0:0:
64,272,72898,1,2,0:0:0:0:
160,272,73034,1,0,0:0:0:0:
448,112,73170,5,2,0:0:0:0:
464,208,73306,1,0,0:0:0:0:
208,208,73443,1,2,0:0:0:0:
304,208,73580,1,0,0:0:0:0:
64,208,73716,1,2,0:0:0:0:
48,112,73852,1,0,0:0:0:0:
320,112,73989,1,2,0:0:0:0:
192,112,74126,1,0,0:0:0:0:
464,208,74261,5,2,0:0:0:0:
256,304,74398,1,0,0:0:0:0:
352,304,74534,1,0,0:0:0:0:
256,192,74670,1,0,0:0:0:0:
48,208,74807,1,2,0:0:0:0:
256,112,74944,1,0,0:0:0:0:
160,112,75080,1,0,0:0:0:0:
256,272,75216,1,0,0:0:0:0:
464,208,75352,5,2,0:0:0:0:
368,208,75489,1,0,0:0:0:0:
272,112,75625,1,0,0:0:0:0:
368,112,75761,1,0,0:0:0:0:
64,208,75898,1,2,0:0:0:0:
160,208,76034,1,0,0:0:0:0:
448,208,76170,1,2,0:0:0:0:
112,112,76307,1,0,0:0:0:0:
400,112,76443,5,2,0:0:0:0:
320,176,76580,1,0,0:0:0:0:
112,272,76716,1,2,0:0:0:0:
192,208,76853,1,0,0:0:0:0:
448,112,76989,1,2,0:0:0:0:
352,112,77126,1,0,0:0:0:0:
64,272,77261,1,2,0:0:0:0:
448,272,77398,1,0,0:0:0:0:
64,112,77534,5,2,0:0:0:0:
160,112,77671,1,0,0:0:0:0:
448,112,77807,1,2,0:0:0:0:
64,272,78080,1,0,3:0:0:0:
448,272,78352,1,2,0:0:0:0:
352,272,78489,1,0,0:0:0:0:
64,112,78625,5,2,3:2:0:0:
304,112,78761,1,0,0:0:0:0:
256,192,78898,1,0,0:0:0:0:
160,192,79034,1,0,0:0:0:0:
448,112,79170,1,2,3:2:0:0:
208,112,79306,1,0,0:0:0:0:
256,192,79443,1,0,0:0:0:0:
352,192,79579,1,0,0:0:0:0:
64,112,79716,5,2,0:0:0:0:
352,272,79852,1,0,0:0:0:0:
256,272,79989,1,0,3:0:0:0:
160,272,80125,1,0,0:0:0:0:
448,112,80261,1,2,3:2:0:0:
160,112,80397,1,0,0:0:0:0:
256,112,80534,1,2,0:0:0:0:
352,112,80670,1,0,0:0:0:0:
64,272,80807,5,2,3:2:0:0:
160,272,80943,1,0,0:0:0:0:
448,272,81080,1,2,0:0:0:0:
352,272,81216,1,0,0:0:0:0:
64,112,81352,1,2,3:2:0:0:
448,272,81625,1,2,0:0:0:0:
352,272,81761,1,0,0:0:0:0:
64,272,81897,5,2,0:0:0:0:
448,112,82170,1,2,3:2:0:0:
352,112,82307,1,0,0:0:0:0:
64,112,82443,1,2,3:2:0:0:
176,112,82580,1,0,0:0:0:0:
64,272,82716,1,2,0:0:0:0:
176,272,82853,1,0,0:0:0:0:
464,112,82989,5,2,3:2:0:0:
256,112,83125,1,0,0:0:0:0:
464,272,83261,1,0,0:0:0:0:
336,272,83398,1,0,0:0:0:0:
48,112,83534,1,2,3:2:0:0:
176,112,83670,1,0,0:0:0:0:
48,272,83806,1,0,0:0:0:0:
256,272,83943,1,0,0:0:0:0:
464,112,84080,5,2,0:0:0:0:
256,192,84216,1,0,0:0:0:0:
352,192,84352,1,0,3:0:0:0:
448,192,84489,1,0,0:0:0:0:
64,192,84625,1,2,3:2:0:0:
160,192,84761,1,0,0:0:0:0:
400,96,84898,1,2,0:0:0:0:
64,96,85034,1,0,0:0:0:0:
448,192,85170,5,2,3:2:0:0:
256,192,85443,1,0,0:0:0:0:
64,192,85716,1,0,3:0:0:0:
160,192,85852,1,0,0:0:0:0:
64,288,85989,1,2,0:0:0:0:
448,192,86261,1,2,0:0:0:0:
256,192,86534,1,0,3:0:0:0:
352,192,86670,1,0,0:0:0:0:
64,192,86807,1,0,3:0:0:0:
448,192,87080,1,2,0:0:0:0:
64,96,87352,5,2,1:3:0:0:
160,96,87489,1,0,0:0:0:0:
192,192,87625,1,2,0:3:0:0:
144,272,87761,1,0,0:0:0:0:
448,96,87898,1,8,1:0:0:0:
352,96,88035,1,0,0:0:0:0:
336,192,88171,1,2,0:3:0:0:
384,272,88307,1,0,0:0:0:0:
160,176,88443,5,2,0:3:0:0:
64,176,88580,1,0,0:0:0:0:
304,112,88716,1,2,1:3:0:0:
208,112,88852,1,0,0:0:0:0:
464,176,88989,1,8,1:0:0:0:
368,176,89126,1,0,0:0:0:0:
160,304,89262,1,2,0:3:0:0:
384,304,89398,1,0,0:0:0:0:
64,96,89534,5,2,1:3:0:0:
448,96,89807,1,2,0:3:0:0:
64,288,90080,1,8,1:0:0:0:
448,288,90352,1,2,0:3:0:0:
352,288,90489,1,0,0:0:0:0:
64,96,90625,5,2,0:3:0:0:
448,96,90898,1,2,1:3:0:0:
352,96,91034,1,0,0:0:0:0:
448,192,91170,1,8,1:0:0:0:
64,288,91443,1,2,0:3:0:0:
160,288,91580,1,0,0:0:0:0:
368,96,91716,5,2,1:3:0:0:
464,96,91852,1,0,0:0:0:0:
352,192,91989,1,2,0:3:0:0:
448,192,92125,1,0,0:0:0:0:
144,96,92261,1,8,1:0:0:0:
48,96,92397,1,0,0:0:0:0:
160,192,92534,1,2,0:3:0:0:
64,192,92670,1,0,0:0:0:0:
304,288,92807,5,2,0:3:0:0:
208,288,92943,1,0,0:0:0:0:
448,96,93080,1,2,1:3:0:0:
464,192,93216,1,0,0:0:0:0:
64,96,93352,1,8,1:0:0:0:
48,192,93488,1,0,0:0:0:0:
368,192,93625,1,2,0:3:0:0:
144,192,93761,1,0,0:0:0:0:
464,80,93898,5,2,1:3:0:0:
256,80,94034,1,0,0:0:0:0:
48,304,94170,1,2,0:3:0:0:
256,304,94307,1,0,0:0:0:0:
48,192,94443,1,8,1:0:0:0:
256,192,94580,1,0,0:0:0:0:
464,96,94716,1,2,0:3:0:0:
144,96,94852,1,0,0:0:0:0:
368,192,94989,5,2,0:3:0:0:
464,192,95125,1,0,0:0:0:0:
144,192,95261,1,2,1:3:0:0:
48,192,95397,1,0,0:0:0:0:
256,320,95534,1,8,1:0:0:0:
464,320,95670,1,0,0:0:0:0:
256,80,95807,1,2,0:3:0:0:
48,80,95943,1,0,0:0:0:0:
464,192,96080,5,2,1:3:0:0:
256,192,96216,1,0,0:0:0:0:
464,288,96352,1,2,0:3:0:0:
48,96,96489,1,0,0:0:0:0:
256,96,96625,1,8,1:0:0:0:
48,192,96761,1,0,0:0:0:0:
464,192,96898,1,2,0:3:0:0:
368,192,97034,1,0,0:0:0:0:
48,304,97170,5,2,0:3:0:0:
368,304,97306,1,0,0:0:0:0:
144,304,97442,1,2,1:3:0:0:
464,192,97579,1,0,0:0:0:0:
144,80,97715,1,8,1:0:0:0:
368,80,97851,1,0,0:0:0:0:
48,192,97988,1,2,0:3:0:0:
256,192,98124,1,0,0:0:0:0:
464,288,98261,5,2,1:3:0:0:
352,288,98398,1,0,0:0:0:0:
48,96,98534,1,2,0:3:0:0:
160,96,98671,1,0,0:0:0:0:
464,192,98807,1,8,1:0:0:0:
464,96,98944,1,0,0:0:0:0:
192,192,99080,1,2,0:3:0:0:
320,192,99217,1,0,0:0:0:0:
48,192,99352,5,2,0:3:0:0:
48,96,99489,1,0,0:0:0:0:
320,192,99625,1,2,1:3:0:0:
192,192,99762,1,0,0:0:0:0:
448,112,99898,1,8,1:0:0:0:
320,112,100035,1,0,0:0:0:0:
64,112,100170,1,2,0:3:0:0:
192,112,100307,1,0,0:0:0:0:
448,272,100443,5,10,1:3:0:0:
336,272,100580,1,0,0:0:0:0:
64,272,100716,1,2,0:3:0:0:
448,112,100852,1,0,0:0:0:0:
336,112,100989,1,8,1:0:0:0:
64,112,101125,1,0,0:0:0:0:
336,272,101261,1,2,0:3:0:0:
448,272,101398,1,0,0:0:0:0:
64,272,101534,5,2,0:3:0:0:
176,272,101671,1,0,0:0:0:0:
448,112,101807,1,2,1:3:0:0:
64,112,101943,1,0,0:0:0:0:
176,112,102080,1,8,1:0:0:0:
448,272,102216,1,0,0:0:0:0:
128,272,102352,1,2,0:3:0:0:
384,112,102489,1,0,0:0:0:0:
64,112,102625,5,2,1:3:0:0:
48,208,102761,1,0,0:0:0:0:
160,208,102898,1,2,0:3:0:0:
112,128,103034,1,0,0:0:0:0:
320,288,103170,1,8,1:0:0:0:
224,288,103307,1,0,0:0:0:0:
448,112,103443,1,2,0:3:0:0:
352,112,103580,1,0,0:0:0:0:
64,208,103716,5,2,0:3:0:0:
160,208,103853,1,0,0:0:0:0:
400,128,103989,1,2,1:3:0:0:
64,112,104125,1,0,0:0:0:0:
448,208,104261,1,8,1:0:0:0:
464,240,104307,1,0,0:0:0:0:
448,272,104352,1,0,0:0:0:0:
64,208,104534,1,2,0:3:0:0:
448,208,104807,5,14,1:2:0:0:
368,144,104943,1,0,0:0:0:0:
144,144,105080,1,2,0:3:0:0:
64,208,105216,1,0,0:0:0:0:
352,240,105352,2,0,L|160:240,1,192,2|2,0:3|0:3,0:0:0:0:
400,144,105761,1,0,0:0:0:0:
112,144,105898,5,2,0:3:0:0:
208,144,106034,1,0,0:0:0:0:
448,256,106170,1,2,1:3:0:0:
128,304,106307,1,0,0:0:0:0:
352,144,106443,1,8,1:0:0:0:
48,240,106580,1,0,0:0:0:0:
256,240,106716,1,2,0:3:0:0:
48,128,106853,1,0,0:0:0:0:
448,144,106989,5,2,1:3:0:0:
336,144,107125,1,0,0:0:0:0:
448,240,107261,1,2,0:3:0:0:
64,144,107534,1,8,1:0:0:0:
176,144,107670,1,0,0:0:0:0:
448,320,107807,1,2,0:3:0:0:
336,320,107943,1,0,0:0:0:0:
112,288,108080,5,2,0:3:0:0:
64,208,108216,1,0,0:0:0:0:
400,144,108352,1,2,1:3:0:0:
448,224,108488,1,0,0:0:0:0:
208,320,108625,1,8,1:0:0:0:
304,320,108761,1,0,0:0:0:0:
96,64,108898,1,2,0:3:0:0:
416,64,109034,1,0,0:0:0:0:
64,144,109170,5,2,1:3:0:0:
176,144,109307,1,0,0:0:0:0:
64,240,109442,1,2,0:3:0:0:
176,240,109580,1,0,0:0:0:0:
448,144,109716,1,8,1:0:0:0:
464,240,109852,1,0,0:0:0:0:
192,144,109989,1,2,0:3:0:0:
320,144,110125,1,0,0:0:0:0:
64,240,110261,5,2,0:3:0:0:
48,144,110397,1,0,0:0:0:0:
320,240,110534,1,2,1:3:0:0:
192,240,110670,1,0,0:0:0:0:
464,144,110807,1,8,1:0:0:0:
256,144,110943,1,0,0:0:0:0:
464,48,111080,1,2,0:3:0:0:
256,48,111216,1,0,0:0:0:0:
48,144,111352,5,2,1:3:0:0:
176,144,111489,1,0,0:0:0:0:
48,240,111625,1,2,0:3:0:0:
176,240,111761,1,0,0:0:0:0:
448,144,111898,1,8,1:0:0:0:
368,192,112034,1,0,0:0:0:0:
144,192,112170,1,2,0:3:0:0:
64,144,112307,1,0,0:0:0:0:
400,320,112443,5,2,0:3:0:0:
112,320,112580,1,0,0:0:0:0:
320,320,112716,1,2,1:3:0:0:
208,320,112852,1,0,0:0:0:0:
448,144,112989,1,8,1:0:0:0:
464,240,113125,1,0,0:0:0:0:
64,144,113261,1,2,0:3:0:0:
48,240,113397,1,0,0:0:0:0:
352,64,113534,5,2,1:3:0:0:
464,64,113670,1,0,0:0:0:0:
256,240,113807,1,2,0:3:0:0:
464,240,113943,1,0,0:0:0:0:
160,240,114080,1,8,1:0:0:0:
48,240,114216,1,0,0:0:0:0:
256,64,114353,1,2,0:3:0:0:
48,64,114489,1,0,0:0:0:0:
320,240,114625,5,2,0:3:0:0:
192,240,114761,1,0,0:0:0:0:
400,160,114898,1,2,1:3:0:0:
112,160,115034,1,0,0:0:0:0:
464,240,115170,1,8,1:0:0:0:
256,240,115307,1,0,0:0:0:0:
48,320,115443,1,2,0:3:0:0:
256,320,115580,1,0,0:0:0:0:
464,128,115716,5,2,1:3:0:0:
240,128,115853,1,0,0:0:0:0:
480,208,115989,1,2,0:3:0:0:
368,208,116125,1,0,0:0:0:0:
48,256,116261,1,8,1:0:0:0:
272,256,116398,1,0,0:0:0:0:
32,176,116534,1,2,0:3:0:0:
144,176,116670,1,0,0:0:0:0:
384,80,116807,5,2,0:3:0:0:
112,80,116943,1,0,0:0:0:0:
416,208,117080,1,2,1:3:0:0:
448,160,117170,1,0,0:0:0:0:
384,160,117261,1,0,0:0:0:0:
160,208,117352,1,8,1:0:0:0:
64,208,117489,1,0,0:0:0:0:
272,304,117625,1,2,0:3:0:0:
64,304,117761,1,0,0:0:0:0:
448,192,117898,5,2,1:3:0:0:
336,192,118034,1,0,0:0:0:0:
448,304,118170,1,2,0:3:0:0:
336,304,118307,1,0,0:0:0:0:
64,80,118443,1,8,1:0:0:0:
320,80,118580,1,0,0:0:0:0:
192,192,118716,1,2,0:3:0:0:
448,192,118852,1,0,0:0:0:0:
320,304,118989,5,2,0:3:0:0:
64,304,119125,1,0,0:0:0:0:
320,192,119261,1,2,1:3:0:0:
448,192,119398,1,0,0:0:0:0:
208,288,119534,1,8,1:0:0:0:
304,288,119670,1,0,0:0:0:0:
96,96,119807,1,2,0:3:0:0:
416,96,119943,1,0,0:0:0:0:
64,192,120080,5,2,1:3:0:0:
176,192,120216,1,0,0:0:0:0:
64,288,120352,1,2,0:3:0:0:
176,288,120489,1,0,0:0:0:0:
448,192,120625,1,8,1:0:0:0:
352,192,120761,1,0,0:0:0:0:
448,80,120898,1,2,0:3:0:0:
208,192,121034,1,0,0:0:0:0:
448,320,121170,5,2,0:3:0:0:
352,320,121307,1,0,0:0:0:0:
64,192,121443,1,2,1:3:0:0:
160,192,121580,1,0,0:0:0:0:
448,96,121716,1,8,1:0:0:0:
112,96,121852,1,0,0:0:0:0:
352,192,121989,1,2,0:3:0:0:
448,192,122125,1,0,0:0:0:0:
48,192,122261,5,2,1:3:0:0:
256,192,122398,1,0,0:0:0:0:
48,288,122534,1,2,0:3:0:0:
256,288,122670,1,0,0:0:0:0:
464,192,122807,1,8,1:0:0:0:
368,192,122944,1,0,0:0:0:0:
144,80,123080,1,2,0:3:0:0:
368,80,123216,1,0,0:0:0:0:
64,192,123352,5,2,0:3:0:0:
176,192,123489,1,0,0:0:0:0:
64,288,123625,1,2,1:3:0:0:
448,96,123898,1,8,1:0:0:0:
64,96,124170,1,2,0:3:0:0:
448,192,124443,5,2,1:3:0:0:
336,192,124580,1,0,0:0:0:0:
64,192,124716,1,2,0:3:0:0:
176,192,124853,1,0,0:0:0:0:
448,368,124989,1,8,1:0:0:0:
464,272,125125,1,0,0:0:0:0:
192,96,125261,1,2,0:3:0:0:
320,96,125397,1,0,0:0:0:0:
64,192,125534,5,2,0:3:0:0:
48,96,125670,1,0,0:0:0:0:
384,288,125806,1,2,1:3:0:0:
128,288,125942,1,0,0:0:0:0:
448,192,126080,1,8,1:0:0:0:
64,192,126352,1,2,0:3:0:0:
160,192,126489,1,0,0:0:0:0:
400,112,126625,5,2,1:3:0:0:
112,112,126761,1,0,0:0:0:0:
448,192,126898,1,2,0:3:0:0:
352,192,127034,1,0,0:0:0:0:
64,192,127170,1,8,1:0:0:0:
160,288,127307,1,0,0:0:0:0:
448,288,127443,1,2,0:3:0:0:
64,96,127716,5,2,0:3:0:0:
352,96,127852,1,0,0:0:0:0:
448,96,127989,1,2,1:3:0:0:
112,192,128125,1,0,0:0:0:0:
352,192,128261,1,8,1:0:0:0:
64,288,128398,1,0,0:0:0:0:
352,288,128534,1,2,0:3:0:0:
448,288,128671,1,0,0:0:0:0:
64,96,128807,5,2,1:3:0:0:
160,96,128943,1,0,0:0:0:0:
448,192,129080,1,2,0:3:0:0:
64,192,129216,1,0,0:0:0:0:
448,288,129352,1,8,1:0:0:0:
352,288,129488,1,0,0:0:0:0:
64,288,129625,1,2,0:3:0:0:
448,96,129898,5,2,0:3:0:0:
352,96,130034,1,0,0:0:0:0:
64,192,130171,1,2,1:3:0:0:
448,192,130307,1,0,0:0:0:0:
64,288,130443,1,8,1:0:0:0:
400,288,130579,1,0,0:0:0:0:
112,96,130716,1,2,0:3:0:0:
448,96,130852,1,0,0:0:0:0:
64,192,130989,5,2,1:3:0:0:
448,192,131261,1,2,0:3:0:0:
64,288,131398,1,0,0:0:0:0:
400,288,131534,1,8,1:0:0:0:
112,192,131670,1,0,0:0:0:0:
368,192,131807,1,2,0:3:0:0:
144,64,131943,1,0,0:0:0:0:
416,64,132080,5,2,0:3:0:0:
96,288,132217,1,0,0:0:0:0:
368,288,132353,1,2,1:3:0:0:
144,192,132489,1,0,0:0:0:0:
416,192,132625,1,8,1:0:0:0:
464,96,132761,1,0,0:0:0:0:
144,80,132898,1,2,0:3:0:0:
368,304,133034,1,0,0:0:0:0:
48,176,133170,5,2,1:3:0:0:
144,176,133306,1,0,0:0:0:0:
464,176,133443,1,2,0:3:0:0:
368,176,133579,1,0,0:0:0:0:
96,96,133716,1,8,1:0:0:0:
368,96,133852,1,0,0:0:0:0:
48,288,133989,1,2,0:3:0:0:
144,288,134125,1,0,0:0:0:0:
448,192,134261,5,2,0:3:0:0:
464,96,134398,1,0,0:0:0:0:
144,96,134534,1,2,1:3:0:0:
368,96,134670,1,0,0:0:0:0:
64,192,134807,1,8,1:0:0:0:
159,192,134943,1,0,0:0:0:0:
353,192,135080,1,2,0:3:0:0:
448,192,135216,1,0,0:0:0:0:
160,304,135352,5,2,1:3:0:0:
448,304,135489,1,0,0:0:0:0:
400,112,135625,1,2,0:3:0:0:
160,112,135761,1,0,0:0:0:0:
64,112,135898,1,8,1:0:0:0:
448,208,136034,1,0,0:0:0:0:
208,208,136170,1,2,0:3:0:0:
448,112,136443,5,2,0:3:0:0:
256,112,136716,1,2,1:3:0:0:
160,112,136852,1,0,0:0:0:0:
448,272,136989,1,8,1:0:0:0:
64,272,137261,1,2,0:3:0:0:
160,272,137398,1,0,0:0:0:0:
448,112,137534,5,2,1:3:0:0:
64,112,137670,1,0,0:0:0:0:
400,192,137807,1,2,0:3:0:0:
304,192,137943,1,0,0:0:0:0:
64,288,138080,1,8,1:0:0:0:
304,288,138216,1,0,0:0:0:0:
256,112,138352,1,2,0:3:0:0:
160,272,138489,1,0,0:0:0:0:
448,112,138625,5,2,0:3:0:0:
352,112,138761,1,0,0:0:0:0:
112,192,138898,1,2,1:3:0:0:
400,192,139034,1,0,0:0:0:0:
64,112,139170,1,8,1:0:0:0:
160,272,139306,1,0,0:0:0:0:
256,272,139443,1,2,0:3:0:0:
352,112,139580,1,0,0:0:0:0:
144,192,139716,5,2,1:3:0:0:
368,192,139852,1,0,0:0:0:0:
64,112,139989,1,2,0:3:0:0:
448,112,140125,1,0,0:0:0:0:
48,272,140261,1,8,1:0:0:0:
464,272,140398,1,0,0:0:0:0:
128,192,140534,1,2,0:3:0:0:
336,192,140670,1,0,0:0:0:0:
48,32,140807,5,2,0:3:0:0:
464,192,141080,1,2,1:3:0:0:
48,192,141352,1,8,1:0:0:0:
464,352,141625,1,2,0:3:0:0:
48,192,141898,5,14,1:2:0:0:
160,192,142034,1,0,0:0:0:0:
464,192,142170,1,0,0:0:0:0:
112,112,142307,1,0,0:0:0:0:
224,112,142443,1,2,0:0:0:0:
352,112,142715,1,0,0:0:0:0:
112,192,142989,1,2,0:0:0:0:
352,192,143261,1,0,0:0:0:0:
448,192,143534,1,0,0:0:0:0:
160,192,143807,1,2,0:0:0:0:
352,192,144080,5,2,0:0:0:0:
256,192,144360,1,0,0:0:0:0:
448,192,144640,1,2,0:0:0:0:
304,112,144920,1,0,0:0:0:0:
64,192,145201,1,2,0:0:0:0:
304,272,145481,1,0,0:0:0:0:
208,272,145762,1,0,0:0:0:0:
448,192,146042,1,2,0:0:0:0:
48,192,146322,5,2,0:0:0:0:
256,192,146464,1,0,0:0:0:0:
48,96,146607,1,2,0:0:0:0:
352,96,146749,1,2,0:0:0:0:
464,192,146893,1,2,0:0:0:0:
320,192,147179,1,0,0:0:0:0:
64,192,147464,1,2,0:0:0:0:
352,336,147750,1,0,0:0:0:0:
448,336,148036,1,0,0:0:0:0:
304,192,148322,1,2,0:0:0:0:
64,192,148607,5,2,0:0:0:0:
160,192,148907,1,0,0:0:0:0:
400,192,149207,1,2,0:0:0:0:
256,192,149507,1,0,0:0:0:0:
448,96,149807,1,2,0:0:0:0:
160,192,150107,1,0,0:0:0:0:
64,192,150407,1,0,0:0:0:0:
208,288,150707,1,2,0:0:0:0:
400,192,151007,5,2,0:0:0:0:
256,192,151311,1,0,0:0:0:0:
64,96,151616,1,2,0:0:0:0:
208,96,151920,1,0,0:0:0:0:
448,96,152225,1,2,0:0:0:0:
304,288,152529,1,0,0:0:0:0:
208,288,152834,1,0,0:0:0:0:
352,96,153138,1,2,0:0:0:0:
64,96,153443,5,2,0:0:0:0:
208,96,153795,1,0,0:0:0:0:
448,96,154148,1,2,0:0:0:0:
304,96,154500,1,0,0:0:0:0:
112,288,154854,1,2,0:0:0:0:
256,288,155207,1,0,0:0:0:0:
352,96,155560,1,0,0:0:0:0:
208,192,155913,1,2,0:0:0:0:
400,96,156266,5,2,0:0:0:0:
304,288,156443,1,2,0:0:0:0:
160,96,156621,1,2,0:0:0:0:
400,192,156976,1,2,0:0:0:0:
256,192,157331,1,0,0:0:0:0:
64,192,157686,1,2,0:0:0:0:
208,192,158041,1,0,0:0:0:0:
304,192,158396,1,0,0:0:0:0:
448,192,158751,1,2,0:0:0:0:
256,96,159106,5,2,0:0:0:0:
352,96,159461,1,0,0:0:0:0:
112,192,159816,1,2,0:0:0:0:
208,192,160171,1,0,0:0:0:0:
448,192,160526,1,2,0:0:0:0:
304,192,160881,1,0,0:0:0:0:
208,192,161236,1,0,0:0:0:0:
