osu file format v14

[General]
AudioFilename: Flower Dance.mp3
AudioLeadIn: 0
PreviewTime: 103247
Countdown: 0
SampleSet: Soft
StackLeniency: 0.7
Mode: 3
LetterboxInBreaks: 0
SpecialStyle: 0
WidescreenStoryboard: 1

[Editor]
DistanceSpacing: 1.2
BeatDivisor: 4
GridSize: 4
TimelineZoom: 0.5999999

[Metadata]
Title:Flower Dance
TitleUnicode:Flower Dance
Artist:DJ OKAWARI
ArtistUnicode:DJ OKAWARI
Creator:cryochan
Version:7K Normal
Source:
Tags:
BeatmapID:1209620
BeatmapSetID:569455

[Difficulty]
HPDrainRate:7.2
CircleSize:7
OverallDifficulty:7.2
ApproachRate:5.5
SliderMultiplier:2
SliderTickRate:1

[Events]
//Background and Video events
0,0,"BG.jpg",0,0
//Break Periods
//Storyboard Layer 0 (Background)
//Storyboard Layer 1 (Fail)
//Storyboard Layer 2 (Pass)
//Storyboard Layer 3 (Foreground)
//Storyboard Sound Samples
Sample,65597,0,"soft-hitclap.wav",40
Sample,75197,0,"soft-hitclap.wav",40
Sample,84797,0,"soft-hitclap.wav",40
Sample,94397,0,"soft-hitclap.wav",40

[TimingPoints]
26597,600,4,2,1,40,1,0
45797,-100,4,2,1,40,0,1
64997,-100,4,2,1,40,0,0
103397,-100,4,2,1,40,0,1
122597,-100,4,2,1,40,0,0
160997,-100,4,2,1,40,0,1
199397,-100,4,2,1,40,0,0
201797,-100,4,2,1,40,0,1
240197,-100,4,2,1,40,0,0

[Colours]
Combo1 : 255,128,255
Combo2 : 128,255,255
Combo3 : 255,255,128
Combo4 : 128,128,255

[HitObjects]
402,192,26597,5,0,0:0:0:0:
109,192,26897,1,0,0:0:0:0:
475,192,27347,1,0,0:0:0:0:
329,192,27497,1,0,0:0:0:0:
182,192,27647,1,0,0:0:0:0:
64,192,27797,1,0,0:0:0:0:
256,192,28397,1,0,0:0:0:0:
402,192,28997,1,0,0:0:0:0:
36,192,29447,1,0,0:0:0:0:
182,192,29597,1,0,0:0:0:0:
475,192,30047,1,0,0:0:0:0:
329,192,30197,1,0,0:0:0:0:
256,192,30797,1,0,0:0:0:0:
64,192,31397,1,0,0:0:0:0:
475,192,31997,1,0,0:0:0:0:
192,192,32597,1,0,0:0:0:0:
329,192,32897,128,0,33197:0:0:0:0:
256,192,33197,1,0,0:0:0:0:
36,192,33497,1,0,0:0:0:0:
402,192,33797,1,0,0:0:0:0:
109,192,34097,1,0,0:0:0:0:
475,192,34397,1,0,0:0:0:0:
182,192,34697,1,0,0:0:0:0:
256,192,34997,1,0,0:0:0:0:
329,192,35297,1,0,0:0:0:0:
109,192,35597,1,0,0:0:0:0:
402,192,35897,1,0,0:0:0:0:
36,192,36197,1,0,0:0:0:0:
475,192,36197,1,0,0:0:0:0:
256,192,36497,1,0,0:0:0:0:
402,192,36947,1,0,0:0:0:0:
329,192,37097,1,0,0:0:0:0:
182,192,37247,1,0,0:0:0:0:
109,192,37397,1,0,0:0:0:0:
475,192,37997,1,0,0:0:0:0:
329,192,38597,1,0,0:0:0:0:
182,192,38897,5,0,0:0:0:0:
36,192,39197,1,0,0:0:0:0:
402,192,39497,1,0,0:0:0:0:
36,192,39797,1,0,0:0:0:0:
182,192,39947,1,0,0:0:0:0:
475,192,40097,1,0,0:0:0:0:
329,192,40247,1,0,0:0:0:0:
109,192,40397,1,0,0:0:0:0:
182,192,40547,1,0,0:0:0:0:
402,192,40697,1,0,0:0:0:0:
329,192,40847,1,0,0:0:0:0:
36,192,40997,1,0,0:0:0:0:
182,192,41147,1,0,0:0:0:0:
475,192,41297,1,0,0:0:0:0:
329,192,41447,1,0,0:0:0:0:
109,192,41597,1,0,0:0:0:0:
182,192,41747,1,0,0:0:0:0:
402,192,41897,1,0,0:0:0:0:
329,192,42047,1,0,0:0:0:0:
36,192,42197,1,0,0:0:0:0:
182,192,42347,1,0,0:0:0:0:
475,192,42497,1,0,0:0:0:0:
329,192,42647,1,0,0:0:0:0:
109,192,42797,1,0,0:0:0:0:
182,192,42947,1,0,0:0:0:0:
402,192,43097,1,0,0:0:0:0:
329,192,43247,1,0,0:0:0:0:
36,192,43397,1,0,0:0:0:0:
182,192,43547,1,0,0:0:0:0:
475,192,43697,1,0,0:0:0:0:
329,192,43847,1,0,0:0:0:0:
109,192,43997,1,0,0:0:0:0:
182,192,44147,1,0,0:0:0:0:
402,192,44297,1,0,0:0:0:0:
329,192,44447,1,0,0:0:0:0:
36,192,44597,1,0,0:0:0:0:
182,192,44747,1,0,0:0:0:0:
475,192,44897,1,0,0:0:0:0:
329,192,45047,1,0,0:0:0:0:
36,192,45197,1,0,0:0:0:0:
475,192,45497,1,0,0:0:0:0:
36,192,45797,5,4,0:0:0:0:
402,192,45797,128,0,48197:0:0:0:0:
192,192,46097,1,0,0:0:0:0:
329,192,46397,1,8,0:0:0:0:
109,192,46397,1,0,0:0:0:0:
256,192,46697,1,0,0:0:0:0:
36,192,46997,1,0,0:0:0:0:
182,192,47297,1,0,0:0:0:0:
36,192,47597,1,8,0:0:0:0:
448,192,47597,1,0,0:0:0:0:
329,192,47897,1,0,0:0:0:0:
256,192,48047,1,0,0:0:0:0:
182,192,48197,1,0,0:0:0:0:
109,192,48197,128,0,50597:0:0:0:0:
475,192,48497,1,0,0:0:0:0:
64,192,48797,1,0,0:0:0:0:
329,192,48797,1,8,0:0:0:0:
256,192,49097,1,0,0:0:0:0:
402,192,49397,1,0,0:0:0:0:
475,192,49697,1,0,0:0:0:0:
256,192,49997,1,0,0:0:0:0:
36,192,49997,1,8,0:0:0:0:
475,192,50297,1,0,0:0:0:0:
402,192,50447,1,0,0:0:0:0:
182,192,50597,1,0,0:0:0:0:
329,192,50597,128,0,52997:0:0:0:0:
256,192,50897,1,0,0:0:0:0:
36,192,51197,1,8,0:0:0:0:
182,192,51197,1,0,0:0:0:0:
475,192,51497,1,0,0:0:0:0:
256,192,51797,1,0,0:0:0:0:
109,192,52097,1,0,0:0:0:0:
192,192,52397,1,0,0:0:0:0:
475,192,52397,1,8,0:0:0:0:
402,192,52697,1,0,0:0:0:0:
109,192,52997,1,0,0:0:0:0:
182,192,52997,128,0,55397:0:0:0:0:
256,192,53297,1,0,0:0:0:0:
475,192,53597,1,8,0:0:0:0:
64,192,53597,1,0,0:0:0:0:
402,192,53897,1,0,0:0:0:0:
256,192,54197,1,0,0:0:0:0:
109,192,54497,1,0,0:0:0:0:
329,192,54797,1,0,0:0:0:0:
448,192,54797,1,8,0:0:0:0:
36,192,55097,1,0,0:0:0:0:
329,192,55397,1,0,0:0:0:0:
475,192,55397,128,0,57797:0:0:0:0:
36,192,55697,1,0,0:0:0:0:
402,192,55997,1,8,0:0:0:0:
256,192,55997,1,0,0:0:0:0:
36,192,56297,1,0,0:0:0:0:
109,192,56597,1,0,0:0:0:0:
329,192,56897,1,0,0:0:0:0:
36,192,57197,1,0,0:0:0:0:
256,192,57197,1,8,0:0:0:0:
402,192,57497,1,0,0:0:0:0:
329,192,57647,1,0,0:0:0:0:
36,192,57797,128,0,60197:0:0:0:0:
182,192,57797,1,0,0:0:0:0:
402,192,58097,1,0,0:0:0:0:
182,192,58397,1,8,0:0:0:0:
448,192,58397,1,0,0:0:0:0:
109,192,58697,1,0,0:0:0:0:
475,192,58997,1,0,0:0:0:0:
182,192,59297,1,0,0:0:0:0:
402,192,59597,1,0,0:0:0:0:
329,192,59597,1,8,0:0:0:0:
109,192,59897,1,0,0:0:0:0:
475,192,60197,1,0,0:0:0:0:
329,192,60197,128,0,62597:0:0:0:0:
182,192,60497,1,0,0:0:0:0:
64,192,60797,1,8,0:0:0:0:
402,192,60797,1,0,0:0:0:0:
448,192,61097,1,0,0:0:0:0:
109,192,61397,1,0,0:0:0:0:
256,192,61697,1,0,0:0:0:0:
36,192,61997,1,8,0:0:0:0:
182,192,61997,1,0,0:0:0:0:
475,192,62297,1,0,0:0:0:0:
109,192,62597,1,0,0:0:0:0:
182,192,62597,128,0,64997:0:0:0:0:
402,192,62897,1,0,0:0:0:0:
64,192,63197,1,0,0:0:0:0:
475,192,63197,1,8,0:0:0:0:
256,192,63497,1,0,0:0:0:0:
475,192,63797,1,0,0:0:0:0:
402,192,64097,1,0,0:0:0:0:
64,192,64397,1,0,0:0:0:0:
329,192,64397,1,8,0:0:0:0:
109,192,64697,1,0,0:0:0:0:
402,192,64997,1,0,0:0:0:0:
329,192,65297,1,0,0:0:0:0:
475,192,65747,1,0,0:0:0:0:
329,192,65897,1,0,0:0:0:0:
182,192,66047,1,0,0:0:0:0:
36,192,66197,1,0,0:0:0:0:
256,192,66797,1,8,0:0:0:0:
329,192,67397,1,0,0:0:0:0:
109,192,67847,1,0,0:0:0:0:
182,192,67997,1,8,0:0:0:0:
402,192,68447,1,0,0:0:0:0:
329,192,68597,1,0,0:0:0:0:
256,192,69197,1,8,0:0:0:0:
402,192,69797,1,0,0:0:0:0:
109,192,70397,1,8,0:0:0:0:
402,192,70997,1,0,0:0:0:0:
256,192,71297,128,0,71597:0:0:0:0:
475,192,71597,1,0,0:0:0:0:
64,192,71597,1,8,0:0:0:0:
320,192,71897,1,0,0:0:0:0:
182,192,72197,1,0,0:0:0:0:
402,192,72497,1,0,0:0:0:0:
64,192,72797,1,0,0:0:0:0:
109,192,72797,1,8,0:0:0:0:
329,192,73097,1,0,0:0:0:0:
256,192,73397,1,0,0:0:0:0:
182,192,73697,1,0,0:0:0:0:
64,192,73997,1,8,0:0:0:0:
475,192,73997,1,0,0:0:0:0:
402,192,74297,1,0,0:0:0:0:
109,192,74597,1,0,0:0:0:0:
329,192,74597,1,0,0:0:0:0:
256,192,74897,1,0,0:0:0:0:
64,192,75347,1,0,0:0:0:0:
182,192,75497,1,0,0:0:0:0:
329,192,75647,1,0,0:0:0:0:
475,192,75797,1,0,0:0:0:0:
402,192,76397,1,8,0:0:0:0:
36,192,76997,1,0,0:0:0:0:
475,192,77297,1,0,0:0:0:0:
109,192,77597,1,8,0:0:0:0:
402,192,77897,1,0,0:0:0:0:
109,192,78197,1,0,0:0:0:0:
182,192,78347,1,0,0:0:0:0:
402,192,78497,1,0,0:0:0:0:
329,192,78647,1,0,0:0:0:0:
36,192,78797,1,8,0:0:0:0:
182,192,78947,1,0,0:0:0:0:
475,192,79097,1,0,0:0:0:0:
329,192,79247,1,0,0:0:0:0:
109,192,79397,1,0,0:0:0:0:
182,192,79547,1,0,0:0:0:0:
402,192,79697,1,0,0:0:0:0:
329,192,79847,1,0,0:0:0:0:
36,192,79997,1,8,0:0:0:0:
192,192,80147,1,0,0:0:0:0:
475,192,80297,1,0,0:0:0:0:
329,192,80447,1,0,0:0:0:0:
109,192,80597,1,0,0:0:0:0:
182,192,80747,1,0,0:0:0:0:
402,192,80897,1,0,0:0:0:0:
329,192,81047,1,0,0:0:0:0:
36,192,81197,1,8,0:0:0:0:
182,192,81347,1,0,0:0:0:0:
475,192,81497,1,0,0:0:0:0:
329,192,81647,1,0,0:0:0:0:
109,192,81797,1,0,0:0:0:0:
182,192,81947,1,0,0:0:0:0:
402,192,82097,1,0,0:0:0:0:
329,192,82247,1,0,0:0:0:0:
36,192,82397,1,8,0:0:0:0:
182,192,82547,1,0,0:0:0:0:
475,192,82697,1,0,0:0:0:0:
329,192,82847,1,0,0:0:0:0:
109,192,82997,1,0,0:0:0:0:
182,192,83147,1,0,0:0:0:0:
402,192,83297,1,0,0:0:0:0:
329,192,83447,1,0,0:0:0:0:
36,192,83597,1,8,0:0:0:0:
256,192,83897,1,0,0:0:0:0:
448,192,84197,1,0,0:0:0:0:
109,192,84197,1,0,0:0:0:0:
402,192,84497,1,0,0:0:0:0:
475,192,84947,1,0,0:0:0:0:
329,192,85097,1,0,0:0:0:0:
182,192,85247,1,0,0:0:0:0:
36,192,85397,1,0,0:0:0:0:
192,192,85997,1,8,0:0:0:0:
256,192,86597,1,0,0:0:0:0:
402,192,87047,1,0,0:0:0:0:
329,192,87197,1,8,0:0:0:0:
109,192,87647,1,0,0:0:0:0:
192,192,87797,1,0,0:0:0:0:
256,192,88397,1,8,0:0:0:0:
109,192,88997,1,0,0:0:0:0:
448,192,89597,1,8,0:0:0:0:
182,192,90197,1,0,0:0:0:0:
256,192,90497,128,0,90797:0:0:0:0:
475,192,90797,1,0,0:0:0:0:
36,192,90797,1,8,0:0:0:0:
109,192,91097,1,0,0:0:0:0:
329,192,91397,1,0,0:0:0:0:
182,192,91697,1,0,0:0:0:0:
402,192,91997,1,0,0:0:0:0:
448,192,91997,1,8,0:0:0:0:
36,192,92297,1,0,0:0:0:0:
182,192,92597,1,0,0:0:0:0:
329,192,92897,1,0,0:0:0:0:
64,192,93197,1,0,0:0:0:0:
109,192,93197,1,8,0:0:0:0:
256,192,93497,1,0,0:0:0:0:
448,192,93797,1,0,0:0:0:0:
36,192,93797,1,0,0:0:0:0:
182,192,94097,1,0,0:0:0:0:
36,192,94547,1,0,0:0:0:0:
182,192,94697,1,0,0:0:0:0:
329,192,94847,1,0,0:0:0:0:
475,192,94997,1,0,0:0:0:0:
109,192,95597,1,8,0:0:0:0:
256,192,96197,1,0,0:0:0:0:
475,192,96497,1,0,0:0:0:0:
64,192,96797,1,8,0:0:0:0:
329,192,96797,1,0,0:0:0:0:
182,192,97097,1,0,0:0:0:0:
109,192,97397,1,0,0:0:0:0:
182,192,97547,1,0,0:0:0:0:
402,192,97697,1,0,0:0:0:0:
329,192,97847,1,0,0:0:0:0:
36,192,97997,1,8,0:0:0:0:
182,192,98147,1,0,0:0:0:0:
475,192,98297,1,0,0:0:0:0:
329,192,98447,1,0,0:0:0:0:
109,192,98597,1,4,0:0:0:0:
182,192,98747,1,0,0:0:0:0:
402,192,98897,1,0,0:0:0:0:
329,192,99047,1,0,0:0:0:0:
36,192,99197,1,0,0:0:0:0:
182,192,99347,1,0,0:0:0:0:
475,192,99497,1,0,0:0:0:0:
329,192,99647,1,0,0:0:0:0:
109,192,99797,1,0,0:0:0:0:
182,192,99947,1,0,0:0:0:0:
402,192,100097,1,0,0:0:0:0:
329,192,100247,1,0,0:0:0:0:
36,192,100397,1,0,0:0:0:0:
182,192,100547,1,0,0:0:0:0:
475,192,100697,1,0,0:0:0:0:
329,192,100847,1,0,0:0:0:0:
109,192,100997,1,0,0:0:0:0:
182,192,101147,1,0,0:0:0:0:
402,192,101297,1,0,0:0:0:0:
329,192,101447,1,0,0:0:0:0:
36,192,101597,1,0,0:0:0:0:
182,192,101747,1,0,0:0:0:0:
475,192,101897,1,0,0:0:0:0:
329,192,102047,1,0,0:0:0:0:
109,192,102197,1,0,0:0:0:0:
182,192,102347,1,0,0:0:0:0:
402,192,102497,1,0,0:0:0:0:
329,192,102647,1,0,0:0:0:0:
64,192,102797,1,0,0:0:0:0:
109,192,102797,1,8,0:0:0:0:
320,192,103097,1,0,0:0:0:0:
192,192,103397,1,4,0:0:0:0:
448,192,103397,1,0,0:0:0:0:
36,192,103397,128,0,105797:0:0:0:0:
109,192,103697,1,0,0:0:0:0:
256,192,103997,1,0,0:0:0:0:
402,192,103997,1,8,0:0:0:0:
182,192,104297,1,0,0:0:0:0:
329,192,104597,1,0,0:0:0:0:
475,192,104897,1,0,0:0:0:0:
109,192,105197,1,0,0:0:0:0:
182,192,105197,1,8,0:0:0:0:
256,192,105497,1,0,0:0:0:0:
329,192,105647,1,0,0:0:0:0:
402,192,105797,1,0,0:0:0:0:
475,192,105797,128,0,108197:0:0:0:0:
329,192,106097,1,0,0:0:0:0:
36,192,106397,1,8,0:0:0:0:
109,192,106397,1,0,0:0:0:0:
182,192,106697,1,0,0:0:0:0:
402,192,106997,1,0,0:0:0:0:
256,192,107297,1,0,0:0:0:0:
329,192,107597,1,0,0:0:0:0:
402,192,107597,1,8,0:0:0:0:
36,192,107897,1,0,0:0:0:0:
109,192,108047,1,0,0:0:0:0:
329,192,108197,1,0,0:0:0:0:
182,192,108197,128,0,110597:0:0:0:0:
256,192,108497,1,0,0:0:0:0:
402,192,108797,1,8,0:0:0:0:
329,192,108797,1,0,0:0:0:0:
475,192,109097,1,0,0:0:0:0:
36,192,109397,1,0,0:0:0:0:
329,192,109697,1,0,0:0:0:0:
475,192,109997,1,0,0:0:0:0:
402,192,109997,1,8,0:0:0:0:
256,192,110297,1,0,0:0:0:0:
402,192,110597,1,0,0:0:0:0:
329,192,110597,128,0,112997:0:0:0:0:
64,192,110897,1,0,0:0:0:0:
182,192,111197,1,0,0:0:0:0:
109,192,111197,1,8,0:0:0:0:
475,192,111497,1,0,0:0:0:0:
36,192,111797,1,0,0:0:0:0:
402,192,112097,1,0,0:0:0:0:
182,192,112397,1,8,0:0:0:0:
36,192,112397,1,0,0:0:0:0:
256,192,112697,1,0,0:0:0:0:
36,192,112997,1,0,0:0:0:0:
182,192,112997,128,0,115397:0:0:0:0:
475,192,113297,1,0,0:0:0:0:
402,192,113597,1,8,0:0:0:0:
329,192,113597,1,0,0:0:0:0:
109,192,113897,1,0,0:0:0:0:
320,192,114197,1,0,0:0:0:0:
256,192,114497,1,0,0:0:0:0:
36,192,114797,1,0,0:0:0:0:
475,192,114797,1,8,0:0:0:0:
329,192,115097,1,0,0:0:0:0:
402,192,115247,1,0,0:0:0:0:
109,192,115397,1,0,0:0:0:0:
475,192,115397,128,0,117797:0:0:0:0:
329,192,115697,1,0,0:0:0:0:
64,192,115997,1,0,0:0:0:0:
109,192,115997,1,8,0:0:0:0:
402,192,116297,1,0,0:0:0:0:
36,192,116597,1,0,0:0:0:0:
109,192,116897,1,0,0:0:0:0:
329,192,117197,1,8,0:0:0:0:
182,192,117197,1,0,0:0:0:0:
256,192,117497,1,0,0:0:0:0:
109,192,117797,1,0,0:0:0:0:
329,192,117797,128,0,120197:0:0:0:0:
402,192,118097,1,0,0:0:0:0:
36,192,118397,1,0,0:0:0:0:
182,192,118397,1,8,0:0:0:0:
256,192,118697,1,0,0:0:0:0:
36,192,118997,1,0,0:0:0:0:
475,192,119297,1,0,0:0:0:0:
109,192,119597,1,0,0:0:0:0:
182,192,119597,1,8,0:0:0:0:
402,192,119897,1,0,0:0:0:0:
475,192,120197,1,2,0:0:0:0:
36,192,120197,128,0,122597:0:0:0:0:
402,192,120497,1,0,0:0:0:0:
182,192,120797,1,8,0:0:0:0:
109,192,120797,1,0,0:0:0:0:
475,192,121097,1,0,0:0:0:0:
329,192,121397,1,0,0:0:0:0:
182,192,121697,1,0,0:0:0:0:
402,192,121997,1,8,0:0:0:0:
448,192,121997,1,0,0:0:0:0:
256,192,122297,1,0,0:0:0:0:
109,192,122597,1,4,0:0:0:0:
402,192,122597,1,0,0:0:0:0:
320,192,122897,1,0,0:0:0:0:
256,192,123047,1,0,0:0:0:0:
192,192,123197,1,0,0:0:0:0:
36,192,123497,1,0,0:0:0:0:
256,192,123647,1,0,0:0:0:0:
475,192,123797,1,0,0:0:0:0:
109,192,124097,1,0,0:0:0:0:
182,192,124247,1,0,0:0:0:0:
256,192,124397,1,0,0:0:0:0:
402,192,124697,1,0,0:0:0:0:
329,192,124847,1,0,0:0:0:0:
256,192,124997,1,0,0:0:0:0:
36,192,125297,1,0,0:0:0:0:
109,192,125597,1,0,0:0:0:0:
182,192,125897,1,0,0:0:0:0:
256,192,126197,1,0,0:0:0:0:
329,192,126497,1,0,0:0:0:0:
402,192,126797,1,0,0:0:0:0:
475,192,127097,1,0,0:0:0:0:
36,192,127397,1,0,0:0:0:0:
182,192,127697,1,0,0:0:0:0:
256,192,127847,1,0,0:0:0:0:
329,192,127997,1,0,0:0:0:0:
109,192,128297,1,0,0:0:0:0:
256,192,128447,1,0,0:0:0:0:
402,192,128597,1,0,0:0:0:0:
475,192,128897,1,0,0:0:0:0:
256,192,129047,1,0,0:0:0:0:
36,192,129197,1,0,0:0:0:0:
329,192,129497,1,0,0:0:0:0:
256,192,129647,1,0,0:0:0:0:
182,192,129797,1,0,0:0:0:0:
402,192,130097,1,0,0:0:0:0:
256,192,130397,1,0,0:0:0:0:
36,192,130697,1,0,0:0:0:0:
256,192,130997,1,0,0:0:0:0:
475,192,131297,1,0,0:0:0:0:
109,192,131897,1,0,0:0:0:0:
402,192,132197,1,0,0:0:0:0:
36,192,132497,1,0,0:0:0:0:
109,192,132647,1,0,0:0:0:0:
182,192,132797,1,0,0:0:0:0:
475,192,133097,1,0,0:0:0:0:
402,192,133247,1,0,0:0:0:0:
329,192,133397,1,0,0:0:0:0:
36,192,133697,1,0,0:0:0:0:
256,192,133847,1,0,0:0:0:0:
475,192,133997,1,0,0:0:0:0:
402,192,134297,1,0,0:0:0:0:
256,192,134447,1,0,0:0:0:0:
109,192,134597,1,0,0:0:0:0:
475,192,134897,1,0,0:0:0:0:
402,192,135197,1,0,0:0:0:0:
329,192,135497,1,0,0:0:0:0:
256,192,135797,1,0,0:0:0:0:
182,192,136097,1,0,0:0:0:0:
109,192,136397,1,0,0:0:0:0:
36,192,136697,1,0,0:0:0:0:
402,192,136997,1,0,0:0:0:0:
109,192,137297,1,0,0:0:0:0:
256,192,137447,1,0,0:0:0:0:
402,192,137597,1,0,0:0:0:0:
475,192,137897,1,0,0:0:0:0:
256,192,138047,1,0,0:0:0:0:
36,192,138197,1,0,0:0:0:0:
182,192,138497,1,0,0:0:0:0:
256,192,138647,1,0,0:0:0:0:
320,192,138797,1,0,0:0:0:0:
402,192,139097,1,0,0:0:0:0:
256,192,139247,1,0,0:0:0:0:
109,192,139397,1,0,0:0:0:0:
475,192,139697,1,0,0:0:0:0:
329,192,139997,1,0,0:0:0:0:
402,192,139997,1,8,0:0:0:0:
109,192,140297,1,0,0:0:0:0:
182,192,140597,1,0,0:0:0:0:
475,192,140897,1,0,0:0:0:0:
192,192,141197,1,8,0:0:0:0:
109,192,141197,1,0,0:0:0:0:
256,192,141497,1,0,0:0:0:0:
402,192,141797,1,0,0:0:0:0:
36,192,142097,1,0,0:0:0:0:
109,192,142247,1,0,0:0:0:0:
182,192,142397,1,0,0:0:0:0:
256,192,142397,1,8,0:0:0:0:
36,192,142697,1,0,0:0:0:0:
109,192,142847,1,0,0:0:0:0:
192,192,142997,1,0,0:0:0:0:
475,192,143297,1,0,0:0:0:0:
402,192,143447,1,0,0:0:0:0:
329,192,143597,1,8,0:0:0:0:
256,192,143597,1,0,0:0:0:0:
475,192,143897,1,0,0:0:0:0:
402,192,144047,1,0,0:0:0:0:
329,192,144197,1,0,0:0:0:0:
182,192,144497,1,0,0:0:0:0:
402,192,144797,1,0,0:0:0:0:
448,192,144797,1,8,0:0:0:0:
256,192,145097,1,0,0:0:0:0:
320,192,145397,1,0,0:0:0:0:
182,192,145697,1,0,0:0:0:0:
64,192,145997,1,0,0:0:0:0:
109,192,145997,1,8,0:0:0:0:
448,192,146297,1,0,0:0:0:0:
192,192,146597,1,0,0:0:0:0:
475,192,146897,1,0,0:0:0:0:
402,192,147047,1,0,0:0:0:0:
256,192,147197,1,0,0:0:0:0:
329,192,147197,1,8,0:0:0:0:
475,192,147497,1,0,0:0:0:0:
402,192,147647,1,0,0:0:0:0:
329,192,147797,1,0,0:0:0:0:
36,192,148097,1,0,0:0:0:0:
109,192,148247,1,0,0:0:0:0:
256,192,148397,1,8,0:0:0:0:
182,192,148397,1,0,0:0:0:0:
36,192,148697,1,0,0:0:0:0:
109,192,148847,1,0,0:0:0:0:
182,192,148997,1,0,0:0:0:0:
320,192,149297,1,0,0:0:0:0:
109,192,149597,1,8,0:0:0:0:
64,192,149597,1,0,0:0:0:0:
256,192,149897,1,0,0:0:0:0:
329,192,150197,1,0,0:0:0:0:
182,192,150497,1,0,0:0:0:0:
402,192,150797,1,8,0:0:0:0:
475,192,150797,1,0,0:0:0:0:
36,192,151097,1,0,0:0:0:0:
109,192,151397,1,0,0:0:0:0:
402,192,151697,1,0,0:0:0:0:
256,192,151847,1,0,0:0:0:0:
109,192,151997,1,0,0:0:0:0:
36,192,151997,1,8,0:0:0:0:
402,192,152297,1,0,0:0:0:0:
256,192,152447,1,0,0:0:0:0:
109,192,152597,1,0,0:0:0:0:
36,192,152897,1,0,0:0:0:0:
182,192,153047,1,0,0:0:0:0:
475,192,153197,1,8,0:0:0:0:
329,192,153197,1,0,0:0:0:0:
36,192,153497,1,0,0:0:0:0:
182,192,153647,1,0,0:0:0:0:
329,192,153797,1,0,0:0:0:0:
182,192,154097,1,0,0:0:0:0:
64,192,154397,1,0,0:0:0:0:
475,192,154397,1,8,0:0:0:0:
256,192,154697,1,0,0:0:0:0:
109,192,154997,1,0,0:0:0:0:
329,192,155297,1,0,0:0:0:0:
64,192,155597,1,0,0:0:0:0:
182,192,155597,1,8,0:0:0:0:
402,192,155897,1,0,0:0:0:0:
475,192,156197,1,0,0:0:0:0:
109,192,156497,1,0,0:0:0:0:
256,192,156647,1,0,0:0:0:0:
402,192,156797,1,8,0:0:0:0:
475,192,156797,1,0,0:0:0:0:
109,192,157097,1,0,0:0:0:0:
256,192,157247,1,0,0:0:0:0:
402,192,157397,1,0,0:0:0:0:
475,192,157697,1,0,0:0:0:0:
329,192,157847,1,0,0:0:0:0:
192,192,157997,1,8,0:0:0:0:
36,192,157997,1,0,0:0:0:0:
475,192,158297,1,0,0:0:0:0:
329,192,158447,1,0,0:0:0:0:
182,192,158597,1,0,0:0:0:0:
36,192,158897,1,0,0:0:0:0:
448,192,159197,1,0,0:0:0:0:
402,192,159197,1,8,0:0:0:0:
109,192,159497,5,0,0:0:0:0:
256,192,159797,1,0,0:0:0:0:
475,192,160097,1,0,0:0:0:0:
182,192,160397,5,8,0:0:0:0:
329,192,160397,1,0,0:0:0:0:
36,192,160697,1,0,0:0:0:0:
402,192,160997,1,4,0:0:0:0:
475,192,160997,1,0,0:0:0:0:
329,192,160997,128,0,161597:0:0:0:0:
36,192,161297,1,0,0:0:0:0:
475,192,161597,1,8,0:0:0:0:
256,192,161597,128,0,161897:0:0:0:0:
182,192,161897,128,0,162197:0:0:0:0:
109,192,162197,1,0,0:0:0:0:
36,192,162197,128,0,162797:0:0:0:0:
402,192,162497,1,0,0:0:0:0:
256,192,162797,1,8,0:0:0:0:
475,192,162797,128,0,163097:0:0:0:0:
329,192,163097,1,0,0:0:0:0:
402,192,163097,128,0,163397:0:0:0:0:
109,192,163397,1,0,0:0:0:0:
182,192,163397,128,0,163997:0:0:0:0:
256,192,163697,1,0,0:0:0:0:
448,192,163997,1,8,0:0:0:0:
329,192,163997,128,0,164297:0:0:0:0:
64,192,164297,1,0,0:0:0:0:
109,192,164297,128,0,164597:0:0:0:0:
402,192,164597,1,0,0:0:0:0:
475,192,164597,128,0,165197:0:0:0:0:
256,192,164897,1,0,0:0:0:0:
109,192,165197,1,8,0:0:0:0:
182,192,165197,128,0,165497:0:0:0:0:
36,192,165497,1,0,0:0:0:0:
402,192,165497,128,0,165797:0:0:0:0:
475,192,165797,1,0,0:0:0:0:
329,192,165797,128,0,166397:0:0:0:0:
182,192,166097,1,0,0:0:0:0:
36,192,166397,1,8,0:0:0:0:
109,192,166397,128,0,166697:0:0:0:0:
475,192,166697,1,0,0:0:0:0:
402,192,166697,128,0,166997:0:0:0:0:
329,192,166997,1,0,0:0:0:0:
256,192,166997,128,0,167597:0:0:0:0:
182,192,167297,1,0,0:0:0:0:
109,192,167597,1,8,0:0:0:0:
36,192,167597,128,0,167897:0:0:0:0:
329,192,167897,1,0,0:0:0:0:
475,192,167897,128,0,168197:0:0:0:0:
256,192,168197,1,0,0:0:0:0:
109,192,168197,128,0,168797:0:0:0:0:
36,192,168497,1,0,0:0:0:0:
182,192,168797,1,8,0:0:0:0:
256,192,168797,128,0,169097:0:0:0:0:
475,192,169097,1,0,0:0:0:0:
402,192,169097,128,0,169397:0:0:0:0:
36,192,169397,1,0,0:0:0:0:
329,192,169397,128,0,169997:0:0:0:0:
109,192,169697,1,0,0:0:0:0:
182,192,169997,1,8,0:0:0:0:
475,192,169997,128,0,170597:0:0:0:0:
256,192,170297,1,0,0:0:0:0:
36,192,170597,1,0,0:0:0:0:
109,192,170597,128,0,171197:0:0:0:0:
329,192,170897,1,0,0:0:0:0:
182,192,171197,1,8,0:0:0:0:
256,192,171197,128,0,171497:0:0:0:0:
402,192,171497,1,0,0:0:0:0:
329,192,171497,128,0,171797:0:0:0:0:
109,192,171797,1,0,0:0:0:0:
36,192,171797,128,0,172397:0:0:0:0:
182,192,172097,1,0,0:0:0:0:
329,192,172397,1,8,0:0:0:0:
402,192,172397,128,0,172697:0:0:0:0:
109,192,172697,1,0,0:0:0:0:
182,192,172697,128,0,172997:0:0:0:0:
475,192,172997,1,0,0:0:0:0:
256,192,172997,128,0,173597:0:0:0:0:
36,192,173297,1,0,0:0:0:0:
329,192,173597,1,8,0:0:0:0:
402,192,173597,128,0,173897:0:0:0:0:
448,192,173897,1,0,0:0:0:0:
182,192,173897,128,0,174197:0:0:0:0:
109,192,174197,1,0,0:0:0:0:
36,192,174197,128,0,174797:0:0:0:0:
475,192,174497,1,0,0:0:0:0:
329,192,174797,1,8,0:0:0:0:
256,192,174797,128,0,175097:0:0:0:0:
109,192,175097,1,0,0:0:0:0:
182,192,175097,128,0,175397:0:0:0:0:
329,192,175397,1,0,0:0:0:0:
402,192,175397,128,0,175997:0:0:0:0:
475,192,175697,1,0,0:0:0:0:
256,192,175997,1,8,0:0:0:0:
36,192,175997,128,0,176297:0:0:0:0:
109,192,176297,1,0,0:0:0:0:
182,192,176297,128,0,176597:0:0:0:0:
256,192,176597,1,0,0:0:0:0:
329,192,176597,128,0,177197:0:0:0:0:
36,192,176897,1,0,0:0:0:0:
475,192,177197,1,8,0:0:0:0:
402,192,177197,128,0,177497:0:0:0:0:
182,192,177497,1,0,0:0:0:0:
36,192,177497,128,0,177797:0:0:0:0:
329,192,177797,128,0,178397:0:0:0:0:
256,192,177797,1,0,0:0:0:0:
475,192,178097,1,0,0:0:0:0:
36,192,178397,1,8,0:0:0:0:
402,192,178397,128,0,178697:0:0:0:0:
182,192,178697,1,0,0:0:0:0:
109,192,178697,128,0,178997:0:0:0:0:
475,192,178997,1,0,0:0:0:0:
256,192,178997,128,0,179597:0:0:0:0:
320,192,179297,1,0,0:0:0:0:
36,192,179597,1,8,0:0:0:0:
475,192,179597,128,0,180197:0:0:0:0:
109,192,179897,1,0,0:0:0:0:
182,192,180197,1,0,0:0:0:0:
329,192,180197,128,0,180797:0:0:0:0:
402,192,180497,1,0,0:0:0:0:
36,192,180797,1,8,0:0:0:0:
109,192,180797,128,0,181097:0:0:0:0:
182,192,181097,1,0,0:0:0:0:
256,192,181097,128,0,181397:0:0:0:0:
402,192,181397,1,0,0:0:0:0:
329,192,181397,128,0,181997:0:0:0:0:
109,192,181697,1,0,0:0:0:0:
256,192,181997,1,8,0:0:0:0:
36,192,181997,128,0,182297:0:0:0:0:
109,192,182297,1,0,0:0:0:0:
182,192,182297,128,0,182597:0:0:0:0:
320,192,182597,1,0,0:0:0:0:
256,192,182597,128,0,183197:0:0:0:0:
109,192,182897,1,0,0:0:0:0:
448,192,183197,1,8,0:0:0:0:
402,192,183197,128,0,183497:0:0:0:0:
64,192,183497,1,0,0:0:0:0:
182,192,183497,128,0,183797:0:0:0:0:
256,192,183797,1,0,0:0:0:0:
329,192,183797,128,0,184397:0:0:0:0:
36,192,184097,1,0,0:0:0:0:
448,192,184397,1,8,0:0:0:0:
109,192,184397,128,0,184697:0:0:0:0:
182,192,184697,1,0,0:0:0:0:
256,192,184697,128,0,184997:0:0:0:0:
36,192,184997,1,0,0:0:0:0:
475,192,184997,128,0,185597:0:0:0:0:
109,192,185297,1,0,0:0:0:0:
402,192,185597,1,8,0:0:0:0:
329,192,185597,128,0,185897:0:0:0:0:
256,192,185897,1,0,0:0:0:0:
182,192,185897,128,0,186197:0:0:0:0:
109,192,186197,1,0,0:0:0:0:
36,192,186197,128,0,186797:0:0:0:0:
475,192,186497,1,0,0:0:0:0:
182,192,186797,1,8,0:0:0:0:
256,192,186797,128,0,187097:0:0:0:0:
329,192,187097,128,0,187397:0:0:0:0:
402,192,187097,1,0,0:0:0:0:
64,192,187397,1,0,0:0:0:0:
109,192,187397,128,0,187997:0:0:0:0:
256,192,187697,1,0,0:0:0:0:
402,192,187997,1,8,0:0:0:0:
329,192,187997,128,0,188297:0:0:0:0:
36,192,188297,1,0,0:0:0:0:
256,192,188297,128,0,188597:0:0:0:0:
475,192,188597,1,0,0:0:0:0:
402,192,188597,128,0,189197:0:0:0:0:
329,192,188897,1,0,0:0:0:0:
182,192,189197,1,8,0:0:0:0:
109,192,189197,128,0,189797:0:0:0:0:
256,192,189497,1,0,0:0:0:0:
402,192,189797,1,0,0:0:0:0:
329,192,189797,128,0,190397:0:0:0:0:
36,192,190097,1,0,0:0:0:0:
448,192,190397,1,8,0:0:0:0:
256,192,190397,128,0,190997:0:0:0:0:
109,192,190697,1,0,0:0:0:0:
402,192,190997,1,0,0:0:0:0:
182,192,190997,128,0,191597:0:0:0:0:
64,192,191297,1,0,0:0:0:0:
448,192,191597,1,8,0:0:0:0:
329,192,191597,128,0,192197:0:0:0:0:
256,192,191897,1,0,0:0:0:0:
402,192,192197,1,0,0:0:0:0:
109,192,192197,128,0,192497:0:0:0:0:
182,192,192497,1,0,0:0:0:0:
256,192,192497,128,0,192797:0:0:0:0:
329,192,192797,1,8,0:0:0:0:
402,192,192797,128,0,193097:0:0:0:0:
64,192,193097,1,0,0:0:0:0:
475,192,193097,128,0,193397:0:0:0:0:
109,192,193397,1,0,0:0:0:0:
182,192,193397,128,0,193997:0:0:0:0:
256,192,193697,1,0,0:0:0:0:
402,192,193997,1,8,0:0:0:0:
475,192,193997,128,0,194297:0:0:0:0:
36,192,194297,1,0,0:0:0:0:
109,192,194297,128,0,194597:0:0:0:0:
182,192,194597,1,0,0:0:0:0:
256,192,194597,128,0,195197:0:0:0:0:
475,192,194897,1,0,0:0:0:0:
329,192,195197,1,8,0:0:0:0:
402,192,195197,128,0,195797:0:0:0:0:
36,192,195497,1,0,0:0:0:0:
182,192,195797,1,0,0:0:0:0:
109,192,195797,128,0,196097:0:0:0:0:
329,192,196097,1,0,0:0:0:0:
36,192,196097,128,0,196397:0:0:0:0:
192,192,196397,1,8,0:0:0:0:
256,192,196397,128,0,196697:0:0:0:0:
475,192,196697,1,0,0:0:0:0:
402,192,196697,128,0,196997:0:0:0:0:
36,192,196997,1,0,0:0:0:0:
329,192,196997,128,0,197897:0:0:0:0:
109,192,197297,1,0,0:0:0:0:
256,192,197597,1,8,0:0:0:0:
64,192,197897,1,0,0:0:0:0:
182,192,197897,128,0,198197:0:0:0:0:
329,192,198197,128,0,199397:0:0:0:0:
475,192,198197,1,0,0:0:0:0:
109,192,198497,1,0,0:0:0:0:
402,192,198797,1,8,0:0:0:0:
36,192,199097,1,0,0:0:0:0:
109,192,199397,1,4,0:0:0:0:
256,192,199397,1,0,0:0:0:0:
182,192,199697,1,0,0:0:0:0:
402,192,199997,1,0,0:0:0:0:
36,192,200297,1,0,0:0:0:0:
182,192,200597,1,0,0:0:0:0:
475,192,200747,1,0,0:0:0:0:
402,192,200897,1,0,0:0:0:0:
329,192,201047,1,0,0:0:0:0:
256,192,201197,1,8,0:0:0:0:
182,192,201347,1,0,0:0:0:0:
109,192,201497,1,0,0:0:0:0:
36,192,201647,1,0,0:0:0:0:
256,192,201797,1,4,0:0:0:0:
329,192,201797,1,0,0:0:0:0:
402,192,201797,128,0,204197:0:0:0:0:
182,192,202097,1,0,0:0:0:0:
64,192,202397,1,0,0:0:0:0:
109,192,202397,1,8,0:0:0:0:
256,192,202697,1,0,0:0:0:0:
109,192,202997,1,0,0:0:0:0:
475,192,203297,1,0,0:0:0:0:
36,192,203597,1,8,0:0:0:0:
182,192,203597,1,0,0:0:0:0:
329,192,203897,1,0,0:0:0:0:
256,192,204047,1,0,0:0:0:0:
109,192,204197,1,0,0:0:0:0:
182,192,204197,128,0,206597:0:0:0:0:
36,192,204497,1,0,0:0:0:0:
402,192,204797,1,0,0:0:0:0:
448,192,204797,1,8,0:0:0:0:
109,192,205097,1,0,0:0:0:0:
402,192,205397,1,0,0:0:0:0:
36,192,205697,1,0,0:0:0:0:
448,192,205997,1,0,0:0:0:0:
329,192,205997,1,8,0:0:0:0:
256,192,206297,1,0,0:0:0:0:
329,192,206447,1,0,0:0:0:0:
402,192,206597,1,0,0:0:0:0:
475,192,206597,128,0,208997:0:0:0:0:
329,192,206897,1,0,0:0:0:0:
64,192,207197,1,0,0:0:0:0:
182,192,207197,1,8,0:0:0:0:
402,192,207497,1,0,0:0:0:0:
329,192,207797,1,0,0:0:0:0:
182,192,208097,1,0,0:0:0:0:
109,192,208397,1,8,0:0:0:0:
64,192,208397,1,0,0:0:0:0:
320,192,208697,1,0,0:0:0:0:
256,192,208997,1,0,0:0:0:0:
36,192,208997,128,0,211397:0:0:0:0:
109,192,209297,1,0,0:0:0:0:
402,192,209597,1,8,0:0:0:0:
320,192,209597,1,0,0:0:0:0:
182,192,209897,1,0,0:0:0:0:
475,192,210197,1,0,0:0:0:0:
329,192,210497,1,0,0:0:0:0:
109,192,210797,1,8,0:0:0:0:
182,192,210797,1,0,0:0:0:0:
256,192,211097,1,0,0:0:0:0:
475,192,211397,1,0,0:0:0:0:
329,192,211397,128,0,213797:0:0:0:0:
182,192,211697,1,0,0:0:0:0:
64,192,211997,1,8,0:0:0:0:
109,192,211997,1,0,0:0:0:0:
256,192,212297,1,0,0:0:0:0:
182,192,212597,1,0,0:0:0:0:
36,192,212897,1,0,0:0:0:0:
475,192,213197,1,8,0:0:0:0:
402,192,213197,1,0,0:0:0:0:
256,192,213497,1,0,0:0:0:0:
182,192,213647,1,0,0:0:0:0:
109,192,213797,128,0,216197:0:0:0:0:
402,192,213797,1,0,0:0:0:0:
36,192,214097,1,0,0:0:0:0:
475,192,214397,1,0,0:0:0:0:
329,192,214397,1,8,0:0:0:0:
182,192,214697,1,0,0:0:0:0:
256,192,214997,1,0,0:0:0:0:
36,192,215297,1,0,0:0:0:0:
402,192,215597,1,0,0:0:0:0:
475,192,215597,1,8,0:0:0:0:
320,192,215897,1,0,0:0:0:0:
256,192,216047,1,0,0:0:0:0:
182,192,216197,1,0,0:0:0:0:
36,192,216197,128,0,218597:0:0:0:0:
475,192,216497,1,0,0:0:0:0:
402,192,216797,1,0,0:0:0:0:
329,192,216797,1,8,0:0:0:0:
109,192,217097,1,0,0:0:0:0:
256,192,217397,1,0,0:0:0:0:
329,192,217697,1,0,0:0:0:0:
182,192,217997,1,0,0:0:0:0:
109,192,217997,1,8,0:0:0:0:
329,192,218297,1,0,0:0:0:0:
256,192,218597,1,0,0:0:0:0:
475,192,218597,128,0,220997:0:0:0:0:
402,192,218897,1,0,0:0:0:0:
64,192,219197,1,8,0:0:0:0:
109,192,219197,1,0,0:0:0:0:
182,192,219497,1,0,0:0:0:0:
329,192,219797,1,0,0:0:0:0:
64,192,220097,1,0,0:0:0:0:
402,192,220397,1,8,0:0:0:0:
329,192,220397,1,0,0:0:0:0:
256,192,220697,1,0,0:0:0:0:
182,192,220997,1,0,0:0:0:0:
109,192,220997,128,0,223397:0:0:0:0:
36,192,221297,1,0,0:0:0:0:
329,192,221597,1,0,0:0:0:0:
475,192,221597,1,8,0:0:0:0:
256,192,221897,1,0,0:0:0:0:
182,192,222197,1,0,0:0:0:0:
329,192,222497,1,0,0:0:0:0:
402,192,222797,1,8,0:0:0:0:
448,192,222797,1,0,0:0:0:0:
182,192,223097,1,0,0:0:0:0:
256,192,223247,1,0,0:0:0:0:
329,192,223397,1,0,0:0:0:0:
402,192,223397,128,0,225797:0:0:0:0:
182,192,223697,1,0,0:0:0:0:
64,192,223997,1,8,0:0:0:0:
475,192,223997,1,0,0:0:0:0:
109,192,224297,1,0,0:0:0:0:
256,192,224597,1,0,0:0:0:0:
329,192,224897,1,0,0:0:0:0:
64,192,225197,1,0,0:0:0:0:
109,192,225197,1,8,0:0:0:0:
182,192,225497,1,0,0:0:0:0:
256,192,225647,1,0,0:0:0:0:
329,192,225797,1,0,0:0:0:0:
36,192,225797,128,0,228197:0:0:0:0:
475,192,226097,1,0,0:0:0:0:
402,192,226397,1,0,0:0:0:0:
320,192,226397,1,8,0:0:0:0:
182,192,226697,1,0,0:0:0:0:
256,192,226997,1,0,0:0:0:0:
109,192,227297,1,0,0:0:0:0:
256,192,227597,1,0,0:0:0:0:
448,192,227597,1,8,0:0:0:0:
329,192,227897,1,0,0:0:0:0:
402,192,228197,1,0,0:0:0:0:
475,192,228197,128,0,230597:0:0:0:0:
109,192,228497,1,0,0:0:0:0:
182,192,228797,1,0,0:0:0:0:
329,192,228797,1,8,0:0:0:0:
36,192,229097,1,0,0:0:0:0:
256,192,229397,1,0,0:0:0:0:
329,192,229697,1,0,0:0:0:0:
109,192,229997,1,0,0:0:0:0:
36,192,229997,1,8,0:0:0:0:
402,192,230297,1,0,0:0:0:0:
329,192,230597,1,0,0:0:0:0:
182,192,230597,128,0,232997:0:0:0:0:
256,192,230897,1,0,0:0:0:0:
64,192,231197,1,8,0:0:0:0:
109,192,231197,1,0,0:0:0:0:
475,192,231497,1,0,0:0:0:0:
256,192,231797,1,0,0:0:0:0:
329,192,232097,1,0,0:0:0:0:
475,192,232397,1,0,0:0:0:0:
402,192,232397,1,8,0:0:0:0:
109,192,232697,1,0,0:0:0:0:
256,192,232847,1,0,0:0:0:0:
475,192,232997,1,0,0:0:0:0:
329,192,232997,128,0,235397:0:0:0:0:
402,192,233297,1,0,0:0:0:0:
192,192,233597,1,0,0:0:0:0:
109,192,233597,1,8,0:0:0:0:
256,192,233897,1,0,0:0:0:0:
475,192,234197,1,0,0:0:0:0:
402,192,234497,1,0,0:0:0:0:
36,192,234797,1,8,0:0:0:0:
109,192,234797,1,0,0:0:0:0:
256,192,235097,1,0,0:0:0:0:
182,192,235247,1,0,0:0:0:0:
109,192,235397,1,0,0:0:0:0:
36,192,235397,128,0,237797:0:0:0:0:
256,192,235697,1,0,0:0:0:0:
475,192,235997,1,0,0:0:0:0:
402,192,235997,1,8,0:0:0:0:
109,192,236297,1,0,0:0:0:0:
182,192,236597,1,0,0:0:0:0:
256,192,236897,1,0,0:0:0:0:
475,192,237197,1,8,0:0:0:0:
329,192,237197,1,0,0:0:0:0:
109,192,237497,1,0,0:0:0:0:
475,192,237797,1,0,0:0:0:0:
329,192,237797,128,0,240197:0:0:0:0:
402,192,238097,1,0,0:0:0:0:
36,192,238397,1,8,0:0:0:0:
109,192,238397,1,0,0:0:0:0:
182,192,238697,1,0,0:0:0:0:
256,192,238997,1,0,0:0:0:0:
448,192,239297,5,0,0:0:0:0:
109,192,239597,1,8,0:0:0:0:
402,192,239597,1,0,0:0:0:0:
256,192,239897,1,0,0:0:0:0:
36,192,240197,5,0,0:0:0:0:
182,192,240197,1,4,0:0:0:0:
