osu file format v14

[General]
AudioFilename: DJ Noriken feat. Yukacco - Lucent (JAKAZiD Remix).mp3
AudioLeadIn: 0
PreviewTime: 67709
Countdown: 0
SampleSet: Normal
StackLeniency: 0.5
Mode: 0
LetterboxInBreaks: 0
WidescreenStoryboard: 1

[Editor]
Bookmarks: 23027,34472,112160,134357,145455,178750,378345
DistanceSpacing: 1.6
BeatDivisor: 4
GridSize: 4
TimelineZoom: 2.4

[Metadata]
Title:Lucent (JAKAZiD Remix)
TitleUnicode:Lucent (JAKAZiD Remix)
Artist:DJ Noriken ft. Yukacco
ArtistUnicode:DJ Noriken ft. Yukacco
Creator:zenithlight
Version:Debug
Source:
Tags:
BeatmapID:855459
BeatmapSetID:392958

[Difficulty]
HPDrainRate:5
CircleSize:4
OverallDifficulty:9
ApproachRate:9.7
SliderMultiplier:2.5
SliderTickRate:2

[Events]
//Background and Video events
0,0,"DJ Noriken feat. Yukacco - Lucent (JAKAZiD Remix) - Background.jpg",0,0
//Break Periods
2,52186,66473
2,91724,94913
2,97273,100462
2,102823,105838
2,135857,139306
2,141406,144855
//Storyboard Layer 0 (Background)
//Storyboard Layer 1 (Fail)
//Storyboard Layer 2 (Pass)
//Storyboard Layer 3 (Foreground)
//Storyboard Sound Samples

[TimingPoints]
1178,346.820809248555,4,1,0,70,1,0
84588,-133.333333333333,4,1,0,70,0,0
112160,-133.333333333333,4,2,0,50,0,0
134357,-100,4,1,0,70,0,0
145455,-133.333333333333,4,2,0,70,0,0
151004,-100,4,1,0,70,0,0

[Colours]
Combo1 : 255,0,128
Combo2 : 255,255,255
Combo3 : 128,128,255

[HitObjects]
256,192,34472,5,0,0:0:0:0:
256,192,37247,1,0,0:0:0:0:
256,192,40021,1,0,0:0:0:0:
256,192,40715,1,0,0:0:0:0:
256,192,41409,1,0,0:0:0:0:
256,192,42102,1,0,0:0:0:0:
256,192,42796,1,0,0:0:0:0:
256,192,43143,1,0,0:0:0:0:
256,192,43490,1,0,0:0:0:0:
256,192,43836,1,0,0:0:0:0:
273,95,44183,5,0,0:0:0:0:
309,90,44240,1,0,0:0:0:0:
346,99,44298,1,0,0:0:0:0:
376,121,44356,1,0,0:0:0:0:
395,153,44414,1,0,0:0:0:0:
402,190,44472,1,0,0:0:0:0:
395,226,44529,1,0,0:0:0:0:
375,257,44587,1,0,0:0:0:0:
344,279,44645,1,0,0:0:0:0:
308,288,44703,1,0,0:0:0:0:
271,283,44761,1,0,0:0:0:0:
271,283,44819,6,0,L|321:294,13,41.6666666666667
121,127,45744,6,0,P|164:57|233:88,1,125
230,158,46091,1,0,0:0:0:0:
183,257,46264,2,0,P|231:315|287:337,1,125
368,332,46611,1,0,0:0:0:0:
416,224,46784,6,0,P|361:158|311:135,1,125
272,63,47131,1,0,0:0:0:0:
171,64,47305,1,0,0:0:0:0:
81,124,47478,1,0,0:0:0:0:
376,257,47825,5,0,0:0:0:0:
271,229,47998,1,0,0:0:0:0:
208,140,48172,1,0,0:0:0:0:
391,257,48519,6,0,P|348:327|279:296,1,125
297,229,48866,1,0,0:0:0:0:
341,152,49039,2,0,P|293:94|237:72,1,125
156,62,49386,1,0,0:0:0:0:
109,141,49559,6,0,P|129:224|164:266,1,125
240,321,49906,1,0,0:0:0:0:
341,320,50080,1,0,0:0:0:0:
431,260,50253,1,0,0:0:0:0:
136,127,50600,5,0,0:0:0:0:
241,155,50773,1,0,0:0:0:0:
304,244,50947,1,0,0:0:0:0:
219,49,51293,2,0,P|130:99|88:157,1,125
66,202,51640,1,0,0:0:0:0:
87,306,51813,2,0,P|192:271|231:278,1,125
138,97,67073,5,0,0:0:0:0:
123,120,67130,1,0,0:0:0:0:
116,148,67188,1,0,0:0:0:0:
122,176,67246,1,0,0:0:0:0:
140,198,67304,1,0,0:0:0:0:
166,207,67362,1,0,0:0:0:0:
194,203,67419,1,0,0:0:0:0:
222,196,67477,1,0,0:0:0:0:
251,199,67535,1,0,0:0:0:0:
272,213,67593,1,0,0:0:0:0:
275,108,67767,6,0,P|341:135|371:182,1,125
209,296,68114,2,0,L|150:329,2,62.5
324,310,68374,1,0,0:0:0:0:
415,242,68547,2,0,B|391:200|332:190,1,62.5
214,139,68808,2,0,P|247:184|250:156,1,125
103,218,69154,6,0,P|94:139|123:84,1,125
286,99,69501,2,0,L|219:125,1,62.5
208,215,69675,1,0,0:0:0:0:
208,215,69761,1,0,0:0:0:0:
344,325,69935,2,0,B|359:334|359:334|376:284,1,62.5
286,99,70195,2,0,P|345:83|412:73,1,125
402,232,70542,6,0,P|427:255|376:253,1,125
227,321,70888,2,0,P|188:282|182:257,2,62.5
314,278,71149,1,0,0:0:0:0:
337,89,71322,2,0,P|293:92|264:107,1,62.5
162,202,71582,2,0,L|95:90,1,125
134,280,71929,6,0,P|155:337|170:296,1,125
234,135,72276,2,0,L|167:122,2,62.5
265,36,72536,2,0,B|291:50|291:50|309:48|309:48|401:101,1,125
450,126,72796,1,0,0:0:0:0:
405,225,72969,5,0,0:0:0:0:
396,236,73056,1,0,0:0:0:0:
394,302,73143,1,0,0:0:0:0:
384,310,73230,1,0,0:0:0:0:
209,225,73316,6,0,P|207:277|252:251,1,125
210,84,73663,2,0,P|182:70|151:66,1,62.5
174,179,73836,1,0,0:0:0:0:
272,226,73923,1,0,0:0:0:0:
299,316,74097,2,0,P|373:310|409:293,1,62.5
192,225,74357,2,0,P|221:171|275:132,1,125
308,266,74704,6,0,P|319:286|323:242,1,125
126,248,75050,2,0,B|90:215|90:215|101:183,1,62.5
115,159,75224,1,0,0:0:0:0:
144,114,75310,2,0,L|264:68,1,125
259,155,75571,1,0,0:0:0:0:
323,128,75744,2,0,L|443:83,1,125
376,285,76091,6,0,P|393:300|342:300,1,125
180,284,76438,2,0,B|193:244|193:244|216:234,1,62.5
315,181,76611,1,0,0:0:0:0:
385,102,76698,1,0,0:0:0:0:
385,102,76871,2,0,P|311:78|292:87,1,62.5
374,261,77131,2,0,P|313:284|255:262,1,125
158,75,77478,6,0,B|99:106|97:181,1,125
202,295,77825,2,0,L|284:327,2,62.5
224,181,78085,1,0,0:0:0:0:
249,53,78258,2,0,L|181:20,1,62.5
157,193,78519,5,0,0:0:0:0:
131,241,78605,1,0,0:0:0:0:
105,288,78692,1,0,0:0:0:0:
276,282,78865,6,0,P|329:256|290:245,1,125
315,53,79212,2,0,P|267:98|256:122,2,62.5
413,103,79472,1,0,0:0:0:0:
419,293,79646,2,0,B|383:321|383:321|332:327,1,62.5
180,287,79906,2,0,P|195:235|258:176,1,125
353,162,80253,6,0,P|316:97|251:70,1,125
142,97,80599,2,0,P|114:101|129:117,2,62.5
179,205,80860,1,0,0:0:0:0:
193,320,81033,2,0,P|248:295|271:247,1,62.5
385,261,81293,2,0,P|322:214|258:194,1,125
143,129,81640,6,0,P|160:95|161:110,1,125
217,307,81987,2,0,B|260:290|260:290|271:240,1,62.5
285,172,82160,1,0,0:0:0:0:
311,51,82247,2,0,B|380:86|380:86|399:147,1,125
415,231,82507,1,0,0:0:0:0:
293,335,82680,6,0,P|228:226|231:180,1,125
157,63,83027,2,0,P|113:67|132:132,1,125
141,280,83374,2,0,P|198:253|218:210,1,62.5
254,177,83547,1,0,0:0:0:0:
297,81,83634,2,0,P|377:117|421:175,1,125
416,231,83894,1,0,0:0:0:0:
268,208,84068,5,0,0:0:0:0:
205,245,84154,1,0,0:0:0:0:
143,283,84241,1,0,0:0:0:0:
81,321,84328,1,0,0:0:0:0:
182,222,84414,5,0,0:0:0:0:
272,273,84588,2,0,B|317:298|317:298|357:284,1,93.7500035762788
272,273,84935,1,0,0:0:0:0:
182,222,85108,5,0,0:0:0:0:
282,194,85282,2,0,B|331:179|331:179|350:142,1,93.7500035762788
282,194,85629,1,0,0:0:0:0:
182,222,85802,5,0,0:0:0:0:
233,131,85976,2,0,B|258:85|258:85|244:45,1,93.7500035762788
233,131,86323,1,0,0:0:0:0:
182,222,86495,5,0,0:0:0:0:
154,121,86669,2,0,B|139:71|139:71|102:52,1,93.7500035762788
154,121,87016,1,0,0:0:0:0:
135,301,87189,5,0,0:0:0:0:
154,303,87275,1,0,0:0:0:0:
173,303,87362,1,0,0:0:0:0:
191,295,87449,1,0,0:0:0:0:
206,282,87535,5,0,0:0:0:0:
213,264,87622,1,0,0:0:0:0:
218,244,87709,1,0,0:0:0:0:
223,226,87795,1,0,0:0:0:0:
230,208,87882,5,0,0:0:0:0:
241,191,87969,1,0,0:0:0:0:
257,181,88056,1,0,0:0:0:0:
276,179,88142,1,0,0:0:0:0:
296,185,88229,5,0,0:0:0:0:
312,194,88316,1,0,0:0:0:0:
327,207,88402,1,0,0:0:0:0:
339,223,88489,1,0,0:0:0:0:
349,243,88576,6,0,P|353:259|338:276,18,31.2500011920929
301,76,89964,5,0,0:0:0:0:
346,132,90224,1,0,0:0:0:0:
259,164,90484,1,0,0:0:0:0:
272,235,90744,1,0,0:0:0:0:
174,238,91004,1,0,0:0:0:0:
155,308,91264,1,0,0:0:0:0:
54,269,91524,1,0,0:0:0:0:
146,321,95513,5,0,0:0:0:0:
87,258,95773,1,0,0:0:0:0:
194,242,96033,1,0,0:0:0:0:
168,162,96293,1,0,0:0:0:0:
262,186,96553,1,0,0:0:0:0:
277,108,96813,1,0,0:0:0:0:
361,171,97073,1,0,0:0:0:0:
152,229,101062,5,0,0:0:0:0:
77,187,101322,1,0,0:0:0:0:
206,149,101582,1,0,0:0:0:0:
157,76,101842,1,0,0:0:0:0:
300,143,102102,1,0,0:0:0:0:
311,60,102362,1,0,0:0:0:0:
382,190,102623,1,0,0:0:0:0:
256,192,106438,12,0,108172,0:0:0:0:
256,192,109212,12,0,110946,0:0:0:0:
61,159,112160,6,0,L|171:113,1,93.7500035762788
154,174,112420,1,0,0:0:0:0:
156,220,112507,1,0,0:0:0:0:
271,61,112680,6,0,L|288:166,1,93.7500035762788
237,140,112941,1,0,0:0:0:0:
191,123,113027,1,0,0:0:0:0:
400,217,113201,6,0,L|312:278,1,93.7500035762788
311,227,113461,1,0,0:0:0:0:
302,176,113547,1,0,0:0:0:0:
177,158,113721,6,0,P|128:203|129:243,1,93.7500035762788
194,321,114068,2,0,L|285:271,1,93.7500035762788
314,255,114328,1,0,0:0:0:0:
353,232,114415,1,0,0:0:0:0:
394,140,114588,6,0,P|330:126|293:136,1,93.7500035762788
243,58,114935,2,0,P|155:96|123:139,1,140.625005364418
201,206,115282,2,0,P|160:289|133:291,1,93.7500035762788
287,327,115628,5,0,0:0:0:0:
324,288,115715,1,0,0:0:0:0:
329,234,115802,2,0,P|380:139|445:88,1,187.500007152558
273,81,116322,2,0,P|202:86|176:113,1,93.7500035762788
273,81,116669,1,0,0:0:0:0:
244,160,116842,5,0,0:0:0:0:
201,186,116928,1,0,0:0:0:0:
166,224,117015,1,0,0:0:0:0:
147,272,117102,1,0,0:0:0:0:
156,322,117189,2,0,P|223:314|249:273,1,93.7500035762788
348,273,117536,2,0,B|293:209|327:101|327:101|206:142|145:69,1,375.000014305115
192,184,118403,5,0,0:0:0:0:
56,244,118576,2,0,P|113:274|168:268,1,93.7500035762788
269,319,118923,2,0,B|300:269|451:298|451:298|351:194|387:137,1,375.000014305115
284,186,119790,5,0,0:0:0:0:
240,64,119964,1,0,0:0:0:0:
152,168,120138,1,0,0:0:0:0:
284,186,120310,2,0,P|258:256|229:284,1,93.7500035762788
379,275,120657,1,0,0:0:0:0:
413,155,120831,2,0,P|377:70|360:46,1,93.7500035762788
202,48,121178,2,0,P|257:108|262:143,1,93.7500035762788
162,148,121524,2,0,P|97:230|99:256,1,93.7500035762788
131,321,121871,5,0,0:0:0:0:
210,245,122045,2,0,P|260:273|291:324,1,93.7500035762788
304,184,122391,1,0,0:0:0:0:
330,94,122565,2,0,P|239:116|221:139,1,93.7500035762788
260,192,123258,6,0,L|148:104,1,140.625005364418
72,196,123605,1,0,0:0:0:0:
220,300,123779,1,0,0:0:0:0:
332,192,123952,1,0,0:0:0:0:
224,104,124125,1,0,0:0:0:0:
144,196,124299,1,0,0:0:0:0:
292,304,124472,2,0,P|377:287|433:227,1,140.625005364418
436,228,124819,1,0,0:0:0:0:
380,116,124993,2,0,P|336:72|288:56,1,93.7500035762788
212,91,125339,5,0,0:0:0:0:
181,117,125426,1,0,0:0:0:0:
168,153,125513,1,0,0:0:0:0:
85,284,125686,6,0,L|188:325,1,93.7500035762788
192,319,126033,2,0,P|275:284|308:230,1,140.625005364418
410,175,126380,1,0,0:0:0:0:
189,233,126553,5,0,0:0:0:0:
156,115,126727,1,0,0:0:0:0:
66,192,126900,2,0,P|111:135|247:132,1,187.500007152558
254,257,127420,1,0,0:0:0:0:
363,173,127594,1,0,0:0:0:0:
310,70,127767,1,0,0:0:0:0:
219,143,127941,5,0,0:0:0:0:
178,167,128028,1,0,0:0:0:0:
150,205,128114,1,0,0:0:0:0:
145,255,128201,1,0,0:0:0:0:
164,304,128287,1,0,0:0:0:0:
294,348,128461,5,0,0:0:0:0:
428,320,128634,2,0,B|442:216|442:216|354:187|395:95|395:95|283:20,1,375.000014305115
274,131,129501,1,0,0:0:0:0:
263,246,129675,2,0,P|259:287|212:332,1,93.7500035762788
84,320,130021,2,0,B|70:216|70:216|158:187|117:95|117:95|229:20,1,375.000014305115
326,120,130888,1,0,0:0:0:0:
368,212,131062,2,0,P|391:254|382:319,1,93.7500035762788
300,344,131409,2,0,B|156:330|137:239|191:162|306:144|302:216|302:216|303:256|206:336|156:110|286:124|249:30,1,656.250025033952
81,192,132969,6,0,B|152:225|171:366|363:289,1,328.125012516976
362,289,133663,2,0,B|222:245|315:108|227:41,1,281.250010728836
94,106,134357,5,0,0:0:0:0:
114,231,134617,1,0,0:0:0:0:
183,161,134877,1,0,0:0:0:0:
259,252,135137,1,0,0:0:0:0:
298,187,135397,1,0,0:0:0:0:
410,262,135657,1,0,0:0:0:0:
204,325,139906,5,0,0:0:0:0:
118,250,140166,1,0,0:0:0:0:
233,239,140426,1,0,0:0:0:0:
204,131,140686,1,0,0:0:0:0:
306,157,140946,1,0,0:0:0:0:
330,57,141206,1,0,0:0:0:0:
90,278,145455,5,0,0:0:0:0:
153,181,145628,2,0,L|107:70,1,93.7500035762788
248,191,145975,2,0,L|203:67,1,93.7500035762788
339,184,146322,2,0,L|289:63,1,93.7500035762788
436,184,146669,1,0,0:0:0:0:
347,244,146842,1,0,0:0:0:0:
378,99,147016,2,0,P|297:135|275:160,1,93.7500035762788
214,88,147363,2,0,P|191:138|199:209,1,93.7500035762788
97,217,147710,2,0,P|144:272|192:287,1,93.7500035762788
276,279,148056,1,0,0:0:0:0:
377,230,148230,2,0,L|421:145,1,93.7500035762788
306,165,148576,2,0,L|244:272,1,93.7500035762788
203,159,148923,2,0,L|255:62,1,93.7500035762788
128,121,149270,2,0,L|61:221,1,93.7500035762788
147,363,149617,5,0,0:0:0:0:
255,335,149790,1,0,0:0:0:0:
363,306,149964,1,0,0:0:0:0:
404,200,150137,1,0,0:0:0:0:
325,222,150311,1,0,0:0:0:0:
274,241,150484,1,0,0:0:0:0:
225,260,150657,2,0,L|171:283,4,46.8750017881394
219,80,151177,1,0,0:0:0:0:
191,295,151350,1,0,0:0:0:0:
208,68,151524,1,0,0:0:0:0:
79,216,151698,5,0,0:0:0:0:
316,150,151871,1,0,0:0:0:0:
84,200,152045,1,0,0:0:0:0:
311,166,152218,1,0,0:0:0:0:
242,280,152391,5,0,0:0:0:0:
148,82,152565,1,0,0:0:0:0:
248,296,152738,1,0,0:0:0:0:
143,66,152911,1,0,0:0:0:0:
271,69,153085,5,0,0:0:0:0:
119,282,153258,1,0,0:0:0:0:
280,83,153431,1,0,0:0:0:0:
107,270,153605,1,0,0:0:0:0:
108,136,153779,6,0,L|80:72,3,62.5
200,248,154125,6,0,L|172:312,3,62.5
296,136,154472,6,0,L|268:72,3,62.5
392,248,154819,6,0,L|364:312,3,62.5
118,91,155166,6,0,L|160:70,11,41.6666666666667
36,192,155860,5,0,0:0:0:0:
100,192,155946,5,0,0:0:0:0:
164,192,156033,5,0,0:0:0:0:
228,192,156120,5,0,0:0:0:0:
292,192,156206,5,0,0:0:0:0:
356,192,156293,5,0,0:0:0:0:
416,192,156380,5,0,0:0:0:0:
476,192,156467,5,0,0:0:0:0:
389,284,156553,6,0,L|268:358,1,125
329,246,156813,2,0,L|258:278,1,62.5
222,250,157073,1,0,0:0:0:0:
389,284,157247,6,0,L|268:358,1,125
329,246,157507,2,0,L|258:278,1,62.5
222,250,157767,1,0,0:0:0:0:
238,352,157854,1,0,0:0:0:0:
389,284,157941,6,0,L|268:358,1,125
329,246,158201,2,0,L|258:278,1,62.5
222,250,158461,1,0,0:0:0:0:
122,150,158634,2,0,P|168:93|213:71,1,125
295,47,158894,2,0,P|287:112|274:125,1,62.5
227,203,159154,1,0,0:0:0:0:
378,229,159328,2,0,P|353:317|306:348,1,125
250,354,159588,1,0,0:0:0:0:
169,336,159675,2,0,P|85:287|51:237,1,125
165,218,160021,2,0,P|236:165|252:116,1,125
225,53,160282,1,0,0:0:0:0:
309,71,160368,2,0,P|381:134|402:175,1,125
412,299,160715,2,0,P|326:272|251:276,1,125
218,328,160975,1,0,0:0:0:0:
205,241,161062,2,0,P|148:195|72:174,1,125
59,276,161409,2,0,P|109:199|161:165,1,125
209,142,161669,1,0,0:0:0:0:
292,127,161756,2,0,P|356:135|381:152,1,62.5
416,166,161929,1,0,0:0:0:0:
468,222,162016,1,0,0:0:0:0:
501,291,162102,2,0,P|430:338|378:348,1,125
329,246,162362,2,0,L|258:278,1,62.5
222,250,162623,1,0,0:0:0:0:
