osu file format v14

[General]
AudioFilename: DJ Noriken feat. Yukacco - Lucent (JAKAZiD Remix).mp3
AudioLeadIn: 0
PreviewTime: 67709
Countdown: 0
SampleSet: Normal
StackLeniency: 0.5
Mode: 1
LetterboxInBreaks: 0
WidescreenStoryboard: 1

[Editor]
Bookmarks: 48345,53894,59443,67767,89964,112160,145455,178750,200946,223143,245339,250542,256091,261640,267536,278634,289732
DistanceSpacing: 1.6
BeatDivisor: 6
GridSize: 4
TimelineZoom: 1

[Metadata]
Title:Lucent (JAKAZiD Remix)
TitleUnicode:Lucent (JAKAZiD Remix)
Artist:DJ Noriken ft. Yukacco
ArtistUnicode:DJ Noriken ft. Yukacco
Creator:morijo-
Version:special
Source:
Tags:galvenize Impulse_of_the_Moment SKETCH UP! Recordings J-Core mirror mode speed mode mirror reverse mode pincer movement mode
BeatmapID:379019
BeatmapSetID:154326

[Difficulty]
HPDrainRate:5
CircleSize:5
OverallDifficulty:5
ApproachRate:5
SliderMultiplier:1.4
SliderTickRate:1

[Events]
//Background and Video events
0,0,"DJ Noriken feat. Yukacco - Lucent (JAKAZiD Remix) - Background.jpg",0,0
//Break Periods
2,42996,47319
2,267389,277434
2,334325,344024
//Storyboard Layer 0 (Background)
//Storyboard Layer 1 (Fail)
//Storyboard Layer 2 (Pass)
//Storyboard Layer 3 (Foreground)
Sprite,Foreground,Centre,"SB\mirror.jpg",320,240 M,0,289039,,310,234 S,0,289039,,0.6541976 F,0,289039,289125,1 F,0,289125,289212,1,0 F,0,289212,289299,0 F,0,289299,289386,0,1 F,0,289386,289472,1 F,0,289472,289559,1,0 F,0,289559,289646,0 F,0,289646,289732,0,1 F,0,289732,333779,1 F,0,333779,334125,1,0
Sprite,Foreground,Centre,"SB\0ero.png",320,240 M,0,1178,318172,318,323 F,0,23374,26149,0,1 F,0,26149,340455,1 R,0,312623,314357,0,0.2712933 M,0,314357,314790,318,323 R,0,314357,318172,0.2712933 M,0,314790,318172,318,323,313,374 M,0,318172,319212,318,323,313,374 R,0,318172,319212,0.2712933,-6.330013E-07 M,0,319212,323721,313,374 R,0,319212,323721,-6.330013E-07 M,0,323721,325455,313,374,313,414 R,0,323721,325455,-6.330013E-07,-0.3032111 M,0,325455,333085,313,414 R,0,325455,333085,-0.3032111 M,0,333085,334125,313,414,309,322 R,0,333085,334125,-0.3032111,-1.254082E-06 M,0,334125,360917,309,322 F,0,340455,378345,1 F,0,378345,378519,1 F,0,378519,381293,1 F,0,381293,382680,1 F,0,382680,383374,1,0
Sprite,Foreground,Centre,"SB\timing bar.png",320,240 F,0,44877,45050,0,1 M,0,44877,45917,557,323,-33,323 F,0,45050,,1
Sprite,Foreground,Centre,"SB\timing bar.png",320,240 F,0,50426,50599,0,0.4985591 M,0,50426,51467,556,323,-36,323 F,0,50599,,1
Sprite,Foreground,Centre,"SB\timing bar.png",320,240 F,0,55975,56149,0,1 M,0,55975,57016,548,323,-31,323
Sprite,Foreground,Centre,"SB\1ne.png",320,240 F,0,44877,45224,0,1 M,0,44877,48345,1325,323,-619,323 F,0,45224,47998,1 F,0,47998,48345,1,0.002881825
Sprite,Foreground,Centre,"SB\2nd.png",320,240 F,0,50426,50773,0,1 M,0,50426,53894,1309,323,-644,323 F,0,50773,53547,1 F,0,53547,53894,1,0
Sprite,Foreground,Centre,"SB\3rd.png",320,240 F,0,55975,56322,0,1 M,0,55975,59443,1309,323,-606,323 F,0,56322,59097,1 F,0,59097,59443,1,0
Sprite,Foreground,Centre,"SB\many.png",320,240 F,0,66149,66264,0,1 M,0,66149,66987,610,310,29,311 F,0,66264,66871,1 F,0,66871,66987,1,0
Sprite,Foreground,Centre,"SB\1.png",320,240 F,0,66235,66351,0,1 M,0,66235,67073,606,323,21,323 F,0,66351,66958,1 F,0,66958,67073,1,0
Sprite,Foreground,Centre,"SB\2.png",320,240 F,0,66293,66409,0,1 M,0,66293,67131,610,323,25,323 F,0,66409,67016,1 F,0,67016,67131,1,0
Sprite,Foreground,Centre,"SB\don.png",320,240 F,0,66033,66149,0,1 M,0,66033,66900,625,323,19,323 F,0,66149,66784,1 F,0,66784,66900,1,0
Sprite,Foreground,Centre,"SB\LOOK HERE.PNG",320,240 M,0,43490,,318,322 F,0,43490,43836,0,1 F,0,43836,44183,1,0 F,0,44183,44530,0,1 F,0,44530,44877,1,0 F,0,64993,65253,0,1 F,0,65253,65513,1,0 F,0,65513,65773,0,1 F,0,65773,66033,1,0 F,0,70368,70628,0,1 F,0,70628,70888,1,0 F,0,70888,71149,0,0.4995122 F,0,71149,71409,0.4995122,0 F,0,71409,71669,0,0.241431 F,0,71669,71929,0.241431,0 F,0,75917,76178,0,1 F,0,76178,76438,1,0 F,0,76438,76698,0,0.4255607 F,0,76698,76958,0.4255607,0 F,0,76958,77218,0,0.2257564 F,0,77218,77478,0.2257564,0 F,0,81467,81727,0,1 F,0,81727,81987,1,0 F,0,81987,82247,0,0.4255607 F,0,82247,82507,0.4255607,0 F,0,82507,82767,0,0.2257564 F,0,82767,83027,0.2257564,0 F,0,85628,85888,0,1 F,0,85888,86149,1,0 F,0,86149,86409,0,0.4255607 F,0,86409,86669,0.4255607,0 F,0,86669,86929,0,0.2257564 F,0,86929,87189,0.2257564,0
Sprite,Foreground,Centre,"SB\YOUR TURN.PNG",320,240 M,0,48172,,318,322 F,0,48172,48345,0,1 F,0,48345,48692,1,0 F,0,48692,49039,0,1 F,0,49039,49386,1,0 F,0,49386,49732,0,1 F,0,49732,50079,1,0 F,0,50079,50426,0,1 F,0,50426,50773,1,0 F,0,50773,53721,0 F,0,53721,53894,0,1 F,0,53894,54241,1,0 F,0,54247,54588,0,1 F,0,54588,54935,1,0 F,0,54935,55282,0,1 F,0,55282,55628,1,0 F,0,55628,55975,0,1 F,0,55975,56322,1,0 F,0,56322,59270,0 F,0,59270,59443,0,1 F,0,59443,59790,1,0 F,0,59790,60137,0,1 F,0,60137,60484,1,0 F,0,60484,60831,0,1 F,0,60831,61178,1,0 F,0,61178,61524,0,1 F,0,61524,61871,1,0
Sprite,Foreground,Centre,"SB\katsu.png",320,240 F,0,71929,72016,0,1 M,0,71929,72796,636,324,18,324 F,0,72016,72709,1 F,0,72709,72796,1,0
Sprite,Foreground,Centre,"SB\4.png",320,240 F,0,72167,72276,0,1 M,0,72167,73056,613,323,-6,322 F,0,72276,72948,1 F,0,72948,73056,1,0 F,0,83200,83287,0,1 M,0,83200,84067,595,320,-28,320 F,0,83287,83981,1 F,0,83981,84067,1,0 F,0,249675,249848,0,1 M,0,249675,250542,608,322,-31,322 F,0,249848,250368,1 F,0,250368,250542,1,0 F,0,260773,260946,0,1 M,0,260773,261640,600,323,-19,322 F,0,260946,261467,1 F,0,261467,261640,1,0
Sprite,Foreground,Centre,"SB\3.png",320,240 F,0,77651,77825,0,1 M,0,77651,78519,611,320,-28,320 F,0,77825,78345,1 F,0,78345,78519,1,0 F,0,255224,255397,0,1 M,0,255224,256091,604,323,-15,322 F,0,255397,255917,1 F,0,255917,256091,1,0
Sprite,Foreground,Centre,"SB\many.png",320,240 F,0,72073,72160,0,1 M,0,72073,72941,611,314,1,314 F,0,72160,72796,1 F,0,72796,72941,1,0
Sprite,Foreground,Centre,"SB\katsu many.png",320,240 F,0,77478,77651,0,1 M,0,77478,78345,638,321,0,322 F,0,77651,78172,1 F,0,78172,78345,1,0 F,0,83027,83114,0,1 M,0,83027,83894,619,323,0,322 F,0,83114,83808,1 F,0,83808,83894,1,0 F,0,249501,249675,0,1 M,0,249501,250368,638,321,0,322 F,0,249675,250195,1 F,0,250195,250368,1,0 F,0,255050,255224,0,1 M,0,255050,255917,619,323,0,322 F,0,255224,255744,1 F,0,255744,255917,1,0 F,0,260599,260773,0,1 M,0,260599,261467,619,323,0,322 F,0,260773,261293,1 F,0,261293,261467,1,0
Sprite,Foreground,Centre,"SB\don many.png",320,240 F,0,87199,87372,0,1 M,0,87199,88066,638,321,6,321 F,0,87362,87893,1 F,0,87893,88066,1,0
Sprite,Foreground,Centre,"SB\1.png",320,240 F,0,87362,87535,0,1 M,0,87362,88229,601,320,-28,320 F,0,87535,88056,1 F,0,88056,88229,1,0
Sprite,Foreground,Centre,"SB\9.png",320,240 F,0,87420,87593,0,1 M,0,87420,88287,606,320,-23,320 F,0,87593,88114,1 F,0,88114,88287,1,0
Sprite,Foreground,Centre,"SB\WARNING.PNG",320,240 M,0,145455,,315,324 F,0,145455,146149,0,1 F,0,146149,146842,1,0 F,0,146842,147536,0,1 F,0,147536,148230,1,0 F,0,214819,215513,0,1 F,0,215513,216206,1,0 F,0,216206,216900,0,1 F,0,216900,217594,1,0 F,0,278634,279328,0,1 F,0,279328,280021,1,0 F,0,280021,280715,0,1 F,0,280715,281409,1,0
Sprite,Foreground,Centre,"SB\YOU PLAY LOOKING HERE.PNG",320,240 M,0,148230,,316,319 F,0,148230,148576,0,1 F,0,148576,149270,1 F,0,149270,149617,1,0 F,0,281409,281756,0,1 F,0,281756,282449,1 F,0,282449,282796,1,0
Sprite,Foreground,Centre,"SB\MIRROR MODE.PNG",320,240 M,0,149617,,300,320 F,0,149617,149964,0,1 F,0,149964,150657,1 F,0,150657,151004,1,0 F,0,178750,243779,0 F,0,243779,243952,0,1 F,0,243952,244125,1,0 F,0,244125,244299,0,1 F,0,244299,244472,1,0 F,0,244472,244646,0,1 F,0,244646,245166,1 F,0,245166,245339,1,0 F,0,245339,246033,0,1 F,0,246033,246727,1,0 F,0,246727,247420,0,0.4130733 F,0,247420,248114,0.4130733,0.01585013 F,0,248114,248808,0.01585013,0.2370405 F,0,248808,249501,0.2370405,0.0164225
Sprite,Foreground,Centre,"SB\count down3.PNG",320,240 F,0,153432,153779,0,1 M,0,153779,,315,324 F,0,153779,154125,1,0 F,0,154125,220021,0 F,0,220021,220368,0,1 F,0,220368,220715,1,0 F,0,220715,286611,0,0.02017289 F,0,286611,286958,0.02017289,1 F,0,286958,287305,1,0.02017289
Sprite,Foreground,Centre,"SB\count down2.PNG",320,240 F,0,154125,154472,0,1 M,0,154472,,316,320 F,0,154472,154819,1,0 F,0,154819,220715,0,0.002881825 F,0,220715,221062,0.002881825,1 F,0,221062,221409,1,0.002881825 F,0,221409,287305,0.002881825,0.02587016 F,0,287305,287651,0.02587016,1 F,0,287651,287998,1,0.02587016
Sprite,Foreground,Centre,"SB\count down1.PNG",320,240 F,0,154819,155166,0,1 M,0,155166,,316,319 F,0,155166,155513,1,0 F,0,155513,221409,0,0.00576371 F,0,221409,221756,0.00576371,1 F,0,221756,222102,1,0.00576371 F,0,222102,287998,0.00576371,0 F,0,287998,288345,0,1 F,0,288345,288692,1,0
Sprite,Foreground,Centre,"SB\GO.PNG",320,240 M,0,155513,,316,321 F,0,155513,155860,0,1 F,0,155860,156553,1 F,0,156553,156900,1,0 F,0,156900,222102,0 F,0,222102,222449,0,1 F,0,222449,222796,1,0 F,0,222796,288692,0 F,0,288692,289039,0,1 F,0,289039,,1 F,0,289039,289386,1 F,0,289386,289732,1,0
Sprite,Foreground,Centre,"SB\4th.png",320,240 F,0,155686,156033,0,1 M,0,155686,159328,1302,323,-540,323 F,0,156033,158981,1 F,0,158981,159328,1,0 M,0,159328,,-526,323 M,0,159328,161235,-540,323,1302,323 F,0,159328,161235,0 F,0,161235,161582,0,1 M,0,161235,164877,1302,323,-540,323 F,0,161582,164530,1 F,0,164530,164877,1,0
Sprite,Foreground,Centre,"SB\5th.png",320,240 F,0,158461,158808,0,1 M,0,158461,162102,1302,323,-546,323 F,0,158808,161756,1 F,0,161756,162102,1,0 M,0,162102,164010,-546,323,1302,323 F,0,162102,164010,0 F,0,164010,164357,0,1 M,0,164010,167651,1302,323,-546,323 F,0,164357,167305,1 F,0,167305,167651,1,0
Sprite,Foreground,Centre,"SB\6th.png",320,240 F,0,166784,167131,0.3829595,1 M,0,166784,170426,1310,323,-539,323 F,0,167131,170079,1 F,0,170079,170426,1,0 M,0,170426,172334,-522,323,1335,323 F,0,170426,172334,0 F,0,172334,172680,0,1 M,0,172334,175975,1318,323,-532,323 F,0,172680,175628,1 F,0,175628,175975,1,0
Sprite,Foreground,Centre,"SB\7th.png",320,240 F,0,169559,169906,0,1 M,0,169559,173201,1300,323,-526,323 F,0,169906,172854,1 F,0,172854,173201,1,0
Sprite,Foreground,Centre,"SB\7.5th.png",320,240 F,0,175108,175455,0,1 M,0,175108,177362,933,323,-216,323 F,0,175455,177016,1 F,0,177016,177362,1,0
Sprite,Foreground,Centre,"SB\NORMAL MODE.PNG",320,240 M,0,177362,,292,321 F,0,177362,177709,0,1 F,0,177709,178056,1,0 F,0,178056,178403,0,1 F,0,178403,178750,1,0 F,0,178750,180137,0,1 F,0,180137,213432,1 F,0,213432,214819,1,0 F,0,214819,275860,0 F,0,275860,276553,0,1 F,0,276553,277247,1,0 F,0,277247,277941,0,1 F,0,277941,278634,1,0
Sprite,Foreground,Centre,"SB\SPEED UP!!.PNG",320,240 M,0,217594,,311,324 F,0,217594,217941,0,1 F,0,217941,218634,1 F,0,218634,218981,1,0 F,0,218981,219328,0,1 F,0,219328,220021,1 F,0,220021,220368,1,0
Sprite,Foreground,Centre,"SB\MORE MORE MORE!.PNG",320,240 M,0,232854,,327,317 F,0,232854,233027,0,1 F,0,233027,233201,1,0 F,0,233201,233374,0,1 F,0,233374,233547,1,0 F,0,233547,233721,0,1 F,0,233721,234068,1 F,0,234068,234241,1,0
Sprite,Foreground,Centre,"SB\SPEED MODE.PNG",320,240 F,0,223143,223316,0,1 M,0,223143,225571,753,316,-112,316 F,0,223316,225397,1 F,0,225397,225571,1,0 F,0,225571,225744,0,1 M,0,225571,227998,752,316,-112,316 F,0,225744,227825,1 F,0,227825,227998,1,0 F,0,227998,228172,0,1 M,0,227998,230426,752,316,-112,316 F,0,228172,230253,1 F,0,230253,230426,1,0 F,0,230426,230599,0,1 M,0,230426,232854,752,316,-112,316 F,0,230599,232680,1 F,0,232680,232854,1,0 F,0,232854,234241,0 F,0,234241,234414,0,1 M,0,234241,236669,752,316,-112,316 F,0,234414,,1 F,0,234414,236495,1 F,0,236495,236669,1,0 F,0,236669,236842,0,1 M,0,236669,239097,752,316,-112,316 F,0,236842,238923,1 F,0,238923,239097,1,0 F,0,239097,239270,0,1 M,0,239097,241524,752,316,-112,316 F,0,239270,241351,1 F,0,241351,241524,1,0 F,0,241524,241698,0,1 M,0,241524,243952,752,316,-112,316 F,0,241698,243779,1 F,0,243779,243952,1,0
Sprite,Foreground,Centre,"SB\MIRROR MODE.PNG",320,240 F,0,250888,251062,0,1 M,0,250888,252969,812,321,-172,321 F,0,251062,252796,1 F,0,252796,252969,1,0 F,0,252969,253143,0,1 M,0,252969,255050,812,321,-172,321 F,0,253143,254877,1 F,0,254877,255050,1,0 M,0,255050,256438,-172,321,812,321 F,0,256438,256611,0,1 M,0,256438,258519,812,321,-172,321 F,0,256611,258345,1 F,0,258345,258519,1,0 F,0,258519,258692,0,1 M,0,258519,260599,812,321,-172,321 F,0,258692,260426,1 F,0,260426,260599,1,0 F,0,260599,261987,0 F,0,261987,262160,0,1 M,0,261987,264761,812,321,-172,321 F,0,262160,264588,1 F,0,264588,264761,1,0 F,0,264761,264935,0,1 M,0,264761,267536,812,321,-172,321 F,0,264935,267362,1 F,0,267362,267536,1,0
Sprite,Foreground,Centre,"SB\ALL MIRROR MODE.png",320,240 M,0,282796,,322,322 F,0,282796,282969,0,1 F,0,282969,284010,1 F,0,284010,284183,1,0
Sprite,Foreground,Centre,"SB\reverse.png",320,240 F,0,285571,285917,0,1 M,0,285571,286958,-318,321,740,321 F,0,285917,286264,1,0 F,0,286264,286611,0,1 F,0,286611,286958,1,0
Sprite,Foreground,Centre,"SB\Beatmap by.png",320,240 S,0,267189,267536,1,0.5837401 M,0,267536,,341,319 F,0,267536,267709,0,1 F,0,267709,271351,1 F,0,271351,271698,1,0
Sprite,Foreground,Centre,"SB\morijo-.png",320,240 S,0,267189,267536,1,0.5837396 M,0,267536,,527,322 F,0,267536,267709,0,1 F,0,267709,275513,1 F,0,275513,275860,1,0
Sprite,Foreground,Centre,"SB\storyboard by.png",320,240 S,0,271351,271698,1,0.5587643 M,0,271698,,324,321 F,0,271698,271871,0,1 F,0,271871,275513,1 F,0,275513,275860,1,0
Sprite,Foreground,Centre,"SB\8th.png",320,240 M,0,288692,292854,-729,323,1369,323
Sprite,Foreground,Centre,"SB\9th.png",320,240 M,0,291467,295628,-727,322,1369,322
Sprite,Foreground,Centre,"SB\10th.png",320,240 M,0,294241,298403,-734,322,1370,322
Sprite,Foreground,Centre,"SB\11th.png",320,240 M,0,297016,301178,-732,322,1370,322
Sprite,Foreground,Centre,"SB\12th.png",320,240 M,0,299790,303952,-734,322,1369,322
Sprite,Foreground,Centre,"SB\13th.png",320,240 M,0,302565,306727,-734,322,1370,322
Sprite,Foreground,Centre,"SB\14th.png",320,240 M,0,305339,309501,-734,322,1370,322
Sprite,Foreground,Centre,"SB\15th.png",320,240 M,0,308114,312276,-734,322,1369,322
Sprite,Foreground,Centre,"SB\dkdk.png",320,240 F,0,312623,313663,0 R,0,312623,314357,0,0.2712933 F,0,313663,314010,0,1 M,0,313663,314704,-683,44,-179,183 M,0,314704,317825,-179,183,1330,603
Sprite,Foreground,Centre,"SB\kdkd.png",320,240 F,0,319212,319386,0,1 M,0,319212,323374,-730,374,1370,374
Sprite,Foreground,Centre,"SB\17th.png",320,240 R,0,327536,,-0.3032111 M,0,327536,331698,-668,720,1332,94
Sprite,Foreground,Centre,"SB\16th.png",320,240 R,0,323721,325455,0,-0.3032111 F,0,324761,325108,0,1 M,0,324761,325455,-668,606,-334,615 M,0,325455,328923,-334,615,1332,94
Sprite,Foreground,Centre,"SB\18th.png",320,240 R,0,330310,,-0.3032111 M,0,330310,334472,-668,720,1332,94 F,0,332738,333085,1,0
Sprite,Foreground,Centre,"SB\NORMAL MODE-m.PNG",320,240 F,0,332738,332912,0,1 M,0,332738,333085,271,420 F,0,332912,333085,1,0 F,0,333085,333258,0,1 M,0,333085,334125,271,420,275,319 R,0,333085,334125,-0.3032111,-1.254082E-06 F,0,333258,333432,1,0 F,0,333432,333605,0,1 F,0,333605,333779,1,0 F,0,333779,333952,0,1 F,0,333952,334125,1,0
Sprite,Foreground,Centre,"SB\caution size.png",320,240 F,0,41409,41756,0,0.675317 F,0,41756,42102,0.675317,0 F,0,42102,42449,0,0.675317 F,0,42449,42796,0.675317,0 M,0,42796,,314,322 F,0,42796,43143,0,0.675317 F,0,43143,43490,0.675317,0
Sprite,Foreground,Centre,"SB\don bar.png",320,240 F,0,344183,344357,0,1 M,0,344183,345224,679,322,299,322 F,0,344357,345224,1 M,0,345224,345397,299,322 F,0,345224,345397,1,0
Sprite,Foreground,Centre,"SB\don.png",320,240 F,0,344877,345050,0,1 M,0,344877,345917,679,322,299,322 F,0,345050,345917,1 M,0,345917,346091,299,322 F,0,345917,346091,1,0
Sprite,Foreground,Centre,"SB\don bar.png",320,240 F,0,345571,345744,0,1 M,0,345571,346611,679,322,299,322 F,0,345744,346611,1 M,0,346611,346784,299,322 F,0,346611,346784,1,0
Sprite,Foreground,Centre,"SB\don.png",320,240 F,0,346264,346438,0,1 M,0,346264,347305,679,322,299,322 F,0,346438,347305,1 M,0,347305,347478,299,322 F,0,347305,347478,1,0
Sprite,Foreground,Centre,"SB\katsu bar.png",320,240 F,0,346958,347131,0,1 M,0,346958,347998,-40,322,296,322 F,0,347131,347998,1 F,0,347998,348172,1,0
Sprite,Foreground,Centre,"SB\katsu.png",320,240 F,0,347651,347825,0,1 M,0,347651,348692,-40,321,296,321 F,0,347825,348692,1 M,0,348692,348865,296,321 F,0,348692,348865,1,0
Sprite,Foreground,Centre,"SB\katsu bar.png",320,240 F,0,348345,348519,0,1 M,0,348345,349386,-40,322,296,322 F,0,348519,349386,1 M,0,349386,349559,296,322 F,0,349386,349559,1,0
Sprite,Foreground,Centre,"SB\katsu.png",320,240 F,0,349039,349212,0,1 M,0,349039,350079,-40,321,296,321 F,0,349212,350079,1 M,0,350079,350253,296,321 F,0,350079,350253,1,0
Sprite,Foreground,Centre,"SB\don bar.png",320,240 F,0,349732,349906,0,1 M,0,349732,350773,679,322,299,322 F,0,349906,350773,1 M,0,350773,350946,299,322 F,0,350773,350946,1,0
Sprite,Foreground,Centre,"SB\katsu.png",320,240 F,0,350426,350599,0,1 M,0,350426,351467,-40,321,296,321 F,0,350599,351467,1 M,0,351467,351640,296,321 F,0,351467,351640,1,0
Sprite,Foreground,Centre,"SB\don bar.png",320,240 F,0,351120,351293,0,1 M,0,351120,352160,679,322,299,322 F,0,351293,352160,1 M,0,352160,352334,299,322 F,0,352160,352334,1,0
Sprite,Foreground,Centre,"SB\katsu.png",320,240 F,0,351813,351987,0,1 M,0,351813,352854,-40,321,296,321 F,0,351987,352854,1 M,0,352854,353027,296,321 F,0,352854,353027,1,0
Sprite,Foreground,Centre,"SB\don bar.png",320,240 F,0,352507,352680,0,1 M,0,352507,353547,679,322,299,322 F,0,352680,353547,1 M,0,353547,353721,299,322 F,0,353547,353721,1,0
Sprite,Foreground,Centre,"SB\don.png",320,240 F,0,353201,353374,0,1 M,0,353201,354241,679,322,299,322 F,0,353374,354241,1 M,0,354241,354415,299,322 F,0,354241,354415,1,0
Sprite,Foreground,Centre,"SB\don bar.png",320,240 F,0,353894,354067,0,1 M,0,353894,354934,679,322,299,322 F,0,354067,354934,1 M,0,354934,355108,299,322 F,0,354934,355108,1,0
Sprite,Foreground,Centre,"SB\don.png",320,240 F,0,354588,354761,0,1 M,0,354588,355628,679,322,299,322 F,0,354761,355628,1 M,0,355628,355802,299,322 F,0,355628,355802,1,0
Sprite,Foreground,Centre,"SB\katsu.png",320,240 F,0,352854,353028,0,1 M,0,352854,353895,-40,321,296,321 F,0,353028,353895,1 M,0,353895,354068,296,321 F,0,353895,354068,1,0
Sprite,Foreground,Centre,"SB\katsu.png",320,240 F,0,353547,353721,0,1 M,0,353547,354588,-40,321,296,321 F,0,353721,354588,1 M,0,354588,354761,296,321 F,0,354588,354761,1,0
Sprite,Foreground,Centre,"SB\katsu.png",320,240 F,0,354241,354415,0,1 M,0,354241,355282,-40,321,296,321 F,0,354415,355282,1 M,0,355282,355455,296,321 F,0,355282,355455,1,0
Sprite,Foreground,Centre,"SB\katsu.png",320,240 F,0,354935,355109,0,1 M,0,354935,355716,-40,321,212,321 F,0,355109,355976,1 M,0,355716,355976,212,321,296,321 M,0,355976,356149,296,321 F,0,355976,356149,1,0
Sprite,Foreground,Centre,"SB\don bar.png",320,240 F,0,355282,355455,0,1 M,0,355282,356322,679,322,299,322 F,0,355455,356322,1 M,0,356322,356496,299,322 F,0,356322,356496,1,0
Sprite,Foreground,Centre,"SB\don.png",320,240 F,0,355628,355801,0,1 M,0,355628,356668,679,322,299,322 F,0,355801,356668,1 M,0,356668,356842,299,322 F,0,356668,356842,1,0
Sprite,Foreground,Centre,"SB\don bar.png",320,240 F,0,356669,356842,0,1 M,0,356669,357709,679,322,299,322 F,0,356842,357709,1 M,0,357709,357883,299,322 F,0,357709,357883,1,0
Sprite,Foreground,Centre,"SB\don.png",320,240 F,0,357016,357189,0,1 M,0,357016,358056,679,322,299,322 F,0,357189,358056,1 M,0,358056,358230,299,322 F,0,358056,358230,1,0
Sprite,Foreground,Centre,"SB\don.png",320,240 F,0,357362,357535,0,1 M,0,357362,358402,679,322,299,322 F,0,357535,358402,1 M,0,358402,358576,299,322 F,0,358402,358576,1,0
Sprite,Foreground,Centre,"SB\katsu.png",320,240 F,0,355455,355629,0,1 M,0,355455,356496,-40,321,296,321 F,0,355629,356496,1 M,0,356496,356669,296,321 F,0,356496,356669,1,0
Sprite,Foreground,Centre,"SB\katsu.png",320,240 F,0,356495,356669,0,1 M,0,356495,357536,-40,321,296,321 F,0,356669,357536,1 M,0,357536,357709,296,321 F,0,357536,357709,1,0
Sprite,Foreground,Centre,"SB\katsu.png",320,240 F,0,356842,357016,0,1 M,0,356842,357883,-40,321,296,321 F,0,357016,357883,1 M,0,357883,358056,296,321 F,0,357883,358056,1,0
Sprite,Foreground,Centre,"SB\katsu.png",320,240 F,0,357189,357363,0,1 M,0,357189,358230,-40,321,296,321 F,0,357363,358230,1 M,0,358230,358403,296,321 F,0,358230,358403,1,0
Sprite,Foreground,Centre,"SB\katsu.png",320,240 F,0,355802,355976,0,1 M,0,355802,356843,-40,321,296,321 F,0,355976,356843,1 M,0,356843,357016,296,321 F,0,356843,357016,1,0
Sprite,Foreground,Centre,"SB\don.png",320,240 F,0,355975,356148,0,1 M,0,355975,357015,679,322,299,322 F,0,356148,357015,1 M,0,357015,357189,299,322 F,0,357015,357189,1,0
Sprite,Foreground,Centre,"SB\don bar.png",320,240 F,0,358316,358490,0,1 M,0,358316,359097,679,322,299,322 F,0,358490,359096,1 M,0,359097,359270,299,322 F,0,359097,359270,1,0
Sprite,Foreground,Centre,"SB\don.png",320,240 F,0,358663,358836,0,1 M,0,358663,359443,679,322,299,322 F,0,358836,359443,1 M,0,359443,359617,299,322 F,0,359443,359617,1,0
Sprite,Foreground,Centre,"SB\katsu.png",320,240 F,0,358490,358663,0,1 M,0,358490,359271,-40,321,296,321 F,0,358663,359271,1 M,0,359271,359444,296,321 F,0,359271,359444,1,0
Sprite,Foreground,Centre,"SB\timing bar.png",320,240 F,0,344183,344357,0,1 M,0,344183,345224,-32,322,298,322
Sprite,Foreground,Centre,"SB\timing bar.png",320,240 F,0,345571,345745,0,1 M,0,345571,346612,-32,322,298,322
Sprite,Foreground,Centre,"SB\timing bar.png",320,240 F,0,349732,349906,0,1 M,0,349732,350773,-32,322,298,322
Sprite,Foreground,Centre,"SB\timing bar.png",320,240 F,0,351120,351294,0,1 M,0,351120,352161,-32,322,298,322
Sprite,Foreground,Centre,"SB\timing bar.png",320,240 F,0,352507,352681,0,1 M,0,352507,353548,-32,322,298,322
Sprite,Foreground,Centre,"SB\timing bar.png",320,240 F,0,353894,354068,0,1 M,0,353894,354935,-32,322,298,322
Sprite,Foreground,Centre,"SB\timing bar.png",320,240 F,0,355282,355456,0,1 M,0,355282,356323,-32,322,298,322
Sprite,Foreground,Centre,"SB\timing bar.png",320,240 F,0,356669,356843,0,1 M,0,356669,357710,-32,322,298,322
Sprite,Foreground,Centre,"SB\timing bar.png",320,240 F,0,358316,358490,0,1 M,0,358316,359097,-32,322,298,322
Sprite,Foreground,Centre,"SB\timing bar.png",320,240 F,0,346958,347132,0,1 M,0,346958,347999,668,322,298,322
Sprite,Foreground,Centre,"SB\timing bar.png",320,240 F,0,348345,348519,0,1 M,0,348345,349386,668,322,298,322
Sprite,Foreground,Centre,"SB\don bar.png",320,240 F,0,361178,361351,0,1 M,0,361178,361871,679,322,299,322 F,0,361524,361871,1 M,0,361871,362045,299,322 F,0,361871,362045,1,0
Sprite,Foreground,Centre,"SB\don.png",320,240 F,0,361264,361438,0,1 M,0,361264,361958,679,322,299,322 F,0,361611,361958,1 M,0,361958,362131,299,322 F,0,361958,362131,1,0
Sprite,Foreground,Centre,"SB\katsu.png",320,240 F,0,361351,361524,0,1 M,0,361351,362045,-40,321,295,321 F,0,361698,362045,1 M,0,362045,362218,295,321 F,0,362045,362218,1,0
Sprite,Foreground,Centre,"SB\don.png",320,240 F,0,359010,359183,0,1 M,0,359010,359790,679,322,299,322 F,0,359183,359790,1 M,0,359790,359964,299,322 F,0,359790,359964,1,0
Sprite,Foreground,Centre,"SB\don.png",320,240 F,0,360050,360223,0,1 M,0,360050,360830,679,322,299,322 F,0,360223,360830,1 M,0,360830,361004,299,322 F,0,360830,361004,1,0
Sprite,Foreground,Centre,"SB\don.png",320,240 F,0,360397,360570,0,1 M,0,360397,361177,679,322,299,322 F,0,360570,361177,1 M,0,361177,361351,299,322 F,0,361177,361351,1,0
Sprite,Foreground,Centre,"SB\don bar.png",320,240 F,0,359704,359878,0,1 M,0,359704,360485,679,322,299,322 F,0,359878,360484,1 M,0,360485,360658,299,322 F,0,360485,360658,1,0
Sprite,Foreground,Centre,"SB\katsu.png",320,240 F,0,358836,359009,0,1 M,0,358836,359617,-40,321,296,321 F,0,359009,359617,1 M,0,359617,359790,296,321 F,0,359617,359790,1,0
Sprite,Foreground,Centre,"SB\katsu.png",320,240 F,0,359530,359703,0,1 M,0,359530,360311,-40,321,296,321 F,0,359703,360311,1 M,0,360311,360484,296,321 F,0,360311,360484,1,0
Sprite,Foreground,Centre,"SB\katsu.png",320,240 F,0,359877,360050,0,1 M,0,359877,360658,-40,321,296,321 F,0,360050,360658,1 M,0,360658,360831,296,321 F,0,360658,360831,1,0
Sprite,Foreground,Centre,"SB\katsu.png",320,240 F,0,360224,360397,0,1 M,0,360224,361005,-40,321,296,321 F,0,360397,361005,1 M,0,361005,361178,296,321 F,0,361005,361178,1,0
Sprite,Foreground,Centre,"SB\timing bar.png",320,240 F,0,359704,359878,0,1 M,0,359704,360485,-32,322,298,322
Sprite,Foreground,Centre,"SB\katsu bar.png",320,240 F,0,372449,372623,0,1 M,0,372449,372969,-40,322,296,322 F,0,372623,372969,1 F,0,372969,373143,1,0
Sprite,Foreground,Centre,"SB\katsu bar.png",320,240 F,0,373836,374010,0,1 M,0,373836,374356,-40,322,296,322 F,0,374010,374356,1 F,0,374356,374530,1,0
Sprite,Foreground,Centre,"SB\katsu bar.png",320,240 F,0,375224,375398,0,1 M,0,375224,375744,-40,322,296,322 F,0,375398,375744,1 F,0,375744,375918,1,0
Sprite,Foreground,Centre,"SB\katsu.png",320,240 F,0,373143,373317,0,1 M,0,373143,373664,-40,321,295,321 F,0,373317,373664,1 M,0,373664,373837,295,321 F,0,373664,373837,1,0
Sprite,Foreground,Centre,"SB\katsu.png",320,240 F,0,374530,374704,0,1 M,0,374530,375051,-40,321,295,321 F,0,374704,375051,1 M,0,375051,375224,295,321 F,0,375051,375224,1,0
Sprite,Foreground,Centre,"SB\katsu.png",320,240 F,0,375917,376091,0,1 M,0,375917,376438,-40,321,295,321 F,0,376091,376438,1 M,0,376438,376611,295,321 F,0,376438,376611,1,0
Sprite,Foreground,Centre,"SB\don.png",320,240 F,0,372623,372796,0,1 M,0,372623,373143,679,322,299,322 F,0,372796,373143,1 M,0,373143,373316,299,322 F,0,373143,373316,1,0
Sprite,Foreground,Centre,"SB\don.png",320,240 F,0,372796,372969,0,1 M,0,372796,373316,679,322,299,322 F,0,372969,373316,1 M,0,373316,373489,299,322 F,0,373316,373489,1,0
Sprite,Foreground,Centre,"SB\don.png",320,240 F,0,372969,373142,0,1 M,0,372969,373489,679,322,299,322 F,0,373142,373489,1 M,0,373489,373662,299,322 F,0,373489,373662,1,0
Sprite,Foreground,Centre,"SB\don.png",320,240 F,0,373316,373489,0,1 M,0,373316,373836,679,322,299,322 F,0,373489,373836,1 M,0,373836,374009,299,322 F,0,373836,374009,1,0
Sprite,Foreground,Centre,"SB\don.png",320,240 F,0,373403,373576,0,1 M,0,373403,373923,679,322,299,322 F,0,373576,373923,1 M,0,373923,374096,299,322 F,0,373923,374096,1,0
Sprite,Foreground,Centre,"SB\don.png",320,240 F,0,373490,373663,0,1 M,0,373490,374010,679,322,299,322 F,0,373663,374010,1 M,0,374010,374183,299,322 F,0,374010,374183,1,0
Sprite,Foreground,Centre,"SB\don.png",320,240 F,0,373663,373836,0,1 M,0,373663,374183,679,322,299,322 F,0,373836,374183,1 M,0,374183,374356,299,322 F,0,374183,374356,1,0
Sprite,Foreground,Centre,"SB\don.png",320,240 F,0,374010,374183,0,1 M,0,374010,374530,679,322,299,322 F,0,374183,374530,1 M,0,374530,374703,299,322 F,0,374530,374703,1,0
Sprite,Foreground,Centre,"SB\don.png",320,240 F,0,374097,374270,0,1 M,0,374097,374617,679,322,299,322 F,0,374270,374617,1 M,0,374617,374790,299,322 F,0,374617,374790,1,0
Sprite,Foreground,Centre,"SB\don.png",320,240 F,0,374183,374356,0,1 M,0,374183,374703,679,322,299,322 F,0,374356,374703,1 M,0,374703,374876,299,322 F,0,374703,374876,1,0
Sprite,Foreground,Centre,"SB\don.png",320,240 F,0,374270,374443,0,1 M,0,374270,374790,679,322,299,322 F,0,374443,374790,1 M,0,374790,374963,299,322 F,0,374790,374963,1,0
Sprite,Foreground,Centre,"SB\don.png",320,240 F,0,374357,374530,0,1 M,0,374357,374877,679,322,299,322 F,0,374530,374877,1 M,0,374877,375050,299,322 F,0,374877,375050,1,0
Sprite,Foreground,Centre,"SB\don.png",320,240 F,0,374617,374790,0,1 M,0,374617,375137,679,322,299,322 F,0,374790,375137,1 M,0,375137,375310,299,322 F,0,375137,375310,1,0
Sprite,Foreground,Centre,"SB\don.png",320,240 F,0,374704,374877,0,1 M,0,374704,375224,679,322,299,322 F,0,374877,375224,1 M,0,375224,375397,299,322 F,0,375224,375397,1,0
Sprite,Foreground,Centre,"SB\don.png",320,240 F,0,374790,374963,0,1 M,0,374790,375310,679,322,299,322 F,0,374963,375310,1 M,0,375310,375483,299,322 F,0,375310,375483,1,0
Sprite,Foreground,Centre,"SB\don.png",320,240 F,0,374877,375050,0,1 M,0,374877,375397,679,322,299,322 F,0,375050,375397,1 M,0,375397,375570,299,322 F,0,375397,375570,1,0
Sprite,Foreground,Centre,"SB\don.png",320,240 F,0,374964,375137,0,1 M,0,374964,375484,679,322,299,322 F,0,375137,375484,1 M,0,375484,375657,299,322 F,0,375484,375657,1,0
Sprite,Foreground,Centre,"SB\don.png",320,240 F,0,375050,375223,0,1 M,0,375050,375570,679,322,299,322 F,0,375223,375570,1 M,0,375570,375743,299,322 F,0,375570,375743,1,0
Sprite,Foreground,Centre,"SB\don.png",320,240 F,0,375310,375483,0,1 M,0,375310,375830,679,322,299,322 F,0,375483,375830,1 M,0,375830,376003,299,322 F,0,375830,376003,1,0
Sprite,Foreground,Centre,"SB\don.png",320,240 F,0,375397,375570,0,1 M,0,375397,375917,679,322,299,322 F,0,375570,375917,1 M,0,375917,376090,299,322 F,0,375917,376090,1,0
Sprite,Foreground,Centre,"SB\don.png",320,240 F,0,375484,375657,0,1 M,0,375484,376004,679,322,299,322 F,0,375657,376004,1 M,0,376004,376177,299,322 F,0,376004,376177,1,0
Sprite,Foreground,Centre,"SB\don.png",320,240 F,0,375657,375830,0,1 M,0,375657,376177,679,322,299,322 F,0,375830,376177,1 M,0,376177,376350,299,322 F,0,376177,376350,1,0
Sprite,Foreground,Centre,"SB\don.png",320,240 F,0,375744,375917,0,1 M,0,375744,376264,679,322,299,322 F,0,375917,376264,1 M,0,376264,376437,299,322 F,0,376264,376437,1,0
Sprite,Foreground,Centre,"SB\don.png",320,240 F,0,375831,376004,0,1 M,0,375831,376351,679,322,299,322 F,0,376004,376351,1 M,0,376351,376524,299,322 F,0,376351,376524,1,0
Sprite,Foreground,Centre,"SB\don.png",320,240 F,0,376004,376177,0,1 M,0,376004,376524,679,322,299,322 F,0,376177,376524,1 M,0,376524,376697,299,322 F,0,376524,376697,1,0
Sprite,Foreground,Centre,"SB\don.png",320,240 F,0,376091,376264,0,1 M,0,376091,376611,679,322,299,322 F,0,376264,376611,1 M,0,376611,376784,299,322 F,0,376611,376784,1,0
Sprite,Foreground,Centre,"SB\don.png",320,240 F,0,376178,376351,0,1 M,0,376178,376698,679,322,299,322 F,0,376351,376698,1 M,0,376698,376871,299,322 F,0,376698,376871,1,0
Sprite,Foreground,Centre,"SB\don.png",320,240 F,0,376524,376697,0,1 M,0,376524,377044,679,322,299,322 F,0,376697,377044,1 M,0,377044,377217,299,322 F,0,377044,377217,1,0
Sprite,Foreground,Centre,"SB\don.png",320,240 F,0,376438,376611,0,1 M,0,376438,376958,679,322,299,322 F,0,376611,376958,1 M,0,376958,377131,299,322 F,0,376958,377131,1,0
Sprite,Foreground,Centre,"SB\don.png",320,240 F,0,376351,376524,0,1 M,0,376351,376871,679,322,299,322 F,0,376524,376871,1 M,0,376871,377044,299,322 F,0,376871,377044,1,0
Sprite,Foreground,Centre,"SB\katsu.png",320,240 F,0,375571,375745,0,1 M,0,375571,376092,-40,321,295,321 F,0,375745,376092,1 M,0,376092,376265,295,321 F,0,376092,376265,1,0
Sprite,Foreground,Centre,"SB\katsu.png",320,240 F,0,376264,376438,0,1 M,0,376264,376785,-40,321,295,321 F,0,376438,376785,1 M,0,376785,376958,295,321 F,0,376785,376958,1,0
Sprite,Foreground,Centre,"SB\don bar.png",320,240 F,0,376611,376784,0,1 M,0,376611,377131,679,322,299,322 F,0,376784,377131,1 M,0,377131,377305,299,322 F,0,377131,377305,1,0
Sprite,Foreground,Centre,"SB\don bar.png",320,240 F,0,377998,378171,0,1 M,0,377998,378518,679,322,299,322 F,0,378171,378518,1 M,0,378518,378692,299,322 F,0,378518,378692,1,0
Sprite,Foreground,Centre,"SB\timing bar.png",320,240 F,0,376611,376784,0,1 M,0,376611,377132,-32,322,298,322 M,0,377132,,298,322
Sprite,Foreground,Centre,"SB\timing bar.png",320,240 F,0,372449,372622,0,1 M,0,372449,372970,668,322,298,322 M,0,372970,,298,322
Sprite,Foreground,Centre,"SB\timing bar.png",320,240 F,0,373836,374009,0,1 M,0,373836,374357,668,322,298,322 M,0,374357,,298,322
Sprite,Foreground,Centre,"SB\timing bar.png",320,240 F,0,375224,375397,0,1 M,0,375224,375745,668,322,298,322 M,0,375745,,298,322
Sprite,Foreground,Centre,"SB\WARNING.PNG",320,240 M,0,334125,,315,324 F,0,334125,334819,0,1 F,0,334819,335512,1,0 F,0,335512,336206,0,1 F,0,336206,336900,1,0
Sprite,Foreground,Centre,"SB\NEXT IS LAST MODE.png",320,240 M,0,336900,,325,317 F,0,336900,337594,0,1 F,0,337594,338287,1,0 F,0,338287,338981,0,1 F,0,338981,339675,1,0
Sprite,Foreground,Centre,"SB\reverse.png",320,240 F,0,339675,340021,0,1 M,0,339675,340368,-750,321,-307,320 F,0,340021,340368,1,0
Sprite,Foreground,Centre,"SB\reverse.png",320,240 F,0,340195,340368,0 R,0,340195,340368,0,3.143813 F,0,340368,340715,0,1 M,0,340368,341062,1348,320,963,319 F,0,340715,341062,1,0
Sprite,Foreground,Centre,"SB\PINCER MOVEMENT MODE.png",320,240 M,0,341062,,323,319 F,0,341062,341409,0,1 F,0,341409,342102,1 F,0,342102,342449,1,0
Sprite,Foreground,Centre,"SB\YOU PLAY LOOKING HERE.PNG",320,240 M,0,342449,,315,316 F,0,342449,342795,0,1 F,0,342795,343489,1 F,0,343489,343836,1,0
Sprite,Foreground,Centre,"SB\count down3.PNG",320,240 F,0,343663,343836,0,1 M,0,343836,,319,322 F,0,343836,344010,1,0
Sprite,Foreground,Centre,"SB\count down2.PNG",320,240 M,0,344010,,317,318 F,0,344010,344183,0,1 F,0,344183,344357,1,0
Sprite,Foreground,Centre,"SB\count down1.PNG",320,240 F,0,344357,344530,0,1 M,0,344530,,317,319 F,0,344530,344704,1,0
Sprite,Foreground,Centre,"SB\GO.PNG",320,240 F,0,344704,344877,0,1 M,0,344877,,331,318 F,0,344877,345050,1,0
Sprite,Foreground,Centre,"SB\timing point.png",320,240 F,0,45224,45484,0,0.5019239 F,0,45484,45571,0.5019239,1 F,0,45571,47998,1,0.9778548 F,0,47998,48345,0.9778548,0 F,0,48345,50773,0 F,0,50773,51120,0,1 F,0,51120,53547,1,0.9766738 F,0,53547,53894,0.9766738,0 F,0,53894,56322,0 F,0,56322,56669,0,1 F,0,56669,59097,1,0.9753495 F,0,59097,59443,0.9753495,0 F,0,59443,155166,0 F,0,155166,156553,0,1 S,0,156553,,0.3997068 F,0,156553,177016,1 M,0,156553,177362,162,321 F,0,177016,177362,1,0 M,0,177362,288345,162,321,501,321 F,0,177362,288345,0 M,0,288345,289039,501,321 F,0,288345,289732,0,1 M,0,289039,312623,501,321 F,0,289732,311929,1 F,0,311929,332738,1 M,0,312623,314357,501,321,501,373 M,0,314357,323721,501,373 M,0,323721,325455,501,373,501,354 M,0,325455,333085,501,354 F,0,332738,334125,1,0 M,0,333085,334125,501,354,501,318 M,0,334125,339675,501,318,299,322 F,0,334125,342896,0 M,0,339675,378519,299,322 F,0,342896,344877,0 F,0,344877,345224,0,1
Sprite,Foreground,Centre,"SB\THANK YOU FOR PLAYYING!.png",320,240 S,0,378172,378519,1,0.7002929 M,0,378519,,323,320 F,0,378519,378692,0,1 F,0,378692,381293,1,0.9421965 F,0,381293,382680,0.9421965,0
Sprite,Foreground,Centre,"SB\don.png",320,240 F,0,361524,361698,0,1 M,0,361524,362218,679,322,299,322 F,0,361871,362218,1 M,0,362218,362391,299,322 F,0,362218,362391,1,0
Sprite,Foreground,Centre,"SB\don.png",320,240 F,0,361871,362045,0,1 M,0,361871,362565,679,322,299,322 F,0,362218,362565,1 M,0,362565,362738,299,322 F,0,362565,362738,1,0
Sprite,Foreground,Centre,"SB\don.png",320,240 F,0,362912,363086,0,1 M,0,362912,363606,679,322,299,322 F,0,363259,363606,1 M,0,363606,363779,299,322 F,0,363606,363779,1,0
Sprite,Foreground,Centre,"SB\don.png",320,240 F,0,363258,363432,0,1 M,0,363258,363952,679,322,299,322 F,0,363605,363952,1 M,0,363952,364125,299,322 F,0,363952,364125,1,0
Sprite,Foreground,Centre,"SB\don bar.png",320,240 F,0,362565,362738,0,1 M,0,362565,363258,679,322,299,322 F,0,362911,363258,1 M,0,363258,363432,299,322 F,0,363258,363432,1,0
Sprite,Foreground,Centre,"SB\katsu.png",320,240 F,0,361698,361871,0,1 M,0,361698,362392,-40,321,295,321 F,0,362045,362392,1 M,0,362392,362565,295,321 F,0,362392,362565,1,0
Sprite,Foreground,Centre,"SB\katsu.png",320,240 F,0,362391,362564,0,1 M,0,362391,363085,-40,321,295,321 F,0,362738,363085,1 M,0,363085,363258,295,321 F,0,363085,363258,1,0
Sprite,Foreground,Centre,"SB\katsu.png",320,240 F,0,362478,362651,0,1 M,0,362478,363172,-40,321,295,321 F,0,362825,363172,1 M,0,363172,363345,295,321 F,0,363172,363345,1,0
Sprite,Foreground,Centre,"SB\katsu.png",320,240 F,0,362738,362911,0,1 M,0,362738,363432,-40,321,295,321 F,0,363085,363432,1 M,0,363432,363605,295,321 F,0,363432,363605,1,0
Sprite,Foreground,Centre,"SB\katsu.png",320,240 F,0,363085,363258,0,1 M,0,363085,363779,-40,321,295,321 F,0,363432,363779,1 M,0,363779,363952,295,321 F,0,363779,363952,1,0
Sprite,Foreground,Centre,"SB\don.png",320,240 F,0,364039,364213,0,1 M,0,364039,364733,679,322,299,322 F,0,364386,364733,1 M,0,364733,364906,299,322 F,0,364733,364906,1,0
Sprite,Foreground,Centre,"SB\don.png",320,240 F,0,364299,364473,0,1 M,0,364299,364993,679,322,299,322 F,0,364646,364993,1 M,0,364993,365166,299,322 F,0,364993,365166,1,0
Sprite,Foreground,Centre,"SB\don.png",320,240 F,0,364646,364820,0,1 M,0,364646,365340,679,322,299,322 F,0,364993,365340,1 M,0,365340,365513,299,322 F,0,365340,365513,1,0
Sprite,Foreground,Centre,"SB\don.png",320,240 F,0,364819,364993,0,1 M,0,364819,365513,679,322,299,322 F,0,365166,365513,1 M,0,365513,365686,299,322 F,0,365513,365686,1,0
Sprite,Foreground,Centre,"SB\don.png",320,240 F,0,364993,365167,0,1 M,0,364993,365687,679,322,299,322 F,0,365340,365687,1 M,0,365687,365860,299,322 F,0,365687,365860,1,0
Sprite,Foreground,Centre,"SB\don bar.png",320,240 F,0,365339,365512,0,1 M,0,365339,366032,679,322,299,322 F,0,365685,366032,1 M,0,366032,366206,299,322 F,0,366032,366206,1,0
Sprite,Foreground,Centre,"SB\don.png",320,240 F,0,365686,365860,0,1 M,0,365686,366380,679,322,299,322 F,0,366033,366380,1 M,0,366380,366553,299,322 F,0,366380,366553,1,0
Sprite,Foreground,Centre,"SB\don.png",320,240 F,0,366033,366207,0,1 M,0,366033,366727,679,322,299,322 F,0,366380,366727,1 M,0,366727,366900,299,322 F,0,366727,366900,1,0
Sprite,Foreground,Centre,"SB\don.png",320,240 F,0,366206,366380,0,1 M,0,366206,366900,679,322,299,322 F,0,366553,366900,1 M,0,366900,367073,299,322 F,0,366900,367073,1,0
Sprite,Foreground,Centre,"SB\don.png",320,240 F,0,366380,366554,0,1 M,0,366380,367074,679,322,299,322 F,0,366727,367074,1 M,0,367074,367247,299,322 F,0,367074,367247,1,0
Sprite,Foreground,Centre,"SB\don.png",320,240 F,0,366553,366727,0,1 M,0,366553,367247,679,322,299,322 F,0,366900,367247,1 M,0,367247,367420,299,322 F,0,367247,367420,1,0
Sprite,Foreground,Centre,"SB\don bar.png",320,240 F,0,366727,366900,0,1 M,0,366727,367420,679,322,299,322 F,0,367073,367420,1 M,0,367420,367594,299,322 F,0,367420,367594,1,0
Sprite,Foreground,Centre,"SB\katsu.png",320,240 F,0,364125,364298,0,1 M,0,364125,364819,-40,321,295,321 F,0,364472,364819,1 M,0,364819,364992,295,321 F,0,364819,364992,1,0
Sprite,Foreground,Centre,"SB\don bar.png",320,240 F,0,363952,364125,0,1 M,0,363952,364645,679,322,299,322 F,0,364298,364645,1 M,0,364645,364819,299,322 F,0,364645,364819,1,0
Sprite,Foreground,Centre,"SB\katsu.png",320,240 F,0,364472,364645,0,1 M,0,364472,365166,-40,321,295,321 F,0,364819,365166,1 M,0,365166,365339,295,321 F,0,365166,365339,1,0
Sprite,Foreground,Centre,"SB\katsu.png",320,240 F,0,365166,365339,0,1 M,0,365166,365860,-40,321,295,321 F,0,365513,365860,1 M,0,365860,366033,295,321 F,0,365860,366033,1,0
Sprite,Foreground,Centre,"SB\katsu.png",320,240 F,0,365253,365426,0,1 M,0,365253,365947,-40,321,295,321 F,0,365600,365947,1 M,0,365947,366120,295,321 F,0,365947,366120,1,0
Sprite,Foreground,Centre,"SB\katsu.png",320,240 F,0,365513,365686,0,1 M,0,365513,366207,-40,321,295,321 F,0,365860,366207,1 M,0,366207,366380,295,321 F,0,366207,366380,1,0
Sprite,Foreground,Centre,"SB\katsu.png",320,240 F,0,365860,366033,0,1 M,0,365860,366554,-40,321,295,321 F,0,366207,366554,1 M,0,366554,366727,295,321 F,0,366554,366727,1,0
Sprite,Foreground,Centre,"SB\katsu.png",320,240 F,0,366467,366640,0,1 M,0,366467,367161,-40,321,295,321 F,0,366814,367161,1 M,0,367161,367334,295,321 F,0,367161,367334,1,0
Sprite,Foreground,Centre,"SB\katsu.png",320,240 F,0,366640,366813,0,1 M,0,366640,367334,-40,321,295,321 F,0,366987,367334,1 M,0,367334,367507,295,321 F,0,367334,367507,1,0
Sprite,Foreground,Centre,"SB\don.png",320,240 F,0,366900,367074,0,1 M,0,366900,367594,679,322,299,322 F,0,367247,367594,1 M,0,367594,367767,299,322 F,0,367594,367767,1,0
Sprite,Foreground,Centre,"SB\don.png",320,240 F,0,367247,367421,0,1 M,0,367247,367941,679,322,299,322 F,0,367594,367941,1 M,0,367941,368114,299,322 F,0,367941,368114,1,0
Sprite,Foreground,Centre,"SB\don.png",320,240 F,0,367247,367421,0,1 M,0,367247,367941,679,322,299,322 F,0,367594,367941,1 M,0,367941,368114,299,322 F,0,367941,368114,1,0
Sprite,Foreground,Centre,"SB\don.png",320,240 F,0,367420,367594,0,1 M,0,367420,368114,679,322,299,322 F,0,367767,368114,1 M,0,368114,368287,299,322 F,0,368114,368287,1,0
Sprite,Foreground,Centre,"SB\don.png",320,240 F,0,367594,367768,0,1 M,0,367594,368288,679,322,299,322 F,0,367941,368288,1 M,0,368288,368461,299,322 F,0,368288,368461,1,0
Sprite,Foreground,Centre,"SB\don.png",320,240 F,0,367941,368115,0,1 M,0,367941,368635,679,322,299,322 F,0,368288,368635,1 M,0,368635,368808,299,322 F,0,368635,368808,1,0
Sprite,Foreground,Centre,"SB\don.png",320,240 F,0,368287,368461,0,1 M,0,368287,368981,679,322,299,322 F,0,368634,368981,1 M,0,368981,369154,299,322 F,0,368981,369154,1,0
Sprite,Foreground,Centre,"SB\don.png",320,240 F,0,368634,368808,0,1 M,0,368634,369328,679,322,299,322 F,0,368981,369328,1 M,0,369328,369501,299,322 F,0,369328,369501,1,0
Sprite,Foreground,Centre,"SB\don.png",320,240 F,0,368808,368982,0,1 M,0,368808,369502,679,322,299,322 F,0,369155,369502,1 M,0,369502,369675,299,322 F,0,369502,369675,1,0
Sprite,Foreground,Centre,"SB\don.png",320,240 F,0,368981,369155,0,1 M,0,368981,369675,679,322,299,322 F,0,369328,369675,1 M,0,369675,369848,299,322 F,0,369675,369848,1,0
Sprite,Foreground,Centre,"SB\katsu.png",320,240 F,0,367073,367246,0,1 M,0,367073,367767,-40,321,295,321 F,0,367420,367767,1 M,0,367767,367940,295,321 F,0,367767,367940,1,0
Sprite,Foreground,Centre,"SB\katsu.png",320,240 F,0,367767,367940,0,1 M,0,367767,368461,-40,321,295,321 F,0,368114,368461,1 M,0,368461,368634,295,321 F,0,368461,368634,1,0
Sprite,Foreground,Centre,"SB\katsu.png",320,240 F,0,368461,368634,0,1 M,0,368461,369155,-40,321,295,321 F,0,368808,369155,1 M,0,369155,369328,295,321 F,0,369155,369328,1,0
Sprite,Foreground,Centre,"SB\katsu.png",320,240 F,0,369154,369327,0,1 M,0,369154,369848,-40,321,295,321 F,0,369501,369848,1 M,0,369848,370021,295,321 F,0,369848,370021,1,0
Sprite,Foreground,Centre,"SB\katsu.png",320,240 F,0,369241,369414,0,1 M,0,369241,369935,-40,321,295,321 F,0,369588,369935,1 M,0,369935,370108,295,321 F,0,369935,370108,1,0
Sprite,Foreground,Centre,"SB\katsu.png",320,240 F,0,369328,369501,0,1 M,0,369328,370022,-40,321,295,321 F,0,369675,370022,1 M,0,370022,370195,295,321 F,0,370022,370195,1,0
Sprite,Foreground,Centre,"SB\katsu.png",320,240 F,0,369414,369587,0,1 M,0,369414,370108,-40,321,295,321 F,0,369761,370108,1 M,0,370108,370281,295,321 F,0,370108,370281,1,0
Sprite,Foreground,Centre,"SB\don bar.png",320,240 F,0,369501,369674,0,1 M,0,369501,370194,679,322,299,322 F,0,369847,370194,1 M,0,370194,370368,299,322 F,0,370194,370368,1,0
Sprite,Foreground,Centre,"SB\don.png",320,240 F,0,369675,369849,0,1 M,0,369675,370369,679,322,299,322 F,0,370022,370369,1 M,0,370369,370542,299,322 F,0,370369,370542,1,0
Sprite,Foreground,Centre,"SB\don.png",320,240 F,0,370195,370369,0,1 M,0,370195,370889,679,322,299,322 F,0,370542,370889,1 M,0,370889,371062,299,322 F,0,370889,371062,1,0
Sprite,Foreground,Centre,"SB\don.png",320,240 F,0,370368,370542,0,1 M,0,370368,371062,679,322,299,322 F,0,370715,371062,1 M,0,371062,371235,299,322 F,0,371062,371235,1,0
Sprite,Foreground,Centre,"SB\don.png",320,240 F,0,371062,371236,0,1 M,0,371062,371756,679,322,299,322 F,0,371409,371756,1 M,0,371756,371929,299,322 F,0,371756,371929,1,0
Sprite,Foreground,Centre,"SB\don.png",320,240 F,0,371582,371756,0,1 M,0,371582,372276,679,322,299,322 F,0,371929,372276,1 M,0,372276,372449,299,322 F,0,372276,372449,1,0
Sprite,Foreground,Centre,"SB\don.png",320,240 F,0,371929,372103,0,1 M,0,371929,372623,679,322,299,322 F,0,372276,372623,1 M,0,372623,372796,299,322 F,0,372623,372796,1,0
Sprite,Foreground,Centre,"SB\don.png",320,240 F,0,372102,372276,0,1 M,0,372102,372796,679,322,299,322 F,0,372449,372796,1 M,0,372796,372969,299,322 F,0,372796,372969,1,0
Sprite,Foreground,Centre,"SB\katsu.png",320,240 F,0,369848,370021,0,1 M,0,369848,370542,-40,321,295,321 F,0,370195,370542,1 M,0,370542,370715,295,321 F,0,370542,370715,1,0
Sprite,Foreground,Centre,"SB\katsu.png",320,240 F,0,370021,370194,0,1 M,0,370021,370715,-40,321,295,321 F,0,370368,370715,1 M,0,370715,370888,295,321 F,0,370715,370888,1,0
Sprite,Foreground,Centre,"SB\katsu.png",320,240 F,0,370542,370715,0,1 M,0,370542,371236,-40,321,295,321 F,0,370889,371236,1 M,0,371236,371409,295,321 F,0,371236,371409,1,0
Sprite,Foreground,Centre,"SB\katsu.png",320,240 F,0,370715,370888,0,1 M,0,370715,371409,-40,321,295,321 F,0,371062,371409,1 M,0,371409,371582,295,321 F,0,371409,371582,1,0
Sprite,Foreground,Centre,"SB\katsu.png",320,240 F,0,371235,371408,0,1 M,0,371235,371929,-40,321,295,321 F,0,371582,371929,1 M,0,371929,372102,295,321 F,0,371929,372102,1,0
Sprite,Foreground,Centre,"SB\katsu.png",320,240 F,0,371409,371582,0,1 M,0,371409,372103,-40,321,295,321 F,0,371756,372103,1 M,0,372103,372276,295,321 F,0,372103,372276,1,0
Sprite,Foreground,Centre,"SB\katsu.png",320,240 F,0,371756,371929,0,1 M,0,371756,372450,-40,321,295,321 F,0,372103,372450,1 M,0,372450,372623,295,321 F,0,372450,372623,1,0
Sprite,Foreground,Centre,"SB\katsu.png",320,240 F,0,372016,372189,0,1 M,0,372016,372710,-40,321,295,321 F,0,372363,372710,1 M,0,372710,372883,295,321 F,0,372710,372883,1,0
Sprite,Foreground,Centre,"SB\katsu.png",320,240 F,0,372189,372362,0,1 M,0,372189,372883,-40,321,295,321 F,0,372536,372883,1 M,0,372883,373056,295,321 F,0,372883,373056,1,0
Sprite,Foreground,Centre,"SB\don bar.png",320,240 F,0,368114,368287,0,1 M,0,368114,368807,679,322,299,322 F,0,368460,368807,1 M,0,368807,368981,299,322 F,0,368807,368981,1,0
Sprite,Foreground,Centre,"SB\don bar.png",320,240 F,0,370888,371061,0,1 M,0,370888,371581,679,322,299,322 F,0,371234,371581,1 M,0,371581,371755,299,322 F,0,371581,371755,1,0
Sprite,Foreground,Centre,"SB\timing bar.png",320,240 F,0,361178,361351,0,1 M,0,361178,361871,-32,322,298,322 M,0,361871,,298,322
Sprite,Foreground,Centre,"SB\timing bar.png",320,240 F,0,362565,362738,0,1 M,0,362565,363258,-32,322,298,322 M,0,363258,,298,322
Sprite,Foreground,Centre,"SB\timing bar.png",320,240 F,0,363952,364125,0,1 M,0,363952,364645,-32,322,298,322 M,0,364645,,298,322
Sprite,Foreground,Centre,"SB\timing bar.png",320,240 F,0,365339,365512,0,1 M,0,365339,366032,-32,322,298,322 M,0,366032,,298,322
Sprite,Foreground,Centre,"SB\timing bar.png",320,240 F,0,366727,366900,0,1 M,0,366727,367420,-32,322,298,322 M,0,367420,,298,322
Sprite,Foreground,Centre,"SB\timing bar.png",320,240 F,0,368114,368287,0,1 M,0,368114,368807,-32,322,298,322 M,0,368807,,298,322
Sprite,Foreground,Centre,"SB\timing bar.png",320,240 F,0,369501,369674,0,1 M,0,369501,370194,-32,322,298,322 M,0,370194,,298,322
Sprite,Foreground,Centre,"SB\timing bar.png",320,240 F,0,370888,371061,0,1 M,0,370888,371581,-32,322,298,322 M,0,371581,,298,322
Sprite,Foreground,Centre,"SB\timing bar.png",320,240 F,0,377998,378171,0,1 M,0,377998,378519,-32,322,298,322 M,0,378519,,298,322
Sprite,Foreground,Centre,"SB\taiko right.PNG",320,240 F,0,148230,148576,0,0.3 M,0,148230,151004,1055,324,-485,324 F,0,148576,148923,0.3,0 F,0,148923,149270,0,0.3 F,0,149270,149617,0.3,0 F,0,149617,149964,0,0.3 F,0,149964,150310,0.3,0 F,0,150310,150657,0,0.3 F,0,150357,151004,0.3,0 F,0,151004,155166,0,1 M,0,153779,155166,-485,324 M,0,155166,155860,-485,324,-283,324 F,0,155166,156553,1 M,0,155860,156553,-283,324 M,0,156553,177362,-283,324 F,0,156553,177362,1 F,0,177362,178750,1,0
Sprite,Foreground,Centre,"SB\score-3.png",320,240 S,0,156553,,0.6586667 M,0,156553,156813,109,317
Sprite,Foreground,Centre,"SB\score-2.png",320,240 S,0,156813,,0.6586667 M,0,156813,157073,109,317
Sprite,Foreground,Centre,"SB\score-1.png",320,240 S,0,157073,,0.6586667 M,0,157073,157247,109,317
Sprite,Foreground,Centre,"SB\score-o.png",320,240 S,0,157247,,0.6586667 M,0,157247,157507,109,317
Sprite,Foreground,Centre,"SB\score-2.png",320,240 S,0,157507,,0.6586667 M,0,157507,159588,84,317
Sprite,Foreground,Centre,"SB\score-9.png",320,240 S,0,157507,,0.6586667 M,0,157507,157767,109,317
Sprite,Foreground,Centre,"SB\score-8.png",320,240 S,0,157767,,0.6586667 M,0,157767,157854,109,317
Sprite,Foreground,Centre,"SB\score-7.png",320,240 S,0,157854,,0.6586667 M,0,157854,157941,109,317
Sprite,Foreground,Centre,"SB\score-6.png",320,240 S,0,157941,,0.6586667 M,0,157941,158201,109,317
Sprite,Foreground,Centre,"SB\score-5.png",320,240 S,0,158201,,0.6586667 M,0,158201,158461,109,317
Sprite,Foreground,Centre,"SB\score-4.png",320,240 M,0,158461,158634,109,317 S,0,158467,,0.6586667
Sprite,Foreground,Centre,"SB\score-3.png",320,240 S,0,158634,,0.6586667 M,0,158634,158894,109,317
Sprite,Foreground,Centre,"SB\score-2.png",320,240 S,0,158894,,0.6586667 M,0,158894,159154,109,317
Sprite,Foreground,Centre,"SB\score-1.png",320,240 S,0,159154,,0.6586667 M,0,159154,159328,109,317
Sprite,Foreground,Centre,"SB\score-o.png",320,240 S,0,159328,,0.6586667 M,0,159328,159588,109,317
Sprite,Foreground,Centre,"SB\score-1.png",320,240 S,0,159588,,0.6586667 M,0,159588,161409,84,316
Sprite,Foreground,Centre,"SB\score-9.png",320,240 S,0,159588,,0.6586667 M,0,159588,159848,109,317
Sprite,Foreground,Centre,"SB\score-8.png",320,240 S,0,159848,,0.6586667 M,0,159848,160021,109,317
Sprite,Foreground,Centre,"SB\score-7.png",320,240 S,0,160021,,0.6586667 M,0,160021,160282,109,317
Sprite,Foreground,Centre,"SB\score-6.png",320,240 S,0,160282,,0.6586667 M,0,160282,160542,109,317
Sprite,Foreground,Centre,"SB\score-5.png",320,240 S,0,160542,,0.6586667 M,0,160542,160715,109,317
Sprite,Foreground,Centre,"SB\score-4.png",320,240 S,0,160715,,0.6586667 M,0,160715,160888,109,317
Sprite,Foreground,Centre,"SB\score-3.png",320,240 S,0,160888,,0.6586667 M,0,160888,160975,109,317
Sprite,Foreground,Centre,"SB\score-2.png",320,240 S,0,160975,,0.6586667 M,0,160975,161149,109,317
Sprite,Foreground,Centre,"SB\score-1.png",320,240 S,0,161149,,0.6586667 M,0,161149,161235,109,316
Sprite,Foreground,Centre,"SB\score-o.png",320,240 S,0,161235,,0.6586667 M,0,161235,161409,109,317
Sprite,Foreground,Centre,"SB\score-o.png",320,240 S,0,161409,,0.6586667 M,0,161409,163056,84,317
Sprite,Foreground,Centre,"SB\score-9.png",320,240 S,0,161409,,0.6586667 M,0,161409,161582,109,317
Sprite,Foreground,Centre,"SB\score-8.png",320,240 S,0,161582,,0.6586667 M,0,161582,161669,109,317
Sprite,Foreground,Centre,"SB\score-7.png",320,240 S,0,161669,,0.6586667 M,0,161669,161842,109,317
Sprite,Foreground,Centre,"SB\score-6.png",320,240 S,0,161842,,0.6586667 M,0,161842,161929,109,317
Sprite,Foreground,Centre,"SB\score-5.png",320,240 S,0,161929,,0.6586667 M,0,161929,162016,109,317
Sprite,Foreground,Centre,"SB\score-4.png",320,240 S,0,162016,,0.6586667 M,0,162016,162102,109,317
Sprite,Foreground,Centre,"SB\score-3.png",320,240 S,0,162102,,0.6586667 M,0,162102,162362,109,317
Sprite,Foreground,Centre,"SB\score-2.png",320,240 S,0,162362,,0.6586667 M,0,162362,162623,109,317
Sprite,Foreground,Centre,"SB\score-1.png",320,240 S,0,162623,,0.6586667 M,0,162623,162796,109,317
Sprite,Foreground,Centre,"SB\score-o.png",320,240 S,0,162796,,0.6586667 M,0,162796,163056,109,317
Sprite,Foreground,Centre,"SB\score-9.png",320,240 S,0,163056,,0.6586667 M,0,163056,165137,70,317
Sprite,Foreground,Centre,"SB\score-9.png",320,240 S,0,163056,,0.6586667 M,0,163056,163316,102,317
Sprite,Foreground,Centre,"SB\score-8.png",320,240 S,0,165137,,0.6586667 M,0,165137,166958,70,317
Sprite,Foreground,Centre,"SB\score-7.png",320,240 S,0,166958,,0.6586667 M,0,166958,168258,70,317
Sprite,Foreground,Centre,"SB\score-6.png",320,240 S,0,168258,,0.6586667 M,0,168258,169646,70,317
Sprite,Foreground,Centre,"SB\score-5.png",320,240 S,0,169646,,0.6586667 M,0,169646,171033,70,317
Sprite,Foreground,Centre,"SB\score-4.png",320,240 S,0,171033,,0.6586667 M,0,171033,172247,70,317
Sprite,Foreground,Centre,"SB\score-3.png",320,240 S,0,172247,,0.6586667 M,0,172247,173374,70,317
Sprite,Foreground,Centre,"SB\score-2.png",320,240 S,0,173374,,0.6586667 M,0,173374,174761,70,317
Sprite,Foreground,Centre,"SB\score-1.png",320,240 S,0,174761,,0.6586667 M,0,174761,176235,70,317
Sprite,Foreground,Centre,"SB\score-8.png",320,240 S,0,163316,,0.6586667 M,0,163316,163403,102,317
Sprite,Foreground,Centre,"SB\score-7.png",320,240 S,0,163403,,0.6586667 M,0,163403,163490,102,317
Sprite,Foreground,Centre,"SB\score-6.png",320,240 S,0,163490,,0.6586667 M,0,163490,163750,102,317
Sprite,Foreground,Centre,"SB\score-5.png",320,240 S,0,163750,,0.6586667 M,0,163750,164010,102,317
Sprite,Foreground,Centre,"SB\score-4.png",320,240 S,0,164010,,0.6586667 M,0,164010,164183,102,317
Sprite,Foreground,Centre,"SB\score-3.png",320,240 S,0,164183,,0.6586667 M,0,164183,164443,102,317
Sprite,Foreground,Centre,"SB\score-2.png",320,240 S,0,164443,,0.6586667 M,0,164443,164704,102,317
Sprite,Foreground,Centre,"SB\score-1.png",320,240 S,0,164704,,0.6586667 M,0,164704,164877,102,317
Sprite,Foreground,Centre,"SB\score-o.png",320,240 S,0,164877,,0.6586667 M,0,164877,165137,102,317
Sprite,Foreground,Centre,"SB\score-9.png",320,240 S,0,165137,,0.6586667 M,0,165137,165397,102,317
Sprite,Foreground,Centre,"SB\score-8.png",320,240 S,0,165397,,0.6586667 M,0,165397,165571,102,317
Sprite,Foreground,Centre,"SB\score-7.png",320,240 S,0,165571,,0.6586667 M,0,165571,165831,102,317
Sprite,Foreground,Centre,"SB\score-6.png",320,240 S,0,165831,,0.6586667 M,0,165831,166091,102,317
Sprite,Foreground,Centre,"SB\score-5.png",320,240 S,0,166091,,0.6586667 M,0,166091,166264,102,317
Sprite,Foreground,Centre,"SB\score-4.png",320,240 S,0,166264,,0.6586667 M,0,166264,166438,102,317
Sprite,Foreground,Centre,"SB\score-3.png",320,240 S,0,166438,,0.6586667 M,0,166438,166524,102,317
Sprite,Foreground,Centre,"SB\score-2.png",320,240 S,0,166524,,0.6586667 M,0,166524,166698,102,317
Sprite,Foreground,Centre,"SB\score-1.png",320,240 S,0,166698,,0.6586667 M,0,166698,166784,102,317
Sprite,Foreground,Centre,"SB\score-o.png",320,240 S,0,166784,,0.6586667 M,0,166784,166958,102,317
Sprite,Foreground,Centre,"SB\score-9.png",320,240 S,0,166958,,0.6586667 M,0,166958,167131,102,317
Sprite,Foreground,Centre,"SB\score-8.png",320,240 S,0,167131,,0.6586667 M,0,167131,167218,102,317
Sprite,Foreground,Centre,"SB\score-7.png",320,240 S,0,167218,,0.6586667 M,0,167218,167391,102,317
Sprite,Foreground,Centre,"SB\score-6.png",320,240 S,0,167391,,0.6586667 M,0,167391,167478,102,317
Sprite,Foreground,Centre,"SB\score-5.png",320,240 S,0,167478,,0.6586667 M,0,167478,167565,102,317
Sprite,Foreground,Centre,"SB\score-4.png",320,240 S,0,167565,,0.6586667 M,0,167565,167651,102,317
Sprite,Foreground,Centre,"SB\score-3.png",320,240 S,0,167651,,0.6586667 M,0,167651,167825,102,317
Sprite,Foreground,Centre,"SB\score-2.png",320,240 S,0,167825,,0.6586667 M,0,167825,167912,102,317
Sprite,Foreground,Centre,"SB\score-1.png",320,240 S,0,167912,,0.6586667 M,0,167912,168172,102,317
Sprite,Foreground,Centre,"SB\score-o.png",320,240 S,0,168172,,0.6586667 M,0,168172,168258,102,317
Sprite,Foreground,Centre,"SB\score-9.png",320,240 S,0,168258,,0.6586667 M,0,168258,168345,102,317
Sprite,Foreground,Centre,"SB\score-8.png",320,240 S,0,168345,,0.6586667 M,0,168345,168519,102,317
Sprite,Foreground,Centre,"SB\score-7.png",320,240 S,0,168519,,0.6586667 M,0,168519,168605,102,317
Sprite,Foreground,Centre,"SB\score-6.png",320,240 S,0,168605,,0.6586667 M,0,168605,168865,102,317
Sprite,Foreground,Centre,"SB\score-5.png",320,240 S,0,168865,,0.6586667 M,0,168865,168952,102,317
Sprite,Foreground,Centre,"SB\score-4.png",320,240 S,0,168952,,0.6586667 M,0,168952,169039,102,317
Sprite,Foreground,Centre,"SB\score-3.png",320,240 S,0,169039,,0.6586667 M,0,169039,169212,102,317
Sprite,Foreground,Centre,"SB\score-2.png",320,240 S,0,169212,,0.6586667 M,0,169212,169299,102,317
Sprite,Foreground,Centre,"SB\score-1.png",320,240 S,0,169299,,0.6586667 M,0,169299,169559,102,317
Sprite,Foreground,Centre,"SB\score-o.png",320,240 S,0,169559,,0.6586667 M,0,169559,169646,102,317
Sprite,Foreground,Centre,"SB\score-9.png",320,240 S,0,169646,,0.6586667 M,0,169646,169732,102,317
Sprite,Foreground,Centre,"SB\score-8.png",320,240 S,0,169732,,0.6586667 M,0,169732,169906,102,317
Sprite,Foreground,Centre,"SB\score-7.png",320,240 S,0,169906,,0.6586667 M,0,169906,169993,102,317
Sprite,Foreground,Centre,"SB\score-6.png",320,240 S,0,169993,,0.6586667 M,0,169993,170253,102,317
Sprite,Foreground,Centre,"SB\score-5.png",320,240 S,0,170253,,0.6586667 M,0,170253,170426,102,317
Sprite,Foreground,Centre,"SB\score-4.png",320,240 S,0,170426,,0.6586667 M,0,170426,170599,102,317
Sprite,Foreground,Centre,"SB\score-3.png",320,240 S,0,170599,,0.6586667 M,0,170599,170686,102,317
Sprite,Foreground,Centre,"SB\score-2.png",320,240 S,0,170686,,0.6586667 M,0,170686,170860,102,317
Sprite,Foreground,Centre,"SB\score-1.png",320,240 S,0,170860,,0.6586667 M,0,170860,170946,102,317
Sprite,Foreground,Centre,"SB\score-o.png",320,240 S,0,170946,,0.6586667 M,0,170946,171033,102,317
Sprite,Foreground,Centre,"SB\score-9.png",320,240 S,0,171033,,0.6586667 M,0,171033,171120,102,317
Sprite,Foreground,Centre,"SB\score-8.png",320,240 S,0,171120,,0.6586667 M,0,171120,171293,102,317
Sprite,Foreground,Centre,"SB\score-7.png",320,240 S,0,171293,,0.6586667 M,0,171293,171380,102,317
Sprite,Foreground,Centre,"SB\score-6.png",320,240 S,0,171380,,0.6586667 M,0,171380,171553,102,317
Sprite,Foreground,Centre,"SB\score-5.png",320,240 S,0,171553,,0.6586667 M,0,171553,171640,102,317
Sprite,Foreground,Centre,"SB\score-4.png",320,240 S,0,171640,,0.6586667 M,0,171640,171727,102,317
Sprite,Foreground,Centre,"SB\score-3.png",320,240 S,0,171727,,0.6586667 M,0,171727,171813,102,317
Sprite,Foreground,Centre,"SB\score-2.png",320,240 S,0,171813,,0.6586667 M,0,171813,171987,102,317
Sprite,Foreground,Centre,"SB\score-1.png",320,240 S,0,171987,,0.6586667 M,0,171987,172073,102,317
Sprite,Foreground,Centre,"SB\score-o.png",320,240 S,0,172073,,0.6586667 M,0,172073,172247,102,317
Sprite,Foreground,Centre,"SB\score-9.png",320,240 S,0,172247,,0.6586667 M,0,172247,172334,102,317
Sprite,Foreground,Centre,"SB\score-8.png",320,240 S,0,172334,,0.6586667 M,0,172334,172420,102,317
Sprite,Foreground,Centre,"SB\score-7.png",320,240 S,0,172420,,0.6586667 M,0,172420,172507,102,317
Sprite,Foreground,Centre,"SB\score-6.png",320,240 S,0,172507,,0.6586667 M,0,172507,172680,102,317
Sprite,Foreground,Centre,"SB\score-5.png",320,240 S,0,172680,,0.6586667 M,0,172680,172767,102,317
Sprite,Foreground,Centre,"SB\score-4.png",320,240 S,0,172767,,0.6586667 M,0,172767,172941,102,317
Sprite,Foreground,Centre,"SB\score-3.png",320,240 S,0,172941,,0.6586667 M,0,172941,173027,102,317
Sprite,Foreground,Centre,"SB\score-2.png",320,240 S,0,173027,,0.6586667 M,0,173027,173114,102,317
Sprite,Foreground,Centre,"SB\score-1.png",320,240 S,0,173114,,0.6586667 M,0,173114,173201,102,317
Sprite,Foreground,Centre,"SB\score-o.png",320,240 S,0,173201,,0.6586667 M,0,173201,173374,102,317
Sprite,Foreground,Centre,"SB\score-9.png",320,240 S,0,173374,,0.6586667 M,0,173374,173461,102,317
Sprite,Foreground,Centre,"SB\score-8.png",320,240 S,0,173461,,0.6586667 M,0,173461,173721,102,317
Sprite,Foreground,Centre,"SB\score-7.png",320,240 S,0,173721,,0.6586667 M,0,173721,173808,102,317
Sprite,Foreground,Centre,"SB\score-6.png",320,240 S,0,173808,,0.6586667 M,0,173808,173894,102,317
Sprite,Foreground,Centre,"SB\score-5.png",320,240 S,0,173894,,0.6586667 M,0,173894,174068,102,317
Sprite,Foreground,Centre,"SB\score-4.png",320,240 S,0,174068,,0.6586667 M,0,174068,174154,102,317
Sprite,Foreground,Centre,"SB\score-3.png",320,240 S,0,174154,,0.6586667 M,0,174154,174414,102,317
Sprite,Foreground,Centre,"SB\score-2.png",320,240 S,0,174414,,0.6586667 M,0,174414,174501,102,317
Sprite,Foreground,Centre,"SB\score-1.png",320,240 S,0,174501,,0.6586667 M,0,174501,174588,102,317
Sprite,Foreground,Centre,"SB\score-o.png",320,240 S,0,174588,,0.6586667 M,0,174588,174761,102,317
Sprite,Foreground,Centre,"SB\score-9.png",320,240 S,0,174761,,0.6586667 M,0,174761,174848,102,317
Sprite,Foreground,Centre,"SB\score-8.png",320,240 S,0,174848,,0.6586667 M,0,174848,175108,102,317
Sprite,Foreground,Centre,"SB\score-7.png",320,240 S,0,175108,,0.6586667 M,0,175108,175195,102,317
Sprite,Foreground,Centre,"SB\score-6.png",320,240 S,0,175195,,0.6586667 M,0,175195,175282,102,317
Sprite,Foreground,Centre,"SB\score-5.png",320,240 S,0,175282,,0.6586667 M,0,175282,175455,102,317
Sprite,Foreground,Centre,"SB\score-4.png",320,240 S,0,175455,,0.6586667 M,0,175455,175542,102,317
Sprite,Foreground,Centre,"SB\score-3.png",320,240 S,0,175542,,0.6586667 M,0,175542,175802,102,317
Sprite,Foreground,Centre,"SB\score-2.png",320,240 S,0,175802,,0.6586667 M,0,175802,175975,102,317
Sprite,Foreground,Centre,"SB\score-1.png",320,240 S,0,175975,,0.6586667 M,0,175975,176149,102,317
Sprite,Foreground,Centre,"SB\score-o.png",320,240 S,0,176149,,0.6586667 M,0,176149,176235,102,317
Sprite,Foreground,Centre,"SB\score-9.png",320,240 S,0,176235,,0.6586667 M,0,176235,176409,86,317
Sprite,Foreground,Centre,"SB\score-8.png",320,240 S,0,176409,,0.6586667 M,0,176409,176495,86,317
Sprite,Foreground,Centre,"SB\score-7.png",320,240 S,0,176495,,0.6586667 M,0,176495,176582,86,317
Sprite,Foreground,Centre,"SB\score-6.png",320,240 S,0,176582,,0.6586667 M,0,176582,176669,86,317
Sprite,Foreground,Centre,"SB\score-5.png",320,240 S,0,176669,,0.6586667 M,0,176669,176842,86,317
Sprite,Foreground,Centre,"SB\score-4.png",320,240 S,0,176842,,0.6586667 M,0,176842,176929,86,317
Sprite,Foreground,Centre,"SB\score-3.png",320,240 S,0,176929,,0.6586667 M,0,176929,177102,86,317
Sprite,Foreground,Centre,"SB\score-2.png",320,240 S,0,177102,,0.6586667 M,0,177102,177189,86,317
Sprite,Foreground,Centre,"SB\score-1.png",320,240 S,0,177189,,0.6586667 M,0,177189,177276,86,317
Sprite,Foreground,Centre,"SB\score-o.png",320,240 S,0,177276,,0.6586667 M,0,177276,178750,86,317 F,0,177276,178750,1,0
Sprite,Foreground,Centre,"SB\don katsu.png",320,240 M,0,151004,,186,324 F,0,151004,151351,0,1 F,0,151351,151698,1,0 F,0,151698,152045,0,1 F,0,152045,152391,1,0 F,0,152391,284183,0 F,0,284183,284530,0,1 F,0,284530,284877,1,0
Sprite,Foreground,Centre,"SB\katsu don.png",320,240 M,0,152391,,445,324 F,0,152391,152738,0,1 F,0,152738,153085,1,0 F,0,153085,153432,0,1 F,0,153432,153779,1,0 F,0,153779,284877,0 F,0,284877,285224,0,1 F,0,285224,285571,1,0
Sprite,Foreground,Centre,"SB\taiko left.png",320,240 F,0,281409,281756,0,0.3 M,0,281409,284183,-417,324,1165,324 F,0,281756,282102,0.3,0 F,0,282102,282449,0,0.3 F,0,282449,282796,0.3,0 F,0,282796,283143,0,0.3 F,0,283143,283490,0.3,0 F,0,283490,283836,0,0.3 F,0,283836,284183,0.3,0 M,0,284183,288345,1165,324,1635,324 F,0,284183,288345,0,0.7 M,0,288345,289039,1165,324,947,324 F,0,288345,289039,0.7,1 M,0,289039,312623,947,324 F,0,289039,332738,1 F,0,289039,334125,1,0 M,0,312623,314357,947,324,931,494 R,0,312623,314357,0,0.2712933 M,0,314357,318172,931,494 M,0,318172,319212,931,494,946,375 R,0,318172,319212,0.2712933,-6.330013E-07 M,0,319212,323721,946,375 M,0,323721,325455,946,375,930,222 R,0,323721,325455,-6.330013E-07,-0.3032111 M,0,325455,332738,930,222 F,0,332738,334125,1,0 M,0,333085,334125,930,222,956,323 R,0,333085,334125,-0.3032111,-1.254082E-06
Sprite,Foreground,Centre,"SB\score-5m.png",320,240 M,0,321293,323721,597,370 S,0,321293,325802,0.6786667,0.6387708 M,0,323721,325455,597,370,591,320 R,0,323721,325455,-6.330013E-07,-0.3847113 M,0,325455,325802,591,320 M,0,325802,,591,320
Sprite,Foreground,Centre,"SB\score-9m.png",320,240 S,0,321293,,0.6586667 M,0,321293,321467,566,369
Sprite,Foreground,Centre,"SB\score-8m.png",320,240 S,0,321467,,0.6586667 M,0,321467,321641,566,369
Sprite,Foreground,Centre,"SB\score-7m.png",320,240 S,0,321640,,0.6586667 M,0,321640,321814,566,369
Sprite,Foreground,Centre,"SB\score-6m.png",320,240 S,0,321813,,0.6586667 M,0,321813,321987,566,369
Sprite,Foreground,Centre,"SB\score-5m.png",320,240 S,0,321987,,0.6586667 M,0,321987,322161,566,369
Sprite,Foreground,Centre,"SB\score-4m.png",320,240 S,0,322160,,0.6586667 M,0,322160,322334,566,369
Sprite,Foreground,Centre,"SB\score-3m.png",320,240 S,0,322334,,0.6586667 M,0,322334,322508,566,369
Sprite,Foreground,Centre,"SB\score-2m.png",320,240 S,0,322507,,0.6586667 M,0,322507,322681,566,369
Sprite,Foreground,Centre,"SB\score-1m.png",320,240 S,0,322680,,0.6586667 M,0,322680,322854,566,369
Sprite,Foreground,Centre,"SB\score-0m.png",320,240 S,0,322854,,0.6586667 M,0,322854,323721,566,369 M,0,323721,325455,566,369,566,330 R,0,323721,325455,-6.330013E-07,-0.3845044 M,0,325455,325802,566,330
Sprite,Foreground,Centre,"SB\score-6m.png",320,240 M,0,316784,,594,396 S,0,316784,,0.6586667 M,0,316784,318172,594,396 M,0,318172,319212,594,396,597,370 R,0,318172,319212,0.2712933,-6.330013E-07 M,0,319212,321293,597,370
Sprite,Foreground,Centre,"SB\score-6m.png",320,240 S,0,317305,,0.6586667 M,0,317305,318172,567,385 M,0,318172,319212,567,385,566,369 R,0,318172,319212,0.2712933,-6.330013E-07 M,0,319212,320253,566,369
Sprite,Foreground,Centre,"SB\score-0m.png",320,240 S,0,321120,,0.6586667 M,0,321120,321293,566,369
Sprite,Foreground,Centre,"SB\score-5m.png",320,240 S,0,320253,,0.6586667 M,0,320253,320426,566,369
Sprite,Foreground,Centre,"SB\score-4m.png",320,240 S,0,320426,,0.6586667 M,0,320426,320599,566,369
Sprite,Foreground,Centre,"SB\score-3m.png",320,240 S,0,320599,,0.6586667 M,0,320599,320773,566,369
Sprite,Foreground,Centre,"SB\score-2m.png",320,240 S,0,320773,,0.6586667 M,0,320773,320946,566,369
Sprite,Foreground,Centre,"SB\score-1m.png",320,240 S,0,320946,,0.6586667 M,0,320946,321119,566,369
Sprite,Foreground,Centre,"SB\score-2.png",320,240 M,0,286958,287651,204,350,279,393 F,0,286958,288345,0,0.5451843 S,0,286958,288345,1.135647,1.590462 R,0,286958,288345,0,-25 M,0,287651,288345,279,393,607,399 M,0,288345,289039,607,399,385,384 F,0,288345,289039,0.5451843,1 S,0,288345,289039,1.590462,2.891076 R,0,288345,289039,-25,-50 R,0,289039,,-69.16 M,0,289039,289386,385,384,561,317 S,0,289039,289386,2.891076,0.4893302 F,0,289040,289125,0 F,0,289125,289212,0,1 F,0,289212,289299,1,0 F,0,289299,289386,0 F,0,289386,289472,0 M,0,289386,295282,561,317 F,0,289472,289559,0,1 F,0,289559,289646,1,0 F,0,289646,289732,0
Sprite,Foreground,Centre,"SB\score-4.png",320,240 M,0,286958,287651,97,406,214,355 F,0,286958,288345,0,0.5451843 S,0,286958,288345,1.135647,1.590462 R,0,286958,288345,0,-25 M,0,287651,288345,214,355,435,438 M,0,288345,289039,435,438,473,384 F,0,288345,289039,0.5451843,1 S,0,288345,289039,1.590462,2.891076 R,0,288345,289039,-25,-50 R,0,289039,,-69.16 M,0,289039,289386,473,384,583,317 S,0,289039,289386,2.891076,0.4893302 F,0,289040,289125,0 F,0,289125,289212,0,1 F,0,289212,289299,1,0 F,0,289299,289386,0 F,0,289386,289472,0 M,0,289386,290253,583,317 F,0,289472,289559,0,1 F,0,289559,289646,1,0 F,0,289646,289732,0
Sprite,Foreground,Centre,"SB\score-3.png",320,240 M,0,286958,287651,414,437,340,357 F,0,286958,288345,0,0.5451843 S,0,286958,288345,1.135647,1.590462 R,0,286958,288345,0,-25 M,0,287651,288345,340,357,311,389 M,0,288345,289039,311,389,570,383 F,0,288345,289039,0.5451843,1 S,0,288345,289039,1.590462,2.891076 R,0,288345,289039,-25,-50 R,0,289039,,-69.16 M,0,289039,289386,570,383,603,317 S,0,289039,289386,2.891076,0.4893302 F,0,289040,289125,0 F,0,289125,289212,0,1 F,0,289212,289299,1,0 F,0,289299,289386,0 F,0,289386,289472,0 M,0,289386,289732,603,317 F,0,289472,289559,0,1 F,0,289559,289646,1,0 F,0,289646,289732,0
Sprite,Foreground,Centre,"SB\NORMAL MODE.PNG",320,240 F,0,89964,91351,0,1 M,0,89964,144068,288,318 F,0,91351,144068,1 F,0,144068,145455,1,0
Sprite,Foreground,Centre,"SB\NORMAL MODE.PNG",320,240 F,0,67767,67941,0,1 M,0,67767,70542,818,321,-160,321 F,0,67941,70368,1 F,0,70368,70542,1,0
Sprite,Foreground,Centre,"SB\NORMAL MODE.PNG",320,240 F,0,73316,73490,0,1 M,0,73316,76091,818,321,-160,321 F,0,73490,75917,1 F,0,75917,76091,1,0
Sprite,Foreground,Centre,"SB\NORMAL MODE.PNG",320,240 F,0,78865,79039,0,1 M,0,78865,81640,818,321,-160,321 F,0,79039,81466,1 F,0,81466,81640,1,0
Sprite,Foreground,Centre,"SB\score-2m.png",320,240 S,0,289732,,0.4893302 M,0,289732,289993,561,317
Sprite,Foreground,Centre,"SB\score-1m.png",320,240 S,0,289993,,0.4893302 M,0,289993,290079,561,317
Sprite,Foreground,Centre,"SB\score-0m.png",320,240 S,0,290079,,0.4893302 M,0,290079,290253,561,317
Sprite,Foreground,Centre,"SB\score-9m.png",320,240 S,0,290253,,0.4893302 M,0,290253,290339,561,317
Sprite,Foreground,Centre,"SB\score-8m.png",320,240 S,0,290339,,0.4893302 M,0,290339,290426,561,317
Sprite,Foreground,Centre,"SB\score-7m.png",320,240 S,0,290426,,0.4893302 M,0,290426,290599,561,317
Sprite,Foreground,Centre,"SB\score-6m.png",320,240 S,0,290599,,0.4893302 M,0,290599,290773,561,317
Sprite,Foreground,Centre,"SB\score-5m.png",320,240 S,0,290773,,0.4893302 M,0,290773,290860,561,317
Sprite,Foreground,Centre,"SB\score-4m.png",320,240 S,0,290860,,0.4893302 M,0,290860,290946,561,317
Sprite,Foreground,Centre,"SB\score-3m.png",320,240 S,0,290946,,0.4893302 M,0,290946,291120,561,317
Sprite,Foreground,Centre,"SB\score-2m.png",320,240 S,0,291120,,0.4893302 M,0,291120,291293,561,317
Sprite,Foreground,Centre,"SB\score-1m.png",320,240 S,0,291293,,0.4893302 M,0,291293,291380,561,317
Sprite,Foreground,Centre,"SB\score-0m.png",320,240 S,0,291380,,0.4893302 M,0,291380,291467,561,317
Sprite,Foreground,Centre,"SB\score-9m.png",320,240 S,0,291467,,0.4893302 M,0,291467,291640,561,317
Sprite,Foreground,Centre,"SB\score-8m.png",320,240 S,0,291640,,0.4893302 M,0,291640,291813,561,317
Sprite,Foreground,Centre,"SB\score-7m.png",320,240 S,0,291813,,0.4893302 M,0,291813,292073,561,317
Sprite,Foreground,Centre,"SB\score-6m.png",320,240 S,0,292073,,0.4893302 M,0,292073,292160,561,317
Sprite,Foreground,Centre,"SB\score-5m.png",320,240 S,0,292160,,0.4893302 M,0,292160,292334,561,317
Sprite,Foreground,Centre,"SB\score-4m.png",320,240 S,0,292334,,0.4893302 M,0,292334,292507,561,317
Sprite,Foreground,Centre,"SB\score-3m.png",320,240 S,0,292507,,0.4893302 M,0,292507,292594,561,317
Sprite,Foreground,Centre,"SB\score-2m.png",320,240 S,0,292594,,0.4893302 M,0,292594,292681,561,317
Sprite,Foreground,Centre,"SB\score-1m.png",320,240 S,0,292680,,0.4893302 M,0,292680,292854,561,317
Sprite,Foreground,Centre,"SB\score-0m.png",320,240 S,0,292854,,0.4893302 M,0,292854,293028,561,317
Sprite,Foreground,Centre,"SB\score-9m.png",320,240 S,0,293027,,0.4893302 M,0,293027,293114,561,317
Sprite,Foreground,Centre,"SB\score-8m.png",320,240 S,0,293114,,0.4893302 M,0,293114,293201,561,317
Sprite,Foreground,Centre,"SB\score-7m.png",320,240 S,0,293201,,0.4893302 M,0,293201,293375,561,317
Sprite,Foreground,Centre,"SB\score-6m.png",320,240 S,0,293374,,0.4893302 M,0,293374,293461,561,317
Sprite,Foreground,Centre,"SB\score-5m.png",320,240 S,0,293461,,0.4893302 M,0,293461,293548,561,317
Sprite,Foreground,Centre,"SB\score-4m.png",320,240 S,0,293547,,0.4893302 M,0,293547,293721,561,317
Sprite,Foreground,Centre,"SB\score-3m.png",320,240 S,0,293721,,0.4893302 M,0,293721,293895,561,317
Sprite,Foreground,Centre,"SB\score-2m.png",320,240 S,0,293894,,0.4893302 M,0,293894,293981,561,317
Sprite,Foreground,Centre,"SB\score-1m.png",320,240 S,0,293981,,0.4893302 M,0,293981,294068,561,317
Sprite,Foreground,Centre,"SB\score-0m.png",320,240 S,0,294068,,0.4893302 M,0,294068,294241,561,317
Sprite,Foreground,Centre,"SB\score-9m.png",320,240 S,0,294241,,0.4893302 M,0,294241,294328,561,317
Sprite,Foreground,Centre,"SB\score-8m.png",320,240 S,0,294328,,0.4893302 M,0,294328,294414,561,317
Sprite,Foreground,Centre,"SB\score-7m.png",320,240 S,0,294414,,0.4893302 M,0,294414,294588,561,317
Sprite,Foreground,Centre,"SB\score-6m.png",320,240 S,0,294588,,0.4893302 M,0,294588,294762,561,317
Sprite,Foreground,Centre,"SB\score-5m.png",320,240 S,0,294761,,0.4893302 M,0,294761,294848,561,317
Sprite,Foreground,Centre,"SB\score-4m.png",320,240 S,0,294848,,0.4893302 M,0,294848,294935,561,317
Sprite,Foreground,Centre,"SB\score-3m.png",320,240 S,0,294935,,0.4893302 M,0,294935,295022,561,317
Sprite,Foreground,Centre,"SB\score-2m.png",320,240 S,0,295021,,0.4893302 M,0,295021,295108,561,317
Sprite,Foreground,Centre,"SB\score-1m.png",320,240 S,0,295108,,0.4893302 M,0,295108,295195,561,317
Sprite,Foreground,Centre,"SB\score-0m.png",320,240 S,0,295195,,0.4893302 M,0,295195,295282,561,317
Sprite,Foreground,Centre,"SB\score-9m.png",320,240 S,0,295282,,0.4893302 M,0,295282,295456,561,317
Sprite,Foreground,Centre,"SB\score-8m.png",320,240 S,0,295455,,0.4893302 M,0,295455,295629,561,317
Sprite,Foreground,Centre,"SB\score-7m.png",320,240 S,0,295628,,0.4893302 M,0,295628,295802,561,317
Sprite,Foreground,Centre,"SB\score-6m.png",320,240 S,0,295802,,0.4893302 M,0,295802,295976,561,317
Sprite,Foreground,Centre,"SB\score-5m.png",320,240 S,0,295975,,0.4893302 M,0,295975,296149,561,317
Sprite,Foreground,Centre,"SB\score-4m.png",320,240 S,0,296149,,0.4893302 M,0,296149,296236,561,317
Sprite,Foreground,Centre,"SB\score-3m.png",320,240 S,0,296235,,0.4893302 M,0,296235,296322,561,317
Sprite,Foreground,Centre,"SB\score-2m.png",320,240 S,0,296322,,0.4893302 M,0,296322,296496,561,317
Sprite,Foreground,Centre,"SB\score-1m.png",320,240 S,0,296495,,0.4893302 M,0,296495,296669,561,317
Sprite,Foreground,Centre,"SB\score-0m.png",320,240 S,0,296669,,0.4893302 M,0,296669,296842,561,317
Sprite,Foreground,Centre,"SB\score-9m.png",320,240 S,0,296842,,0.4893302 M,0,296842,297016,561,317
Sprite,Foreground,Centre,"SB\score-8m.png",320,240 S,0,297016,,0.4893302 M,0,297016,297190,561,317
Sprite,Foreground,Centre,"SB\score-7m.png",320,240 S,0,297189,,0.4893302 M,0,297189,297363,561,317
Sprite,Foreground,Centre,"SB\score-6m.png",320,240 S,0,297362,,0.4893302 M,0,297362,297536,561,317
Sprite,Foreground,Centre,"SB\score-3m.png",320,240 S,0,290253,,0.4893302 M,0,290253,291467,583,317
Sprite,Foreground,Centre,"SB\score-2m.png",320,240 S,0,291467,,0.4893302 M,0,291467,293027,583,317
Sprite,Foreground,Centre,"SB\score-1m.png",320,240 S,0,293027,,0.4893302 M,0,293027,294241,583,317
Sprite,Foreground,Centre,"SB\score-0m.png",320,240 S,0,294241,,0.4893302 M,0,294241,295282,583,317
Sprite,Foreground,Centre,"SB\score-9m.png",320,240 S,0,295282,,0.4893302 M,0,295282,296842,583,317
Sprite,Foreground,Centre,"SB\score-8m.png",320,240 S,0,296842,,0.4893302 M,0,296842,298230,583,317
Sprite,Foreground,Centre,"SB\score-1m.png",320,240 S,0,295282,,0.4893302 M,0,295282,308808,605,317
Sprite,Foreground,Centre,"SB\score-5m.png",320,240 S,0,297536,,0.4893302 M,0,297536,297623,561,317
Sprite,Foreground,Centre,"SB\score-4m.png",320,240 S,0,297623,,0.4893302 M,0,297623,297710,561,317
Sprite,Foreground,Centre,"SB\score-3m.png",320,240 S,0,297709,,0.4893302 M,0,297709,297883,561,317
Sprite,Foreground,Centre,"SB\score-2m.png",320,240 S,0,297883,,0.4893302 M,0,297883,298057,561,317
Sprite,Foreground,Centre,"SB\score-1m.png",320,240 S,0,298056,,0.4893302 M,0,298056,298143,561,317
Sprite,Foreground,Centre,"SB\score-0m.png",320,240 S,0,298143,,0.4893302 M,0,298143,298230,561,317
Sprite,Foreground,Centre,"SB\score-9m.png",320,240 S,0,298230,,0.4893302 M,0,298230,298404,561,317
Sprite,Foreground,Centre,"SB\score-8m.png",320,240 S,0,298403,,0.4893302 M,0,298403,298577,561,317
Sprite,Foreground,Centre,"SB\score-7m.png",320,240 S,0,298576,,0.4893302 M,0,298576,298663,561,317
Sprite,Foreground,Centre,"SB\score-6m.png",320,240 S,0,298663,,0.4893302 M,0,298663,298750,561,317
Sprite,Foreground,Centre,"SB\score-5m.png",320,240 S,0,298750,,0.4893302 M,0,298750,298924,561,317
Sprite,Foreground,Centre,"SB\score-4m.png",320,240 S,0,298923,,0.4893302 M,0,298923,299097,561,317
Sprite,Foreground,Centre,"SB\score-3m.png",320,240 S,0,299097,,0.4893302 M,0,299097,299271,561,317
Sprite,Foreground,Centre,"SB\score-2m.png",320,240 S,0,299270,,0.4893302 M,0,299270,299357,561,317
Sprite,Foreground,Centre,"SB\score-1m.png",320,240 S,0,299357,,0.4893302 M,0,299357,299444,561,317
Sprite,Foreground,Centre,"SB\score-0m.png",320,240 S,0,299443,,0.4893302 M,0,299443,299617,561,317
Sprite,Foreground,Centre,"SB\score-9m.png",320,240 S,0,299617,,0.4893302 M,0,299617,299791,561,317
Sprite,Foreground,Centre,"SB\score-8m.png",320,240 S,0,299790,,0.4893302 M,0,299790,299964,561,317
Sprite,Foreground,Centre,"SB\score-7m.png",320,240 S,0,299964,,0.4893302 M,0,299964,300138,561,317
Sprite,Foreground,Centre,"SB\score-6m.png",320,240 S,0,300137,,0.4893302 M,0,300137,300311,561,317
Sprite,Foreground,Centre,"SB\score-5m.png",320,240 S,0,300310,,0.4893302 M,0,300310,300397,561,317
Sprite,Foreground,Centre,"SB\score-4m.png",320,240 S,0,300397,,0.4893302 M,0,300397,300484,561,317
Sprite,Foreground,Centre,"SB\score-3m.png",320,240 S,0,300484,,0.4893302 M,0,300484,300571,561,317
Sprite,Foreground,Centre,"SB\score-2m.png",320,240 S,0,300571,,0.4893302 M,0,300571,300658,561,317
Sprite,Foreground,Centre,"SB\score-1m.png",320,240 S,0,300657,,0.4893302 M,0,300657,300744,561,317
Sprite,Foreground,Centre,"SB\score-0m.png",320,240 S,0,300744,,0.4893302 M,0,300744,300831,561,317
Sprite,Foreground,Centre,"SB\score-9m.png",320,240 S,0,300831,,0.4893302 M,0,300831,301091,561,317
Sprite,Foreground,Centre,"SB\score-8m.png",320,240 S,0,301091,,0.4893302 M,0,301091,301178,561,317
Sprite,Foreground,Centre,"SB\score-7m.png",320,240 S,0,301178,,0.4893302 M,0,301178,301352,561,317
Sprite,Foreground,Centre,"SB\score-6m.png",320,240 S,0,301351,,0.4893302 M,0,301351,301438,561,317
Sprite,Foreground,Centre,"SB\score-5m.png",320,240 S,0,301438,,0.4893302 M,0,301438,301525,561,317
Sprite,Foreground,Centre,"SB\score-4m.png",320,240 S,0,301524,,0.4893302 M,0,301524,301698,561,317
Sprite,Foreground,Centre,"SB\score-3m.png",320,240 S,0,301698,,0.4893302 M,0,301698,301872,561,317
Sprite,Foreground,Centre,"SB\score-2.png",320,240 S,0,301871,,0.4893302 M,0,301871,301958,561,317
Sprite,Foreground,Centre,"SB\score-1m.png",320,240 S,0,301958,,0.4893302 M,0,301958,302045,561,317
Sprite,Foreground,Centre,"SB\score-0m.png",320,240 S,0,302045,,0.4893302 M,0,302045,302219,561,317
Sprite,Foreground,Centre,"SB\score-9m.png",320,240 S,0,302218,,0.4893302 M,0,302218,302392,561,317
Sprite,Foreground,Centre,"SB\score-8m.png",320,240 S,0,302391,,0.4893302 M,0,302391,302478,561,317
Sprite,Foreground,Centre,"SB\score-7m.png",320,240 S,0,302478,,0.4893302 M,0,302478,302565,561,317
Sprite,Foreground,Centre,"SB\score-6m.png",320,240 S,0,302565,,0.4893302 M,0,302565,302652,561,317
Sprite,Foreground,Centre,"SB\score-5m.png",320,240 S,0,302651,,0.4893302 M,0,302651,302738,561,317
Sprite,Foreground,Centre,"SB\score-4m.png",320,240 S,0,302738,,0.4893302 M,0,302738,302912,561,317
Sprite,Foreground,Centre,"SB\score-3m.png",320,240 S,0,302912,,0.4893302 M,0,302912,303172,561,317
Sprite,Foreground,Centre,"SB\score-2m.png",320,240 S,0,303172,,0.4893302 M,0,303172,303259,561,317
Sprite,Foreground,Centre,"SB\score-1m.png",320,240 S,0,303258,,0.4893302 M,0,303258,303432,561,317
Sprite,Foreground,Centre,"SB\score-0m.png",320,240 S,0,303432,,0.4893302 M,0,303432,303606,561,317
Sprite,Foreground,Centre,"SB\score-9m.png",320,240 S,0,303605,,0.4893302 M,0,303605,303692,561,317
Sprite,Foreground,Centre,"SB\score-8m.png",320,240 S,0,303692,,0.4893302 M,0,303692,303779,561,317
Sprite,Foreground,Centre,"SB\score-7m.png",320,240 S,0,303779,,0.4893302 M,0,303779,303953,561,317
Sprite,Foreground,Centre,"SB\score-6m.png",320,240 S,0,303952,,0.4893302 M,0,303952,304126,561,317
Sprite,Foreground,Centre,"SB\score-5m.png",320,240 S,0,304125,,0.4893302 M,0,304125,304212,561,317
Sprite,Foreground,Centre,"SB\score-4m.png",320,240 S,0,304212,,0.4893302 M,0,304212,304299,561,317
Sprite,Foreground,Centre,"SB\score-3m.png",320,240 S,0,304299,,0.4893302 M,0,304299,304473,561,317
Sprite,Foreground,Centre,"SB\score-2m.png",320,240 S,0,304472,,0.4893302 M,0,304472,304646,561,317
Sprite,Foreground,Centre,"SB\score-1m.png",320,240 S,0,304646,,0.4893302 M,0,304646,304820,561,317
Sprite,Foreground,Centre,"SB\score-0m.png",320,240 S,0,304819,,0.4893302 M,0,304819,304993,561,317
Sprite,Foreground,Centre,"SB\score-9m.png",320,240 S,0,304993,,0.4893302 M,0,304993,305080,561,317
Sprite,Foreground,Centre,"SB\score-8m.png",320,240 S,0,305079,,0.4893302 M,0,305079,305166,561,317
Sprite,Foreground,Centre,"SB\score-7m.png",320,240 S,0,305166,,0.4893302 M,0,305166,305340,561,317
Sprite,Foreground,Centre,"SB\score-6m.png",320,240 S,0,305339,,0.4893302 M,0,305339,305426,561,317
Sprite,Foreground,Centre,"SB\score-5m.png",320,240 S,0,305426,,0.4893302 M,0,305426,305513,561,317
Sprite,Foreground,Centre,"SB\score-4m.png",320,240 S,0,305513,,0.4893302 M,0,305513,305687,561,317
Sprite,Foreground,Centre,"SB\score-3m.png",320,240 S,0,305686,,0.4893302 M,0,305686,305860,561,317
Sprite,Foreground,Centre,"SB\score-2m.png",320,240 S,0,305860,,0.4893302 M,0,305860,305947,561,317
Sprite,Foreground,Centre,"SB\score-1m.png",320,240 S,0,305946,,0.4893302 M,0,305946,306033,561,317
Sprite,Foreground,Centre,"SB\score-0m.png",320,240 S,0,306033,,0.4893302 M,0,306033,306120,561,317
Sprite,Foreground,Centre,"SB\score-9m.png",320,240 S,0,306120,,0.4893302 M,0,306120,306207,561,317
Sprite,Foreground,Centre,"SB\score-8m.png",320,240 S,0,306206,,0.4893302 M,0,306206,306293,561,317
Sprite,Foreground,Centre,"SB\score-7m.png",320,240 S,0,306293,,0.4893302 M,0,306293,306380,561,317
Sprite,Foreground,Centre,"SB\score-6m.png",320,240 S,0,306380,,0.4893302 M,0,306380,306554,561,317
Sprite,Foreground,Centre,"SB\score-5m.png",320,240 S,0,306553,,0.4893302 M,0,306553,306727,561,317
Sprite,Foreground,Centre,"SB\score-4m.png",320,240 S,0,306727,,0.4893302 M,0,306727,306901,561,317
Sprite,Foreground,Centre,"SB\score-3m.png",320,240 S,0,306900,,0.4893302 M,0,306900,307074,561,317
Sprite,Foreground,Centre,"SB\score-2m.png",320,240 S,0,307073,,0.4893302 M,0,307073,307247,561,317
Sprite,Foreground,Centre,"SB\score-1m.png",320,240 S,0,307247,,0.4893302 M,0,307247,307334,561,317
Sprite,Foreground,Centre,"SB\score-0m.png",320,240 S,0,307334,,0.4893302 M,0,307334,307421,561,317
Sprite,Foreground,Centre,"SB\score-9m.png",320,240 S,0,307420,,0.4893302 M,0,307420,307507,561,317
Sprite,Foreground,Centre,"SB\score-8m.png",320,240 S,0,307507,,0.4893302 M,0,307507,307594,561,317
Sprite,Foreground,Centre,"SB\score-7m.png",320,240 S,0,307594,,0.4893302 M,0,307594,307768,561,317
Sprite,Foreground,Centre,"SB\score-6m.png",320,240 S,0,307767,,0.4893302 M,0,307767,307941,561,317
Sprite,Foreground,Centre,"SB\score-5m.png",320,240 S,0,307941,,0.4893302 M,0,307941,308115,561,317
Sprite,Foreground,Centre,"SB\score-4m.png",320,240 S,0,308114,,0.4893302 M,0,308114,308288,561,317
Sprite,Foreground,Centre,"SB\score-3m.png",320,240 S,0,308287,,0.4893302 M,0,308287,308461,561,317
Sprite,Foreground,Centre,"SB\score-2m.png",320,240 S,0,308461,,0.4893302 M,0,308461,308635,561,317
Sprite,Foreground,Centre,"SB\score-1m.png",320,240 S,0,308634,,0.4893302 M,0,308634,308721,561,317
Sprite,Foreground,Centre,"SB\score-0m.png",320,240 S,0,308721,,0.4893302 M,0,308721,308808,561,317
Sprite,Foreground,Centre,"SB\score-9m.png",320,240 S,0,308808,,0.6586667 M,0,308808,308895,568,317
Sprite,Foreground,Centre,"SB\score-8m.png",320,240 S,0,308894,,0.6586667 M,0,308894,308981,568,317
Sprite,Foreground,Centre,"SB\score-7m.png",320,240 S,0,308981,,0.6586667 M,0,308981,309155,568,317
Sprite,Foreground,Centre,"SB\score-6m.png",320,240 S,0,309154,,0.6586667 M,0,309154,309328,568,317
Sprite,Foreground,Centre,"SB\score-5m.png",320,240 S,0,309328,,0.6586667 M,0,309328,309502,568,317
Sprite,Foreground,Centre,"SB\score-4m.png",320,240 S,0,309501,,0.6586667 M,0,309501,309675,568,317
Sprite,Foreground,Centre,"SB\score-3m.png",320,240 S,0,309675,,0.6586667 M,0,309675,309849,568,317
Sprite,Foreground,Centre,"SB\score-2m.png",320,240 S,0,309848,,0.6586667 M,0,309848,310022,568,317
Sprite,Foreground,Centre,"SB\score-1m.png",320,240 S,0,310021,,0.6586667 M,0,310021,310195,568,317
Sprite,Foreground,Centre,"SB\score-0m.png",320,240 S,0,310195,,0.6586667 M,0,310195,310369,568,317
Sprite,Foreground,Centre,"SB\score-9m.png",320,240 S,0,310368,,0.6586667 M,0,310368,310542,568,317
Sprite,Foreground,Centre,"SB\score-8m.png",320,240 S,0,310542,,0.6586667 M,0,310542,311235,568,317
Sprite,Foreground,Centre,"SB\score-7m.png",320,240 S,0,298230,,0.4893302 M,0,298230,299617,583,317
Sprite,Foreground,Centre,"SB\score-6m.png",320,240 S,0,299617,,0.4893302 M,0,299617,300831,583,317
Sprite,Foreground,Centre,"SB\score-5m.png",320,240 S,0,300831,,0.4893302 M,0,300831,302218,583,317
Sprite,Foreground,Centre,"SB\score-4m.png",320,240 S,0,302218,,0.4893302 M,0,302218,303605,583,317
Sprite,Foreground,Centre,"SB\score-3m.png",320,240 S,0,303605,,0.4893302 M,0,303605,304993,583,317
Sprite,Foreground,Centre,"SB\score-2m.png",320,240 S,0,304993,,0.4893302 M,0,304993,306120,583,317
Sprite,Foreground,Centre,"SB\score-1m.png",320,240 S,0,306120,,0.4893302 M,0,306120,307420,583,317
Sprite,Foreground,Centre,"SB\score-0m.png",320,240 S,0,307420,,0.4893302 M,0,307420,308808,583,317
Sprite,Foreground,Centre,"SB\score-9m.png",320,240 S,0,308808,,0.6586667 M,0,308808,310368,598,317
Sprite,Foreground,Centre,"SB\score-7m.png",320,240 S,0,311235,,0.6586667 M,0,311235,311409,568,317
Sprite,Foreground,Centre,"SB\score-6m.png",320,240 S,0,311409,,0.6586667 M,0,311409,311496,568,317
Sprite,Foreground,Centre,"SB\score-5m.png",320,240 S,0,311495,,0.6586667 M,0,311495,311669,568,317
Sprite,Foreground,Centre,"SB\score-4m.png",320,240 S,0,311669,,0.6586667 M,0,311669,311756,568,317
Sprite,Foreground,Centre,"SB\score-3m.png",320,240 S,0,311756,,0.6586667 M,0,311756,311843,568,317
Sprite,Foreground,Centre,"SB\score-8m.png",320,240 S,0,310368,,0.6586667 M,0,310368,312623,598,317 M,0,312623,314357,598,317,594,396 R,0,312623,314357,0,0.5012933 M,0,314357,315050,594,396
Sprite,Foreground,Centre,"SB\score-2m.png",320,240 S,0,311842,,0.6586667 M,0,311842,312623,568,317 M,0,312623,314357,568,317,567,385 R,0,312623,314357,0,0.4712933 M,0,314357,314704,567,385
Sprite,Foreground,Centre,"SB\score-1m.png",320,240 S,0,314704,,0.6586667 R,0,314704,,0.4712933 M,0,314704,314877,567,385
Sprite,Foreground,Centre,"SB\score-0m.png",320,240 S,0,314877,,0.6586667 R,0,314877,,0.4712933 M,0,314877,315050,567,385
Sprite,Foreground,Centre,"SB\score-7m.png",320,240 S,0,315050,,0.6586667 R,0,315050,,0.5012933 M,0,315050,316784,591,393
Sprite,Foreground,Centre,"SB\score-9m.png",320,240 S,0,315050,,0.6586667 R,0,315050,,0.4712933 M,0,315050,315223,567,385
Sprite,Foreground,Centre,"SB\score-8m.png",320,240 S,0,315224,,0.6586667 R,0,315224,,0.4712933 M,0,315224,315397,565,383
Sprite,Foreground,Centre,"SB\score-7m.png",320,240 S,0,315397,,0.6586667 R,0,315397,,0.4712933 M,0,315397,315570,565,383
Sprite,Foreground,Centre,"SB\score-6m.png",320,240 S,0,315571,,0.6586667 R,0,315571,,0.4712933 M,0,315571,315744,567,385
Sprite,Foreground,Centre,"SB\score-5m.png",320,240 S,0,315744,,0.6586667 R,0,315744,,0.4712933 M,0,315744,315917,567,385
Sprite,Foreground,Centre,"SB\score-4m.png",320,240 S,0,315917,,0.6586667 R,0,315917,,0.4712933 M,0,315917,316090,567,385
Sprite,Foreground,Centre,"SB\score-3m.png",320,240 S,0,316091,,0.6586667 R,0,316091,,0.4712933 M,0,316091,316264,567,385
Sprite,Foreground,Centre,"SB\score-2m.png",320,240 S,0,316264,,0.6586667 R,0,316264,,0.4712933 M,0,316264,316437,567,385
Sprite,Foreground,Centre,"SB\score-1m.png",320,240 S,0,316438,,0.6586667 R,0,316438,,0.4712933 M,0,316438,316611,567,385
Sprite,Foreground,Centre,"SB\score-0m.png",320,240 S,0,316611,,0.6586667 R,0,316611,,0.4712933 M,0,316611,316784,567,385
Sprite,Foreground,Centre,"SB\score-9m.png",320,240 S,0,316784,,0.6586667 R,0,316784,,0.4712933 M,0,316784,316957,567,385
Sprite,Foreground,Centre,"SB\score-8m.png",320,240 S,0,316958,,0.6586667 R,0,316958,,0.4712933 M,0,316958,317131,567,385
Sprite,Foreground,Centre,"SB\score-7m.png",320,240 S,0,317131,,0.6586667 R,0,317131,,0.4712933 M,0,317131,317304,567,385
Sprite,Foreground,Centre,"SB\score-4m.png",320,240 S,0,325802,,0.6586667 R,0,325802,,-0.3847113 M,0,325802,327536,591,320
Sprite,Foreground,Centre,"SB\score-9m.png",320,240 S,0,325802,,0.6486667 R,0,325802,,-0.3847113 M,0,325802,325975,566,330
Sprite,Foreground,Centre,"SB\score-8m.png",320,240 S,0,325975,,0.6486667 R,0,325975,,-0.3847113 M,0,325975,326148,566,330
Sprite,Foreground,Centre,"SB\score-7m.png",320,240 S,0,326149,,0.6486667 R,0,326149,,-0.3847113 M,0,326149,326322,566,330
Sprite,Foreground,Centre,"SB\score-6m.png",320,240 S,0,326322,,0.6486667 R,0,326322,,-0.3847113 M,0,326322,326495,566,330
Sprite,Foreground,Centre,"SB\score-5m.png",320,240 S,0,326495,,0.6486667 R,0,326495,,-0.3847113 M,0,326495,326668,566,330
Sprite,Foreground,Centre,"SB\score-4m.png",320,240 S,0,326669,,0.6486667 R,0,326669,,-0.3847113 M,0,326669,326842,566,330
Sprite,Foreground,Centre,"SB\score-3m.png",320,240 S,0,326842,,0.6486667 R,0,326842,,-0.3847113 M,0,326842,327015,566,330
Sprite,Foreground,Centre,"SB\score-2m.png",320,240 S,0,327016,,0.6486667 R,0,327016,,-0.3847113 M,0,327016,327189,566,330
Sprite,Foreground,Centre,"SB\score-1m.png",320,240 S,0,327189,,0.6486667 R,0,327189,,-0.3847113 M,0,327189,327362,566,330
Sprite,Foreground,Centre,"SB\score-0m.png",320,240 S,0,327362,,0.6486667 R,0,327362,,-0.3847113 M,0,327362,327535,566,330
Sprite,Foreground,Centre,"SB\score-9m.png",320,240 S,0,327536,,0.6486667 R,0,327536,,-0.3847113 M,0,327536,327709,566,330
Sprite,Foreground,Centre,"SB\score-8m.png",320,240 S,0,327709,,0.6486667 R,0,327709,,-0.3847113 M,0,327709,327882,566,330
Sprite,Foreground,Centre,"SB\score-7m.png",320,240 S,0,327883,,0.6486667 R,0,327883,,-0.3847113 M,0,327883,328056,566,330
Sprite,Foreground,Centre,"SB\score-6m.png",320,240 S,0,328056,,0.6486667 R,0,328056,,-0.3847113 M,0,328056,328229,566,330
Sprite,Foreground,Centre,"SB\score-5m.png",320,240 S,0,328230,,0.6486667 R,0,328230,,-0.3847113 M,0,328230,328316,566,330
Sprite,Foreground,Centre,"SB\score-4.png",320,240 S,0,328316,,0.6486667 R,0,328316,,-0.3847113 M,0,328316,328402,566,330
Sprite,Foreground,Centre,"SB\score-3m.png",320,240 S,0,328403,,0.6486667 R,0,328403,,-0.3847113 M,0,328403,328489,566,330
Sprite,Foreground,Centre,"SB\score-2m.png",320,240 S,0,328490,,0.6486667 R,0,328490,,-0.3847113 M,0,328490,328576,566,330
Sprite,Foreground,Centre,"SB\score-1m.png",320,240 S,0,328576,,0.6486667 R,0,328576,,-0.3847113 M,0,328576,328749,566,330
Sprite,Foreground,Centre,"SB\score-0m.png",320,240 S,0,328750,,0.6486667 R,0,328750,,-0.3847113 M,0,328750,328923,566,330
Sprite,Foreground,Centre,"SB\score-9m.png",320,240 S,0,328923,,0.6486667 R,0,328923,,-0.3847113 M,0,328923,329096,566,330
Sprite,Foreground,Centre,"SB\score-8m.png",320,240 S,0,329097,,0.6486667 R,0,329097,,-0.3847113 M,0,329097,329270,566,330
Sprite,Foreground,Centre,"SB\score-7m.png",320,240 S,0,329270,,0.6486667 R,0,329270,,-0.3847113 M,0,329270,329443,566,330
Sprite,Foreground,Centre,"SB\score-6m.png",320,240 S,0,329443,,0.6486667 R,0,329443,,-0.3847113 M,0,329443,329616,566,330
Sprite,Foreground,Centre,"SB\score-5m.png",320,240 S,0,329617,,0.6486667 R,0,329617,,-0.3847113 M,0,329617,329790,566,330
Sprite,Foreground,Centre,"SB\score-4m.png",320,240 S,0,329790,,0.6486667 R,0,329790,,-0.3847113 M,0,329790,329963,566,330
Sprite,Foreground,Centre,"SB\score-3m.png",320,240 S,0,329964,,0.6486667 R,0,329964,,-0.3847113 M,0,329964,330137,566,330
Sprite,Foreground,Centre,"SB\score-2m.png",320,240 S,0,330137,,0.6486667 R,0,330137,,-0.3847113 M,0,330137,330310,566,330
Sprite,Foreground,Centre,"SB\score-1m.png",320,240 S,0,330310,,0.6486667 R,0,330310,,-0.3847113 M,0,330310,330483,566,330
Sprite,Foreground,Centre,"SB\score-0m.png",320,240 S,0,330484,,0.6486667 R,0,330484,,-0.3847113 M,0,330484,330657,566,330
Sprite,Foreground,Centre,"SB\score-9m.png",320,240 S,0,330657,,0.6486667 R,0,330657,,-0.3847113 M,0,330657,330830,566,330
Sprite,Foreground,Centre,"SB\score-8m.png",320,240 S,0,330831,,0.6486667 R,0,330831,,-0.3847113 M,0,330831,331004,566,330
Sprite,Foreground,Centre,"SB\score-7m.png",320,240 S,0,331004,,0.6486667 R,0,331004,,-0.3847113 M,0,331004,331177,566,330
Sprite,Foreground,Centre,"SB\score-6m.png",320,240 S,0,331178,,0.6486667 R,0,331178,,-0.3847113 M,0,331178,331351,566,330
Sprite,Foreground,Centre,"SB\score-5m.png",320,240 S,0,331351,,0.6486667 R,0,331351,,-0.3847113 M,0,331351,331437,566,330
Sprite,Foreground,Centre,"SB\score-4m.png",320,240 S,0,331438,,0.6486667 R,0,331438,,-0.3847113 M,0,331438,331524,566,330
Sprite,Foreground,Centre,"SB\score-3m.png",320,240 S,0,331524,,0.6486667 R,0,331524,,-0.3847113 M,0,331524,331610,566,330
Sprite,Foreground,Centre,"SB\score-2m.png",320,240 S,0,331611,,0.6486667 R,0,331611,,-0.3847113 M,0,331611,331697,566,330
Sprite,Foreground,Centre,"SB\score-1m.png",320,240 S,0,331698,,0.6486667 R,0,331698,,-0.3847113 M,0,331698,331784,566,330
Sprite,Foreground,Centre,"SB\score-0m.png",320,240 S,0,331784,,0.6486667 R,0,331784,,-0.3847113 M,0,331784,331870,566,330
Sprite,Foreground,Centre,"SB\score-9m.png",320,240 S,0,331871,,0.6486667 R,0,331871,,-0.3847113 M,0,331871,331957,581,325
Sprite,Foreground,Centre,"SB\score-8m.png",320,240 S,0,331958,,0.6486667 R,0,331958,,-0.3847113 M,0,331958,332044,581,325
Sprite,Foreground,Centre,"SB\score-7m.png",320,240 S,0,332045,,0.6486667 R,0,332045,,-0.3847113 M,0,332045,332131,581,325
Sprite,Foreground,Centre,"SB\score-6m.png",320,240 S,0,332131,,0.6486667 R,0,332131,,-0.3847113 M,0,332131,332217,581,325
Sprite,Foreground,Centre,"SB\score-5m.png",320,240 S,0,332218,,0.6486667 R,0,332218,,-0.3847113 M,0,332218,332304,581,325
Sprite,Foreground,Centre,"SB\score-4m.png",320,240 S,0,332305,,0.6486667 R,0,332305,,-0.3847113 M,0,332305,332391,581,325
Sprite,Foreground,Centre,"SB\score-3m.png",320,240 S,0,332391,,0.6486667 R,0,332391,,-0.3847113 M,0,332391,332477,581,325
Sprite,Foreground,Centre,"SB\score-2m.png",320,240 S,0,332478,,0.6486667 R,0,332478,,-0.3847113 M,0,332478,332564,581,325
Sprite,Foreground,Centre,"SB\score-1m.png",320,240 S,0,332565,,0.6486667 R,0,332565,,-0.3847113 M,0,332565,332651,581,325
Sprite,Foreground,Centre,"SB\score-0m.png",320,240 S,0,332651,,0.6486667 M,0,332651,333085,581,325 R,0,332651,333085,-0.3847113 F,0,332738,334125,1,0 M,0,333085,334125,581,325,588,317 M,0,333085,334125,581,325,588,317 R,0,333085,334125,-0.4947113,-0.1436255
Sprite,Foreground,Centre,"SB\score-3m.png",320,240 S,0,327536,,0.6586667 R,0,327536,,-0.3847113 M,0,327536,328923,591,320
Sprite,Foreground,Centre,"SB\score-2m.png",320,240 S,0,328923,,0.6586667 R,0,328923,,-0.3847113 M,0,328923,330657,591,320
Sprite,Foreground,Centre,"SB\score-1m.png",320,240 S,0,330657,,0.6586667 R,0,330657,,-0.3847113 M,0,330657,331871,591,320
Sprite,Foreground,Centre,"SB\score-2m.png",320,240 M,0,286958,287651,204,350,279,393 F,0,286958,288345,0 S,0,286958,288345,1.135647,1.590462 R,0,286958,288345,0,-25 M,0,287651,288345,279,393,607,399 M,0,288345,289039,607,399,385,384 F,0,288345,289039,0 S,0,288345,289039,1.590462,2.891076 R,0,288345,289039,-25,-50 R,0,289039,,-69.16 M,0,289039,289386,570,383,603,317 S,0,289039,289386,2.891076,0.4893302 F,0,289040,289125,1,0 F,0,289125,289212,1,0 F,0,289212,289299,0 F,0,289299,289386,0,1 F,0,289386,289472,1 M,0,289386,295292,603,317 F,0,289472,289559,1,0 F,0,289559,289646,0 F,0,289646,289732,0,1
Sprite,Foreground,Centre,"SB\score-4m.png",320,240 M,0,286958,287651,97,406,214,355 F,0,286958,288345,0 S,0,286958,288345,1.135647,1.590462 R,0,286958,288345,0,-25 M,0,287651,288345,214,355,435,438 M,0,288345,289039,435,438,473,384 F,0,288345,289039,0 S,0,288345,289039,1.590462,2.891076 R,0,288345,289039,-25,-50 R,0,289039,,-69.16 M,0,289039,289386,473,384,583,317 S,0,289039,289386,2.891076,0.4893302 F,0,289040,289125,1,0 F,0,289125,289212,1,0 F,0,289212,289299,0 F,0,289299,289386,0,1 F,0,289386,289472,1 M,0,289386,290253,583,317 F,0,289472,289559,1,0 F,0,289559,289646,0 F,0,289646,289732,0,1
Sprite,Foreground,Centre,"SB\score-3m.png",320,240 M,0,286958,287651,414,437,340,357 F,0,286958,288345,0 S,0,286958,288345,1.135647,1.590462 R,0,286958,288345,0,-25 M,0,287651,288345,340,357,311,389 M,0,288345,289039,311,389,570,383 F,0,288345,289039,0 S,0,288345,289039,1.590462,2.891076 R,0,288345,289039,-25,-50 R,0,289039,,-69.16 M,0,289039,289386,385,384,561,317 S,0,289039,289386,2.891076,0.4893302 F,0,289040,289125,1,0 F,0,289125,289212,1,0 F,0,289212,289299,0 F,0,289299,289386,0,1 F,0,289386,289472,1 M,0,289386,289732,561,317 F,0,289472,289559,1,0 F,0,289559,289646,0 F,0,289646,289732,0,1
Sprite,Foreground,Centre,"SB\title.PNG",320,240 M,0,1178,23374,-352,267,600,267 V,0,1178,289039,0.3927365,0.3927365 M,0,23374,289039,600,267 M,0,289039,289125,20,267 V,0,289039,289125,-0.3927365,0.3927365 M,0,289212,289299,600,267 V,0,289212,289299,0.3927365,0.3927365 M,0,289386,289472,20,267 V,0,289386,289472,-0.3927365,0.3927365 M,0,289559,289646,600,267 V,0,289559,289646,0.3927365,0.3927365 M,0,289732,334125,20,267 M,0,289732,334125,20,267 V,0,289732,334125,-0.3927365,0.3927365 M,0,334125,382680,600,267 V,0,334125,382680,0.3927365,0.3927365 F,0,382680,383374,1,0
Sprite,Foreground,Centre,"SB\score-3.png",320,240 M,0,153605,153779,563,328,585,382 F,0,153605,155166,0,0.5 M,0,153779,154472,585,382,321,428 S,0,153779,155166,1.775757,2.001649 R,0,153779,155166,0,25 M,0,154472,155166,321,428,390,334 M,0,155166,155686,390,334,84,404 F,0,155166,155860,0.5,1 S,0,155166,155860,2.001649,3.555124 R,0,155166,155860,25,50 M,0,155686,155860,84,404,107,402 R,0,155860,,69.14 M,0,155860,156206,107,402,84,317 S,0,155860,156206,3.555124,0.6586667 M,0,156206,157507,84,317
Sprite,Foreground,Centre,"SB\score-1.png",320,240 M,0,153605,153779,291,326,309,335 F,0,153605,155166,0,0.5 M,0,153779,154472,309,335,172,363 S,0,153779,155166,1.895446,2.288928 R,0,153779,155166,0,25 M,0,154472,155166,172,363,457,443 M,0,155166,155686,457,443,62,404 F,0,155166,155860,0.5,1 S,0,155166,155860,2.288928,3.531187 R,0,155166,155860,25,50 M,0,155686,155860,62,404,30,400 R,0,155860,,69.14 M,0,155860,156206,30,400,62,316 S,0,155860,156206,3.531187,0.6586667 M,0,156206,163056,62,316
Sprite,Foreground,Centre,"SB\score-4.png",320,240 M,0,153605,153779,343,384,310,402 F,0,153605,155166,0,0.5 M,0,153779,154472,310,402,218,468 S,0,153779,155166,1.871508,2.147955 R,0,153779,155166,0,25 M,0,154472,155166,218,468,35,437 M,0,155166,155276,35,437,21,450 F,0,155166,155860,0.5,1 S,0,155166,155860,2.147955,3.547145 R,0,155166,155860,25,50 M,0,155276,155686,21,450,140,404 M,0,155686,155860,140,404,207,402 R,0,155860,,69.14 M,0,155860,156206,207,402,109,317 S,0,155860,156206,3.547145,0.6586667 M,0,156206,156553,109,317
Sprite,Foreground,Centre,"SB\white.png",320,240 F,0,286958,287305,0,1 M,0,286958,289329,255,241,252,292 F,0,287305,287651,1,0 F,0,287651,287998,0,1 F,0,287998,288345,1,0 F,0,288345,289039,0,1 S,0,289039,,2.876238 F,0,289039,289125,1,0 F,0,289125,289212,0,1 F,0,289212,289299,1,0 F,0,289299,289386,0,1 M,0,289329,289386,252,292,251,280 F,0,289386,289472,1,0 M,0,289386,289559,251,280,267,757 F,0,289472,289559,0,1 F,0,289559,289646,1,0 M,0,289559,290575,267,757,270,834 F,0,289646,289732,0,1 F,0,289732,291120,1,0 M,0,290575,290894,270,834,260,384 M,0,290894,331351,260,384,255,241 F,0,291120,331351,0 F,0,331351,334125,0,1 F,0,334125,335513,1,0 F,0,335513,378519,0 F,0,378519,378540,0,1 F,0,378540,378865,1,0.9084228 F,0,378865,379212,0.9084228,0.8043621 F,0,379212,379559,0.8043621,0.6282949 F,0,379559,379906,0.6282949,0.5364187 F,0,379906,380253,0.5364187,0.4445545 F,0,380253,380599,0.4445545,0.5986672 F,0,380599,380946,0.5986672,0.4699458 F,0,380946,381293,0.4699458,0.3762129 F,0,381293,381640,0.3762129,0.5322721 F,0,381640,381987,0.5322721,0.4802012 F,0,381987,382334,0.4802012,0.2909146 F,0,382334,382594,0.2909146,0.1452492 F,0,382594,382680,0.1452492,1 F,0,382680,383374,1,0.001207729
Sprite,Foreground,Centre,"SB\don.png",320,240 F,0,376669,376842,0,1 M,0,376669,377189,679,322,299,322 F,0,376842,377189,1 M,0,377189,377362,299,322 F,0,377189,377362,1,0
Sprite,Foreground,Centre,"SB\don.png",320,240 F,0,376727,376900,0,1 M,0,376727,377247,679,322,299,322 F,0,376900,377247,1 M,0,377247,377420,299,322 F,0,377247,377420,1,0
Sprite,Foreground,Centre,"SB\don.png",320,240 F,0,376784,376957,0,1 M,0,376784,377304,679,322,299,322 F,0,376957,377304,1 M,0,377304,377477,299,322 F,0,377304,377477,1,0
Sprite,Foreground,Centre,"SB\don.png",320,240 F,0,376842,377015,0,1 M,0,376842,377362,679,322,299,322 F,0,377015,377362,1 M,0,377362,377535,299,322 F,0,377362,377535,1,0
Sprite,Foreground,Centre,"SB\don.png",320,240 F,0,376900,377073,0,1 M,0,376900,377420,679,322,299,322 F,0,377073,377420,1 M,0,377420,377593,299,322 F,0,377420,377593,1,0
Sprite,Foreground,Centre,"SB\don.png",320,240 F,0,376958,377131,0,1 M,0,376958,377478,679,322,299,322 F,0,377131,377478,1 M,0,377478,377651,299,322 F,0,377478,377651,1,0
Sprite,Foreground,Centre,"SB\don.png",320,240 F,0,377016,377189,0,1 M,0,377016,377536,679,322,299,322 F,0,377189,377536,1 M,0,377536,377709,299,322 F,0,377536,377709,1,0
Sprite,Foreground,Centre,"SB\don.png",320,240 F,0,377073,377246,0,1 M,0,377073,377593,679,322,299,322 F,0,377246,377593,1 M,0,377593,377766,299,322 F,0,377593,377766,1,0
Sprite,Foreground,Centre,"SB\don.png",320,240 F,0,377131,377304,0,1 M,0,377131,377651,679,322,299,322 F,0,377304,377651,1 M,0,377651,377824,299,322 F,0,377651,377824,1,0
Sprite,Foreground,Centre,"SB\don.png",320,240 F,0,377189,377362,0,1 M,0,377189,377709,679,322,299,322 F,0,377362,377709,1 M,0,377709,377882,299,322 F,0,377709,377882,1,0
Sprite,Foreground,Centre,"SB\don.png",320,240 F,0,377247,377420,0,1 M,0,377247,377767,679,322,299,322 F,0,377420,377767,1 M,0,377767,377940,299,322 F,0,377767,377940,1,0
Sprite,Foreground,Centre,"SB\don.png",320,240 F,0,377305,377478,0,1 M,0,377305,377825,679,322,299,322 F,0,377478,377825,1 M,0,377825,377998,299,322 F,0,377825,377998,1,0
Sprite,Foreground,Centre,"SB\don.png",320,240 F,0,377362,377535,0,1 M,0,377362,377882,679,322,299,322 F,0,377535,377882,1 M,0,377882,378055,299,322 F,0,377882,378055,1,0
Sprite,Foreground,Centre,"SB\don.png",320,240 F,0,377420,377593,0,1 M,0,377420,377940,679,322,299,322 F,0,377593,377940,1 M,0,377940,378113,299,322 F,0,377940,378113,1,0
Sprite,Foreground,Centre,"SB\don.png",320,240 F,0,377478,377651,0,1 M,0,377478,377998,679,322,299,322 F,0,377651,377998,1 M,0,377998,378171,299,322 F,0,377998,378171,1,0
Sprite,Foreground,Centre,"SB\don.png",320,240 F,0,377594,377767,0,1 M,0,377594,378114,679,322,299,322 F,0,377767,378114,1 M,0,378114,378287,299,322 F,0,378114,378287,1,0
Sprite,Foreground,Centre,"SB\don.png",320,240 F,0,377536,377709,0,1 M,0,377536,378056,679,322,299,322 F,0,377709,378056,1 M,0,378056,378229,299,322 F,0,378056,378229,1,0
Sprite,Foreground,Centre,"SB\don.png",320,240 F,0,377651,377824,0,1 M,0,377651,378171,679,322,299,322 F,0,377824,378171,1 M,0,378171,378344,299,322 F,0,378171,378344,1,0
Sprite,Foreground,Centre,"SB\don.png",320,240 F,0,377709,377882,0,1 M,0,377709,378229,679,322,299,322 F,0,377882,378229,1 M,0,378229,378402,299,322 F,0,378229,378402,1,0
Sprite,Foreground,Centre,"SB\don.png",320,240 F,0,377767,377940,0,1 M,0,377767,378287,679,322,299,322 F,0,377940,378287,1 M,0,378287,378460,299,322 F,0,378287,378460,1,0
Sprite,Foreground,Centre,"SB\don.png",320,240 F,0,377825,377998,0,1 M,0,377825,378345,679,322,299,322 F,0,377998,378345,1 M,0,378345,378518,299,322 F,0,378345,378518,1,0
Sprite,Foreground,Centre,"SB\don.png",320,240 F,0,377883,378056,0,1 M,0,377883,378403,679,322,299,322 F,0,378056,378403,1 M,0,378403,378576,299,322 F,0,378403,378576,1,0
Sprite,Foreground,Centre,"SB\don.png",320,240 F,0,377941,378114,0,1 M,0,377941,378461,679,322,299,322 F,0,378114,378461,1 M,0,378461,378634,299,322 F,0,378461,378634,1,0
Sprite,Foreground,Centre,"SB\don.png",320,240 F,0,377998,378171,0,1 M,0,377998,378518,679,322,299,322 F,0,378171,378518,1 M,0,378518,378691,299,322 F,0,378518,378691,1,0
//Storyboard Sound Samples

[TimingPoints]
1178,346.820809248555,4,1,0,70,1,0
45571,-100,4,2,0,5,0,0
48345,-1,4,1,0,70,0,1
51120,-100,4,2,0,5,0,0
53894,-1,4,1,0,70,0,1
56669,-100,4,2,0,5,0,0
59443,-1,4,1,0,70,0,1
62218,-100,4,1,0,70,0,0
67073,-1,4,1,0,70,0,1
67767,-100,4,1,0,70,0,0
72969,-1,4,1,0,70,0,1
73316,-100,4,1,0,70,0,0
78519,-1,4,1,0,70,0,1
78865,-100,4,1,0,70,0,0
84068,-1,4,1,0,70,0,1
84414,-100,4,1,0,70,0,0
88576,-1,4,1,0,70,0,1
89964,-100,4,1,0,70,0,0
156553,-1,4,1,0,80,0,1
177362,-109.89010989011,4,1,0,70,0,0
178750,-100,4,1,0,70,0,0
223143,-92,4,1,0,70,0,1
224530,-86,4,1,0,70,0,1
225917,-81.3333333333333,4,1,0,70,0,1
227305,-77,4,1,0,70,0,1
228692,-74,4,1,0,70,0,1
230079,-71,4,1,0,70,0,1
231467,-68.9655172413793,4,1,0,70,0,1
232853,-64.728,4,1,0,70,0,0
232854,-64.728,4,1,0,70,0,1
233200,-64.728,4,1,0,70,0,0
233201,-64.728,4,1,0,70,0,1
233546,-64.728,4,1,0,70,0,0
233547,-64.728,4,1,0,70,0,1
234154,-64.728,4,1,0,70,0,0
234241,-60,4,1,0,70,0,1
235628,-57,4,1,0,70,0,1
237016,-52.5,4,1,0,70,0,1
238403,-47.8,4,1,0,70,0,1
239790,-43,4,1,0,70,0,1
241178,-39,4,1,0,70,0,1
242565,-36,4,1,0,70,0,1
243951,-33.333,4,1,0,70,0,0
243952,-33.333,4,1,0,70,0,1
244211,-33.333,4,1,0,70,0,0
244212,-33.333,4,1,0,70,0,1
244471,-33.333,4,1,0,70,0,0
244472,-33.333,4,1,0,70,0,1
245339,-100,4,1,0,70,0,0
250542,-1,4,1,0,70,0,1
250888,-100,4,1,0,70,0,0
256091,-1,4,1,0,70,0,1
256438,-100,4,1,0,70,0,0
261640,-1,4,1,0,70,0,1
261987,-100,4,1,0,70,0,0
267536,-50,4,2,0,5,0,0
278634,-100,4,1,0,70,0,0
289039,-90.9090909090909,4,1,0,70,0,0
289125,-83.3333333333333,4,1,0,70,0,0
289212,-76.9230769230769,4,1,0,70,0,0
289299,-71.4285714285714,4,1,0,70,0,0
289386,-66.6666666666667,4,1,0,70,0,0
289472,-62.5,4,1,0,70,0,0
289559,-58.8235294117647,4,1,0,70,0,0
289646,-55.5555555555556,4,1,0,70,0,0
289732,-1,4,1,0,80,0,1
311929,-1,4,1,0,80,0,0
314704,-1,4,1,0,80,0,1
317478,-1,4,1,0,80,0,0
320253,-1,4,1,0,80,0,1
323027,-1,4,1,0,80,0,0
325802,-1,4,1,0,80,0,1
334125,-25,4,2,0,5,0,0
345202,-25,4,1,0,80,0,0
345224,-1,4,1,0,80,0,1
378519,-1,4,1,0,80,0,0

[Colours]
Combo1 : 0,255,0
Combo2 : 0,255,255
Combo3 : 255,190,0
Combo4 : 128,0,255
Combo5 : 255,0,128
Combo6 : 0,128,255

[HitObjects]
248,184,42796,5,0,0:0:0:0:
264,188,48519,5,0,0:0:0:0:
264,188,48692,1,0,0:0:0:0:
264,188,48865,1,0,0:0:0:0:
264,188,49039,1,2,0:0:0:0:
264,188,49212,1,0,0:0:0:0:
264,188,49559,1,0,0:0:0:0:
264,188,49732,1,2,0:0:0:0:
264,188,49906,1,0,0:0:0:0:
264,188,50079,1,2,0:0:0:0:
264,188,50253,1,2,0:0:0:0:
264,188,50599,1,2,0:0:0:0:
264,188,50773,1,2,0:0:0:0:
264,188,50946,1,2,0:0:0:0:
256,192,54068,1,0,0:0:0:0:
256,192,54241,1,0,0:0:0:0:
256,192,54414,1,0,0:0:0:0:
256,192,54588,1,2,0:0:0:0:
256,192,54761,1,0,0:0:0:0:
256,192,55108,1,2,0:0:0:0:
256,192,55282,1,0,0:0:0:0:
256,192,55455,1,2,0:0:0:0:
256,192,55628,1,2,0:0:0:0:
256,192,55802,1,0,0:0:0:0:
256,192,55975,1,2,0:0:0:0:
256,192,56149,1,0,0:0:0:0:
256,192,56322,1,0,0:0:0:0:
256,192,56495,1,2,0:0:0:0:
264,188,59617,5,0,0:0:0:0:
264,188,59790,1,0,0:0:0:0:
264,188,59964,1,0,0:0:0:0:
264,188,60137,1,2,0:0:0:0:
264,188,60310,1,0,0:0:0:0:
264,188,60484,1,0,0:0:0:0:
264,188,60657,1,2,0:0:0:0:
264,188,60831,1,0,0:0:0:0:
264,188,61004,1,2,0:0:0:0:
264,188,61178,1,0,0:0:0:0:
264,188,61351,1,2,0:0:0:0:
264,188,61698,1,0,0:0:0:0:
264,188,61871,1,2,0:0:0:0:
264,188,62045,1,2,0:0:0:0:
264,188,62391,1,0,0:0:0:0:
264,188,62565,1,0,0:0:0:0:
264,188,62738,1,2,0:0:0:0:
264,188,62912,1,2,0:0:0:0:
264,188,63258,1,0,0:0:0:0:
264,188,63432,1,2,0:0:0:0:
264,188,63779,1,2,0:0:0:0:
264,188,64125,1,0,0:0:0:0:
264,188,64299,1,2,0:0:0:0:
264,188,64472,1,0,0:0:0:0:
264,188,64646,1,0,0:0:0:0:
264,188,64819,1,2,0:0:0:0:
264,188,65339,1,2,0:0:0:0:
264,188,66033,1,2,0:0:0:0:
264,188,66380,1,4,0:0:0:0:
256,192,67073,5,0,0:0:0:0:
256,192,67131,1,0,0:0:0:0:
256,192,67189,1,0,0:0:0:0:
256,192,67247,1,0,0:0:0:0:
256,192,67305,1,0,0:0:0:0:
256,192,67362,1,0,0:0:0:0:
256,192,67420,1,0,0:0:0:0:
256,192,67478,1,0,0:0:0:0:
256,192,67536,1,0,0:0:0:0:
256,192,67594,1,0,0:0:0:0:
256,192,67651,1,0,0:0:0:0:
256,192,67709,1,0,0:0:0:0:
256,192,67767,5,0,0:0:0:0:
264,188,67941,1,2,0:0:0:0:
256,192,68114,1,0,0:0:0:0:
256,192,68287,1,0,0:0:0:0:
256,192,68374,1,2,0:0:0:0:
256,192,68547,1,0,0:0:0:0:
256,192,68634,1,0,0:0:0:0:
256,192,68808,1,2,0:0:0:0:
256,192,68981,1,2,0:0:0:0:
256,192,69154,1,0,0:0:0:0:
256,192,69241,1,0,0:0:0:0:
256,192,69328,1,2,0:0:0:0:
264,188,69501,1,0,0:0:0:0:
256,192,69675,1,0,0:0:0:0:
256,192,69761,1,2,0:0:0:0:
256,192,69935,1,2,0:0:0:0:
256,192,70021,1,0,0:0:0:0:
256,192,70195,1,2,0:0:0:0:
256,192,70368,1,0,0:0:0:0:
256,192,70542,1,0,0:0:0:0:
256,192,70715,1,2,0:0:0:0:
256,192,70888,1,0,0:0:0:0:
264,188,71062,1,0,0:0:0:0:
256,192,71149,1,2,0:0:0:0:
256,192,71322,1,0,0:0:0:0:
256,192,71409,1,0,0:0:0:0:
256,192,71582,1,2,0:0:0:0:
256,192,71756,1,2,0:0:0:0:
256,192,71929,1,0,0:0:0:0:
256,192,72016,1,0,0:0:0:0:
256,192,72102,1,2,0:0:0:0:
256,192,72276,1,0,0:0:0:0:
256,192,72449,1,0,0:0:0:0:
264,188,72536,1,2,0:0:0:0:
256,192,72709,1,2,0:0:0:0:
256,192,72796,1,0,0:0:0:0:
256,192,72969,5,2,0:0:0:0:
256,192,73056,1,2,0:0:0:0:
256,192,73143,1,2,0:0:0:0:
256,192,73230,1,2,0:0:0:0:
256,192,73316,5,0,0:0:0:0:
264,188,73490,1,2,0:0:0:0:
256,192,73663,1,0,0:0:0:0:
256,192,73836,1,0,0:0:0:0:
256,192,73923,1,2,0:0:0:0:
256,192,74096,1,0,0:0:0:0:
256,192,74183,1,0,0:0:0:0:
256,192,74357,1,2,0:0:0:0:
256,192,74530,1,2,0:0:0:0:
256,192,74703,1,0,0:0:0:0:
256,192,74790,1,0,0:0:0:0:
256,192,74877,1,2,0:0:0:0:
264,188,75050,1,0,0:0:0:0:
256,192,75224,1,0,0:0:0:0:
256,192,75310,1,2,0:0:0:0:
256,192,75484,1,2,0:0:0:0:
256,192,75570,1,0,0:0:0:0:
256,192,75744,1,2,0:0:0:0:
256,192,75917,1,0,0:0:0:0:
256,192,76091,1,0,0:0:0:0:
256,192,76264,1,2,0:0:0:0:
256,192,76437,1,0,0:0:0:0:
264,188,76611,1,0,0:0:0:0:
256,192,76698,1,2,0:0:0:0:
256,192,76871,1,0,0:0:0:0:
256,192,76958,1,0,0:0:0:0:
256,192,77131,1,2,0:0:0:0:
256,192,77305,1,2,0:0:0:0:
256,192,77478,1,0,0:0:0:0:
256,192,77565,1,0,0:0:0:0:
256,192,77651,1,2,0:0:0:0:
256,192,77825,1,0,0:0:0:0:
256,192,77998,1,0,0:0:0:0:
264,188,78085,1,2,0:0:0:0:
256,192,78258,1,2,0:0:0:0:
256,192,78345,1,0,0:0:0:0:
256,184,78519,5,2,0:0:0:0:
256,184,78605,1,2,0:0:0:0:
256,184,78692,1,2,0:0:0:0:
256,192,78865,5,0,0:0:0:0:
264,188,79039,1,2,0:0:0:0:
256,192,79212,1,0,0:0:0:0:
256,192,79386,1,0,0:0:0:0:
256,192,79472,1,2,0:0:0:0:
256,192,79646,1,0,0:0:0:0:
256,192,79732,1,0,0:0:0:0:
256,192,79906,1,2,0:0:0:0:
256,192,80079,1,2,0:0:0:0:
256,192,80253,1,0,0:0:0:0:
256,192,80339,1,0,0:0:0:0:
256,192,80426,1,2,0:0:0:0:
264,188,80599,1,0,0:0:0:0:
256,192,80773,1,0,0:0:0:0:
256,192,80860,1,2,0:0:0:0:
256,192,81033,1,2,0:0:0:0:
256,192,81120,1,0,0:0:0:0:
256,192,81293,1,2,0:0:0:0:
256,192,81467,1,0,0:0:0:0:
256,192,81640,1,0,0:0:0:0:
256,192,81813,1,2,0:0:0:0:
256,192,81987,1,0,0:0:0:0:
264,188,82160,1,0,0:0:0:0:
256,192,82247,1,2,0:0:0:0:
256,192,82420,1,0,0:0:0:0:
256,192,82507,1,0,0:0:0:0:
256,192,82680,1,2,0:0:0:0:
256,192,82854,1,2,0:0:0:0:
256,192,83027,1,0,0:0:0:0:
256,192,83114,1,0,0:0:0:0:
256,192,83201,1,2,0:0:0:0:
256,192,83374,1,0,0:0:0:0:
256,192,83547,1,0,0:0:0:0:
264,188,83634,1,2,0:0:0:0:
256,192,83808,1,2,0:0:0:0:
256,192,83894,1,0,0:0:0:0:
256,192,84068,5,2,0:0:0:0:
256,192,84154,1,2,0:0:0:0:
256,192,84241,1,2,0:0:0:0:
256,192,84328,1,2,0:0:0:0:
256,192,84414,5,0,0:0:0:0:
264,188,84588,1,2,0:0:0:0:
256,192,84761,1,0,0:0:0:0:
256,192,84935,1,0,0:0:0:0:
256,192,85021,1,2,0:0:0:0:
256,192,85195,1,0,0:0:0:0:
256,192,85282,1,0,0:0:0:0:
256,192,85455,1,2,0:0:0:0:
256,192,85628,1,2,0:0:0:0:
256,192,85802,1,0,0:0:0:0:
256,192,85888,1,0,0:0:0:0:
256,192,85975,1,2,0:0:0:0:
264,188,86149,1,0,0:0:0:0:
256,192,86322,1,0,0:0:0:0:
256,192,86409,1,2,0:0:0:0:
256,192,86582,1,2,0:0:0:0:
256,192,86669,1,0,0:0:0:0:
256,192,86842,1,2,0:0:0:0:
256,192,87016,1,0,0:0:0:0:
256,192,87189,1,2,0:0:0:0:
256,192,87276,1,0,0:0:0:0:
256,192,87362,1,0,0:0:0:0:
256,192,87449,1,0,0:0:0:0:
256,192,87536,1,2,0:0:0:0:
256,192,87623,1,0,0:0:0:0:
264,188,87709,1,0,0:0:0:0:
256,192,87796,1,0,0:0:0:0:
256,192,87883,1,2,0:0:0:0:
256,192,87969,1,0,0:0:0:0:
256,192,88056,1,0,0:0:0:0:
256,192,88143,1,0,0:0:0:0:
256,192,88230,1,2,0:0:0:0:
256,192,88316,1,0,0:0:0:0:
264,188,88403,1,0,0:0:0:0:
256,192,88490,1,0,0:0:0:0:
256,192,88576,5,0,0:0:0:0:
256,192,88634,1,0,0:0:0:0:
256,192,88692,1,0,0:0:0:0:
256,192,88750,1,0,0:0:0:0:
256,192,88808,1,0,0:0:0:0:
256,192,88865,1,0,0:0:0:0:
256,192,88923,1,0,0:0:0:0:
256,192,88981,1,0,0:0:0:0:
256,192,89039,1,0,0:0:0:0:
256,192,89097,1,0,0:0:0:0:
256,192,89154,1,0,0:0:0:0:
256,192,89212,1,0,0:0:0:0:
264,188,89270,1,0,0:0:0:0:
256,192,89328,1,0,0:0:0:0:
256,192,89386,1,0,0:0:0:0:
256,192,89443,1,0,0:0:0:0:
256,192,89501,1,0,0:0:0:0:
256,192,89559,1,0,0:0:0:0:
256,192,89617,1,0,0:0:0:0:
256,192,89964,1,4,0:0:0:0:
256,192,90137,1,0,0:0:0:0:
256,192,90310,1,2,0:0:0:0:
256,192,90484,1,2,0:0:0:0:
256,192,90657,1,0,0:0:0:0:
256,192,91004,1,0,0:0:0:0:
256,192,91178,1,2,0:0:0:0:
256,192,91524,1,2,0:0:0:0:
256,192,91871,1,2,0:0:0:0:
256,192,92218,1,0,0:0:0:0:
256,192,92391,1,0,0:0:0:0:
256,192,92565,1,2,0:0:0:0:
256,192,92912,1,0,0:0:0:0:
256,192,93085,1,0,0:0:0:0:
256,192,93258,1,0,0:0:0:0:
256,192,93605,1,2,0:0:0:0:
256,192,93779,1,2,0:0:0:0:
256,192,93952,1,2,0:0:0:0:
256,192,94299,1,0,0:0:0:0:
256,192,94646,1,0,0:0:0:0:
256,192,94819,1,2,0:0:0:0:
256,192,94993,1,2,0:0:0:0:
256,192,95166,1,0,0:0:0:0:
256,192,95686,1,0,0:0:0:0:
256,192,95860,1,0,0:0:0:0:
256,192,96033,1,0,0:0:0:0:
256,192,96206,1,2,0:0:0:0:
256,192,96380,1,0,0:0:0:0:
256,192,96553,1,2,0:0:0:0:
256,192,96727,1,2,0:0:0:0:
256,192,97073,1,2,0:0:0:0:
256,192,97247,1,2,0:0:0:0:
256,192,97420,1,2,0:0:0:0:
256,192,97594,1,0,0:0:0:0:
256,192,97767,1,2,0:0:0:0:
256,192,97941,1,2,0:0:0:0:
256,192,98461,1,0,0:0:0:0:
256,192,98634,1,0,0:0:0:0:
256,192,98808,1,2,0:0:0:0:
256,192,99154,1,0,0:0:0:0:
256,192,99328,1,0,0:0:0:0:
256,192,99501,1,2,0:0:0:0:
256,192,99848,1,0,0:0:0:0:
256,192,100021,1,0,0:0:0:0:
256,192,100195,1,0,0:0:0:0:
256,192,100368,1,2,0:0:0:0:
256,192,100542,1,2,0:0:0:0:
256,192,100715,1,2,0:0:0:0:
256,192,101062,1,4,0:0:0:0:
256,192,101235,1,2,0:0:0:0:
256,192,101582,1,2,0:0:0:0:
256,192,101756,1,0,0:0:0:0:
256,192,102102,1,0,0:0:0:0:
256,192,102276,1,2,0:0:0:0:
256,192,102623,1,2,0:0:0:0:
256,192,102969,1,2,0:0:0:0:
256,192,103316,1,0,0:0:0:0:
256,192,103490,1,2,0:0:0:0:
256,192,103663,1,2,0:0:0:0:
256,192,104010,1,0,0:0:0:0:
256,192,104183,1,0,0:0:0:0:
256,192,104357,1,0,0:0:0:0:
256,192,104530,1,0,0:0:0:0:
256,192,104704,1,2,0:0:0:0:
256,192,104877,1,2,0:0:0:0:
256,192,105050,1,2,0:0:0:0:
256,192,105397,1,0,0:0:0:0:
256,192,105571,1,0,0:0:0:0:
256,192,105744,1,2,0:0:0:0:
256,192,105917,1,0,0:0:0:0:
256,192,106091,1,2,0:0:0:0:
256,192,106264,1,2,0:0:0:0:
256,192,106438,12,0,108692,0:0:0:0:
256,200,108865,5,0,0:0:0:0:
256,200,109039,1,2,0:0:0:0:
256,192,109212,12,2,111813,0:0:0:0:
260,180,112160,5,0,0:0:0:0:
260,180,112334,1,0,0:0:0:0:
260,180,112507,1,2,0:0:0:0:
260,180,112680,1,0,0:0:0:0:
260,180,112854,1,2,0:0:0:0:
260,180,113027,1,2,0:0:0:0:
260,180,113201,1,0,0:0:0:0:
260,180,113374,1,2,0:0:0:0:
260,180,113547,1,0,0:0:0:0:
260,180,113721,1,2,0:0:0:0:
260,180,113894,1,0,0:0:0:0:
260,180,114068,1,0,0:0:0:0:
260,180,114241,1,2,0:0:0:0:
260,180,114588,1,2,0:0:0:0:
260,180,114761,1,2,0:0:0:0:
260,180,114935,1,0,0:0:0:0:
260,180,115108,1,2,0:0:0:0:
260,180,115282,1,0,0:0:0:0:
260,180,115455,1,2,0:0:0:0:
260,180,115628,1,2,0:0:0:0:
260,180,115802,1,2,0:0:0:0:
260,180,115975,1,0,0:0:0:0:
260,180,116149,1,2,0:0:0:0:
260,180,116322,1,0,0:0:0:0:
260,180,116495,1,0,0:0:0:0:
260,180,116669,1,2,0:0:0:0:
260,180,116842,1,2,0:0:0:0:
260,180,117016,1,0,0:0:0:0:
260,180,117189,1,2,0:0:0:0:
260,180,117362,1,2,0:0:0:0:
260,180,117536,1,0,0:0:0:0:
260,180,117709,1,2,0:0:0:0:
260,180,117883,1,0,0:0:0:0:
260,180,118056,1,0,0:0:0:0:
260,180,118230,1,2,0:0:0:0:
260,180,118403,1,0,0:0:0:0:
260,180,118576,1,0,0:0:0:0:
260,180,118750,1,2,0:0:0:0:
260,180,118923,1,0,0:0:0:0:
260,180,119097,1,2,0:0:0:0:
260,180,119270,1,0,0:0:0:0:
260,180,119443,1,0,0:0:0:0:
260,180,119617,1,2,0:0:0:0:
260,180,119790,1,0,0:0:0:0:
260,180,119964,1,0,0:0:0:0:
260,180,120137,1,2,0:0:0:0:
260,180,120310,1,0,0:0:0:0:
260,180,120484,1,2,0:0:0:0:
260,180,120657,1,2,0:0:0:0:
260,180,120831,1,2,0:0:0:0:
260,180,121004,1,0,0:0:0:0:
260,180,121178,1,0,0:0:0:0:
260,180,121351,1,2,0:0:0:0:
260,180,121524,1,0,0:0:0:0:
260,180,121698,1,2,0:0:0:0:
260,180,121871,1,2,0:0:0:0:
260,180,122045,1,0,0:0:0:0:
260,180,122218,1,2,0:0:0:0:
260,180,122391,1,0,0:0:0:0:
260,180,122565,1,2,0:0:0:0:
260,180,122738,1,6,0:0:0:0:
260,180,123258,1,0,0:0:0:0:
260,180,123432,1,0,0:0:0:0:
260,180,123605,1,2,0:0:0:0:
260,180,123779,1,0,0:0:0:0:
260,180,123952,1,2,0:0:0:0:
260,180,124125,1,2,0:0:0:0:
260,180,124299,1,0,0:0:0:0:
260,180,124472,1,2,0:0:0:0:
260,180,124646,1,0,0:0:0:0:
260,180,124819,1,2,0:0:0:0:
260,180,124993,1,0,0:0:0:0:
260,180,125166,1,0,0:0:0:0:
260,180,125339,1,2,0:0:0:0:
260,180,125686,1,2,0:0:0:0:
260,180,125860,1,2,0:0:0:0:
260,180,126033,1,0,0:0:0:0:
260,180,126206,1,2,0:0:0:0:
260,180,126380,1,0,0:0:0:0:
260,180,126553,1,2,0:0:0:0:
260,180,126727,1,2,0:0:0:0:
260,180,126900,1,2,0:0:0:0:
260,180,127073,1,0,0:0:0:0:
260,180,127247,1,2,0:0:0:0:
260,180,127420,1,0,0:0:0:0:
260,180,127594,1,0,0:0:0:0:
260,180,127767,1,2,0:0:0:0:
260,180,127941,1,2,0:0:0:0:
260,180,128114,1,0,0:0:0:0:
260,180,128287,1,2,0:0:0:0:
260,180,128461,1,2,0:0:0:0:
260,180,128634,1,0,0:0:0:0:
260,180,128808,1,2,0:0:0:0:
260,180,128981,1,0,0:0:0:0:
260,180,129154,1,0,0:0:0:0:
260,180,129328,1,2,0:0:0:0:
260,180,129501,1,0,0:0:0:0:
260,180,129675,1,0,0:0:0:0:
260,180,129848,1,2,0:0:0:0:
260,180,130021,1,0,0:0:0:0:
260,180,130195,1,2,0:0:0:0:
260,180,130368,1,0,0:0:0:0:
260,180,130542,1,0,0:0:0:0:
260,180,130715,1,2,0:0:0:0:
260,180,130888,1,0,0:0:0:0:
260,180,131062,1,0,0:0:0:0:
260,180,131235,1,2,0:0:0:0:
260,180,131409,1,0,0:0:0:0:
260,180,131582,1,2,0:0:0:0:
260,180,131756,1,2,0:0:0:0:
260,180,131929,1,2,0:0:0:0:
260,180,132102,1,0,0:0:0:0:
260,180,132276,1,0,0:0:0:0:
260,180,132449,1,2,0:0:0:0:
260,180,132623,1,0,0:0:0:0:
260,180,132796,1,2,0:0:0:0:
260,180,132969,1,0,0:0:0:0:
260,180,133143,1,2,0:0:0:0:
260,180,133316,1,2,0:0:0:0:
260,180,133490,1,2,0:0:0:0:
260,180,133663,1,0,0:0:0:0:
260,180,133836,1,2,0:0:0:0:
260,180,134010,1,2,0:0:0:0:
260,180,134183,1,2,0:0:0:0:
256,192,134357,12,0,139559,0:0:0:0:
256,192,139906,12,0,143721,0:0:0:0:
248,188,144068,5,2,0:0:0:0:
248,188,144761,1,2,0:0:0:0:
248,188,144935,1,0,0:0:0:0:
248,188,145021,1,2,0:0:0:0:
248,188,145195,1,2,0:0:0:0:
248,188,145282,1,0,0:0:0:0:
248,188,145368,1,0,0:0:0:0:
248,188,145455,1,2,0:0:0:0:
248,188,145628,1,0,0:0:0:0:
248,188,145715,1,0,0:0:0:0:
248,188,145975,1,0,0:0:0:0:
248,188,146062,1,0,0:0:0:0:
248,188,146149,1,2,0:0:0:0:
248,188,146409,1,0,0:0:0:0:
248,188,146669,1,0,0:0:0:0:
248,188,146756,1,2,0:0:0:0:
248,188,146842,1,2,0:0:0:0:
248,188,147102,1,0,0:0:0:0:
248,188,147362,1,0,0:0:0:0:
248,188,147449,1,0,0:0:0:0:
248,188,147536,1,2,0:0:0:0:
248,188,147709,1,0,0:0:0:0:
248,188,147796,1,0,0:0:0:0:
248,188,147969,1,0,0:0:0:0:
248,188,148056,1,0,0:0:0:0:
248,188,148230,1,2,0:0:0:0:
248,188,148490,1,0,0:0:0:0:
248,188,148750,1,0,0:0:0:0:
248,188,148923,1,2,0:0:0:0:
248,188,149183,1,0,0:0:0:0:
248,188,149443,1,0,0:0:0:0:
248,188,149617,1,2,0:0:0:0:
248,188,149790,1,0,0:0:0:0:
248,188,149877,1,2,0:0:0:0:
248,188,150050,1,2,0:0:0:0:
248,188,150137,1,0,0:0:0:0:
248,188,150310,1,2,0:0:0:0:
248,188,150484,1,0,0:0:0:0:
248,188,150571,1,2,0:0:0:0:
248,188,150744,1,0,0:0:0:0:
248,188,150831,1,2,0:0:0:0:
248,188,150917,1,2,0:0:0:0:
248,188,151004,1,2,0:0:0:0:
248,188,151178,1,0,0:0:0:0:
248,188,151264,1,0,0:0:0:0:
248,188,151524,1,0,0:0:0:0:
248,188,151611,1,0,0:0:0:0:
248,188,151698,1,2,0:0:0:0:
248,188,151871,1,0,0:0:0:0:
248,188,151958,1,0,0:0:0:0:
248,188,152131,1,0,0:0:0:0:
248,188,152218,1,0,0:0:0:0:
248,188,152305,1,2,0:0:0:0:
248,188,152391,1,2,0:0:0:0:
248,188,152565,1,0,0:0:0:0:
248,188,152651,1,0,0:0:0:0:
248,188,152825,1,0,0:0:0:0:
248,188,152912,1,0,0:0:0:0:
248,188,152998,1,0,0:0:0:0:
248,188,153085,1,2,0:0:0:0:
248,188,153258,1,0,0:0:0:0:
248,188,153345,1,0,0:0:0:0:
248,188,153519,1,0,0:0:0:0:
248,188,153605,1,0,0:0:0:0:
248,188,153779,1,2,0:0:0:0:
248,188,153865,1,0,0:0:0:0:
248,188,153952,1,0,0:0:0:0:
248,188,154039,1,0,0:0:0:0:
248,188,154125,1,2,0:0:0:0:
248,188,154211,1,0,0:0:0:0:
248,188,154298,1,0,0:0:0:0:
248,188,154385,1,0,0:0:0:0:
248,188,154472,1,2,0:0:0:0:
248,188,154558,1,0,0:0:0:0:
248,188,154645,1,0,0:0:0:0:
248,188,154732,1,0,0:0:0:0:
248,188,154819,1,2,0:0:0:0:
248,188,154905,1,0,0:0:0:0:
248,188,154992,1,0,0:0:0:0:
248,188,155079,1,0,0:0:0:0:
68,116,155166,2,0,L|500:184,1,420
256,184,156553,5,0,0:0:0:0:
256,184,156813,1,2,0:0:0:0:
256,184,157073,1,0,0:0:0:0:
256,184,157247,1,0,0:0:0:0:
256,184,157507,1,2,0:0:0:0:
256,184,157767,1,2,0:0:0:0:
256,184,157854,1,0,0:0:0:0:
256,184,157941,1,0,0:0:0:0:
256,184,158201,1,2,0:0:0:0:
256,184,158461,1,2,0:0:0:0:
256,184,158634,1,0,0:0:0:0:
256,184,158894,1,2,0:0:0:0:
256,184,159154,1,2,0:0:0:0:
256,184,159328,1,0,0:0:0:0:
256,184,159588,1,2,0:0:0:0:
256,184,159848,1,2,0:0:0:0:
256,184,160021,1,0,0:0:0:0:
256,184,160282,1,2,0:0:0:0:
256,184,160542,1,2,0:0:0:0:
256,184,160715,1,0,0:0:0:0:
256,184,160888,1,2,0:0:0:0:
256,184,160975,1,0,0:0:0:0:
256,184,161149,1,2,0:0:0:0:
256,184,161235,1,0,0:0:0:0:
256,184,161409,1,0,0:0:0:0:
256,184,161582,1,2,0:0:0:0:
256,184,161669,1,0,0:0:0:0:
256,184,161842,1,0,0:0:0:0:
256,184,161929,1,2,0:0:0:0:
256,184,162016,1,0,0:0:0:0:
256,184,162102,1,0,0:0:0:0:
256,184,162362,1,2,0:0:0:0:
256,184,162622,1,0,0:0:0:0:
256,184,162796,1,0,0:0:0:0:
256,184,163056,1,2,0:0:0:0:
256,184,163316,1,2,0:0:0:0:
256,184,163403,1,0,0:0:0:0:
256,184,163490,1,0,0:0:0:0:
256,184,163750,1,2,0:0:0:0:
256,184,164010,1,2,0:0:0:0:
256,184,164183,1,0,0:0:0:0:
256,184,164443,1,2,0:0:0:0:
256,184,164703,1,2,0:0:0:0:
256,184,164877,1,0,0:0:0:0:
256,184,165137,1,2,0:0:0:0:
256,184,165397,1,2,0:0:0:0:
256,184,165570,1,0,0:0:0:0:
256,184,165831,1,2,0:0:0:0:
256,184,166091,1,2,0:0:0:0:
256,184,166264,1,0,0:0:0:0:
256,184,166437,1,2,0:0:0:0:
256,184,166524,1,0,0:0:0:0:
256,184,166698,1,2,0:0:0:0:
256,184,166784,1,0,0:0:0:0:
256,184,166958,1,0,0:0:0:0:
256,184,167131,1,2,0:0:0:0:
256,184,167218,1,0,0:0:0:0:
256,184,167391,1,0,0:0:0:0:
256,184,167478,1,2,0:0:0:0:
256,184,167565,1,0,0:0:0:0:
256,184,167651,1,0,0:0:0:0:
256,184,167825,1,2,0:0:0:0:
256,184,167912,1,2,0:0:0:0:
256,184,168172,1,2,0:0:0:0:
256,184,168258,1,2,0:0:0:0:
256,184,168345,1,0,0:0:0:0:
256,184,168519,1,2,0:0:0:0:
256,184,168605,1,2,0:0:0:0:
256,184,168865,1,2,0:0:0:0:
256,184,168952,1,0,0:0:0:0:
256,184,169039,1,0,0:0:0:0:
256,184,169212,1,2,0:0:0:0:
256,184,169299,1,2,0:0:0:0:
256,184,169559,1,0,0:0:0:0:
256,184,169646,1,2,0:0:0:0:
256,184,169732,1,0,0:0:0:0:
256,184,169906,1,2,0:0:0:0:
256,184,169993,1,2,0:0:0:0:
256,184,170253,1,2,0:0:0:0:
256,184,170426,1,0,0:0:0:0:
256,184,170599,1,2,0:0:0:0:
256,184,170686,1,2,0:0:0:0:
256,184,170860,1,2,0:0:0:0:
256,184,170946,1,2,0:0:0:0:
256,184,171033,1,2,0:0:0:0:
256,184,171120,1,0,0:0:0:0:
256,184,171293,1,2,0:0:0:0:
256,184,171380,1,2,0:0:0:0:
256,184,171553,1,2,0:0:0:0:
256,184,171640,1,2,0:0:0:0:
256,184,171727,1,0,0:0:0:0:
256,184,171813,1,0,0:0:0:0:
256,184,171987,1,2,0:0:0:0:
256,184,172073,1,2,0:0:0:0:
256,184,172247,1,2,0:0:0:0:
256,184,172334,1,0,0:0:0:0:
256,184,172420,1,0,0:0:0:0:
256,184,172507,1,2,0:0:0:0:
256,184,172680,1,2,0:0:0:0:
256,184,172767,1,0,0:0:0:0:
256,184,172941,1,0,0:0:0:0:
256,184,173027,1,2,0:0:0:0:
256,184,173114,1,0,0:0:0:0:
256,184,173201,1,0,0:0:0:0:
256,184,173374,1,2,0:0:0:0:
256,184,173461,1,2,0:0:0:0:
256,184,173721,1,2,0:0:0:0:
256,184,173808,1,2,0:0:0:0:
256,184,173894,1,0,0:0:0:0:
256,184,174068,1,2,0:0:0:0:
256,184,174154,1,2,0:0:0:0:
256,184,174414,1,2,0:0:0:0:
256,184,174501,1,0,0:0:0:0:
256,184,174588,1,0,0:0:0:0:
256,184,174761,1,2,0:0:0:0:
256,184,174848,1,2,0:0:0:0:
256,184,175108,1,0,0:0:0:0:
256,184,175195,1,2,0:0:0:0:
256,184,175282,1,0,0:0:0:0:
256,184,175455,1,2,0:0:0:0:
256,184,175542,1,2,0:0:0:0:
256,184,175802,1,2,0:0:0:0:
256,184,175975,1,0,0:0:0:0:
256,184,176149,1,2,0:0:0:0:
256,184,176235,1,2,0:0:0:0:
256,184,176409,1,2,0:0:0:0:
256,184,176495,1,2,0:0:0:0:
256,184,176582,1,2,0:0:0:0:
256,184,176669,1,0,0:0:0:0:
256,184,176842,1,2,0:0:0:0:
256,184,176929,1,2,0:0:0:0:
256,184,177102,1,2,0:0:0:0:
256,184,177189,1,2,0:0:0:0:
256,184,177276,1,0,0:0:0:0:
52,56,177362,2,0,L|432:140,1,382.200012830201
260,180,178750,5,0,0:0:0:0:
260,180,179010,1,0,0:0:0:0:
260,180,179097,1,2,0:0:0:0:
260,180,179357,1,0,0:0:0:0:
260,180,179444,1,2,0:0:0:0:
260,180,179617,1,2,0:0:0:0:
260,180,179791,1,0,0:0:0:0:
260,180,179877,1,0,0:0:0:0:
260,180,179964,1,2,0:0:0:0:
260,180,180137,1,0,0:0:0:0:
260,180,180311,1,0,0:0:0:0:
260,180,180397,1,0,0:0:0:0:
260,180,180484,1,2,0:0:0:0:
260,180,180658,1,0,0:0:0:0:
260,180,180831,1,2,0:0:0:0:
260,180,181178,1,0,0:0:0:0:
260,180,181351,1,2,0:0:0:0:
260,180,181525,1,2,0:0:0:0:
260,180,181611,1,2,0:0:0:0:
260,180,181698,1,2,0:0:0:0:
260,180,181872,1,0,0:0:0:0:
260,180,182045,1,2,0:0:0:0:
260,180,182131,1,2,0:0:0:0:
260,180,182218,1,2,0:0:0:0:
260,180,182392,1,2,0:0:0:0:
260,180,182478,1,2,0:0:0:0:
260,180,182565,1,0,0:0:0:0:
260,180,182739,1,2,0:0:0:0:
260,180,182912,1,0,0:0:0:0:
260,180,182998,1,0,0:0:0:0:
260,180,183085,1,0,0:0:0:0:
260,180,183259,1,2,0:0:0:0:
260,180,183345,1,0,0:0:0:0:
260,180,183432,1,2,0:0:0:0:
260,180,183606,1,0,0:0:0:0:
260,180,183779,1,2,0:0:0:0:
260,180,183952,1,0,0:0:0:0:
260,180,184126,1,2,0:0:0:0:
260,180,184299,1,2,0:0:0:0:
260,180,184473,1,0,0:0:0:0:
260,180,184646,1,0,0:0:0:0:
260,180,184820,1,2,0:0:0:0:
260,180,184993,1,0,0:0:0:0:
260,180,185166,1,0,0:0:0:0:
260,180,185253,1,0,0:0:0:0:
260,180,185340,1,2,0:0:0:0:
260,180,185513,1,2,0:0:0:0:
260,180,185687,1,2,0:0:0:0:
260,180,185860,1,0,0:0:0:0:
260,180,186033,1,0,0:0:0:0:
260,180,186207,1,2,0:0:0:0:
260,180,186380,1,0,0:0:0:0:
260,180,186554,1,0,0:0:0:0:
260,180,186640,1,0,0:0:0:0:
260,180,186727,1,2,0:0:0:0:
260,180,186900,1,2,0:0:0:0:
260,180,187074,1,2,0:0:0:0:
260,180,187160,1,2,0:0:0:0:
260,180,187247,1,2,0:0:0:0:
260,180,187421,1,2,0:0:0:0:
260,180,187594,1,0,0:0:0:0:
260,180,187680,1,0,0:0:0:0:
260,180,187768,1,0,0:0:0:0:
260,180,187941,1,2,0:0:0:0:
260,180,188114,1,0,0:0:0:0:
260,180,188288,1,2,0:0:0:0:
260,180,188374,1,2,0:0:0:0:
260,180,188461,1,2,0:0:0:0:
260,180,188635,1,0,0:0:0:0:
260,180,188808,1,2,0:0:0:0:
260,180,188981,1,0,0:0:0:0:
260,180,189155,1,2,0:0:0:0:
260,180,189328,1,6,0:0:0:0:
260,180,189848,1,0,0:0:0:0:
260,180,190108,1,0,0:0:0:0:
260,180,190195,1,2,0:0:0:0:
260,180,190455,1,0,0:0:0:0:
260,180,190542,1,2,0:0:0:0:
260,180,190715,1,2,0:0:0:0:
260,180,190889,1,0,0:0:0:0:
260,180,190975,1,0,0:0:0:0:
260,180,191062,1,2,0:0:0:0:
260,180,191236,1,0,0:0:0:0:
260,180,191409,1,0,0:0:0:0:
260,180,191495,1,0,0:0:0:0:
260,180,191583,1,2,0:0:0:0:
260,180,191669,1,2,0:0:0:0:
260,180,191756,1,0,0:0:0:0:
260,180,191929,1,2,0:0:0:0:
260,180,192276,1,0,0:0:0:0:
260,180,192450,1,2,0:0:0:0:
260,180,192623,1,2,0:0:0:0:
260,180,192709,1,2,0:0:0:0:
260,180,192796,1,2,0:0:0:0:
260,180,192970,1,0,0:0:0:0:
260,180,193143,1,2,0:0:0:0:
260,180,193317,1,2,0:0:0:0:
260,180,193490,1,2,0:0:0:0:
260,180,193663,1,0,0:0:0:0:
260,180,193837,1,2,0:0:0:0:
260,180,194010,1,0,0:0:0:0:
260,180,194097,1,0,0:0:0:0:
260,180,194184,1,0,0:0:0:0:
260,180,194357,1,2,0:0:0:0:
260,180,194443,1,2,0:0:0:0:
260,180,194531,1,2,0:0:0:0:
260,180,194704,1,0,0:0:0:0:
260,180,194877,1,2,0:0:0:0:
260,180,195051,1,0,0:0:0:0:
260,180,195224,1,2,0:0:0:0:
260,180,195398,1,2,0:0:0:0:
260,180,195571,1,0,0:0:0:0:
260,180,195744,1,0,0:0:0:0:
260,180,195918,1,2,0:0:0:0:
260,180,196091,1,0,0:0:0:0:
260,180,196265,1,0,0:0:0:0:
260,180,196351,1,0,0:0:0:0:
260,180,196438,1,2,0:0:0:0:
260,180,196524,1,0,0:0:0:0:
260,180,196611,1,2,0:0:0:0:
260,180,196785,1,2,0:0:0:0:
260,180,196958,1,0,0:0:0:0:
260,180,197132,1,0,0:0:0:0:
260,180,197305,1,2,0:0:0:0:
260,180,197478,1,0,0:0:0:0:
260,180,197652,1,0,0:0:0:0:
260,180,197738,1,0,0:0:0:0:
260,180,197825,1,2,0:0:0:0:
260,180,197912,1,2,0:0:0:0:
260,180,197999,1,2,0:0:0:0:
260,180,198172,1,2,0:0:0:0:
260,180,198346,1,2,0:0:0:0:
260,180,198519,1,2,0:0:0:0:
260,180,198692,1,0,0:0:0:0:
260,180,198866,1,0,0:0:0:0:
260,180,199039,1,2,0:0:0:0:
260,180,199213,1,0,0:0:0:0:
260,180,199386,1,2,0:0:0:0:
260,180,199559,1,4,0:0:0:0:
260,180,200253,1,4,0:0:0:0:
256,192,200946,12,0,203374,0:0:0:0:
252,192,203721,5,0,0:0:0:0:
252,192,203894,1,2,0:0:0:0:
252,192,204068,1,0,0:0:0:0:
252,192,204241,1,2,0:0:0:0:
252,192,204414,5,0,0:0:0:0:
252,192,204587,1,2,0:0:0:0:
252,192,204761,1,0,0:0:0:0:
252,192,204934,1,2,0:0:0:0:
252,192,205108,5,0,0:0:0:0:
252,192,205281,1,2,0:0:0:0:
252,192,205455,1,0,0:0:0:0:
252,192,205628,1,2,0:0:0:0:
252,192,205802,5,0,0:0:0:0:
252,192,205975,1,0,0:0:0:0:
252,192,206149,1,2,0:0:0:0:
252,192,206322,1,2,0:0:0:0:
256,192,206495,12,0,208923,0:0:0:0:
256,188,209270,5,0,0:0:0:0:
256,188,209443,1,0,0:0:0:0:
256,188,209617,1,2,0:0:0:0:
256,188,209790,1,2,0:0:0:0:
256,188,209964,1,0,0:0:0:0:
256,188,210137,1,2,0:0:0:0:
256,188,210310,1,0,0:0:0:0:
256,188,210484,1,2,0:0:0:0:
256,188,210657,1,0,0:0:0:0:
256,188,210831,1,2,0:0:0:0:
256,188,211004,1,2,0:0:0:0:
256,188,211178,1,2,0:0:0:0:
256,188,211351,1,0,0:0:0:0:
256,188,211524,1,2,0:0:0:0:
256,188,211698,1,2,0:0:0:0:
256,188,211871,1,2,0:0:0:0:
256,192,212045,12,0,214472,0:0:0:0:
252,192,214819,5,0,0:0:0:0:
252,192,214992,1,2,0:0:0:0:
252,192,215166,1,0,0:0:0:0:
252,192,215339,1,2,0:0:0:0:
252,192,215513,5,0,0:0:0:0:
252,192,215686,1,2,0:0:0:0:
252,192,215860,1,0,0:0:0:0:
252,192,216033,1,2,0:0:0:0:
252,192,216206,5,0,0:0:0:0:
252,192,216379,1,2,0:0:0:0:
252,192,216553,1,0,0:0:0:0:
252,192,216726,1,2,0:0:0:0:
252,192,216900,5,0,0:0:0:0:
252,192,217073,1,2,0:0:0:0:
252,192,217247,1,0,0:0:0:0:
252,192,217334,1,0,0:0:0:0:
252,192,217420,1,0,0:0:0:0:
252,192,217507,1,0,0:0:0:0:
252,192,217594,5,0,0:0:0:0:
252,192,217767,1,2,0:0:0:0:
252,192,217941,1,0,0:0:0:0:
252,192,218114,1,2,0:0:0:0:
252,192,218287,5,0,0:0:0:0:
252,192,218460,1,2,0:0:0:0:
252,192,218634,1,0,0:0:0:0:
252,192,218721,1,0,0:0:0:0:
252,192,218807,1,0,0:0:0:0:
252,192,218894,1,0,0:0:0:0:
252,192,218981,5,0,0:0:0:0:
252,192,219154,1,2,0:0:0:0:
252,192,219328,1,0,0:0:0:0:
252,192,219501,1,2,0:0:0:0:
252,192,219674,5,0,0:0:0:0:
252,192,219847,1,2,0:0:0:0:
252,192,220021,1,0,0:0:0:0:
252,192,220195,1,2,0:0:0:0:
252,192,220368,1,2,0:0:0:0:
252,192,220455,1,0,0:0:0:0:
252,192,220541,1,0,0:0:0:0:
252,192,220628,1,0,0:0:0:0:
252,192,220715,1,2,0:0:0:0:
252,192,220802,1,0,0:0:0:0:
252,192,220888,1,0,0:0:0:0:
252,192,220975,1,0,0:0:0:0:
252,192,221062,1,2,0:0:0:0:
252,192,221149,1,0,0:0:0:0:
252,192,221235,1,0,0:0:0:0:
252,192,221322,1,0,0:0:0:0:
252,192,221409,1,2,0:0:0:0:
252,192,221496,1,0,0:0:0:0:
252,192,221582,1,0,0:0:0:0:
252,192,221669,1,0,0:0:0:0:
100,92,221756,2,0,L|392:172,1,280
252,192,223143,1,0,0:0:0:0:
252,192,223230,1,2,0:0:0:0:
252,192,223490,1,2,0:0:0:0:
252,192,223663,1,0,0:0:0:0:
252,192,223750,1,2,0:0:0:0:
252,192,223836,1,2,0:0:0:0:
252,192,224010,1,2,0:0:0:0:
252,192,224183,1,0,0:0:0:0:
252,192,224270,1,2,0:0:0:0:
252,192,224530,1,2,0:0:0:0:
252,192,224617,1,2,0:0:0:0:
252,192,224790,1,2,0:0:0:0:
252,192,225050,1,0,0:0:0:0:
252,192,225137,1,2,0:0:0:0:
252,192,225224,1,2,0:0:0:0:
252,192,225397,1,2,0:0:0:0:
252,192,225571,1,2,0:0:0:0:
252,192,225657,1,2,0:0:0:0:
252,192,225744,1,0,0:0:0:0:
252,192,225831,1,0,0:0:0:0:
252,192,225917,1,0,0:0:0:0:
252,192,226004,1,2,0:0:0:0:
252,192,226264,1,2,0:0:0:0:
252,192,226438,1,0,0:0:0:0:
252,192,226524,1,2,0:0:0:0:
252,192,226611,1,2,0:0:0:0:
252,192,226784,1,2,0:0:0:0:
252,192,226958,1,0,0:0:0:0:
252,192,227045,1,2,0:0:0:0:
252,192,227305,1,2,0:0:0:0:
252,192,227391,1,2,0:0:0:0:
252,192,227565,1,2,0:0:0:0:
252,192,227825,1,0,0:0:0:0:
252,192,227912,1,2,0:0:0:0:
252,192,227998,1,2,0:0:0:0:
252,192,228172,1,2,0:0:0:0:
252,192,228258,1,2,0:0:0:0:
252,192,228345,1,0,0:0:0:0:
252,192,228432,1,0,0:0:0:0:
252,192,228519,1,2,0:0:0:0:
252,192,228605,1,0,0:0:0:0:
252,192,228692,1,0,0:0:0:0:
252,192,228779,1,2,0:0:0:0:
252,192,229039,1,2,0:0:0:0:
252,192,229212,1,0,0:0:0:0:
252,192,229299,1,2,0:0:0:0:
252,192,229385,1,2,0:0:0:0:
252,192,229559,1,2,0:0:0:0:
252,192,229732,1,0,0:0:0:0:
252,192,229819,1,2,0:0:0:0:
252,192,230079,1,2,0:0:0:0:
252,192,230166,1,2,0:0:0:0:
252,192,230339,1,2,0:0:0:0:
252,192,230599,1,0,0:0:0:0:
252,192,230686,1,2,0:0:0:0:
252,192,230773,1,2,0:0:0:0:
252,192,230946,1,2,0:0:0:0:
252,192,231120,1,2,0:0:0:0:
252,192,231206,1,2,0:0:0:0:
252,192,231293,1,0,0:0:0:0:
252,192,231380,1,0,0:0:0:0:
252,192,231467,1,0,0:0:0:0:
252,192,231553,1,2,0:0:0:0:
252,192,231813,1,2,0:0:0:0:
252,192,231987,1,0,0:0:0:0:
252,192,232073,1,2,0:0:0:0:
252,192,232160,1,2,0:0:0:0:
252,192,232333,1,2,0:0:0:0:
252,192,232507,1,0,0:0:0:0:
252,192,232594,1,2,0:0:0:0:
252,192,232854,5,2,0:0:0:0:
252,192,232940,1,2,0:0:0:0:
252,192,233114,1,2,0:0:0:0:
252,192,233374,1,0,0:0:0:0:
252,192,233461,1,2,0:0:0:0:
252,192,233547,1,2,0:0:0:0:
252,192,233721,5,0,0:0:0:0:
252,192,233808,1,0,0:0:0:0:
252,192,233894,1,2,0:0:0:0:
252,192,233981,1,2,0:0:0:0:
252,192,234068,1,2,0:0:0:0:
252,192,234241,1,0,0:0:0:0:
252,192,234328,1,2,0:0:0:0:
252,192,234588,1,2,0:0:0:0:
252,192,234675,1,0,0:0:0:0:
252,192,234761,1,0,0:0:0:0:
252,192,234848,1,2,0:0:0:0:
252,192,234935,1,2,0:0:0:0:
252,192,235108,1,2,0:0:0:0:
252,192,235281,1,0,0:0:0:0:
252,192,235368,1,2,0:0:0:0:
252,192,235455,1,0,0:0:0:0:
252,192,235628,1,2,0:0:0:0:
252,192,235715,1,0,0:0:0:0:
252,192,235888,1,2,0:0:0:0:
252,192,236148,1,0,0:0:0:0:
252,192,236235,1,2,0:0:0:0:
252,192,236322,1,2,0:0:0:0:
252,192,236495,1,2,0:0:0:0:
252,192,236669,1,2,0:0:0:0:
252,192,236755,1,2,0:0:0:0:
252,192,236842,1,2,0:0:0:0:
252,192,236929,1,0,0:0:0:0:
252,192,237016,1,0,0:0:0:0:
252,192,237102,1,2,0:0:0:0:
252,192,237362,1,2,0:0:0:0:
252,192,237449,1,0,0:0:0:0:
252,192,237536,1,0,0:0:0:0:
252,192,237622,1,2,0:0:0:0:
252,192,237709,1,2,0:0:0:0:
252,192,237882,1,2,0:0:0:0:
252,192,238056,1,0,0:0:0:0:
252,192,238143,1,2,0:0:0:0:
252,192,238230,1,0,0:0:0:0:
252,192,238403,1,2,0:0:0:0:
252,192,238489,1,2,0:0:0:0:
252,192,238663,1,2,0:0:0:0:
252,192,238923,1,0,0:0:0:0:
252,192,239010,1,2,0:0:0:0:
252,192,239096,1,2,0:0:0:0:
252,192,239270,1,2,0:0:0:0:
252,192,239356,1,2,0:0:0:0:
252,192,239443,1,0,0:0:0:0:
252,192,239530,1,2,0:0:0:0:
252,192,239617,1,2,0:0:0:0:
252,192,239703,1,0,0:0:0:0:
252,192,239790,1,0,0:0:0:0:
252,192,239877,1,2,0:0:0:0:
252,192,240137,1,2,0:0:0:0:
252,192,240224,1,0,0:0:0:0:
252,192,240310,1,0,0:0:0:0:
252,192,240397,1,2,0:0:0:0:
252,192,240483,1,2,0:0:0:0:
252,192,240657,1,2,0:0:0:0:
252,192,240830,1,0,0:0:0:0:
252,192,240917,1,2,0:0:0:0:
252,192,241004,1,0,0:0:0:0:
252,192,241178,1,2,0:0:0:0:
252,192,241264,1,2,0:0:0:0:
252,192,241438,1,2,0:0:0:0:
252,192,241698,1,0,0:0:0:0:
252,192,241784,1,2,0:0:0:0:
252,192,241871,1,2,0:0:0:0:
252,192,242044,1,2,0:0:0:0:
252,192,242218,1,2,0:0:0:0:
252,192,242304,1,2,0:0:0:0:
252,192,242391,1,0,0:0:0:0:
252,192,242478,1,0,0:0:0:0:
252,192,242565,1,0,0:0:0:0:
252,192,242651,1,2,0:0:0:0:
252,192,242911,1,2,0:0:0:0:
252,192,242998,1,0,0:0:0:0:
252,192,243085,1,0,0:0:0:0:
252,192,243171,1,2,0:0:0:0:
252,192,243258,1,2,0:0:0:0:
252,192,243431,1,2,0:0:0:0:
252,192,243605,1,0,0:0:0:0:
252,192,243692,1,2,0:0:0:0:
252,192,243779,1,0,0:0:0:0:
252,192,243952,1,6,0:0:0:0:
252,192,244212,1,6,0:0:0:0:
252,192,244472,1,6,0:0:0:0:
252,192,244819,5,0,0:0:0:0:
252,192,244906,1,0,0:0:0:0:
252,192,244992,1,2,0:0:0:0:
252,192,245079,1,2,0:0:0:0:
252,192,245166,1,2,0:0:0:0:
256,192,245339,5,2,0:0:0:0:
264,188,245513,1,0,0:0:0:0:
256,192,245686,1,2,0:0:0:0:
256,192,245859,1,2,0:0:0:0:
256,192,245946,1,0,0:0:0:0:
256,192,246119,1,2,0:0:0:0:
256,192,246206,1,2,0:0:0:0:
256,192,246380,1,0,0:0:0:0:
256,192,246553,1,0,0:0:0:0:
256,192,246726,1,2,0:0:0:0:
256,192,246813,1,2,0:0:0:0:
256,192,246900,1,0,0:0:0:0:
264,188,247073,1,2,0:0:0:0:
256,192,247247,1,2,0:0:0:0:
256,192,247333,1,0,0:0:0:0:
256,192,247507,1,0,0:0:0:0:
256,192,247593,1,2,0:0:0:0:
256,192,247767,1,0,0:0:0:0:
256,192,247940,1,2,0:0:0:0:
256,192,248114,1,2,0:0:0:0:
256,192,248287,1,0,0:0:0:0:
256,192,248460,1,2,0:0:0:0:
264,188,248634,1,2,0:0:0:0:
256,192,248721,1,0,0:0:0:0:
256,192,248894,1,2,0:0:0:0:
256,192,248981,1,2,0:0:0:0:
256,192,249154,1,0,0:0:0:0:
256,192,249328,1,0,0:0:0:0:
256,192,249501,1,2,0:0:0:0:
256,192,249588,1,2,0:0:0:0:
256,192,249674,1,0,0:0:0:0:
256,192,249848,1,2,0:0:0:0:
256,192,250021,1,2,0:0:0:0:
264,188,250108,1,0,0:0:0:0:
256,192,250281,1,0,0:0:0:0:
256,192,250368,1,2,0:0:0:0:
256,192,250542,5,0,0:0:0:0:
256,192,250628,1,0,0:0:0:0:
256,192,250715,1,0,0:0:0:0:
256,192,250802,1,0,0:0:0:0:
256,192,250888,5,2,0:0:0:0:
264,188,251062,1,0,0:0:0:0:
256,192,251235,1,2,0:0:0:0:
256,192,251408,1,2,0:0:0:0:
256,192,251495,1,0,0:0:0:0:
256,192,251668,1,2,0:0:0:0:
256,192,251755,1,2,0:0:0:0:
256,192,251929,1,0,0:0:0:0:
256,192,252102,1,0,0:0:0:0:
256,192,252275,1,2,0:0:0:0:
256,192,252362,1,2,0:0:0:0:
256,192,252449,1,0,0:0:0:0:
264,188,252622,1,2,0:0:0:0:
256,192,252796,1,2,0:0:0:0:
256,192,252882,1,0,0:0:0:0:
256,192,253056,1,0,0:0:0:0:
256,192,253142,1,2,0:0:0:0:
256,192,253316,1,0,0:0:0:0:
256,192,253489,1,2,0:0:0:0:
256,192,253663,1,2,0:0:0:0:
256,192,253836,1,0,0:0:0:0:
256,192,254009,1,2,0:0:0:0:
264,188,254183,1,2,0:0:0:0:
256,192,254270,1,0,0:0:0:0:
256,192,254443,1,2,0:0:0:0:
256,192,254530,1,2,0:0:0:0:
256,192,254703,1,0,0:0:0:0:
256,192,254877,1,0,0:0:0:0:
256,192,255050,1,2,0:0:0:0:
256,192,255137,1,2,0:0:0:0:
256,192,255223,1,0,0:0:0:0:
256,192,255397,1,2,0:0:0:0:
256,192,255570,1,2,0:0:0:0:
264,188,255657,1,0,0:0:0:0:
256,192,255830,1,0,0:0:0:0:
256,192,255917,1,2,0:0:0:0:
256,184,256091,5,0,0:0:0:0:
256,184,256177,1,0,0:0:0:0:
256,184,256264,1,0,0:0:0:0:
256,192,256438,5,2,0:0:0:0:
264,188,256611,1,0,0:0:0:0:
256,192,256784,1,2,0:0:0:0:
256,192,256958,1,2,0:0:0:0:
256,192,257044,1,0,0:0:0:0:
256,192,257218,1,2,0:0:0:0:
256,192,257304,1,2,0:0:0:0:
256,192,257478,1,0,0:0:0:0:
256,192,257651,1,0,0:0:0:0:
256,192,257825,1,2,0:0:0:0:
256,192,257911,1,2,0:0:0:0:
256,192,257998,1,0,0:0:0:0:
264,188,258171,1,2,0:0:0:0:
256,192,258345,1,2,0:0:0:0:
256,192,258432,1,0,0:0:0:0:
256,192,258605,1,0,0:0:0:0:
256,192,258692,1,2,0:0:0:0:
256,192,258865,1,0,0:0:0:0:
256,192,259039,1,2,0:0:0:0:
256,192,259212,1,2,0:0:0:0:
256,192,259385,1,0,0:0:0:0:
256,192,259559,1,2,0:0:0:0:
264,188,259732,1,2,0:0:0:0:
256,192,259819,1,0,0:0:0:0:
256,192,259992,1,2,0:0:0:0:
256,192,260079,1,2,0:0:0:0:
256,192,260252,1,0,0:0:0:0:
256,192,260426,1,0,0:0:0:0:
256,192,260599,1,2,0:0:0:0:
256,192,260686,1,2,0:0:0:0:
256,192,260773,1,0,0:0:0:0:
256,192,260946,1,2,0:0:0:0:
256,192,261119,1,2,0:0:0:0:
264,188,261206,1,0,0:0:0:0:
256,192,261380,1,0,0:0:0:0:
256,192,261466,1,2,0:0:0:0:
256,192,261640,5,0,0:0:0:0:
256,192,261726,1,0,0:0:0:0:
256,192,261813,1,0,0:0:0:0:
256,192,261900,1,0,0:0:0:0:
256,192,261987,5,2,0:0:0:0:
264,188,262160,1,0,0:0:0:0:
256,192,262334,1,2,0:0:0:0:
256,192,262507,1,2,0:0:0:0:
256,192,262593,1,0,0:0:0:0:
256,192,262767,1,2,0:0:0:0:
256,192,262854,1,2,0:0:0:0:
256,192,263027,1,0,0:0:0:0:
256,192,263200,1,0,0:0:0:0:
256,192,263374,1,2,0:0:0:0:
256,192,263460,1,2,0:0:0:0:
256,192,263547,1,0,0:0:0:0:
264,188,263721,1,2,0:0:0:0:
256,192,263894,1,2,0:0:0:0:
256,192,263981,1,0,0:0:0:0:
256,192,264154,1,0,0:0:0:0:
256,192,264241,1,2,0:0:0:0:
256,192,264414,1,0,0:0:0:0:
256,192,264588,1,2,0:0:0:0:
256,192,264761,1,0,0:0:0:0:
256,192,264848,1,2,0:0:0:0:
256,192,264935,1,2,0:0:0:0:
256,192,265021,1,2,0:0:0:0:
256,192,265108,1,0,0:0:0:0:
256,192,265195,1,2,0:0:0:0:
256,192,265282,1,2,0:0:0:0:
256,192,265368,1,2,0:0:0:0:
256,192,265455,1,0,0:0:0:0:
256,192,265542,1,2,0:0:0:0:
256,192,265629,1,2,0:0:0:0:
256,192,265715,1,2,0:0:0:0:
256,192,265802,1,0,0:0:0:0:
256,192,265889,1,2,0:0:0:0:
256,192,265976,1,2,0:0:0:0:
256,192,266062,1,2,0:0:0:0:
256,192,266149,12,0,267189,0:0:0:0:
256,192,278634,5,4,0:0:0:0:
256,192,278807,1,2,0:0:0:0:
256,192,278981,1,0,0:0:0:0:
256,192,279154,1,2,0:0:0:0:
256,192,279328,1,0,0:0:0:0:
256,192,279674,1,0,0:0:0:0:
256,192,279848,1,2,0:0:0:0:
256,192,280195,1,2,0:0:0:0:
256,192,280368,1,0,0:0:0:0:
256,192,280541,1,2,0:0:0:0:
256,192,280888,1,0,0:0:0:0:
256,192,281062,1,2,0:0:0:0:
256,192,281235,1,2,0:0:0:0:
256,192,281409,1,4,0:0:0:0:
256,192,281582,1,0,0:0:0:0:
256,192,281669,1,0,0:0:0:0:
256,192,281755,1,0,0:0:0:0:
256,192,281929,1,0,0:0:0:0:
256,192,282102,1,0,0:0:0:0:
256,192,282276,1,2,0:0:0:0:
280,212,282362,1,2,0:0:0:0:
256,192,282449,1,2,0:0:0:0:
256,192,282622,1,2,0:0:0:0:
256,192,282969,1,0,0:0:0:0:
256,192,283143,1,0,0:0:0:0:
256,192,283316,1,2,0:0:0:0:
256,192,283489,1,0,0:0:0:0:
256,192,283663,1,2,0:0:0:0:
256,192,283750,1,2,0:0:0:0:
256,192,283836,1,2,0:0:0:0:
256,192,283923,1,2,0:0:0:0:
256,192,284010,1,2,0:0:0:0:
256,192,284183,1,2,0:0:0:0:
256,192,284357,1,0,0:0:0:0:
256,192,284443,1,0,0:0:0:0:
256,192,284530,1,0,0:0:0:0:
256,192,284704,1,0,0:0:0:0:
256,192,284877,1,2,0:0:0:0:
256,192,285050,1,0,0:0:0:0:
256,192,285137,1,0,0:0:0:0:
256,192,285224,1,0,0:0:0:0:
256,192,285397,1,0,0:0:0:0:
256,192,285571,1,2,0:0:0:0:
256,192,285744,1,0,0:0:0:0:
256,192,285831,1,0,0:0:0:0:
256,192,285917,1,0,0:0:0:0:
256,192,286004,1,0,0:0:0:0:
256,192,286091,1,0,0:0:0:0:
256,192,286264,1,2,0:0:0:0:
256,192,286438,1,0,0:0:0:0:
256,192,286524,1,0,0:0:0:0:
256,192,286611,1,0,0:0:0:0:
256,192,286698,1,0,0:0:0:0:
256,192,286784,1,0,0:0:0:0:
248,188,286958,5,2,0:0:0:0:
248,188,287044,1,0,0:0:0:0:
248,188,287131,1,0,0:0:0:0:
248,188,287218,1,0,0:0:0:0:
248,188,287304,1,2,0:0:0:0:
248,188,287390,1,0,0:0:0:0:
248,188,287477,1,0,0:0:0:0:
248,188,287564,1,0,0:0:0:0:
248,188,287651,1,2,0:0:0:0:
248,188,287737,1,0,0:0:0:0:
248,188,287824,1,0,0:0:0:0:
248,188,287911,1,0,0:0:0:0:
248,188,287998,1,2,0:0:0:0:
248,188,288084,1,0,0:0:0:0:
248,188,288171,1,0,0:0:0:0:
248,188,288258,1,0,0:0:0:0:
68,116,288345,2,0,L|296:140,1,210
248,188,289039,1,0,0:0:0:0:
248,188,289125,1,2,0:0:0:0:
248,188,289212,1,2,0:0:0:0:
248,188,289299,1,2,0:0:0:0:
248,188,289386,1,0,0:0:0:0:
248,188,289472,1,2,0:0:0:0:
248,188,289559,1,2,0:0:0:0:
248,188,289646,1,2,0:0:0:0:
260,180,289732,5,2,0:0:0:0:
260,180,289992,1,2,0:0:0:0:
260,180,290079,1,0,0:0:0:0:
248,188,290253,1,2,0:0:0:0:
260,180,290339,1,2,0:0:0:0:
260,180,290426,1,0,0:0:0:0:
260,180,290599,1,0,0:0:0:0:
260,180,290773,1,2,0:0:0:0:
260,180,290859,1,2,0:0:0:0:
260,180,290946,1,0,0:0:0:0:
260,180,291119,1,2,0:0:0:0:
260,180,291293,1,2,0:0:0:0:
260,180,291379,1,2,0:0:0:0:
260,180,291466,1,0,0:0:0:0:
260,180,291640,1,2,0:0:0:0:
260,180,291813,1,0,0:0:0:0:
260,180,292073,1,2,0:0:0:0:
260,180,292160,1,2,0:0:0:0:
260,180,292333,1,0,0:0:0:0:
260,180,292507,1,0,0:0:0:0:
260,180,292593,1,0,0:0:0:0:
260,180,292680,1,0,0:0:0:0:
260,180,292854,1,2,0:0:0:0:
260,180,293027,1,0,0:0:0:0:
260,180,293113,1,0,0:0:0:0:
260,180,293200,1,0,0:0:0:0:
260,180,293374,1,0,0:0:0:0:
260,180,293460,1,0,0:0:0:0:
260,180,293547,1,2,0:0:0:0:
260,180,293721,1,0,0:0:0:0:
260,180,293894,1,2,0:0:0:0:
260,180,293980,1,2,0:0:0:0:
260,180,294067,1,2,0:0:0:0:
260,180,294241,1,0,0:0:0:0:
260,180,294327,1,2,0:0:0:0:
260,180,294414,1,0,0:0:0:0:
260,180,294588,1,2,0:0:0:0:
260,180,294761,1,0,0:0:0:0:
260,180,294848,1,2,0:0:0:0:
260,180,294934,1,2,0:0:0:0:
260,180,295021,1,0,0:0:0:0:
260,180,295108,1,2,0:0:0:0:
260,180,295195,1,0,0:0:0:0:
260,180,295281,1,0,0:0:0:0:
260,180,295455,1,2,0:0:0:0:
260,180,295628,1,2,0:0:0:0:
260,180,295802,1,0,0:0:0:0:
260,180,295975,1,2,0:0:0:0:
260,180,296148,1,2,0:0:0:0:
260,180,296235,1,2,0:0:0:0:
260,180,296322,1,0,0:0:0:0:
260,180,296495,1,0,0:0:0:0:
260,180,296669,1,0,0:0:0:0:
260,180,296842,1,2,0:0:0:0:
260,180,297015,1,2,0:0:0:0:
260,180,297189,1,0,0:0:0:0:
260,180,297362,1,2,0:0:0:0:
260,180,297536,1,2,0:0:0:0:
260,180,297622,1,2,0:0:0:0:
260,180,297709,1,0,0:0:0:0:
260,180,297882,1,0,0:0:0:0:
260,180,298056,1,0,0:0:0:0:
260,180,298142,1,0,0:0:0:0:
260,180,298229,1,0,0:0:0:0:
260,180,298403,1,0,0:0:0:0:
260,180,298576,1,2,0:0:0:0:
260,180,298662,1,2,0:0:0:0:
260,180,298750,1,2,0:0:0:0:
260,180,298923,1,0,0:0:0:0:
260,180,299096,1,2,0:0:0:0:
260,180,299270,1,0,0:0:0:0:
260,180,299356,1,0,0:0:0:0:
260,180,299443,1,0,0:0:0:0:
260,180,299617,1,2,0:0:0:0:
260,180,299790,1,0,0:0:0:0:
260,180,299963,1,2,0:0:0:0:
260,180,300137,1,0,0:0:0:0:
260,180,300310,1,0,0:0:0:0:
260,180,300397,1,0,0:0:0:0:
260,180,300484,1,2,0:0:0:0:
260,180,300571,1,0,0:0:0:0:
260,180,300657,1,2,0:0:0:0:
260,180,300744,1,2,0:0:0:0:
260,180,300830,1,0,0:0:0:0:
260,180,301090,1,2,0:0:0:0:
260,180,301177,1,0,0:0:0:0:
260,180,301351,1,2,0:0:0:0:
260,180,301437,1,2,0:0:0:0:
260,180,301524,1,0,0:0:0:0:
260,180,301697,1,0,0:0:0:0:
260,180,301871,1,2,0:0:0:0:
260,180,301957,1,2,0:0:0:0:
260,180,302044,1,0,0:0:0:0:
260,180,302218,1,2,0:0:0:0:
260,180,302391,1,2,0:0:0:0:
260,180,302477,1,2,0:0:0:0:
260,180,302565,1,0,0:0:0:0:
260,180,302651,1,0,0:0:0:0:
260,180,302738,1,2,0:0:0:0:
260,180,302911,1,0,0:0:0:0:
260,180,303172,1,2,0:0:0:0:
260,180,303258,1,2,0:0:0:0:
260,180,303432,1,0,0:0:0:0:
260,180,303605,1,0,0:0:0:0:
260,180,303691,1,0,0:0:0:0:
260,180,303778,1,0,0:0:0:0:
260,180,303952,1,2,0:0:0:0:
260,180,304125,1,0,0:0:0:0:
260,180,304212,1,0,0:0:0:0:
260,180,304299,1,0,0:0:0:0:
260,180,304472,1,0,0:0:0:0:
260,180,304645,1,2,0:0:0:0:
260,180,304819,1,0,0:0:0:0:
260,180,304992,1,2,0:0:0:0:
260,180,305079,1,2,0:0:0:0:
260,180,305166,1,2,0:0:0:0:
260,180,305339,1,0,0:0:0:0:
260,180,305425,1,0,0:0:0:0:
260,180,305513,1,0,0:0:0:0:
260,180,305686,1,2,0:0:0:0:
260,180,305859,1,0,0:0:0:0:
260,180,305946,1,2,0:0:0:0:
260,180,306033,1,2,0:0:0:0:
260,180,306120,1,0,0:0:0:0:
260,180,306206,1,2,0:0:0:0:
260,180,306293,1,0,0:0:0:0:
260,180,306380,1,0,0:0:0:0:
260,180,306553,1,2,0:0:0:0:
260,180,306726,1,2,0:0:0:0:
260,180,306900,1,0,0:0:0:0:
260,180,307073,1,2,0:0:0:0:
260,180,307247,1,2,0:0:0:0:
260,180,307333,1,2,0:0:0:0:
260,180,307420,1,0,0:0:0:0:
260,180,307506,1,2,0:0:0:0:
260,180,307593,1,0,0:0:0:0:
260,180,307767,1,0,0:0:0:0:
260,180,307940,1,2,0:0:0:0:
260,180,308114,1,2,0:0:0:0:
260,180,308287,1,0,0:0:0:0:
260,180,308460,1,2,0:0:0:0:
260,180,308634,1,2,0:0:0:0:
260,180,308720,1,2,0:0:0:0:
260,180,308807,1,0,0:0:0:0:
260,180,308894,1,0,0:0:0:0:
260,180,308981,1,0,0:0:0:0:
260,180,309154,1,0,0:0:0:0:
260,180,309328,1,2,0:0:0:0:
260,180,309501,1,2,0:0:0:0:
260,180,309674,1,0,0:0:0:0:
260,180,309848,1,2,0:0:0:0:
260,180,310021,1,0,0:0:0:0:
260,180,310195,1,2,0:0:0:0:
260,180,310368,1,0,0:0:0:0:
260,180,310542,1,2,0:0:0:0:
260,180,311235,1,2,0:0:0:0:
260,180,311409,1,2,0:0:0:0:
260,180,311495,1,0,0:0:0:0:
260,180,311669,1,0,0:0:0:0:
260,180,311756,1,0,0:0:0:0:
260,180,311842,1,2,0:0:0:0:
256,192,311929,12,0,314357,0:0:0:0:
256,192,314704,5,0,0:0:0:0:
256,192,314877,1,2,0:0:0:0:
256,192,315050,1,0,0:0:0:0:
256,192,315224,1,2,0:0:0:0:
256,192,315397,1,0,0:0:0:0:
256,192,315570,1,2,0:0:0:0:
256,192,315743,1,0,0:0:0:0:
256,192,315917,1,2,0:0:0:0:
256,192,316091,1,0,0:0:0:0:
256,192,316264,1,2,0:0:0:0:
256,192,316437,1,0,0:0:0:0:
256,192,316611,1,2,0:0:0:0:
256,192,316784,1,0,0:0:0:0:
256,192,316957,1,2,0:0:0:0:
256,192,317130,1,0,0:0:0:0:
256,192,317304,1,2,0:0:0:0:
256,192,317478,12,0,319906,0:0:0:0:
256,192,320253,5,2,0:0:0:0:
256,192,320426,1,0,0:0:0:0:
256,192,320599,1,2,0:0:0:0:
256,192,320772,1,0,0:0:0:0:
256,192,320946,1,2,0:0:0:0:
256,192,321119,1,0,0:0:0:0:
256,192,321292,1,2,0:0:0:0:
256,192,321465,1,0,0:0:0:0:
256,192,321640,1,2,0:0:0:0:
256,192,321813,1,0,0:0:0:0:
256,192,321986,1,2,0:0:0:0:
256,192,322159,1,0,0:0:0:0:
256,192,322334,1,2,0:0:0:0:
256,192,322507,1,0,0:0:0:0:
256,192,322680,1,2,0:0:0:0:
256,192,322854,1,0,0:0:0:0:
256,192,323027,12,0,325455,0:0:0:0:
256,192,325802,5,0,0:0:0:0:
256,192,325975,1,2,0:0:0:0:
256,192,326148,1,0,0:0:0:0:
256,192,326322,1,2,0:0:0:0:
256,192,326495,1,0,0:0:0:0:
256,192,326668,1,2,0:0:0:0:
256,192,326841,1,0,0:0:0:0:
256,192,327015,1,2,0:0:0:0:
256,192,327189,1,0,0:0:0:0:
256,192,327362,1,2,0:0:0:0:
256,192,327535,1,0,0:0:0:0:
256,192,327709,1,2,0:0:0:0:
256,192,327882,1,0,0:0:0:0:
256,192,328055,1,2,0:0:0:0:
256,192,328228,1,0,0:0:0:0:
256,200,328316,1,0,0:0:0:0:
256,200,328403,1,0,0:0:0:0:
256,200,328490,1,0,0:0:0:0:
256,200,328576,1,2,0:0:0:0:
252,184,328750,1,0,0:0:0:0:
252,184,328923,1,0,0:0:0:0:
252,184,329097,1,0,0:0:0:0:
252,184,329270,1,2,0:0:0:0:
252,184,329443,1,0,0:0:0:0:
252,184,329616,1,0,0:0:0:0:
252,184,329790,1,0,0:0:0:0:
252,184,329963,1,2,0:0:0:0:
252,184,330137,1,0,0:0:0:0:
252,184,330310,1,0,0:0:0:0:
252,184,330484,1,0,0:0:0:0:
252,184,330657,1,2,0:0:0:0:
252,184,330831,1,0,0:0:0:0:
252,184,331004,1,0,0:0:0:0:
252,184,331178,1,0,0:0:0:0:
252,184,331351,1,2,0:0:0:0:
256,192,331438,1,0,0:0:0:0:
256,192,331524,1,0,0:0:0:0:
256,192,331611,1,0,0:0:0:0:
256,192,331698,1,2,0:0:0:0:
256,192,331784,1,0,0:0:0:0:
256,192,331871,1,0,0:0:0:0:
256,192,331958,1,0,0:0:0:0:
256,192,332045,1,2,0:0:0:0:
256,192,332131,1,0,0:0:0:0:
256,192,332218,1,0,0:0:0:0:
256,192,332305,1,0,0:0:0:0:
256,192,332391,1,2,0:0:0:0:
256,192,332478,1,0,0:0:0:0:
256,192,332565,1,0,0:0:0:0:
256,192,332651,1,0,0:0:0:0:
96,88,332738,6,0,B|532:184|532:184|152:248,8,700,0|0|0|0|0|0|0|0|0,0:0|0:0|0:0|0:0|0:0|0:0|0:0|0:0|0:0,0:0:0:0:
256,192,345224,5,0,0:0:0:0:
256,192,345917,1,0,0:0:0:0:
256,192,346611,1,0,0:0:0:0:
256,192,347305,1,0,0:0:0:0:
256,188,347998,1,2,0:0:0:0:
256,188,348691,1,2,0:0:0:0:
256,188,349385,1,2,0:0:0:0:
256,188,350079,1,2,0:0:0:0:
252,180,350773,1,0,0:0:0:0:
252,180,351467,1,2,0:0:0:0:
252,180,352160,1,0,0:0:0:0:
252,180,352854,1,2,0:0:0:0:
252,180,353547,1,0,0:0:0:0:
252,180,353894,1,2,0:0:0:0:
252,180,354241,1,0,0:0:0:0:
252,180,354588,1,2,0:0:0:0:
252,180,354935,1,0,0:0:0:0:
252,180,355282,1,2,0:0:0:0:
252,180,355629,1,0,0:0:0:0:
252,180,355976,1,2,0:0:0:0:
252,180,356322,1,0,0:0:0:0:
252,180,356495,1,2,0:0:0:0:
252,180,356669,1,0,0:0:0:0:
252,180,356842,1,2,0:0:0:0:
252,180,357016,1,0,0:0:0:0:
252,180,357536,1,2,0:0:0:0:
252,180,357709,1,0,0:0:0:0:
252,180,357883,1,2,0:0:0:0:
252,180,358056,1,0,0:0:0:0:
252,180,358230,1,2,0:0:0:0:
252,180,358403,1,0,0:0:0:0:
252,180,359097,1,0,0:0:0:0:
252,180,359270,1,2,0:0:0:0:
252,180,359444,1,0,0:0:0:0:
252,180,359617,1,2,0:0:0:0:
252,180,359791,1,0,0:0:0:0:
252,180,360311,1,2,0:0:0:0:
252,180,360484,1,0,0:0:0:0:
252,180,360658,1,2,0:0:0:0:
252,180,360831,1,0,0:0:0:0:
252,180,361005,1,2,0:0:0:0:
252,180,361178,1,0,0:0:0:0:
256,188,361871,1,0,0:0:0:0:
256,188,361958,1,0,0:0:0:0:
256,188,362045,1,2,0:0:0:0:
256,188,362218,1,0,0:0:0:0:
256,188,362391,1,2,0:0:0:0:
256,188,362565,1,0,0:0:0:0:
256,188,363085,1,2,0:0:0:0:
256,188,363172,1,2,0:0:0:0:
256,188,363258,1,0,0:0:0:0:
256,188,363432,1,2,0:0:0:0:
256,188,363605,1,0,0:0:0:0:
256,188,363779,1,2,0:0:0:0:
256,188,363952,1,0,0:0:0:0:
256,188,364645,1,0,0:0:0:0:
256,188,364732,1,0,0:0:0:0:
256,188,364819,1,2,0:0:0:0:
256,188,364992,1,0,0:0:0:0:
256,192,365166,1,2,0:0:0:0:
256,192,365339,1,0,0:0:0:0:
256,192,365513,1,0,0:0:0:0:
256,192,365686,1,0,0:0:0:0:
256,192,365860,1,2,0:0:0:0:
256,192,365946,1,2,0:0:0:0:
256,192,366033,1,0,0:0:0:0:
256,192,366206,1,2,0:0:0:0:
256,192,366380,1,0,0:0:0:0:
256,192,366553,1,2,0:0:0:0:
256,192,366727,1,0,0:0:0:0:
256,192,366900,1,0,0:0:0:0:
256,192,367073,1,0,0:0:0:0:
256,192,367160,1,2,0:0:0:0:
256,192,367247,1,0,0:0:0:0:
256,192,367334,1,2,0:0:0:0:
256,192,367420,1,0,0:0:0:0:
256,192,367594,1,0,0:0:0:0:
256,192,367767,1,2,0:0:0:0:
256,192,367941,1,0,0:0:0:0:
256,192,368114,1,0,0:0:0:0:
256,192,368288,1,0,0:0:0:0:
256,192,368461,1,2,0:0:0:0:
256,192,368635,1,0,0:0:0:0:
256,192,368808,1,0,0:0:0:0:
256,192,368982,1,0,0:0:0:0:
256,192,369155,1,2,0:0:0:0:
256,192,369329,1,0,0:0:0:0:
256,192,369501,1,0,0:0:0:0:
256,192,369675,1,0,0:0:0:0:
256,192,369848,1,2,0:0:0:0:
236,188,369935,1,2,0:0:0:0:
256,192,370022,1,2,0:0:0:0:
248,192,370108,1,2,0:0:0:0:
256,192,370195,1,0,0:0:0:0:
256,192,370369,1,0,0:0:0:0:
256,192,370542,1,2,0:0:0:0:
256,192,370716,1,2,0:0:0:0:
256,192,370888,1,0,0:0:0:0:
256,192,371062,1,0,0:0:0:0:
256,192,371235,1,2,0:0:0:0:
256,192,371409,1,2,0:0:0:0:
256,192,371582,1,0,0:0:0:0:
256,192,371756,1,0,0:0:0:0:
256,192,371929,1,2,0:0:0:0:
256,192,372103,1,2,0:0:0:0:
256,192,372276,1,0,0:0:0:0:
256,192,372450,1,2,0:0:0:0:
256,192,372623,1,0,0:0:0:0:
256,192,372709,1,2,0:0:0:0:
256,192,372796,1,0,0:0:0:0:
256,192,372883,1,2,0:0:0:0:
256,192,372969,1,2,0:0:0:0:
256,192,373143,1,0,0:0:0:0:
256,192,373316,1,0,0:0:0:0:
256,192,373490,1,0,0:0:0:0:
256,192,373663,1,2,0:0:0:0:
256,192,373837,1,0,0:0:0:0:
264,196,373923,1,0,0:0:0:0:
256,192,374010,1,0,0:0:0:0:
256,192,374184,1,0,0:0:0:0:
256,192,374357,1,2,0:0:0:0:
256,192,374531,1,0,0:0:0:0:
264,196,374617,1,0,0:0:0:0:
256,192,374704,1,0,0:0:0:0:
264,196,374790,1,0,0:0:0:0:
256,192,374878,1,0,0:0:0:0:
256,192,375050,1,2,0:0:0:0:
264,196,375137,1,0,0:0:0:0:
256,192,375224,1,0,0:0:0:0:
264,196,375310,1,0,0:0:0:0:
256,192,375397,1,0,0:0:0:0:
264,196,375484,1,0,0:0:0:0:
256,192,375571,1,0,0:0:0:0:
256,192,375744,1,2,0:0:0:0:
264,196,375831,1,0,0:0:0:0:
256,192,375918,1,0,0:0:0:0:
264,196,376004,1,0,0:0:0:0:
256,192,376091,1,2,0:0:0:0:
264,196,376178,1,0,0:0:0:0:
256,192,376265,1,0,0:0:0:0:
264,196,376351,1,0,0:0:0:0:
256,192,376438,1,2,0:0:0:0:
264,196,376525,1,0,0:0:0:0:
256,192,376612,1,0,0:0:0:0:
264,196,376698,1,0,0:0:0:0:
256,192,376784,1,2,0:0:0:0:
264,196,376871,1,0,0:0:0:0:
256,192,376958,1,0,0:0:0:0:
264,196,377044,1,0,0:0:0:0:
268,204,377131,1,0,0:0:0:0:
248,188,377189,1,0,0:0:0:0:
252,188,377247,1,0,0:0:0:0:
268,204,377305,1,0,0:0:0:0:
248,188,377363,1,0,0:0:0:0:
252,188,377421,1,0,0:0:0:0:
268,204,377478,1,0,0:0:0:0:
248,188,377536,1,0,0:0:0:0:
252,188,377594,1,0,0:0:0:0:
268,204,377651,1,0,0:0:0:0:
248,188,377709,1,0,0:0:0:0:
252,188,377767,1,0,0:0:0:0:
268,204,377825,1,0,0:0:0:0:
248,188,377883,1,0,0:0:0:0:
252,188,377941,1,0,0:0:0:0:
268,204,377998,1,0,0:0:0:0:
248,188,378056,1,0,0:0:0:0:
252,188,378114,1,0,0:0:0:0:
268,204,378172,1,0,0:0:0:0:
248,188,378230,1,0,0:0:0:0:
252,188,378288,1,0,0:0:0:0:
268,204,378345,1,0,0:0:0:0:
248,188,378403,1,0,0:0:0:0:
252,188,378461,1,0,0:0:0:0:
264,196,378519,1,0,0:0:0:0:
