osu file format v14

[General]
AudioFilename: audio.mp3
AudioLeadIn: 0
PreviewTime: 46062
Countdown: 1
SampleSet: None
StackLeniency: 1
Mode: 0
LetterboxInBreaks: 0
WidescreenStoryboard: 1

[Editor]
Bookmarks: 17827,36180,52944,56121
DistanceSpacing: 0.8
BeatDivisor: 4
GridSize: 4
TimelineZoom: 1.1

[Metadata]
Title:Sweet Wishes
TitleUnicode:Sweet Wishes
Artist:DJ Noriken feat. Nanahira
ArtistUnicode:DJ Noriken feat. Nanahira
Creator:Verbosity
Version:AI's Insane
Source:
Tags:nanahira dj noriken osuocd HYPRFLVX
BeatmapID:0
BeatmapSetID:-1

[Difficulty]
HPDrainRate:7
CircleSize:5
OverallDifficulty:8
ApproachRate:9
SliderMultiplier:1.5
SliderTickRate:2

[Events]
//Background and Video events
0,0,"bg.png",0,0
//Break Periods
//Storyboard Layer 0 (Background)
//Storyboard Layer 1 (Fail)
//Storyboard Layer 2 (Pass)
//Storyboard Layer 3 (Foreground)
//Storyboard Sound Samples

[TimingPoints]
4,352.940416446091,4,2,0,100,1,0

[HitObjects]
278,329,4,6,0,P|215:287|177:227,1,148,0|2,0:0|0:0,0:0:0:0:
407,25,710,6,0,L|367:168,1,148,0|0,0:0|0:0,0:0:0:0:
334,76,1239,1,0,0:0:0:0:
422,110,1416,1,0,0:0:0:0:
327,93,1592,1,2,0:0:0:0:
314,113,1680,1,2,0:0:0:0:
308,138,1769,1,8,0:0:0:0:
229,84,1945,1,0,0:0:0:0:
164,149,2122,1,2,0:0:0:0:
246,104,2298,1,0,0:0:0:0:
185,43,2475,2,0,P|206:74|236:94,1,74,10|2,0:0|0:0,0:0:0:0:
102,224,2828,6,0,P|71:203|51:173,1,74,0|0,0:0|0:0,0:0:0:0:
176,295,3180,1,10,0:0:0:0:
222,217,3357,1,2,0:0:0:0:
285,280,3533,1,2,0:0:0:0:
350,345,3710,1,2,0:0:0:0:
287,283,3886,1,10,0:0:0:0:
222,348,4063,1,0,0:0:0:0:
241,258,4239,2,0,P|272:237|292:207,1,74,0|2,0:0|0:0,0:0:0:0:
416,331,4592,2,0,L|468:383,1,74,10|2,0:0|0:0,0:0:0:0:
335,297,4857,1,0,0:0:0:0:
365,267,4945,2,0,L|313:215,1,74,0|2,0:0|0:0,0:0:0:0:
430,97,5298,2,0,P|462:117|482:147,1,74,8|2,0:0|0:0,0:0:0:0:
354,279,5651,6,0,P|333:248|303:228,1,74,2|2,0:0|0:0,0:0:0:0:
426,108,6004,2,0,P|457:87|477:57,1,74,8|2,0:0|0:0,0:0:0:0:
350,183,6357,1,0,0:0:0:0:
415,119,6533,1,0,0:0:0:0:
353,183,6710,2,0,P|374:152|404:132,1,74,8|2,0:0|0:0,0:0:0:0:
229,189,7063,2,0,L|177:241,1,74,0|2,0:0|0:0,0:0:0:0:
55,360,7416,2,0,P|62:323|82:293,1,74,8|2,0:0|0:0,0:0:0:0:
115,299,7680,1,2,0:0:0:0:
146,269,7769,2,0,P|115:290|95:320,1,74,2|0,0:0|0:0,0:0:0:0:
212,203,8122,2,0,P|243:182|263:152,1,74,10|2,0:0|0:0,0:0:0:0:
400,33,8475,6,0,P|369:54|349:84,1,74,0|0,0:0|0:0,0:0:0:0:
233,201,8828,2,0,L|181:149,1,74,8|0,0:0|0:0,0:0:0:0:
55,274,9180,1,0,0:0:0:0:
119,337,9357,1,2,0:0:0:0:
181,275,9533,2,0,L|129:327,1,74,10|2,0:0|0:0,0:0:0:0:
0,197,9886,2,0,L|53:248,1,74,2|2,0:0|0:0,0:0:0:0:
173,370,10239,2,0,L|223:315,1,74,8|0,0:0|0:0,0:0:0:0:
288,236,10592,1,2,0:0:0:0:
224,300,10769,1,2,0:0:0:0:
141,324,10945,2,0,P|118:354|87:371,1,74,8|0,0:0|0:0,0:0:0:0:
221,244,11298,6,0,P|201:212|171:192,1,74,0|2,0:0|0:0,0:0:0:0:
225,246,11563,1,0,0:0:0:0:
257,214,11651,2,0,L|309:266,1,74,10|0,0:0|0:0,0:0:0:0:
324,84,12004,1,0,0:0:0:0:
381,27,12180,1,0,0:0:0:0:
441,87,12357,1,8,0:0:0:0:
377,22,12533,1,2,0:0:0:0:
441,91,12710,1,2,0:0:0:0:
355,49,12886,1,0,0:0:0:0:
330,58,12975,1,0,0:0:0:0:
304,64,13063,2,0,P|283:95|253:115,1,74,10|0,0:0|0:0,0:0:0:0:
311,172,13328,1,2,0:0:0:0:
276,201,13416,2,0,P|297:232|327:252,1,74,0|0,0:0|0:0,0:0:0:0:
379,200,13680,1,0,0:0:0:0:
411,231,13769,2,0,P|442:252|462:282,1,74,10|0,0:0|0:0,0:0:0:0:
280,240,14122,6,0,L|332:188,1,74,2|0,0:0|0:0,0:0:0:0:
386,240,14386,1,0,0:0:0:0:
419,207,14475,2,0,P|388:228|368:258,1,74,8|2,0:0|0:0,0:0:0:0:
310,311,14739,1,2,0:0:0:0:
264,314,14827,2,0,L|317:262,1,74,2|2,0:0|0:0,0:0:0:0:
392,259,15092,1,2,0:0:0:0:
360,227,15180,2,0,P|392:248|411:277,1,74,10|2,0:0|0:0,0:0:0:0:
353,230,15445,1,0,0:0:0:0:
372,187,15533,2,0,L|310:146,1,74,0|0,0:0|0:0,0:0:0:0:
257,200,15798,1,0,0:0:0:0:
224,233,15886,1,8,0:0:0:0:
291,165,16063,1,0,0:0:0:0:
281,161,16151,1,0,0:0:0:0:
273,156,16239,1,0,0:0:0:0:
208,90,16416,1,2,0:0:0:0:
149,158,16592,1,10,0:0:0:0:
216,225,16769,1,2,0:0:0:0:
146,287,16945,6,0,P|125:318|95:338,1,74,2|0,0:0|0:0,0:0:0:0:
226,205,17298,2,0,P|195:184|175:154,1,74,10|0,0:0|0:0,0:0:0:0:
121,100,17563,1,2,0:0:0:0:
90,134,17651,2,0,P|111:165|141:185,1,74,2|2,0:0|0:0,0:0:0:0:
294,284,18004,2,0,P|328:267|363:264,1,74,10|2,0:0|0:0,0:0:0:0:
347,337,18269,1,0,0:0:0:0:
314,304,18357,1,0,0:0:0:0:
382,235,18533,1,0,0:0:0:0:
367,202,18622,1,0,0:0:0:0:
333,183,18710,2,0,L|280:131,1,74,8|2,0:0|0:0,0:0:0:0:
334,186,18975,1,2,0:0:0:0:
302,217,19063,1,2,0:0:0:0:
230,278,19239,1,2,0:0:0:0:
293,214,19416,1,10,0:0:0:0:
359,280,19592,1,0,0:0:0:0:
352,271,19680,1,0,0:0:0:0:
344,265,19769,6,0,P|323:234|293:214,1,74,2|0,0:0|0:0,0:0:0:0:
347,161,20033,1,0,0:0:0:0:
380,128,20122,2,0,P|349:149|330:179,1,74,10|2,0:0|0:0,0:0:0:0:
464,305,20475,1,2,0:0:0:0:
370,297,20651,1,2,0:0:0:0:
432,364,20827,1,10,0:0:0:0:
365,296,21004,1,2,0:0:0:0:
431,230,21180,2,0,L|483:282,1,74,0|0,0:0|0:0,0:0:0:0:
430,229,21445,1,2,0:0:0:0:
397,196,21533,2,0,L|449:144,1,74,8|0,0:0|0:0,0:0:0:0:
374,146,21798,1,2,0:0:0:0:
341,114,21886,1,2,0:0:0:0:
409,182,22063,1,2,0:0:0:0:
401,189,22151,1,0,0:0:0:0:
394,197,22239,1,10,0:0:0:0:
461,128,22416,1,0,0:0:0:0:
459,101,22504,1,2,0:0:0:0:
476,77,22592,5,0,0:0:0:0:
407,9,22769,1,2,0:0:0:0:
374,22,22857,1,2,0:0:0:0:
362,63,22945,2,0,P|346:53|337:38,1,37,8|2,0:0|0:0,0:0:0:0:
405,106,23122,1,0,0:0:0:0:
341,174,23298,2,0,P|372:195|392:225,1,74,2|0,0:0|0:0,0:0:0:0:
260,92,23651,2,0,P|239:61|209:41,1,74,10|2,0:0|0:0,0:0:0:0:
262,94,23916,1,0,0:0:0:0:
293,129,24004,2,0,P|277:119|268:104,1,37,2|0,0:0|0:0,0:0:0:0:
201,172,24180,1,0,0:0:0:0:
239,87,24357,2,0,L|298:42,1,74,10|0,0:0|0:0,0:0:0:0:
224,213,24710,2,0,P|255:192|275:162,1,74,2|2,0:0|0:0,0:0:0:0:
128,55,25063,1,8,0:0:0:0:
195,122,25239,1,2,0:0:0:0:
261,188,25416,6,0,L|313:136,1,74,0|0,0:0|0:0,0:0:0:0:
443,265,25769,2,0,P|474:244|494:214,1,74,10|2,0:0|0:0,0:0:0:0:
320,160,26122,2,0,P|338:193|366:215,1,74,2|0,0:0|0:0,0:0:0:0:
237,344,26475,2,0,L|185:292,1,74,8|0,0:0|0:0,0:0:0:0:
314,163,26827,2,0,P|330:197|357:220,1,74,0|0,0:0|0:0,0:0:0:0:
417,266,27092,1,2,0:0:0:0:
391,301,27180,2,0,P|360:280|340:250,1,74,8|2,0:0|0:0,0:0:0:0:
465,125,27533,2,0,P|433:105|414:75,1,74,2|0,0:0|0:0,0:0:0:0:
333,234,27886,2,0,P|364:213|384:183,1,74,8|2,0:0|0:0,0:0:0:0:
238,297,28239,6,0,L|186:245,1,74,0|0,0:0|0:0,0:0:0:0:
310,369,28592,2,0,P|279:348|259:318,1,74,10|2,0:0|0:0,0:0:0:0:
130,189,28945,1,0,0:0:0:0:
157,199,29033,1,0,0:0:0:0:
189,183,29122,2,0,P|199:220|220:248,1,74,0|8,0:0|0:0,0:0:0:0:
89,116,29475,1,0,0:0:0:0:
152,180,29651,2,0,P|125:154|92:141,1,74,2|0,0:0|0:0,0:0:0:0:
218,268,30004,2,0,L|166:215,1,74,8|2,0:0|0:0,0:0:0:0:
289,92,30357,1,2,0:0:0:0:
228,156,30533,1,0,0:0:0:0:
161,215,30710,2,0,P|182:184|212:164,1,74,10|2,0:0|0:0,0:0:0:0:
389,112,31063,6,0,L|428:49,1,74,2|0,0:0|0:0,0:0:0:0:
289,162,31416,2,0,L|250:225,1,74,8|2,0:0|0:0,0:0:0:0:
376,351,31769,1,0,0:0:0:0:
313,289,31945,1,2,0:0:0:0:
251,352,32122,1,8,0:0:0:0:
316,286,32298,1,0,0:0:0:0:
392,235,32475,2,0,P|360:215|340:186,1,74,2|0,0:0|0:0,0:0:0:0:
253,29,32827,2,0,L|201:81,1,74,10|2,0:0|0:0,0:0:0:0:
304,205,33180,1,0,0:0:0:0:
320,209,33269,1,2,0:0:0:0:
334,223,33357,2,0,P|303:202|283:172,1,74,0|8,0:0|0:0,0:0:0:0:
331,350,33710,1,0,0:0:0:0:
409,297,33886,6,0,P|378:275|360:245,1,74,0|0,0:0|0:0,0:0:0:0:
228,112,34239,2,0,L|175:164,1,74,8|0,0:0|0:0,0:0:0:0:
306,32,34592,1,2,0:0:0:0:
243,105,34769,1,0,0:0:0:0:
226,75,34857,1,0,0:0:0:0:
209,47,34945,1,8,0:0:0:0:
277,115,35122,1,2,0:0:0:0:
340,182,35298,2,0,P|309:161|289:131,1,74,0|2,0:0|0:0,0:0:0:0:
126,216,35651,2,0,P|158:196|193:191,1,74,10|0,0:0|0:0,0:0:0:0:
317,47,36004,1,2,0:0:0:0:
384,108,36180,1,2,0:0:0:0:
446,46,36357,1,10,0:0:0:0:
407,129,36533,1,2,0:0:0:0:
463,55,36710,6,0,L|440:125,1,74,0|2,0:0|0:0,0:0:0:0:
315,250,37063,1,10,0:0:0:0:
249,185,37239,1,0,0:0:0:0:
313,250,37416,1,2,0:0:0:0:
373,185,37592,1,0,0:0:0:0:
436,122,37769,1,10,0:0:0:0:
358,174,37945,1,0,0:0:0:0:
426,238,38122,2,0,P|395:217|375:187,1,74,0|0,0:0|0:0,0:0:0:0:
431,133,38386,1,2,0:0:0:0:
401,99,38475,2,0,P|380:67|351:48,1,74,10|0,0:0|0:0,0:0:0:0:
232,170,38827,1,0,0:0:0:0:
254,255,39004,1,2,0:0:0:0:
315,316,39180,2,0,P|294:347|264:367,1,74,8|0,0:0|0:0,0:0:0:0:
188,189,39533,6,0,P|209:158|239:138,1,74,2|2,0:0|0:0,0:0:0:0:
110,13,39886,2,0,L|58:65,1,74,8|2,0:0|0:0,0:0:0:0:
186,194,40239,1,2,0:0:0:0:
120,260,40416,1,2,0:0:0:0:
111,266,40504,1,2,0:0:0:0:
102,272,40592,2,0,P|132:295|149:326,1,74,8|2,0:0|0:0,0:0:0:0:
285,201,40945,2,0,P|264:170|234:150,1,74,2|2,0:0|0:0,0:0:0:0:
361,278,41298,2,0,P|340:309|310:329,1,74,10|2,0:0|0:0,0:0:0:0:
444,208,41651,2,0,L|461:280,1,74,2|0,0:0|0:0,0:0:0:0:
337,156,42004,1,8,0:0:0:0:
272,220,42180,1,0,0:0:0:0:
210,280,42357,6,0,P|241:301|261:331,1,74,0|2,0:0|0:0,0:0:0:0:
201,270,42622,1,0,0:0:0:0:
171,300,42710,2,0,P|150:269|120:249,1,74,10|0,0:0|0:0,0:0:0:0:
247,376,43063,1,2,0:0:0:0:
214,294,43239,1,2,0:0:0:0:
152,356,43416,1,10,0:0:0:0:
85,292,43592,1,0,0:0:0:0:
17,227,43769,2,0,L|69:175,1,74,2|2,0:0|0:0,0:0:0:0:
201,307,44122,2,0,P|235:322|259:349,1,74,10|0,0:0|0:0,0:0:0:0:
284,140,44474,1,2,0:0:0:0:
286,135,44563,1,2,0:0:0:0:
292,132,44651,1,0,0:0:0:0:
227,198,44827,2,0,P|206:167|176:147,1,74,10|2,0:0|0:0,0:0:0:0:
122,93,45092,1,2,0:0:0:0:
155,60,45180,6,0,P|124:39|104:9,1,74,2|0,0:0|0:0,0:0:0:0:
235,140,45533,2,0,P|256:171|286:191,1,74,8|2,0:0|0:0,0:0:0:0:
418,322,45886,1,0,0:0:0:0:
349,254,46063,1,0,0:0:0:0:
415,319,46239,2,0,P|384:340|365:370,1,74,8|2,0:0|0:0,0:0:0:0:
283,187,46592,2,0,P|252:208|232:238,1,74,0|2,0:0|0:0,0:0:0:0:
356,100,46945,1,8,0:0:0:0:
356,196,47122,1,0,0:0:0:0:
421,131,47298,1,0,0:0:0:0:
354,63,47474,1,0,0:0:0:0:
288,130,47651,1,10,0:0:0:0:
357,195,47827,1,2,0:0:0:0:
291,129,48004,6,0,P|270:160|240:180,1,74,2|2,0:0|0:0,0:0:0:0:
371,312,48357,1,10,0:0:0:0:
304,244,48533,1,2,0:0:0:0:
384,292,48710,1,2,0:0:0:0:
396,197,48886,1,2,0:0:0:0:
461,132,49063,1,10,0:0:0:0:
394,199,49239,1,0,0:0:0:0:
433,115,49416,2,0,P|414:82|385:61,1,74,2|0,0:0|0:0,0:0:0:0:
254,194,49769,1,8,0:0:0:0:
290,283,49945,1,2,0:0:0:0:
259,263,50033,1,2,0:0:0:0:
238,233,50122,2,0,P|253:268|278:292,1,74,2|2,0:0|0:0,0:0:0:0:
287,110,50474,1,10,0:0:0:0:
356,177,50651,1,2,0:0:0:0:
290,243,50827,6,0,L|342:191,1,74,0|0,0:0|0:0,0:0:0:0:
211,321,51180,1,10,0:0:0:0:
280,252,51357,1,2,0:0:0:0:
255,260,51445,1,2,0:0:0:0:
230,268,51533,2,0,P|261:289|281:319,1,74,2|2,0:0|0:0,0:0:0:0:
227,265,51798,1,2,0:0:0:0:
251,305,51886,2,0,P|272:274|302:254,1,74,8|2,0:0|0:0,0:0:0:0:
142,350,52239,2,0,P|173:329|193:299,1,74,2|0,0:0|0:0,0:0:0:0:
139,246,52504,1,2,0:0:0:0:
135,200,52592,2,0,P|114:169|84:149,1,74,8|2,0:0|0:0,0:0:0:0:
216,18,52945,2,0,P|247:39|267:69,1,74,2|0,0:0|0:0,0:0:0:0:
136,199,53298,2,0,P|115:168|85:148,1,74,10|2,0:0|0:0,0:0:0:0:
269,113,53651,6,0,P|300:134|319:164,1,74,0|0,0:0|0:0,0:0:0:0:
451,297,54004,2,0,P|419:278|398:249,1,74,10|0,0:0|0:0,0:0:0:0:
267,117,54357,1,0,0:0:0:0:
199,185,54533,1,0,0:0:0:0:
212,212,54622,1,0,0:0:0:0:
199,245,54710,2,0,L|147:193,1,74,8|2,0:0|0:0,0:0:0:0:
280,61,55063,2,0,L|332:113,1,74,0|0,0:0|0:0,0:0:0:0:
422,180,55416,2,0,P|391:201|371:231,1,74,10|2,0:0|0:0,0:0:0:0:
425,284,55680,1,2,0:0:0:0:
393,316,55769,1,2,0:0:0:0:
323,251,55945,1,2,0:0:0:0:
393,189,56122,1,8,0:0:0:0:
325,121,56298,1,0,0:0:0:0:
337,121,56386,1,2,0:0:0:0:
348,133,56474,6,0,L|415:164,1,74,0|2,0:0|0:0,0:0:0:0:
280,291,56827,2,0,L|228:239,1,74,10|0,0:0|0:0,0:0:0:0:
280,186,57092,1,2,0:0:0:0:
247,219,57180,1,2,0:0:0:0:
180,289,57357,1,0,0:0:0:0:
180,315,57445,1,2,0:0:0:0:
164,339,57533,2,0,P|185:308|215:288,1,74,8|2,0:0|0:0,0:0:0:0:
272,239,57798,1,0,0:0:0:0:
239,206,57886,2,0,P|208:227|188:257,1,74,0|0,0:0|0:0,0:0:0:0:
254,223,58151,1,0,0:0:0:0:
219,253,58239,2,0,P|250:232|270:202,1,74,8|2,0:0|0:0,0:0:0:0:
138,70,58592,1,2,0:0:0:0:
222,25,58769,1,2,0:0:0:0:
157,90,58945,1,8,0:0:0:0:
225,158,59122,1,0,0:0:0:0:
291,224,59298,6,0,P|260:203|240:173,1,74,2|2,0:0|0:0,0:0:0:0:
372,41,59651,1,10,0:0:0:0:
440,109,59827,1,2,0:0:0:0:
365,164,60004,1,2,0:0:0:0:
433,232,60180,1,0,0:0:0:0:
484,154,60357,1,10,0:0:0:0:
403,205,60533,1,2,0:0:0:0:
469,139,60710,2,0,L|420:194,1,74,2|2,0:0|0:0,0:0:0:0:
415,193,60974,1,2,0:0:0:0:
448,226,61063,2,0,P|471:256|502:273,1,74,10|2,0:0|0:0,0:0:0:0:
370,141,61416,2,0,P|339:162|319:192,1,74,0|0,0:0|0:0,0:0:0:0:
189,322,61769,2,0,P|158:344|140:374,1,74,10|2,0:0|0:0,0:0:0:0:
7,242,62122,6,0,P|38:264|56:294,1,74,0|0,0:0|0:0,0:0:0:0:
187,163,62474,2,0,L|135:215,1,74,10|2,0:0|0:0,0:0:0:0:
189,162,62739,1,0,0:0:0:0:
235,163,62827,2,0,P|266:142|286:112,1,74,0|2,0:0|0:0,0:0:0:0:
233,165,63092,1,0,0:0:0:0:
264,199,63180,1,8,0:0:0:0:
196,267,63357,1,0,0:0:0:0:
130,333,63533,2,0,P|99:312|79:282,1,74,2|0,0:0|0:0,0:0:0:0:
213,151,63886,1,8,0:0:0:0:
281,219,64063,1,2,0:0:0:0:
217,155,64239,2,0,P|185:134|166:105,1,74,2|2,0:0|0:0,0:0:0:0:
294,233,64592,1,10,0:0:0:0:
360,299,64769,1,0,0:0:0:0:
295,233,64945,6,0,P|264:212|244:182,1,74,2|0,0:0|0:0,0:0:0:0:
191,236,65210,1,2,0:0:0:0:
153,263,65298,2,0,P|122:285|103:315,1,74,8|0,0:0|0:0,0:0:0:0:
327,193,65651,1,0,0:0:0:0:
289,173,65739,1,2,0:0:0:0:
265,136,65827,1,2,0:0:0:0:
266,161,65916,1,2,0:0:0:0:
284,183,66004,2,0,L|231:235,1,74,8|0,0:0|0:0,0:0:0:0:
170,57,66357,2,0,P|136:74|113:101,1,74,2|0,0:0|0:0,0:0:0:0:
275,190,66710,2,0,P|254:221|224:240,1,74,10|0,0:0|0:0,0:0:0:0:
171,187,66974,1,2,0:0:0:0:
204,220,67063,2,0,P|175:245|160:276,1,74,2|0,0:0|0:0,0:0:0:0:
107,329,67327,1,2,0:0:0:0:
141,296,67416,2,0,P|173:316|193:346,1,74,8|0,0:0|0:0,0:0:0:0:
325,213,67769,6,0,P|294:192|275:162,1,74,2|2,0:0|0:0,0:0:0:0:
327,215,68033,1,0,0:0:0:0:
360,181,68122,2,0,P|329:160|309:130,1,74,8|2,0:0|0:0,0:0:0:0:
467,35,68474,1,2,0:0:0:0:
441,69,68563,1,2,0:0:0:0:
407,95,68651,1,2,0:0:0:0:
416,97,68739,1,2,0:0:0:0:
423,108,68827,1,8,0:0:0:0:
490,41,69004,1,0,0:0:0:0:
455,51,69092,1,2,0:0:0:0:
439,91,69180,2,0,P|418:122|388:142,1,74,0|0,0:0|0:0,0:0:0:0:
252,267,69533,1,8,0:0:0:0:
183,336,69710,1,2,0:0:0:0:
117,270,69886,1,0,0:0:0:0:
49,202,70063,1,2,0:0:0:0:
113,266,70239,1,10,0:0:0:0:
58,343,70416,1,2,0:0:0:0:
124,277,70592,6,0,P|155:298|175:328,1,74,2|2,0:0|0:0,0:0:0:0:
360,308,70945,1,8,0:0:0:0:
291,242,71121,1,0,0:0:0:0:
357,176,71298,1,0,0:0:0:0:
425,244,71474,1,2,0:0:0:0:
359,178,71651,1,10,0:0:0:0:
292,110,71827,1,2,0:0:0:0:
240,189,72004,2,0,L|200:127,1,74,2|2,0:0|0:0,0:0:0:0:
333,259,72357,1,10,0:0:0:0:
401,191,72533,1,0,0:0:0:0:
308,187,72710,2,0,P|344:176|379:180,1,74,2|0,0:0|0:0,0:0:0:0:
243,312,73063,1,8,0:0:0:0:
312,242,73239,1,2,0:0:0:0:
305,209,73327,1,0,0:0:0:0:
321,177,73416,6,0,L|247:180,1,74,0|0,0:0|0:0,0:0:0:0:
385,303,73769,2,0,P|354:282|334:252,1,74,8|0,0:0|0:0,0:0:0:0:
267,286,74033,1,2,0:0:0:0:
234,253,74121,2,0,P|265:232|284:202,1,74,2|0,0:0|0:0,0:0:0:0:
231,148,74386,1,2,0:0:0:0:
264,181,74474,1,10,0:0:0:0:
195,113,74651,1,0,0:0:0:0:
129,47,74827,2,0,L|77:99,1,74,0|2,0:0|0:0,0:0:0:0:
243,201,75180,2,0,L|190:149,1,74,10|2,0:0|0:0,0:0:0:0:
358,63,75533,2,0,L|306:10,1,74,0|0,0:0|0:0,0:0:0:0:
445,132,75886,2,0,L|393:184,1,74,8|0,0:0|0:0,0:0:0:0:
208,217,76239,6,0,P|229:186|259:166,1,74,0|2,0:0|0:0,0:0:0:0:
235,95,76504,1,2,0:0:0:0:
268,61,76592,2,0,P|299:82|319:112,1,74,8|2,0:0|0:0,0:0:0:0:
455,243,76945,2,0,L|403:295,1,74,0|0,0:0|0:0,0:0:0:0:
457,348,77210,1,2,0:0:0:0:
490,315,77298,1,10,0:0:0:0:
423,247,77474,1,0,0:0:0:0:
489,181,77651,2,0,P|468:212|438:232,1,74,2|0,0:0|0:0,0:0:0:0:
306,363,78004,1,8,0:0:0:0:
375,295,78180,1,2,0:0:0:0:
364,290,78269,1,2,0:0:0:0:
359,280,78357,1,2,0:0:0:0:
292,212,78533,1,0,0:0:0:0:
296,221,78621,1,2,0:0:0:0:
307,227,78710,1,10,0:0:0:0:
239,160,78886,1,0,0:0:0:0:
262,146,78974,1,2,0:0:0:0:
290,144,79063,5,2,0:0:0:0:
283,240,79239,1,0,0:0:0:0:
349,174,79416,1,10,0:0:0:0:
323,189,79504,1,2,0:0:0:0:
290,182,79592,1,2,0:0:0:0:
321,166,79680,1,0,0:0:0:0:
335,127,79769,2,0,L|387:75,1,74,0|0,0:0|0:0,0:0:0:0:
256,206,80121,1,10,0:0:0:0:
187,274,80298,1,2,0:0:0:0:
213,265,80386,1,0,0:0:0:0:
241,261,80474,2,0,P|272:282|292:312,1,74,0|0,0:0|0:0,0:0:0:0:
336,251,80739,1,0,0:0:0:0:
369,284,80827,2,0,L|421:336,1,74,8|0,0:0|0:0,0:0:0:0:
237,311,81180,2,0,P|206:332|186:362,1,74,0|0,0:0|0:0,0:0:0:0:
133,309,81445,1,0,0:0:0:0:
93,285,81533,1,10,0:0:0:0:
25,217,81710,1,0,0:0:0:0:
91,151,81886,6,0,P|61:174|43:204,1,74,2|0,0:0|0:0,0:0:0:0:
173,70,82239,2,0,P|163:106|141:134,1,74,8|0,0:0|0:0,0:0:0:0:
271,270,82592,1,2,0:0:0:0:
339,202,82769,1,0,0:0:0:0:
275,135,82945,2,0,P|246:111|229:80,1,74,8|2,0:0|0:0,0:0:0:0:
361,213,83298,2,0,P|392:192|412:162,1,74,2|0,0:0|0:0,0:0:0:0:
359,215,83563,1,0,0:0:0:0:
397,241,83651,2,0,P|428:220|448:190,1,74,10|2,0:0|0:0,0:0:0:0:
318,58,84004,2,0,P|349:37|368:7,1,74,2|0,0:0|0:0,0:0:0:0:
241,133,84357,1,8,0:0:0:0:
325,170,84533,1,2,0:0:0:0:
380,245,84710,6,0,L|328:297,1,74,0|0,0:0|0:0,0:0:0:0:
276,350,84974,1,2,0:0:0:0:
232,333,85063,2,0,P|201:354|181:384,1,74,10|0,0:0|0:0,0:0:0:0:
265,218,85416,1,2,0:0:0:0:
332,286,85592,1,2,0:0:0:0:
316,266,85680,1,2,0:0:0:0:
314,240,85769,2,0,L|263:294,1,74,10|2,0:0|0:0,0:0:0:0:
122,170,86121,2,0,P|143:201|173:221,1,74,2|2,0:0|0:0,0:0:0:0:
226,168,86386,1,2,0:0:0:0:
191,138,86474,2,0,P|153:138|121:152,1,74,8|0,0:0|0:0,0:0:0:0:
68,206,86739,1,2,0:0:0:0:
101,174,86827,2,0,P|88:209|89:245,1,74,2|0,0:0|0:0,0:0:0:0:
231,303,87180,2,0,L|179:355,1,74,10|2,0:0|0:0,0:0:0:0:
89,192,87533,6,0,L|37:140,1,74,2|0,0:0|0:0,0:0:0:0:
90,87,87798,1,0,0:0:0:0:
122,119,87886,2,0,L|195:105,1,74,8|2,0:0|0:0,0:0:0:0:
248,52,88151,1,0,0:0:0:0:
281,19,88239,1,2,0:0:0:0:
363,68,88416,1,2,0:0:0:0:
282,27,88592,1,10,0:0:0:0:
349,93,88769,1,0,0:0:0:0:
362,115,88857,1,0,0:0:0:0:
364,143,88945,2,0,L|312:195,1,74,2|0,0:0|0:0,0:0:0:0:
364,247,89210,1,2,0:0:0:0:
394,283,89298,2,0,P|371:253|341:235,1,74,8|2,0:0|0:0,0:0:0:0:
412,258,89563,1,2,0:0:0:0:
379,290,89651,1,0,0:0:0:0:
311,223,89827,1,0,0:0:0:0:
376,158,90004,1,8,0:0:0:0:
310,91,90180,1,2,0:0:0:0:
377,156,90357,6,0,P|356:125|326:105,1,74,0|0,0:0|0:0,0:0:0:0:
194,236,90710,2,0,L|157:172,1,74,8|2,0:0|0:0,0:0:0:0:
248,289,90974,1,0,0:0:0:0:
274,250,91063,1,2,0:0:0:0:
207,183,91239,1,0,0:0:0:0:
204,152,91327,1,0,0:0:0:0:
204,121,91416,2,0,L|256:173,1,74,8|2,0:0|0:0,0:0:0:0:
309,121,91680,1,0,0:0:0:0:
276,154,91769,1,0,0:0:0:0:
271,183,91857,1,2,0:0:0:0:
284,214,91945,1,2,0:0:0:0:
249,203,92033,1,2,0:0:0:0:
234,163,92121,2,0,L|286:111,1,74,10|2,0:0|0:0,0:0:0:0:
232,57,92386,1,0,0:0:0:0:
200,90,92474,2,0,P|210:74|225:65,1,37,0|2,0:0|0:0,0:0:0:0:
293,131,92651,1,2,0:0:0:0:
358,196,92827,2,0,L|306:248,1,74,10|2,0:0|0:0,0:0:0:0:
119,265,93180,6,0,P|140:296|170:316,1,74,2|2,0:0|0:0,0:0:0:0:
299,187,93533,2,0,P|268:166|248:136,1,74,8|2,0:0|0:0,0:0:0:0:
89,226,93886,2,0,L|141:173,1,74,0|2,0:0|0:0,0:0:0:0:
271,43,94239,2,0,P|292:74|322:94,1,74,8|0,0:0|0:0,0:0:0:0:
454,226,94592,2,0,P|470:236|479:251,1,37,0|2,0:0|0:0,0:0:0:0:
387,295,94769,1,2,0:0:0:0:
390,277,94857,1,0,0:0:0:0:
378,261,94945,2,0,L|452:253,1,74,10|2,0:0|0:0,0:0:0:0:
332,112,95298,2,0,L|385:164,1,74,2|0,0:0|0:0,0:0:0:0:
253,294,95651,2,0,P|284:273|304:243,1,74,10|2,0:0|0:0,0:0:0:0:
439,114,96004,6,0,P|470:135|490:165,1,74,2|2,0:0|0:0,0:0:0:0:
360,296,96357,2,0,P|329:317|309:347,1,74,8|2,0:0|0:0,0:0:0:0:
440,216,96710,2,0,P|456:206|465:191,1,37,0|2,0:0|0:0,0:0:0:0:
398,123,96886,1,0,0:0:0:0:
362,209,97063,2,0,L|414:261,1,74,8|2,0:0|0:0,0:0:0:0:
292,183,97327,1,2,0:0:0:0:
259,217,97416,2,0,P|249:201|234:192,1,37,2|2,0:0|0:0,0:0:0:0:
165,260,97592,1,2,0:0:0:0:
149,227,97680,1,0,0:0:0:0:
114,209,97768,2,0,P|145:188|165:158,1,74,8|2,0:0|0:0,0:0:0:0:
223,110,98033,1,2,0:0:0:0:
187,80,98121,1,0,0:0:0:0:
256,148,98298,1,0,0:0:0:0:
224,130,98386,1,2,0:0:0:0:
205,98,98474,2,0,P|226:129|256:149,1,74,8|2,0:0|0:0,0:0:0:0:
277,117,98739,1,0,0:0:0:0:
310,84,98827,6,0,P|294:94|285:109,1,37,0|2,0:0|0:0,0:0:0:0:
215,41,99004,1,2,0:0:0:0:
238,68,99092,1,2,0:0:0:0:
269,88,99180,2,0,P|295:60|306:27,1,74,10|0,0:0|0:0,0:0:0:0:
255,82,99445,1,0,0:0:0:0:
287,115,99533,2,0,P|250:110|219:92,1,74,0|0,0:0|0:0,0:0:0:0:
355,219,99886,2,0,P|324:240|304:270,1,74,10|2,0:0|0:0,0:0:0:0:
437,137,100239,2,0,P|468:158|488:188,1,74,2|0,0:0|0:0,0:0:0:0:
434,135,100504,1,2,0:0:0:0:
400,166,100592,2,0,L|348:114,1,74,8|0,0:0|0:0,0:0:0:0:
294,168,100857,1,0,0:0:0:0:
325,202,100945,2,0,L|377:254,1,74,2|2,0:0|0:0,0:0:0:0:
433,306,101210,1,0,0:0:0:0:
387,317,101298,2,0,P|403:327|412:342,1,37,8|0,0:0|0:0,0:0:0:0:
345,274,101474,1,0,0:0:0:0:
351,282,101563,1,2,0:0:0:0:
361,289,101651,6,0,L|392:309,1,37,0|0,0:0|0:0,0:0:0:0:
460,376,101827,1,2,0:0:0:0:
394,310,102004,2,0,P|373:341|343:361,1,74,10|0,0:0|0:0,0:0:0:0:
342,258,102268,1,0,0:0:0:0:
310,293,102357,2,0,P|275:279|239:280,1,74,2|0,0:0|0:0,0:0:0:0:
359,138,102710,2,0,P|390:159|410:189,1,74,10|2,0:0|0:0,0:0:0:0:
463,135,102974,1,0,0:0:0:0:
430,102,103063,2,0,L|456:76,1,37,2|2,0:0|0:0,0:0:0:0:
388,144,103239,1,0,0:0:0:0:
409,171,103327,1,2,0:0:0:0:
451,173,103416,2,0,P|461:189|476:198,1,37,8|0,0:0|0:0,0:0:0:0:
409,131,103592,1,2,0:0:0:0:
344,65,103768,2,0,L|318:91,1,37,2|0,0:0|0:0,0:0:0:0:
412,132,103945,1,2,0:0:0:0:
478,67,104121,2,0,P|467:51|453:42,1,37,10|2,0:0|0:0,0:0:0:0:
384,110,104298,1,2,0:0:0:0:
450,176,104474,6,0,P|434:186|425:201,1,37,2|2,0:0|0:0,0:0:0:0:
493,270,104651,1,2,0:0:0:0:
428,204,104827,2,0,P|439:188|454:179,1,37,10|2,0:0|0:0,0:0:0:0:
386,247,105004,1,0,0:0:0:0:
452,182,105180,2,0,P|436:172|427:157,1,37,2|0,0:0|0:0,0:0:0:0:
358,89,105357,1,2,0:0:0:0:
341,108,105445,1,2,0:0:0:0:
343,139,105533,2,0,P|332:155|317:164,1,37,8|2,0:0|0:0,0:0:0:0:
385,233,105710,1,2,0:0:0:0:
450,166,105886,2,0,L|398:218,1,74,2|0,0:0|0:0,0:0:0:0:
266,349,106239,2,0,P|282:359|291:374,1,37,8|2,0:0|0:0,0:0:0:0:
360,307,106416,1,2,0:0:0:0:
294,242,106592,2,0,P|278:232|269:217,1,37,0|2,0:0|0:0,0:0:0:0:
336,149,106768,1,0,0:0:0:0:
422,112,106945,2,0,L|370:60,1,74,8|0,0:0|0:0,0:0:0:0:
238,194,107298,6,0,L|186:246,1,74,0|0,0:0|0:0,0:0:0:0:
363,301,107651,2,0,L|389:275,1,37,8|2,0:0|0:0,0:0:0:0:
431,235,107827,1,2,0:0:0:0:
366,169,108004,2,0,P|382:160|393:146,1,37,2|0,0:0|0:0,0:0:0:0:
458,75,108180,1,0,0:0:0:0:
424,162,108357,2,0,L|397:137,1,37,10|2,0:0|0:0,0:0:0:0:
330,204,108533,1,0,0:0:0:0:
407,151,108710,2,0,P|391:141|382:126,1,37,2|0,0:0|0:0,0:0:0:0:
309,63,108886,1,2,0:0:0:0:
377,127,109063,2,0,L|352:100,1,37,10|2,0:0|0:0,0:0:0:0:
282,166,109239,1,0,0:0:0:0:
348,232,109416,2,0,P|364:222|373:207,1,37,2|2,0:0|0:0,0:0:0:0:
416,299,109592,1,0,0:0:0:0:
324,287,109768,2,0,L|271:339,1,74,10|0,0:0|0:0,0:0:0:0:
402,204,110121,6,0,L|376:230,1,37,0|2,0:0|0:0,0:0:0:0:
439,158,110298,1,2,0:0:0:0:
376,225,110474,2,0,P|360:215|351:200,1,37,10|2,0:0|0:0,0:0:0:0:
419,132,110651,1,2,0:0:0:0:
355,65,110827,2,0,P|344:81|341:98,1,37,2|0,0:0|0:0,0:0:0:0:
269,161,111004,1,0,0:0:0:0:
332,229,111180,2,0,L|306:255,1,37,10|2,0:0|0:0,0:0:0:0:
241,185,111357,1,0,0:0:0:0:
200,268,111533,2,0,P|231:247|251:217,1,74,0|2,0:0|0:0,0:0:0:0:
394,99,111886,2,0,P|409:88|418:73,1,37,8|2,0:0|0:0,0:0:0:0:
350,140,112063,1,2,0:0:0:0:
414,206,112239,2,0,P|430:216|439:231,1,37,0|2,0:0|0:0,0:0:0:0:
345,218,112416,1,2,0:0:0:0:
371,226,112504,1,2,0:0:0:0:
400,209,112592,2,0,P|385:198|375:183,1,37,8|0,0:0|0:0,0:0:0:0:
443,251,112768,1,0,0:0:0:0:
379,319,112945,6,0,P|400:350|430:370,1,74,2|0,0:0|0:0,0:0:0:0:
299,237,113298,2,0,P|315:227|324:212,1,37,8|0,0:0|0:0,0:0:0:0:
367,169,113474,1,2,0:0:0:0:
305,100,113651,2,0,L|279:126,1,37,0|2,0:0|0:0,0:0:0:0:
209,191,113827,1,2,0:0:0:0:
133,246,114004,2,0,P|164:267|184:297,1,74,8|2,0:0|0:0,0:0:0:0:
238,245,114268,1,2,0:0:0:0:
267,208,114357,1,0,0:0:0:0:
199,276,114533,1,2,0:0:0:0:
224,282,114621,1,0,0:0:0:0:
249,292,114710,2,0,P|228:261|198:241,1,74,8|2,0:0|0:0,0:0:0:0:
208,167,114974,1,2,0:0:0:0:
237,204,115063,2,0,P|258:235|288:255,1,74,2|2,0:0|0:0,0:0:0:0:
343,203,115327,1,2,0:0:0:0:
375,236,115416,2,0,L|401:262,1,37,10|0,0:0|0:0,0:0:0:0:
324,207,115592,1,2,0:0:0:0:
342,175,115680,1,0,0:0:0:0:
375,156,115768,6,0,L|349:182,1,37,0|2,0:0|0:0,0:0:0:0:
281,114,115945,1,0,0:0:0:0:
258,94,116033,1,2,0:0:0:0:
256,59,116121,2,0,P|225:81|207:112,1,74,8|0,0:0|0:0,0:0:0:0:
339,244,116474,2,0,L|391:296,1,74,0|0,0:0|0:0,0:0:0:0:
205,373,116827,2,0,P|184:342|154:322,1,74,10|2,0:0|0:0,0:0:0:0:
102,270,117092,1,0,0:0:0:0:
68,303,117180,2,0,P|90:273|121:255,1,74,2|0,0:0|0:0,0:0:0:0:
253,123,117533,2,0,P|284:102|304:72,1,74,10|2,0:0|0:0,0:0:0:0:
172,203,117886,2,0,P|151:172|121:152,1,74,0|2,0:0|0:0,0:0:0:0:
253,284,118239,2,0,P|274:253|304:233,1,74,8|0,0:0|0:0,0:0:0:0:
153,123,118592,6,0,P|184:144|204:174,1,74,2|2,0:0|0:0,0:0:0:0:
252,231,118857,1,2,0:0:0:0:
254,184,118945,2,0,L|180:176,1,74,10|2,0:0|0:0,0:0:0:0:
232,231,119210,1,2,0:0:0:0:
199,263,119298,2,0,P|183:273|173:288,1,37,2|2,0:0|0:0,0:0:0:0:
105,356,119474,1,0,0:0:0:0:
195,330,119651,2,0,L|143:278,1,74,8|2,0:0|0:0,0:0:0:0:
194,225,119916,1,0,0:0:0:0:
227,192,120004,1,2,0:0:0:0:
259,165,120092,1,2,0:0:0:0:
287,132,120180,1,0,0:0:0:0:
221,198,120357,2,0,P|190:219|170:249,1,74,10|0,0:0|0:0,0:0:0:0:
220,305,120621,1,0,0:0:0:0:
254,338,120710,1,2,0:0:0:0:
345,308,120886,1,2,0:0:0:0:
369,297,120974,1,0,0:0:0:0:
397,294,121063,1,10,0:0:0:0:
393,289,121151,1,2,0:0:0:0:
389,285,121239,1,2,0:0:0:0:
324,218,121416,6,0,P|308:208|298:193,1,37,2|2,0:0|0:0,0:0:0:0:
362,123,121592,1,0,0:0:0:0:
349,100,121680,1,0,0:0:0:0:
349,74,121768,2,0,P|343:111|352:146,1,74,8|2,0:0|0:0,0:0:0:0:
405,93,122033,1,2,0:0:0:0:
373,59,122121,2,0,L|336:54,1,37,0|0,0:0|0:0,0:0:0:0:
405,122,122298,1,2,0:0:0:0:
409,95,122386,1,2,0:0:0:0:
390,71,122474,2,0,P|411:102|441:122,1,74,8|0,0:0|0:0,0:0:0:0:
388,175,122739,1,0,0:0:0:0:
355,208,122827,1,0,0:0:0:0:
395,120,123004,1,0,0:0:0:0:
329,186,123180,2,0,P|359:208|394:216,1,74,8|2,0:0|0:0,0:0:0:0:
448,270,123445,1,0,0:0:0:0:
415,237,123533,2,0,P|383:217|363:187,1,74,2|0,0:0|0:0,0:0:0:0:
363,184,123798,1,2,0:0:0:0:
395,216,123886,2,0,L|382:251,1,37,8|2,0:0|0:0,0:0:0:0:
450,183,124063,1,0,0:0:0:0:
386,251,124239,6,0,P|402:261|411:276,1,37,2|2,0:0|0:0,0:0:0:0:
346,206,124415,1,0,0:0:0:0:
276,267,124592,2,0,L|234:206,1,74,10|0,0:0|0:0,0:0:0:0:
286,259,124857,1,0,0:0:0:0:
253,292,124945,1,2,0:0:0:0:
185,224,125121,1,0,0:0:0:0:
181,233,125210,1,2,0:0:0:0:
173,241,125298,2,0,P|191:274|194:310,1,74,8|0,0:0|0:0,0:0:0:0:
180,235,125563,1,0,0:0:0:0:
147,268,125651,1,0,0:0:0:0:
79,200,125827,1,2,0:0:0:0:
57,216,125915,1,0,0:0:0:0:
28,216,126004,1,8,0:0:0:0:
96,284,126180,1,2,0:0:0:0:
162,218,126357,1,0,0:0:0:0:
231,151,126533,1,2,0:0:0:0:
286,227,126710,2,0,L|338:175,1,74,8|2,0:0|0:0,0:0:0:0:
408,85,127063,6,0,L|453:144,1,74,0|2,0:0|0:0,0:0:0:0:
413,80,127327,1,2,0:0:0:0:
400,124,127415,2,0,P|422:94|453:76,1,74,10|2,0:0|0:0,0:0:0:0:
312,196,127768,1,2,0:0:0:0:
381,263,127945,1,2,0:0:0:0:
387,252,128033,1,2,0:0:0:0:
393,241,128121,2,0,P|424:220|444:190,1,74,8|0,0:0|0:0,0:0:0:0:
259,156,128474,2,0,P|222:148|193:127,1,74,0|2,0:0|0:0,0:0:0:0:
249,179,128739,1,2,0:0:0:0:
221,216,128827,2,0,L|170:270,1,74,8|0,0:0|0:0,0:0:0:0:
354,84,129180,2,0,L|406:136,1,74,0|0,0:0|0:0,0:0:0:0:
233,63,129533,2,0,L|181:11,1,74,10|2,0:0|0:0,0:0:0:0:
314,143,129886,6,0,P|335:174|365:194,1,74,2|2,0:0|0:0,0:0:0:0:
311,247,130151,1,0,0:0:0:0:
279,280,130239,1,10,0:0:0:0:
210,212,130415,1,2,0:0:0:0:
210,238,130504,1,0,0:0:0:0:
225,263,130592,2,0,P|204:294|174:314,1,74,2|2,0:0|0:0,0:0:0:0:
306,182,130945,1,10,0:0:0:0:
345,195,131033,1,2,0:0:0:0:
365,242,131121,1,0,0:0:0:0:
360,215,131210,1,2,0:0:0:0:
379,190,131298,2,0,L|327:138,1,74,0|0,0:0|0:0,0:0:0:0:
467,12,131651,1,8,0:0:0:0:
399,81,131827,1,2,0:0:0:0:
465,147,132004,1,2,0:0:0:0:
397,80,132180,1,0,0:0:0:0:
370,75,132268,1,0,0:0:0:0:
346,64,132357,2,0,P|377:85|397:115,1,74,10|0,0:0|0:0,0:0:0:0:
264,247,132710,6,0,L|212:299,1,74,0|2,0:0|0:0,0:0:0:0:
212,300,132974,1,2,0:0:0:0:
177,268,133063,2,0,P|155:299|125:318,1,74,8|2,0:0|0:0,0:0:0:0:
262,191,133415,1,2,0:0:0:0:
194,123,133592,1,2,0:0:0:0:
203,126,133680,1,0,0:0:0:0:
212,134,133768,2,0,P|244:154|264:184,1,74,10|2,0:0|0:0,0:0:0:0:
369,339,134121,2,0,P|348:308|318:288,1,74,0|0,0:0|0:0,0:0:0:0:
161,187,134474,2,0,P|182:218|188:253,1,74,8|2,0:0|0:0,0:0:0:0:
321,122,134827,1,2,0:0:0:0:
389,53,135004,1,2,0:0:0:0:
321,118,135180,2,0,P|290:139|271:169,1,74,8|0,0:0|0:0,0:0:0:0:
136,301,135533,6,0,P|165:325|199:335,1,74,0|2,0:0|0:0,0:0:0:0:
146,283,135798,1,0,0:0:0:0:
179,250,135886,2,0,L|231:198,1,74,10|0,0:0|0:0,0:0:0:0:
179,145,136151,1,2,0:0:0:0:
146,177,136239,2,0,P|136:193|121:202,1,37,0|0,0:0|0:0,0:0:0:0:
187,134,136415,1,2,0:0:0:0:
179,159,136504,1,2,0:0:0:0:
173,185,136592,2,0,L|222:129,1,74,10|0,0:0|0:0,0:0:0:0:
171,74,136857,1,0,0:0:0:0:
200,110,136945,2,0,L|252:58,1,74,0|2,0:0|0:0,0:0:0:0:
308,7,137210,1,0,0:0:0:0:
334,46,137298,2,0,L|387:97,1,74,8|2,0:0|0:0,0:0:0:0:
492,251,137651,1,0,0:0:0:0:
416,193,137827,1,0,0:0:0:0:
326,167,138004,1,8,0:0:0:0:
258,236,138180,1,0,0:0:0:0:
320,307,138357,6,0,P|299:338|269:358,1,74,2|2,0:0|0:0,0:0:0:0:
414,241,138710,2,0,P|392:210|362:192,1,74,8|0,0:0|0:0,0:0:0:0:
493,60,139063,1,0,0:0:0:0:
409,105,139239,1,0,0:0:0:0:
395,129,139327,1,2,0:0:0:0:
402,161,139415,2,0,P|381:130|351:110,1,74,8|2,0:0|0:0,0:0:0:0:
299,164,139680,1,2,0:0:0:0:
331,198,139768,2,0,P|300:177|280:147,1,74,0|0,0:0|0:0,0:0:0:0:
227,200,140033,1,0,0:0:0:0:
253,239,140121,2,0,P|222:218|202:188,1,74,10|2,0:0|0:0,0:0:0:0:
252,133,140386,1,0,0:0:0:0:
220,100,140474,1,2,0:0:0:0:
288,170,140651,1,2,0:0:0:0:
288,143,140739,1,0,0:0:0:0:
271,119,140827,2,0,L|323:67,1,74,10|0,0:0|0:0,0:0:0:0:
455,199,141180,6,0,L|403:251,1,74,2|2,0:0|0:0,0:0:0:0:
345,203,141445,1,2,0:0:0:0:
313,236,141533,2,0,L|365:288,1,74,10|0,0:0|0:0,0:0:0:0:
203,199,141886,2,0,L|151:251,1,74,0|2,0:0|0:0,0:0:0:0:
299,362,142239,2,0,P|268:341|248:311,1,74,8|2,0:0|0:0,0:0:0:0:
116,179,142592,2,0,P|95:148|65:128,1,74,0|0,0:0|0:0,0:0:0:0:
198,261,142945,2,0,P|177:230|147:211,1,74,8|0,0:0|0:0,0:0:0:0:
279,79,143298,1,2,0:0:0:0:
211,147,143474,1,2,0:0:0:0:
277,81,143651,1,10,0:0:0:0:
200,138,143827,1,2,0:0:0:0:
218,230,144004,6,0,P|249:251|269:281,1,74,0|2,0:0|0:0,0:0:0:0:
215,226,144268,1,2,0:0:0:0:
182,193,144357,2,0,P|151:172|131:142,1,74,10|0,0:0|0:0,0:0:0:0:
263,11,144710,1,0,0:0:0:0:
331,78,144886,1,0,0:0:0:0:
295,164,145063,1,8,0:0:0:0:
228,231,145239,1,0,0:0:0:0:
162,298,145415,2,0,P|185:268|217:251,1,74,2|2,0:0|0:0,0:0:0:0:
175,314,145680,1,0,0:0:0:0:
145,350,145768,2,0,L|93:297,1,74,8|0,0:0|0:0,0:0:0:0:
226,168,146121,1,2,0:0:0:0:
221,164,146210,1,2,0:0:0:0:
218,160,146298,1,2,0:0:0:0:
250,146,146386,1,2,0:0:0:0:
274,118,146474,2,0,P|244:96|226:65,1,74,10|0,0:0|0:0,0:0:0:0:
172,118,146739,1,2,0:0:0:0:
140,151,146827,6,0,L|88:203,1,74,2|0,0:0|0:0,0:0:0:0:
271,283,147180,2,0,P|253:279|235:282,1,37,10|0,0:0|0:0,0:0:0:0:
167,351,147357,1,2,0:0:0:0:
153,340,147445,1,0,0:0:0:0:
135,343,147533,1,2,0:0:0:0:
178,256,147710,1,0,0:0:0:0:
245,321,147886,1,10,0:0:0:0:
183,246,148063,1,2,0:0:0:0:
196,266,148151,1,0,0:0:0:0:
208,289,148239,2,0,P|229:258|259:238,1,74,2|2,0:0|0:0,0:0:0:0:
206,292,148504,1,2,0:0:0:0:
235,256,148592,2,0,P|204:235|184:205,1,74,10|2,0:0|0:0,0:0:0:0:
316,337,148945,2,0,L|264:285,1,74,2|0,0:0|0:0,0:0:0:0:
386,143,149298,2,0,L|338:87,1,74,10|0,0:0|0:0,0:0:0:0:
205,220,149651,6,0,P|172:201|151:172,1,74,2|0,0:0|0:0,0:0:0:0:
284,304,150004,2,0,P|262:274|231:255,1,74,10|2,0:0|0:0,0:0:0:0:
372,378,150357,2,0,P|351:347|321:327,1,74,2|0,0:0|0:0,0:0:0:0:
191,198,150710,2,0,P|212:166|241:147,1,74,8|2,0:0|0:0,0:0:0:0:
370,273,151062,2,0,P|349:242|319:222,1,74,2|2,0:0|0:0,0:0:0:0:
441,99,151415,2,0,L|493:47,1,74,10|2,0:0|0:0,0:0:0:0:
376,166,151768,2,0,L|428:218,1,74,2|0,0:0|0:0,0:0:0:0:
268,291,152121,1,10,0:0:0:0:
207,228,152298,1,2,0:0:0:0:
187,143,152474,6,0,P|219:164|238:193,1,74,2|2,0:0|0:0,0:0:0:0:
362,77,152827,2,0,P|383:46|413:26,1,74,10|2,0:0|0:0,0:0:0:0:
293,147,153180,2,0,L|346:96,1,74,2|2,0:0|0:0,0:0:0:0:
235,217,153533,2,0,P|214:186|184:166,1,74,8|0,0:0|0:0,0:0:0:0:
303,284,153886,2,0,L|251:232,1,74,0|0,0:0|0:0,0:0:0:0:
133,350,154239,2,0,P|158:322|169:288,1,74,8|2,0:0|0:0,0:0:0:0:
335,267,154592,2,0,P|303:288|284:317,1,74,2|0,0:0|0:0,0:0:0:0:
166,201,154945,1,10,0:0:0:0:
104,262,155121,1,0,0:0:0:0:
166,201,155298,6,0,L|218:253,1,74,0|2,0:0|0:0,0:0:0:0:
376,307,155651,2,0,L|428:359,1,74,10|0,0:0|0:0,0:0:0:0:
423,189,156004,2,0,L|371:241,1,74,2|0,0:0|0:0,0:0:0:0:
251,122,156357,2,0,P|282:100|301:70,1,74,10|2,0:0|0:0,0:0:0:0:
155,166,156710,2,0,P|134:135|104:115,1,74,2|2,0:0|0:0,0:0:0:0:
257,186,157062,2,0,L|309:134,1,74,8|0,0:0|0:0,0:0:0:0:
432,255,157415,2,0,P|442:219|465:191,1,74,2|0,0:0|0:0,0:0:0:0:
343,70,157768,2,0,L|291:122,1,74,8|0,0:0|0:0,0:0:0:0:
417,248,158121,6,0,P|396:217|366:197,1,74,2|0,0:0|0:0,0:0:0:0:
295,126,158474,2,0,P|262:144|239:171,1,74,8|0,0:0|0:0,0:0:0:0:
414,149,158827,1,0,0:0:0:0:
351,87,159004,1,2,0:0:0:0:
355,77,159092,1,0,0:0:0:0:
366,73,159180,1,8,0:0:0:0:
298,10,159357,1,2,0:0:0:0:
231,73,159533,2,0,P|252:42|282:22,1,74,2|0,0:0|0:0,0:0:0:0:
405,145,159886,2,0,P|416:109|413:74,1,74,8|2,0:0|0:0,0:0:0:0:
296,191,160239,1,0,0:0:0:0:
237,250,160415,1,2,0:0:0:0:
310,211,160592,1,10,0:0:0:0:
248,148,160768,1,2,0:0:0:0:
311,208,160945,6,0,P|331:176|361:156,1,74,0|0,0:0|0:0,0:0:0:0:
220,55,161298,2,0,P|244:84|275:101,1,74,10|0,0:0|0:0,0:0:0:0:
224,266,161651,2,0,L|292:236,1,74,2|0,0:0|0:0,0:0:0:0:
177,110,162004,2,0,P|198:79|228:59,1,74,10|2,0:0|0:0,0:0:0:0:
127,207,162357,2,0,P|96:228|76:258,1,74,0|0,0:0|0:0,0:0:0:0:
245,244,162710,2,0,P|276:222|294:191,1,74,10|0,0:0|0:0,0:0:0:0:
411,67,163062,1,0,0:0:0:0:
351,132,163239,1,2,0:0:0:0:
411,73,163415,1,10,0:0:0:0:
347,136,163592,1,2,0:0:0:0:
286,198,163768,6,0,L|234:250,1,74,2|0,0:0|0:0,0:0:0:0:
328,104,164121,2,0,P|359:125|379:155,1,74,8|0,0:0|0:0,0:0:0:0:
324,209,164386,1,2,0:0:0:0:
294,178,164474,2,0,L|242:126,1,74,0|0,0:0|0:0,0:0:0:0:
122,245,164827,1,8,0:0:0:0:
60,307,165004,1,2,0:0:0:0:
123,370,165180,2,0,P|144:339|175:320,1,74,0|2,0:0|0:0,0:0:0:0:
162,152,165533,2,0,P|193:131|213:101,1,74,8|0,0:0|0:0,0:0:0:0:
279,268,165886,1,0,0:0:0:0:
340,207,166062,1,0,0:0:0:0:
292,277,166239,1,10,0:0:0:0:
230,214,166415,1,2,0:0:0:0:
291,276,166592,6,0,P|312:307|342:327,1,74,2|0,0:0|0:0,0:0:0:0:
218,203,166945,2,0,P|249:182|269:152,1,74,10|2,0:0|0:0,0:0:0:0:
394,27,167298,2,0,L|446:79,1,74,0|2,0:0|0:0,0:0:0:0:
323,203,167651,2,0,P|292:182|272:152,1,74,10|0,0:0|0:0,0:0:0:0:
402,22,168004,2,0,P|423:53|453:73,1,74,2|2,0:0|0:0,0:0:0:0:
324,202,168357,2,0,L|272:149,1,74,10|0,0:0|0:0,0:0:0:0:
192,330,168710,2,0,P|223:309|243:279,1,74,0|2,0:0|0:0,0:0:0:0:
191,227,168974,1,2,0:0:0:0:
223,194,169062,2,0,P|191:214|170:242,1,74,8|2,0:0|0:0,0:0:0:0:
224,296,169327,1,2,0:0:0:0:
256,262,169415,6,0,L|309:313,1,74,0|0,0:0|0:0,0:0:0:0:
178,181,169768,2,0,P|209:160|229:130,1,74,8|2,0:0|0:0,0:0:0:0:
97,262,170121,1,2,0:0:0:0:
80,357,170298,1,0,0:0:0:0:
146,291,170474,1,8,0:0:0:0:
215,360,170651,1,2,0:0:0:0:
236,336,170739,1,0,0:0:0:0:
243,302,170827,2,0,P|264:333|294:352,1,74,2|0,0:0|0:0,0:0:0:0:
241,299,171092,1,0,0:0:0:0:
200,321,171180,2,0,L|252:269,1,74,8|0,0:0|0:0,0:0:0:0:
199,322,171445,1,0,0:0:0:0:
233,290,171533,2,0,P|202:269|182:239,1,74,2|0,0:0|0:0,0:0:0:0:
288,86,171886,2,0,P|309:118|338:137,1,74,8|2,0:0|0:0,0:0:0:0:
207,269,172239,6,0,P|238:290|257:320,1,74,0|0,0:0|0:0,0:0:0:0:
386,191,172592,2,0,P|411:163|444:148,1,74,10|2,0:0|0:0,0:0:0:0:
313,279,172945,1,2,0:0:0:0:
309,283,173033,1,2,0:0:0:0:
304,286,173121,1,0,0:0:0:0:
240,349,173298,2,0,L|188:297,1,74,8|2,0:0|0:0,0:0:0:0:
319,164,173651,2,0,P|298:195|268:215,1,74,0|2,0:0|0:0,0:0:0:0:
139,344,174004,2,0,P|108:323|88:293,1,74,10|0,0:0|0:0,0:0:0:0:
207,153,174357,1,0,0:0:0:0:
142,219,174533,1,2,0:0:0:0:
207,283,174710,1,10,0:0:0:0:
141,348,174886,1,0,0:0:0:0:
219,300,175062,6,0,P|188:279|168:249,1,74,0|2,0:0|0:0,0:0:0:0:
347,172,175415,2,0,L|295:224,1,74,10|2,0:0|0:0,0:0:0:0:
164,354,175768,1,2,0:0:0:0:
148,329,175857,1,2,0:0:0:0:
156,296,175945,1,0,0:0:0:0:
93,232,176121,2,0,P|124:253|143:283,1,74,10|0,0:0|0:0,0:0:0:0:
273,154,176474,2,0,L|324:100,1,74,0|0,0:0|0:0,0:0:0:0:
450,227,176827,2,0,L|398:175,1,74,8|2,0:0|0:0,0:0:0:0:
268,45,177180,2,0,P|299:66|319:96,1,74,2|2,0:0|0:0,0:0:0:0:
448,225,177533,2,0,P|427:256|397:276,1,74,8|2,0:0|0:0,0:0:0:0:
450,223,177798,1,2,0:0:0:0:
417,255,177886,6,0,P|400:221|373:198,1,74,0|0,0:0|0:0,0:0:0:0:
242,326,178239,2,0,L|295:378,1,74,8|2,0:0|0:0,0:0:0:0:
304,192,178592,1,2,0:0:0:0:
338,212,178680,1,0,0:0:0:0:
368,239,178768,1,2,0:0:0:0:
432,303,178945,2,0,P|419:268|420:232,1,74,10|2,0:0|0:0,0:0:0:0:
290,102,179298,2,0,P|259:81|239:51,1,74,2|0,0:0|0:0,0:0:0:0:
121,191,179651,2,0,L|174:139,1,74,8|0,0:0|0:0,0:0:0:0:
342,213,180004,2,0,P|332:197|317:188,1,37,2|0,0:0|0:0,0:0:0:0:
251,254,180180,1,2,0:0:0:0:
158,260,180357,2,0,P|156:222|168:189,1,74,8|2,0:0|0:0,0:0:0:0:
116,242,180621,1,2,0:0:0:0:
111,288,180709,6,0,P|89:319|59:338,1,74,2|0,0:0|0:0,0:0:0:0:
192,208,181062,1,8,0:0:0:0:
260,276,181239,1,0,0:0:0:0:
186,221,181415,1,2,0:0:0:0:
157,213,181504,1,0,0:0:0:0:
127,213,181592,1,0,0:0:0:0:
199,271,181768,2,0,P|183:237|156:214,1,74,8|0,0:0|0:0,0:0:0:0:
288,81,182121,2,0,P|319:60|339:30,1,74,2|0,0:0|0:0,0:0:0:0:
341,135,182386,1,0,0:0:0:0:
374,102,182474,1,8,0:0:0:0:
339,192,182651,1,2,0:0:0:0:
333,182,182739,1,0,0:0:0:0:
323,178,182827,2,0,P|344:147|374:127,1,74,0|0,0:0|0:0,0:0:0:0:
245,261,183180,2,0,P|277:281|312:287,1,74,10|0,0:0|0:0,0:0:0:0:
180,154,183533,6,0,L|251:132,1,74,2|0,0:0|0:0,0:0:0:0:
118,262,183886,2,0,P|97:293|67:312,1,74,8|2,0:0|0:0,0:0:0:0:
198,181,184239,1,0,0:0:0:0:
130,113,184415,1,0,0:0:0:0:
63,178,184592,1,8,0:0:0:0:
131,245,184768,1,2,0:0:0:0:
197,312,184945,2,0,P|227:335|244:366,1,74,2|2,0:0|0:0,0:0:0:0:
375,236,185298,1,8,0:0:0:0:
439,165,185474,1,2,0:0:0:0:
466,157,185562,1,0,0:0:0:0:
496,173,185651,2,0,P|463:191|441:220,1,74,0|0,0:0|0:0,0:0:0:0:
311,87,186004,2,0,P|332:56|362:36,1,74,10|2,0:0|0:0,0:0:0:0:
309,91,186268,1,2,0:0:0:0:
281,129,186357,6,0,L|324:189,1,74,2|2,0:0|0:0,0:0:0:0:
398,271,186709,1,8,0:0:0:0:
331,202,186886,1,0,0:0:0:0:
396,137,187062,2,0,L|344:189,1,74,2|0,0:0|0:0,0:0:0:0:
397,242,187327,1,0,0:0:0:0:
430,275,187415,1,10,0:0:0:0:
363,206,187592,1,0,0:0:0:0:
296,140,187768,2,0,P|315:107|344:86,1,74,0|2,0:0|0:0,0:0:0:0:
189,189,188121,2,0,P|220:210|240:240,1,74,8|2,0:0|0:0,0:0:0:0:
370,108,188474,2,0,P|402:88|422:58,1,74,0|2,0:0|0:0,0:0:0:0:
291,189,188827,2,0,P|270:158|240:138,1,74,10|0,0:0|0:0,0:0:0:0:
238,242,189092,1,2,0:0:0:0:
268,278,189180,6,0,L|216:330,1,74,2|0,0:0|0:0,0:0:0:0:
162,277,189445,1,0,0:0:0:0:
129,309,189533,2,0,P|105:280|74:263,1,74,10|2,0:0|0:0,0:0:0:0:
205,131,189886,1,0,0:0:0:0:
273,63,190062,1,0,0:0:0:0:
338,128,190239,1,8,0:0:0:0:
271,61,190415,1,0,0:0:0:0:
205,127,190592,2,0,L|257:179,1,74,2|2,0:0|0:0,0:0:0:0:
128,310,190945,2,0,L|180:362,1,74,10|2,0:0|0:0,0:0:0:0:
75,257,191209,1,0,0:0:0:0:
42,224,191298,1,0,0:0:0:0:
109,156,191474,1,0,0:0:0:0:
128,138,191562,1,2,0:0:0:0:
159,140,191651,2,0,P|190:118|208:87,1,74,10|2,0:0|0:0,0:0:0:0:
155,140,191915,1,0,0:0:0:0:
121,174,192004,6,0,P|152:152|170:122,1,74,2|2,0:0|0:0,0:0:0:0:
300,253,192357,2,0,P|331:274|351:304,1,74,10|2,0:0|0:0,0:0:0:0:
482,172,192709,1,2,0:0:0:0:
414,104,192886,1,2,0:0:0:0:
343,164,193062,2,0,L|395:216,1,74,10|0,0:0|0:0,0:0:0:0:
264,84,193415,2,0,P|295:105|314:135,1,74,0|0,0:0|0:0,0:0:0:0:
446,266,193768,2,0,P|415:287|395:317,1,74,8|2,0:0|0:0,0:0:0:0:
265,187,194121,2,0,P|254:203|239:212,1,37,0|2,0:0|0:0,0:0:0:0:
308,144,194298,1,2,0:0:0:0:
378,205,194474,2,0,L|326:153,1,74,8|0,0:0|0:0,0:0:0:0:
424,311,194827,6,0,L|372:363,1,74,0|0,0:0|0:0,0:0:0:0:
240,232,195180,2,0,P|219:264|190:283,1,74,8|0,0:0|0:0,0:0:0:0:
368,228,195533,2,0,L|420:176,1,74,2|0,0:0|0:0,0:0:0:0:
366,121,195798,1,2,0:0:0:0:
332,151,195886,2,0,P|302:128|268:118,1,74,10|0,0:0|0:0,0:0:0:0:
124,235,196239,2,0,P|156:214|175:185,1,74,0|0,0:0|0:0,0:0:0:0:
50,316,196592,2,0,P|83:334|105:362,1,74,8|0,0:0|0:0,0:0:0:0:
155,186,196945,1,0,0:0:0:0:
192,271,197121,1,2,0:0:0:0:
129,334,197298,2,0,P|97:355|78:384,1,74,8|2,0:0|0:0,0:0:0:0:
242,299,197651,6,0,L|190:352,1,74,2|0,0:0|0:0,0:0:0:0:
322,224,198004,1,8,0:0:0:0:
255,158,198180,1,0,0:0:0:0:
319,225,198357,2,0,L|363:285,1,74,2|2,0:0|0:0,0:0:0:0:
447,353,198709,1,8,0:0:0:0:
409,265,198886,1,0,0:0:0:0:
343,331,199062,2,0,P|307:343|272:341,1,74,2|0,0:0|0:0,0:0:0:0:
173,186,199415,1,10,0:0:0:0:
105,119,199592,1,0,0:0:0:0:
111,110,199680,1,0,0:0:0:0:
121,104,199768,2,0,P|100:73|70:53,1,74,0|2,0:0|0:0,0:0:0:0:
248,74,200121,2,0,P|269:105|299:125,1,74,10|0,0:0|0:0,0:0:0:0:
431,257,200474,6,0,L|483:205,1,74,0|0,0:0|0:0,0:0:0:0:
326,123,200827,2,0,P|295:102|275:72,1,74,10|2,0:0|0:0,0:0:0:0:
200,255,201180,2,0,P|221:287|250:306,1,74,2|0,0:0|0:0,0:0:0:0:
121,177,201533,1,8,0:0:0:0:
187,243,201709,1,0,0:0:0:0:
255,177,201886,2,0,L|307:230,1,74,2|2,0:0|0:0,0:0:0:0:
174,98,202239,2,0,P|153:129|123:149,1,74,8|0,0:0|0:0,0:0:0:0:
177,96,202504,1,2,0:0:0:0:
210,129,202592,2,0,P|231:98|261:78,1,74,0|2,0:0|0:0,0:0:0:0:
314,25,202857,1,0,0:0:0:0:
268,29,202945,2,0,P|284:39|293:54,1,37,10|2,0:0|0:0,0:0:0:0:
359,119,203121,1,2,0:0:0:0:
424,185,203298,6,0,P|445:216|475:236,1,74,2|0,0:0|0:0,0:0:0:0:
417,177,203562,1,0,0:0:0:0:
447,207,203651,2,0,P|478:186|498:156,1,74,8|0,0:0|0:0,0:0:0:0:
372,285,204004,2,0,P|403:264|423:234,1,74,2|2,0:0|0:0,0:0:0:0:
295,106,204357,2,0,P|316:75|347:56,1,74,10|0,0:0|0:0,0:0:0:0:
215,188,204709,2,0,P|227:152|251:126,1,74,0|2,0:0|0:0,0:0:0:0:
383,258,205062,2,0,L|331:310,1,74,10|0,0:0|0:0,0:0:0:0:
457,171,205415,2,0,P|488:192|508:222,1,74,2|2,0:0|0:0,0:0:0:0:
369,97,205768,2,0,P|390:66|420:46,1,74,8|0,0:0|0:0,0:0:0:0:
288,180,206121,6,0,P|309:149|339:129,1,74,2|2,0:0|0:0,0:0:0:0:
438,66,206474,2,0,P|417:34|388:15,1,74,8|2,0:0|0:0,0:0:0:0:
258,151,206827,2,0,P|237:120|207:100,1,74,2|2,0:0|0:0,0:0:0:0:
352,218,207180,2,0,L|404:166,1,74,8|0,0:0|0:0,0:0:0:0:
351,112,207445,1,2,0:0:0:0:
318,145,207533,2,0,P|297:176|267:196,1,74,0|2,0:0|0:0,0:0:0:0:
320,143,207798,1,2,0:0:0:0:
352,110,207886,2,0,L|300:58,1,74,8|0,0:0|0:0,0:0:0:0:
168,189,208239,2,0,L|223:238,1,74,2|2,0:0|0:0,0:0:0:0:
54,315,208592,2,0,P|78:344|110:360,1,74,10|0,0:0|0:0,0:0:0:0:
163,306,208856,1,0,0:0:0:0:
145,263,208945,6,0,P|114:242|94:212,1,74,2|0,0:0|0:0,0:0:0:0:
150,262,209209,1,0,0:0:0:0:
183,295,209298,2,0,L|137:353,1,74,10|0,0:0|0:0,0:0:0:0:
269,219,209651,2,0,P|247:250|217:269,1,74,0|0,0:0|0:0,0:0:0:0:
354,143,210004,2,0,P|385:122|404:92,1,74,10|0,0:0|0:0,0:0:0:0:
351,146,210268,1,0,0:0:0:0:
318,179,210356,2,0,P|339:148|369:128,1,74,0|2,0:0|0:0,0:0:0:0:
235,257,210709,2,0,L|242:331,1,74,10|0,0:0|0:0,0:0:0:0:
295,278,210974,1,2,0:0:0:0:
262,245,211062,2,0,L|210:297,1,74,2|2,0:0|0:0,0:0:0:0:
126,372,211415,2,0,P|148:341|155:306,1,74,8|2,0:0|0:0,0:0:0:0:
217,265,211680,1,0,0:0:0:0:
185,298,211768,6,0,P|206:267|236:247,1,74,2|0,0:0|0:0,0:0:0:0:
282,191,212033,1,0,0:0:0:0:
250,226,212121,2,0,P|282:206|302:176,1,74,10|0,0:0|0:0,0:0:0:0:
368,214,212386,1,0,0:0:0:0:
335,181,212474,2,0,L|387:233,1,74,0|2,0:0|0:0,0:0:0:0:
439,288,212739,1,2,0:0:0:0:
471,321,212827,2,0,P|450:290|420:270,1,74,8|0,0:0|0:0,0:0:0:0:
367,323,213092,1,0,0:0:0:0:
334,290,213180,2,0,L|282:342,1,74,0|0,0:0|0:0,0:0:0:0:
311,272,213445,1,0,0:0:0:0:
278,305,213533,2,0,L|226:253,1,74,10|2,0:0|0:0,0:0:0:0:
173,199,213798,1,2,0:0:0:0:
141,167,213886,1,0,0:0:0:0:
209,235,214062,1,0,0:0:0:0:
211,261,214151,1,0,0:0:0:0:
194,286,214239,2,0,P|214:318|243:338,1,74,10|2,0:0|0:0,0:0:0:0:
191,286,214504,1,2,0:0:0:0:
158,319,214592,6,0,P|172:332|180:348,1,37,0|2,0:0|0:0,0:0:0:0:
236,264,214768,1,2,0:0:0:0:
163,206,214945,2,0,P|184:237|214:256,1,74,8|2,0:0|0:0,0:0:0:0:
335,116,215298,2,0,L|283:64,1,74,0|0,0:0|0:0,0:0:0:0:
412,197,215651,2,0,P|443:218|463:248,1,74,10|2,0:0|0:0,0:0:0:0:
410,196,215915,1,2,0:0:0:0:
376,229,216004,1,0,0:0:0:0:
418,141,216180,1,0,0:0:0:0:
410,132,216268,1,0,0:0:0:0:
402,126,216356,2,0,P|423:157|453:177,1,74,8|0,0:0|0:0,0:0:0:0:
400,124,216621,1,0,0:0:0:0:
397,170,216709,2,0,P|376:201|346:221,1,74,2|0,0:0|0:0,0:0:0:0:
293,168,216974,1,2,0:0:0:0:
260,201,217062,2,0,L|286:227,1,37,8|2,0:0|0:0,0:0:0:0:
218,295,217239,1,2,0:0:0:0:
188,280,217327,1,2,0:0:0:0:
159,267,217415,6,0,P|180:236|210:216,1,74,2|2,0:0|0:0,0:0:0:0:
156,162,217680,1,2,0:0:0:0:
123,130,217768,2,0,P|133:114|148:105,1,37,10|0,0:0|0:0,0:0:0:0:
216,172,217945,1,0,0:0:0:0:
281,106,218121,2,0,P|308:132|322:165,1,74,2|2,0:0|0:0,0:0:0:0:
422,227,218474,2,0,L|448:253,1,37,10|2,0:0|0:0,0:0:0:0:
383,183,218651,1,0,0:0:0:0:
317,249,218827,2,0,P|333:238|342:224,1,37,2|0,0:0|0:0,0:0:0:0:
410,154,219004,1,0,0:0:0:0:
396,144,219092,1,0,0:0:0:0:
393,125,219180,2,0,P|362:104|343:74,1,74,10|2,0:0|0:0,0:0:0:0:
211,206,219533,2,0,P|195:217|186:231,1,37,2|2,0:0|0:0,0:0:0:0:
98,193,219709,1,0,0:0:0:0:
164,259,219886,2,0,L|190:233,1,37,10|0,0:0|0:0,0:0:0:0:
122,165,220062,1,2,0:0:0:0:
190,230,220239,6,0,L|242:177,1,74,0|2,0:0|0:0,0:0:0:0:
295,124,220504,1,0,0:0:0:0:
328,91,220592,2,0,P|291:100|263:121,1,74,8|2,0:0|0:0,0:0:0:0:
396,250,220945,2,0,P|412:260|421:275,1,37,2|2,0:0|0:0,0:0:0:0:
354,343,221121,1,2,0:0:0:0:
420,278,221298,2,0,P|404:268|394:253,1,37,8|0,0:0|0:0,0:0:0:0:
327,186,221474,1,2,0:0:0:0:
260,252,221651,2,0,P|276:262|285:277,1,37,0|2,0:0|0:0,0:0:0:0:
353,346,221827,1,2,0:0:0:0:
328,340,221915,1,0,0:0:0:0:
306,327,222004,2,0,P|285:296|255:276,1,74,10|2,0:0|0:0,0:0:0:0:
123,146,222356,1,2,0:0:0:0:
191,215,222533,1,0,0:0:0:0:
199,207,222621,1,2,0:0:0:0:
207,199,222709,2,0,P|196:183|182:174,1,37,10|2,0:0|0:0,0:0:0:0:
112,107,222886,1,2,0:0:0:0:
178,173,223062,6,0,P|188:189|203:198,1,37,0|0,0:0|0:0,0:0:0:0:
299,182,223239,1,0,0:0:0:0:
365,116,223415,2,0,L|339:142,1,37,8|0,0:0|0:0,0:0:0:0:
408,74,223592,1,0,0:0:0:0:
342,139,223768,2,0,P|326:129|317:114,1,37,2|0,0:0|0:0,0:0:0:0:
330,209,223945,1,2,0:0:0:0:
406,156,224121,2,0,P|422:166|431:181,1,37,8|0,0:0|0:0,0:0:0:0:
363,248,224298,1,0,0:0:0:0:
297,314,224474,2,0,P|276:283|246:263,1,74,2|2,0:0|0:0,0:0:0:0:
194,210,224739,1,0,0:0:0:0:
159,179,224827,2,0,P|128:158|108:128,1,74,8|0,0:0|0:0,0:0:0:0:
170,171,225092,1,2,0:0:0:0:
202,139,225180,2,0,P|223:170|253:190,1,74,0|0,0:0|0:0,0:0:0:0:
200,242,225445,1,2,0:0:0:0:
239,216,225533,2,0,L|211:191,1,37,10|0,0:0|0:0,0:0:0:0:
144,259,225709,1,0,0:0:0:0:
211,194,225886,6,0,P|190:225|160:245,1,74,0|0,0:0|0:0,0:0:0:0:
300,121,226239,2,0,P|308:138|321:150,1,37,10|0,0:0|0:0,0:0:0:0:
253,82,226415,1,2,0:0:0:0:
190,149,226592,2,0,L|182:185,1,37,0|0,0:0|0:0,0:0:0:0:
249,118,226768,1,0,0:0:0:0:
243,211,226945,2,0,P|208:196|184:170,1,74,8|2,0:0|0:0,0:0:0:0:
237,117,227209,1,0,0:0:0:0:
203,84,227298,1,0,0:0:0:0:
201,89,227386,1,2,0:0:0:0:
195,93,227474,1,0,0:0:0:0:
129,159,227651,2,0,L|181:107,1,74,10|2,0:0|0:0,0:0:0:0:
234,54,227915,1,0,0:0:0:0:
200,86,228004,2,0,P|178:117|148:136,1,74,2|2,0:0|0:0,0:0:0:0:
198,79,228268,1,2,0:0:0:0:
165,47,228356,2,0,L|139:73,1,37,10|0,0:0|0:0,0:0:0:0:
207,141,228533,1,2,0:0:0:0:
273,206,228709,6,0,L|247:180,1,37,2|2,0:0|0:0,0:0:0:0:
165,129,228886,1,2,0:0:0:0:
180,107,228974,1,2,0:0:0:0:
180,79,229062,2,0,P|217:85|247:104,1,74,8|2,0:0|0:0,0:0:0:0:
300,156,229327,1,2,0:0:0:0:
266,188,229415,2,0,P|297:167|317:137,1,74,0|0,0:0|0:0,0:0:0:0:
241,307,229768,2,0,P|231:291|216:282,1,37,8|0,0:0|0:0,0:0:0:0:
283,214,229945,1,0,0:0:0:0:
375,232,230121,2,0,L|402:206,1,37,0|0,0:0|0:0,0:0:0:0:
333,275,230298,1,2,0:0:0:0:
301,290,230386,1,0,0:0:0:0:
282,324,230474,2,0,P|303:293|333:273,1,74,10|0,0:0|0:0,0:0:0:0:
228,272,230739,1,0,0:0:0:0:
195,240,230827,2,0,L|143:188,1,74,2|0,0:0|0:0,0:0:0:0:
274,319,231180,2,0,P|262:304|246:296,1,37,10|0,0:0|0:0,0:0:0:0:
179,229,231356,1,0,0:0:0:0:
113,161,231533,6,0,P|92:130|62:110,1,74,2|0,0:0|0:0,0:0:0:0:
199,237,231886,2,0,L|217:309,1,74,10|2,0:0|0:0,0:0:0:0:
288,287,232151,1,0,0:0:0:0:
321,320,232239,2,0,L|269:372,1,74,0|0,0:0|0:0,0:0:0:0:
400,241,232592,2,0,P|410:257|425:266,1,37,10|0,0:0|0:0,0:0:0:0:
358,198,232768,1,2,0:0:0:0:
422,267,232945,2,0,L|392:289,1,37,0|0,0:0|0:0,0:0:0:0:
331,362,233121,1,2,0:0:0:0:
397,297,233298,2,0,P|428:318|448:348,1,74,10|2,0:0|0:0,0:0:0:0:
366,182,233651,1,0,0:0:0:0:
434,250,233827,1,2,0:0:0:0:
443,255,233915,1,0,0:0:0:0:
446,268,234003,2,0,P|436:284|421:293,1,37,8|0,0:0|0:0,0:0:0:0:
358,366,234180,1,2,0:0:0:0:
427,303,234356,6,0,P|406:272|376:252,1,74,0|0,0:0|0:0,0:0:0:0:
323,200,234621,1,2,0:0:0:0:
284,226,234709,2,0,L|232:278,1,74,8|2,0:0|0:0,0:0:0:0:
229,92,235062,2,0,L|177:144,1,74,0|2,0:0|0:0,0:0:0:0:
103,161,235327,1,0,0:0:0:0:
136,193,235415,2,0,L|108:217,1,37,8|2,0:0|0:0,0:0:0:0:
40,149,235592,1,0,0:0:0:0:
97,75,235768,2,0,L|123:101,1,37,2|0,0:0|0:0,0:0:0:0:
54,170,235945,1,0,0:0:0:0:
117,239,236121,2,0,L|169:291,1,74,10|2,0:0|0:0,0:0:0:0:
239,317,236386,1,2,0:0:0:0:
193,318,236474,2,0,L|161:299,1,37,2|2,0:0|0:0,0:0:0:0:
261,249,236651,1,2,0:0:0:0:
255,240,236739,1,0,0:0:0:0:
245,235,236827,2,0,L|193:287,1,74,10|0,0:0|0:0,0:0:0:0:
347,182,237180,6,0,L|321:156,1,37,0|0,0:0|0:0,0:0:0:0:
251,221,237356,1,2,0:0:0:0:
186,155,237533,2,0,P|155:134|135:104,1,74,8|2,0:0|0:0,0:0:0:0:
194,281,237886,2,0,P|204:265|219:256,1,37,0|2,0:0|0:0,0:0:0:0:
151,323,238062,1,0,0:0:0:0:
176,315,238151,1,2,0:0:0:0:
202,308,238239,1,8,0:0:0:0:
210,341,238327,1,2,0:0:0:0:
198,377,238415,1,2,0:0:0:0:
129,312,238592,2,0,P|160:333|179:363,1,74,2|0,0:0|0:0,0:0:0:0:
233,310,238856,1,2,0:0:0:0:
240,264,238945,2,0,P|209:243|189:213,1,74,10|2,0:0|0:0,0:0:0:0:
57,83,239298,1,0,0:0:0:0:
125,150,239474,1,2,0:0:0:0:
59,216,239651,2,0,P|69:200|84:190,1,37,8|2,0:0|0:0,0:0:0:0:
152,123,239827,1,0,0:0:0:0:
84,187,240003,6,0,L|137:135,1,74,0|2,0:0|0:0,0:0:0:0:
215,318,240356,2,0,P|203:282|179:256,1,74,10|2,0:0|0:0,0:0:0:0:
232,310,240621,1,0,0:0:0:0:
248,267,240709,2,0,L|196:320,1,74,0|0,0:0|0:0,0:0:0:0:
327,189,241062,2,0,P|298:164|283:132,1,74,10|0,0:0|0:0,0:0:0:0:
345,175,241327,1,2,0:0:0:0:
378,208,241415,2,0,P|347:187|327:157,1,74,0|0,0:0|0:0,0:0:0:0:
148,204,241768,2,0,P|158:188|173:179,1,37,8|0,0:0|0:0,0:0:0:0:
241,110,241945,1,2,0:0:0:0:
307,176,242121,2,0,L|355:233,1,74,2|2,0:0|0:0,0:0:0:0:
183,305,242474,2,0,P|151:325|132:355,1,74,10|0,0:0|0:0,0:0:0:0:
334,194,242827,6,0,L|281:143,1,74,0|0,0:0|0:0,0:0:0:0:
159,282,243180,2,0,P|179:314|208:335,1,74,8|2,0:0|0:0,0:0:0:0:
261,282,243445,1,2,0:0:0:0:
298,254,243533,2,0,P|276:223|246:204,1,74,0|0,0:0|0:0,0:0:0:0:
115,70,243886,2,0,L|178:31,1,74,10|2,0:0|0:0,0:0:0:0:
311,163,244239,2,0,P|332:194|362:214,1,74,0|2,0:0|0:0,0:0:0:0:
228,347,244592,2,0,L|176:295,1,74,10|0,0:0|0:0,0:0:0:0:
187,220,244856,1,0,0:0:0:0:
223,251,244945,2,0,P|255:231|275:202,1,74,2|0,0:0|0:0,0:0:0:0:
403,336,245298,2,0,P|378:308|345:293,1,74,8|2,0:0|0:0,0:0:0:0:
271,204,245651,6,0,P|288:171|316:148,1,74,0|0,0:0|0:0,0:0:0:0:
255,104,245915,1,0,0:0:0:0:
295,126,246003,2,0,P|259:138|233:161,1,74,10|0,0:0|0:0,0:0:0:0:
364,293,246356,2,0,P|348:303|338:318,1,37,0|0,0:0|0:0,0:0:0:0:
271,250,246533,1,0,0:0:0:0:
294,263,246621,1,2,0:0:0:0:
324,262,246709,2,0,P|293:283|273:313,1,74,10|0,0:0|0:0,0:0:0:0:
328,133,247062,2,0,P|359:154|379:184,1,74,2|0,0:0|0:0,0:0:0:0:
340,250,247327,1,2,0:0:0:0:
309,216,247415,2,0,P|331:247|361:266,1,74,10|0,0:0|0:0,0:0:0:0:
190,72,247768,2,0,P|221:51|241:21,1,74,0|2,0:0|0:0,0:0:0:0:
373,154,248121,2,0,P|342:133|322:103,1,74,8|0,0:0|0:0,0:0:0:0:
377,51,248386,1,0,0:0:0:0:
410,18,248474,6,0,L|358:70,1,74,2|2,0:0|0:0,0:0:0:0:
410,123,248739,1,2,0:0:0:0:
444,91,248827,2,0,P|413:112|393:142,1,74,10|0,0:0|0:0,0:0:0:0:
262,275,249180,2,0,P|231:254|212:224,1,74,2|2,0:0|0:0,0:0:0:0:
158,278,249445,1,2,0:0:0:0:
201,294,249533,2,0,P|232:315|252:345,1,74,10|2,0:0|0:0,0:0:0:0:
203,289,249798,1,2,0:0:0:0:
238,258,249886,2,0,L|304:291,1,74,2|0,0:0|0:0,0:0:0:0:
353,232,250151,1,2,0:0:0:0:
387,265,250239,2,0,P|419:285|439:315,1,74,8|2,0:0|0:0,0:0:0:0:
319,169,250592,2,0,P|298:138|268:118,1,74,2|0,0:0|0:0,0:0:0:0:
111,19,250945,2,0,P|80:41|61:71,1,74,10|0,0:0|0:0,0:0:0:0:
234,142,251298,6,0,L|288:91,1,74,0|2,0:0|0:0,0:0:0:0:
235,144,251562,1,0,0:0:0:0:
265,180,251651,2,0,P|276:144|299:117,1,74,8|0,0:0|0:0,0:0:0:0:
433,251,252003,1,0,0:0:0:0:
432,257,252092,1,2,0:0:0:0:
428,263,252180,1,0,0:0:0:0:
427,230,252268,1,2,0:0:0:0:
458,205,252356,2,0,L|406:152,1,74,10|0,0:0|0:0,0:0:0:0:
459,206,252621,1,0,0:0:0:0:
428,172,252709,2,0,P|458:195|476:226,1,74,2|0,0:0|0:0,0:0:0:0:
422,278,252974,1,0,0:0:0:0:
389,311,253062,2,0,P|411:280|441:262,1,74,8|2,0:0|0:0,0:0:0:0:
384,310,253327,1,0,0:0:0:0:
417,277,253415,1,0,0:0:0:0:
406,254,253503,1,2,0:0:0:0:
416,227,253592,1,2,0:0:0:0:
389,230,253680,1,2,0:0:0:0:
365,212,253768,2,0,L|313:160,1,74,8|0,0:0|0:0,0:0:0:0:
399,326,254121,6,0,P|420:357|450:377,1,74,2|0,0:0|0:0,0:0:0:0:
395,324,254386,1,0,0:0:0:0:
369,361,254474,2,0,L|422:310,1,74,10|0,0:0|0:0,0:0:0:0:
237,290,254827,2,0,P|216:259|186:239,1,74,2|0,0:0|0:0,0:0:0:0:
321,110,255180,2,0,L|265:62,1,74,8|0,0:0|0:0,0:0:0:0:
319,10,255445,1,2,0:0:0:0:
284,41,255533,2,0,L|337:93,1,74,0|2,0:0|0:0,0:0:0:0:
240,102,255798,1,0,0:0:0:0:
208,135,255886,2,0,P|229:166|259:186,1,74,8|0,0:0|0:0,0:0:0:0:
127,317,256239,2,0,P|106:348|76:368,1,74,2|2,0:0|0:0,0:0:0:0:
23,314,256503,1,0,0:0:0:0:
56,347,256592,2,0,P|35:316|5:296,1,74,10|2,0:0|0:0,0:0:0:0:
138,164,256945,5,2,0:0:0:0:
206,233,257121,1,2,0:0:0:0:
212,241,257209,1,0,0:0:0:0:
221,248,257298,2,0,P|252:227|272:197,1,74,10|2,0:0|0:0,0:0:0:0:
142,332,257651,2,0,P|163:363|193:383,1,74,0|2,0:0|0:0,0:0:0:0:
196,279,257915,1,2,0:0:0:0:
228,246,258003,2,0,P|259:267|279:297,1,74,10|0,0:0|0:0,0:0:0:0:
227,351,258268,1,0,0:0:0:0:
260,318,258356,2,0,L|208:370,1,74,0|2,0:0|0:0,0:0:0:0:
338,238,258709,2,0,P|307:259|287:289,1,74,8|0,0:0|0:0,0:0:0:0:
235,236,258974,1,0,0:0:0:0:
268,203,259062,2,0,P|273:166|264:131,1,74,0|0,0:0|0:0,0:0:0:0:
394,1,259415,2,0,L|342:53,1,74,10|0,0:0|0:0,0:0:0:0:
289,106,259680,1,0,0:0:0:0:
305,62,259768,6,0,L|357:10,1,74,0|2,0:0|0:0,0:0:0:0:
173,194,260121,2,0,P|204:173|224:143,1,74,8|2,0:0|0:0,0:0:0:0:
171,195,260386,1,0,0:0:0:0:
138,228,260474,1,2,0:0:0:0:
71,297,260650,1,2,0:0:0:0:
81,300,260739,1,0,0:0:0:0:
86,312,260827,2,0,P|107:281|137:261,1,74,10|0,0:0|0:0,0:0:0:0:
191,315,261092,1,2,0:0:0:0:
224,348,261180,2,0,L|172:296,1,74,2|0,0:0|0:0,0:0:0:0:
119,243,261445,1,2,0:0:0:0:
86,276,261533,2,0,L|34:328,1,74,8|0,0:0|0:0,0:0:0:0:
218,142,261886,2,0,P|250:122|270:92,1,74,2|0,0:0|0:0,0:0:0:0:
120,206,262239,2,0,P|152:187|173:158,1,74,10|2,0:0|0:0,0:0:0:0:
305,290,262592,6,0,P|336:312|354:342,1,74,0|0,0:0|0:0,0:0:0:0:
221,212,262945,2,0,P|242:243|272:262,1,74,8|2,0:0|0:0,0:0:0:0:
370,103,263298,2,0,L|422:51,1,74,2|2,0:0|0:0,0:0:0:0:
287,177,263650,2,0,L|238:122,1,74,10|0,0:0|0:0,0:0:0:0:
108,249,264003,2,0,P|83:277|50:292,1,74,0|0,0:0|0:0,0:0:0:0:
178,165,264356,2,0,P|199:134|229:114,1,74,10|2,0:0|0:0,0:0:0:0:
351,236,264709,1,2,0:0:0:0:
433,273,264886,1,0,0:0:0:0:
496,328,265062,1,8,0:0:0:0:
432,262,265239,1,0,0:0:0:0:
497,200,265415,6,0,P|476:169|446:149,1,74,2|0,0:0|0:0,0:0:0:0:
320,277,265768,2,0,P|299:246|269:226,1,74,8|0,0:0|0:0,0:0:0:0:
142,353,266121,1,2,0:0:0:0:
208,287,266298,1,2,0:0:0:0:
224,198,266474,1,8,0:0:0:0:
151,256,266650,1,2,0:0:0:0:
229,209,266827,2,0,P|260:188|279:158,1,74,2|2,0:0|0:0,0:0:0:0:
407,31,267180,1,8,0:0:0:0:
314,35,267356,1,2,0:0:0:0:
251,98,267533,2,0,P|270:131|299:152,1,74,0|2,0:0|0:0,0:0:0:0:
174,276,267886,1,10,0:0:0:0:
114,348,268062,1,2,0:0:0:0:
160,269,268239,6,0,P|184:298|215:315,1,74,0|2,0:0|0:0,0:0:0:0:
115,166,268592,2,0,P|146:145|166:115,1,74,8|2,0:0|0:0,0:0:0:0:
13,209,268945,1,0,0:0:0:0:
79,275,269121,1,0,0:0:0:0:
143,339,269298,1,10,0:0:0:0:
168,249,269474,1,2,0:0:0:0:
192,336,269650,2,0,P|224:315|243:286,1,74,2|2,0:0|0:0,0:0:0:0:
118,159,270003,2,0,P|92:187|60:201,1,74,10|0,0:0|0:0,0:0:0:0:
186,329,270356,1,0,0:0:0:0:
259,274,270533,1,0,0:0:0:0:
196,211,270709,1,8,0:0:0:0:
261,277,270886,1,2,0:0:0:0:
188,333,271062,6,0,P|225:342|253:363,1,74,0|0,0:0|0:0,0:0:0:0:
378,232,271415,2,0,P|357:201|327:181,1,74,10|2,0:0|0:0,0:0:0:0:
477,72,271768,1,2,0:0:0:0:
409,141,271945,1,2,0:0:0:0:
433,152,272033,1,2,0:0:0:0:
460,156,272121,1,8,0:0:0:0:
390,90,272298,1,2,0:0:0:0:
399,183,272474,2,0,L|347:235,1,74,2|0,0:0|0:0,0:0:0:0:
293,182,272739,1,2,0:0:0:0:
333,206,272827,2,0,P|312:237|282:257,1,74,10|2,0:0|0:0,0:0:0:0:
150,126,273180,2,0,P|128:96|97:78,1,74,2|2,0:0|0:0,0:0:0:0:
226,207,273533,2,0,P|195:186|175:156,1,74,8|2,0:0|0:0,0:0:0:0:
306,287,273886,6,0,L|358:235,1,74,2|0,0:0|0:0,0:0:0:0:
228,104,274239,1,8,0:0:0:0:
316,140,274415,1,0,0:0:0:0:
251,75,274592,1,2,0:0:0:0:
258,103,274680,1,0,0:0:0:0:
244,134,274768,2,0,L|299:84,1,74,2|8,0:0|0:0,0:0:0:0:
169,219,275121,1,2,0:0:0:0:
234,284,275298,2,0,P|255:315|285:335,1,74,0|2,0:0|0:0,0:0:0:0:
412,203,275650,1,8,0:0:0:0:
344,136,275827,1,2,0:0:0:0:
280,200,276003,2,0,P|296:190|305:175,1,37,2|2,0:0|0:0,0:0:0:0:
241,239,276180,1,0,0:0:0:0:
176,300,276356,2,0,L|113:339,1,74,10|2,0:0|0:0,0:0:0:0:
242,209,276709,6,0,L|184:255,1,74,2|0,0:0|0:0,0:0:0:0:
315,125,277062,1,8,0:0:0:0:
247,193,277239,1,2,0:0:0:0:
222,218,277327,1,0,0:0:0:0:
197,244,277415,2,0,L|145:192,1,74,2|2,0:0|0:0,0:0:0:0:
91,139,277680,1,2,0:0:0:0:
59,171,277768,2,0,P|74:136|100:112,1,74,10|2,0:0|0:0,0:0:0:0:
147,294,278121,2,0,L|95:242,1,74,0|0,0:0|0:0,0:0:0:0:
201,92,278474,2,0,P|176:64|143:49,1,74,10|0,0:0|0:0,0:0:0:0:
332,223,278827,2,0,P|301:202|281:172,1,74,0|2,0:0|0:0,0:0:0:0:
410,302,279180,2,0,P|373:311|345:332,1,74,8|0,0:0|0:0,0:0:0:0:
190,226,279533,6,0,L|235:285,1,74,0|0,0:0|0:0,0:0:0:0:
365,154,279886,1,8,0:0:0:0:
432,222,280062,1,0,0:0:0:0:
364,285,280239,2,0,P|380:275|389:260,1,37,0|0,0:0|0:0,0:0:0:0:
322,192,280415,1,0,0:0:0:0:
388,258,280592,2,0,L|336:205,1,74,8|0,0:0|0:0,0:0:0:0:
203,73,280945,2,0,P|224:104|254:124,1,74,0|2,0:0|0:0,0:0:0:0:
208,303,281298,2,0,L|277:331,1,74,10|0,0:0|0:0,0:0:0:0:
260,251,281562,1,2,0:0:0:0:
293,284,281650,2,0,L|267:258,1,37,2|0,0:0|0:0,0:0:0:0:
199,190,281827,1,0,0:0:0:0:
216,159,281915,1,2,0:0:0:0:
249,139,282003,2,0,P|270:108|300:88,1,74,8|2,0:0|0:0,0:0:0:0:
167,221,282356,6,0,P|136:200|116:170,1,74,0|0,0:0|0:0,0:0:0:0:
253,296,282709,2,0,L|201:348,1,74,8|2,0:0|0:0,0:0:0:0:
254,295,282974,1,2,0:0:0:0:
221,327,283062,2,0,P|242:296|272:276,1,74,0|0,0:0|0:0,0:0:0:0:
325,329,283327,1,0,0:0:0:0:
293,362,283415,2,0,L|267:336,1,37,8|0,0:0|0:0,0:0:0:0:
198,268,283592,1,0,0:0:0:0:
264,202,283768,2,0,P|296:222|331:228,1,74,2|2,0:0|0:0,0:0:0:0:
200,97,284121,2,0,P|221:66|251:46,1,74,10|0,0:0|0:0,0:0:0:0:
123,173,284474,2,0,L|192:146,1,74,2|2,0:0|0:0,0:0:0:0:
63,274,284827,2,0,P|32:253|13:222,1,74,8|0,0:0|0:0,0:0:0:0:
139,348,285180,6,0,P|108:327|88:297,1,74,2|2,0:0|0:0,0:0:0:0:
213,173,285533,2,0,P|192:142|162:122,1,74,8|2,0:0|0:0,0:0:0:0:
285,246,285886,2,0,P|316:225|336:195,1,74,0|2,0:0|0:0,0:0:0:0:
458,317,286239,2,0,P|489:338|509:368,1,74,8|2,0:0|0:0,0:0:0:0:
336,198,286592,2,0,P|306:175|288:144,1,74,2|2,0:0|0:0,0:0:0:0:
404,260,286945,2,0,L|456:208,1,74,8|2,0:0|0:0,0:0:0:0:
293,253,287297,2,0,P|258:268|234:294,1,74,0|0,0:0|0:0,0:0:0:0:
349,178,287650,2,0,P|318:157|298:127,1,74,8|0,0:0|0:0,0:0:0:0:
285,286,288003,6,0,L|385:177,1,148,2|0,0:0|0:0,0:0:0:0:
204,136,288533,1,2,0:0:0:0:
262,189,288709,2,0,P|304:252|364:290,1,148,0|0,0:0|0:0,0:0:0:0:
112,189,289415,2,0,P|154:126|213:87,1,148,0|2,0:0|0:0,0:0:0:0:
241,344,290121,2,0,P|178:302|139:243,1,148,0|2,0:0|0:0,0:0:0:0:
31,0,290827,6,0,P|87:51|117:115,1,148,2|0,0:0|0:0,0:0:0:0:
