osu file format v14

[General]
AudioFilename: audio.mp3
AudioLeadIn: 0
PreviewTime: 122486
Countdown: 0
SampleSet: Soft
StackLeniency: 0.3
Mode: 0
LetterboxInBreaks: 0
EpilepsyWarning: 1
WidescreenStoryboard: 1

[Editor]
Bookmarks: 23663,28957,34957,57545,61692,80133,91427,114016,136957,170486,181780,214251,226957,261192,294722,306016
DistanceSpacing: 1.2
BeatDivisor: 4
GridSize: 4
TimelineZoom: 2.46

[Metadata]
Title:Jingle (DJ Genki Remix)
TitleUnicode:Jingle (DJ Genki Remix)
Artist:DJ Noriken
ArtistUnicode:DJ Noriken
Creator:Alfarai
Version:Illumination
Source:
Tags:SKETCH UP! REMIXIES Twice! jcore nsticity heanday
BeatmapID:1725396
BeatmapSetID:823292

[Difficulty]
HPDrainRate:5.5
CircleSize:4.2
OverallDifficulty:8.5
ApproachRate:9.3
SliderMultiplier:1.9
SliderTickRate:1

[Events]
//Background and Video events
0,0,"unknown.jpg",0,0
//Break Periods
//Storyboard Layer 0 (Background)
//Storyboard Layer 1 (Fail)
//Storyboard Layer 2 (Pass)
//Storyboard Layer 3 (Foreground)
//Storyboard Sound Samples

[TimingPoints]
1075,352.941176470588,4,2,1,50,1,0
1075,-166.666666666667,4,2,1,50,0,0
1427,-100,4,2,1,50,0,0
1780,-166.666666666667,4,2,1,50,0,0
2133,-100,4,2,1,50,0,0
2486,-166.666666666667,4,2,1,50,0,0
2839,-100,4,2,1,50,0,0
3192,-166.666666666667,4,2,1,50,0,0
3545,-100,4,2,1,50,0,0
3898,-166.666666666667,4,2,1,50,0,0
4251,-100,4,2,1,50,0,0
4604,-166.666666666667,4,2,1,50,0,0
4957,-100,4,2,1,50,0,0
5310,-166.666666666667,4,2,1,50,0,0
5663,-100,4,2,1,50,0,0
6016,-166.666666666667,4,2,1,50,0,0
6369,-100,4,2,1,50,0,0
6722,-166.666666666667,4,2,1,50,0,0
7074,-100,4,2,1,50,0,0
7427,-166.666666666667,4,2,1,50,0,0
7780,-100,4,2,1,50,0,0
8133,-166.666666666667,4,2,1,50,0,0
8486,-100,4,2,1,50,0,0
8839,-166.666666666667,4,2,1,50,0,0
9192,-100,4,2,1,50,0,0
9545,-166.666666666667,4,2,1,50,0,0
9898,-100,4,2,1,50,0,0
10251,-166.666666666667,4,2,1,50,0,0
10604,-100,4,2,1,50,0,0
10957,-166.666666666667,4,2,1,50,0,0
11310,-100,4,2,1,50,0,0
11663,-166.666666666667,4,2,1,50,0,0
12016,-100,4,2,1,50,0,0
12722,-133.333333333333,4,2,2,30,0,0
17222,-133.333333333333,4,2,5,40,0,0
17398,-133.333333333333,4,2,5,5,0,0
17486,-133.333333333333,4,2,5,40,0,0
17663,-133.333333333333,4,2,2,40,0,0
17839,-133.333333333333,4,2,5,40,0,0
17927,-133.333333333333,4,2,2,40,0,0
18369,-133.333333333333,4,2,2,40,0,0
18545,-133.333333333333,4,2,5,40,0,0
18810,-133.333333333333,4,2,2,40,0,0
18898,-133.333333333333,4,2,5,40,0,0
18986,-133.333333333333,4,2,2,40,0,0
19251,-133.333333333333,4,2,5,40,0,0
19339,-133.333333333333,4,2,2,40,0,0
19427,-133.333333333333,4,2,5,40,0,0
19780,-133.333333333333,4,2,2,40,0,0
19957,-133.333333333333,4,2,5,40,0,0
20222,-133.333333333333,4,2,2,40,0,0
20310,-133.333333333333,4,2,5,40,0,0
20398,-133.333333333333,4,2,2,40,0,0
20663,-133.333333333333,4,2,5,40,0,0
20751,-133.333333333333,4,2,2,40,0,0
20839,-133.333333333333,4,2,5,40,0,0
21104,-133.333333333333,4,2,2,40,0,0
21369,-133.333333333333,4,2,5,40,0,0
21457,-133.333333333333,4,2,2,40,0,0
21545,-133.333333333333,4,2,5,40,0,0
21810,-133.333333333333,4,2,2,40,0,0
22074,-133.333333333333,4,2,5,40,0,0
23486,-153.846153846153,4,2,4,20,0,0
23663,-153.846153846153,4,2,6,25,0,0
30192,-133.333333333333,4,2,4,33,0,0
30369,-133.333333333333,4,2,4,36,0,0
30722,-133.333333333333,4,2,4,40,0,0
30898,-133.333333333333,4,2,4,42,0,0
31074,-133.333333333333,4,2,4,44,0,0
31251,-133.333333333333,4,2,4,46,0,0
31427,-133.333333333333,4,2,4,48,0,0
31604,-133.333333333333,4,2,4,50,0,0
31780,-133.333333333333,4,2,4,55,0,0
32133,-133.333333333333,4,2,4,60,0,0
33369,-200,4,2,1,35,0,0
34957,-133.333333333333,4,2,3,40,0,0
35486,-133.333333333333,4,2,3,25,0,0
36369,-133.333333333333,4,2,3,40,0,0
36898,-133.333333333333,4,2,3,25,0,0
37780,-133.333333333333,4,2,3,40,0,0
38310,-133.333333333333,4,2,3,25,0,0
39192,-133.333333333333,4,2,3,40,0,0
39722,-133.333333333333,4,2,3,40,0,0
40604,-133.333333333333,4,2,3,40,0,0
41133,-133.333333333333,4,2,3,25,0,0
42016,-133.333333333333,4,2,3,40,0,0
42545,-133.333333333333,4,2,3,25,0,0
43427,-133.333333333333,4,2,3,40,0,0
43957,-133.333333333333,4,2,3,25,0,0
44839,-133.333333333333,4,2,3,40,0,0
45369,-133.333333333333,4,2,3,20,0,0
46251,-133.333333333333,4,2,3,40,0,0
46780,-133.333333333333,4,2,3,25,0,0
47663,-133.333333333333,4,2,3,40,0,0
48192,-133.333333333333,4,2,3,25,0,0
49074,-133.333333333333,4,2,3,40,0,0
49604,-133.333333333333,4,2,3,25,0,0
50486,-133.333333333333,4,2,3,40,0,0
51016,-133.333333333333,4,2,3,25,0,0
51898,-133.333333333333,4,2,3,40,0,0
52427,-133.333333333333,4,2,3,25,0,0
53310,-133.333333333333,4,2,3,40,0,0
53839,-133.333333333333,4,2,3,25,0,0
54722,-133.333333333333,4,2,3,40,0,0
55251,-133.333333333333,4,2,3,25,0,0
57545,-133.333333333333,4,2,3,45,0,0
57722,-133.333333333333,4,2,3,35,0,0
58074,-133.333333333333,4,2,3,45,0,0
58251,-133.333333333333,4,2,3,35,0,0
58604,-133.333333333333,4,2,3,45,0,0
58780,-133.333333333333,4,2,3,35,0,0
58957,-133.333333333333,4,2,3,45,0,0
59133,-133.333333333333,4,2,3,35,0,0
59486,-133.333333333333,4,2,3,45,0,0
59663,-133.333333333333,4,2,3,35,0,0
60016,-133.333333333333,4,2,3,45,0,0
60192,-133.333333333333,4,2,3,35,0,0
60369,-133.333333333333,4,2,3,45,0,0
60545,-133.333333333333,4,2,3,35,0,0
60898,-133.333333333333,4,2,3,45,0,0
61074,-133.333333333333,4,2,3,35,0,0
61427,-133.333333333333,4,2,3,45,0,0
61604,-133.333333333333,4,2,3,35,0,0
61780,-133.333333333333,4,2,3,45,0,0
61957,-133.333333333333,4,2,3,35,0,0
62310,-133.333333333333,4,2,3,45,0,0
62486,-133.333333333333,4,2,3,35,0,0
62839,-133.333333333333,4,2,3,45,0,0
63016,-133.333333333333,4,2,3,35,0,0
63192,-133.333333333333,4,2,3,45,0,0
63369,-133.333333333333,4,2,3,35,0,0
63722,-133.333333333333,4,2,3,45,0,0
63898,-133.333333333333,4,2,3,35,0,0
64251,-133.333333333333,4,2,3,45,0,0
64427,-133.333333333333,4,2,3,35,0,0
64604,-133.333333333333,4,2,3,45,0,0
64780,-133.333333333333,4,2,3,35,0,0
65133,-133.333333333333,4,2,3,45,0,0
65310,-133.333333333333,4,2,3,35,0,0
65663,-133.333333333333,4,2,3,45,0,0
65839,-133.333333333333,4,2,3,35,0,0
66016,-133.333333333333,4,2,3,45,0,0
66192,-133.333333333333,4,2,3,35,0,0
66545,-133.333333333333,4,2,3,45,0,0
66722,-133.333333333333,4,2,3,35,0,0
67074,-133.333333333333,4,2,3,45,0,0
67251,-133.333333333333,4,2,3,35,0,0
67427,-133.333333333333,4,2,3,45,0,0
67604,-133.333333333333,4,2,3,35,0,0
67957,-133.333333333333,4,2,3,45,0,0
68133,-133.333333333333,4,2,3,35,0,0
68486,-133.333333333333,4,2,3,45,0,0
68663,-133.333333333333,4,2,3,35,0,0
68839,-133.333333333333,4,2,3,55,0,0
79427,-200,4,2,4,55,0,0
79604,-200,4,2,4,35,0,0
79780,-200,4,2,4,55,0,0
79957,-200,4,2,4,35,0,0
80133,-200,4,2,4,35,0,0
91427,-200,4,2,4,55,0,0
91604,-200,4,2,4,15,0,0
91957,-200,4,2,4,55,0,0
92133,-200,4,2,4,15,0,0
92486,-200,4,2,4,55,0,0
93016,-200,4,2,4,15,0,0
93369,-200,4,2,4,55,0,0
93545,-200,4,2,4,15,0,0
93898,-200,4,2,4,55,0,0
94427,-200,4,2,4,15,0,0
94780,-200,4,2,4,55,0,0
94957,-200,4,2,4,15,0,0
95310,-200,4,2,4,55,0,0
95839,-200,4,2,4,15,0,0
96192,-200,4,2,4,55,0,0
96986,-200,4,2,4,5,0,0
97074,-200,4,2,4,55,0,0
97251,-200,4,2,4,15,0,0
97604,-200,4,2,4,55,0,0
97780,-200,4,2,4,15,0,0
98133,-200,4,2,4,55,0,0
98663,-200,4,2,4,15,0,0
99016,-200,4,2,4,55,0,0
99192,-200,4,2,4,15,0,0
99545,-200,4,2,4,55,0,0
100074,-200,4,2,4,15,0,0
100427,-200,4,2,4,55,0,0
101310,-200,4,2,4,15,0,0
102369,-83.3333333333333,4,2,1,50,0,0
102547,-83.3333333333333,4,2,1,10,0,0
102722,-100,4,2,3,50,0,0
102898,-100,4,2,3,15,0,0
103251,-100,4,2,3,50,0,0
103516,-100,4,2,3,15,0,0
103780,-200,4,2,3,50,0,0
103957,-200,4,2,3,40,0,0
105192,-83.3333333333333,4,2,1,60,0,0
105369,-83.3333333333333,4,2,1,10,0,0
105545,-100,4,2,3,50,0,0
105722,-100,4,2,3,15,0,0
106074,-100,4,2,3,50,0,0
106339,-100,4,2,3,20,0,0
106604,-83.3333333333333,4,2,1,60,0,0
106780,-83.3333333333333,4,2,1,10,0,0
106957,-200,4,2,3,50,0,0
108016,-83.3333333333333,4,2,1,60,0,0
108192,-83.3333333333333,4,2,1,10,0,0
108369,-100,4,2,3,50,0,0
108633,-100,4,2,3,20,0,0
108898,-100,4,2,3,50,0,0
109427,-200,4,2,3,50,0,0
109604,-200,4,2,3,40,0,0
110839,-83.3333333333333,4,2,1,50,0,0
111016,-83.3333333333333,4,2,1,10,0,0
111192,-100,4,2,3,50,0,0
112251,-83.3333333333333,4,2,1,60,0,0
112427,-83.3333333333333,4,2,1,10,0,0
112604,-100,4,2,3,50,0,0
113839,-83.3333333333333,4,2,1,60,0,0
114016,-100,4,2,1,65,0,0
116486,-200,4,2,1,60,0,0
116839,-100,4,2,1,60,0,0
117016,-100,4,2,1,20,0,0
117192,-100,4,2,1,60,0,0
117898,-200,4,2,1,50,0,0
118251,-100,4,2,1,50,0,0
119310,-200,4,2,1,50,0,0
119663,-100,4,2,1,60,0,0
124074,-100,4,3,0,50,0,0
124957,-333.333333333333,4,2,1,50,0,0
125310,-83.3333333333333,4,2,1,60,0,1
126633,-83.3333333333333,4,2,1,5,0,1
126722,-83.3333333333333,4,2,1,60,0,1
126986,-83.3333333333333,4,2,1,5,0,1
127074,-83.3333333333333,4,2,1,60,0,1
127339,-83.3333333333333,4,2,1,5,0,1
127427,-83.3333333333333,4,2,1,60,0,1
128045,-83.3333333333333,4,2,1,5,0,1
128133,-83.3333333333333,4,2,1,60,0,1
129457,-83.3333333333333,4,2,1,5,0,1
129545,-83.3333333333333,4,2,1,60,0,1
129722,-76.9230769230769,4,2,1,60,0,1
129810,-83.3333333333333,4,2,1,5,0,1
129898,-83.3333333333333,4,2,1,60,0,1
130074,-71.4285714285714,4,2,1,60,0,1
130163,-83.3333333333333,4,2,1,5,0,1
130251,-83.3333333333333,4,2,1,60,0,1
132280,-83.3333333333333,4,2,1,5,0,1
132369,-83.3333333333333,4,2,1,60,0,1
132633,-83.3333333333333,4,2,1,5,0,1
132722,-83.3333333333333,4,2,1,60,0,1
132986,-83.3333333333333,4,2,1,5,0,1
133074,-83.3333333333333,4,2,1,60,0,1
133692,-83.3333333333333,4,2,1,5,0,1
133780,-83.3333333333333,4,2,1,60,0,1
135104,-83.3333333333333,4,2,1,5,0,1
135192,-83.3333333333333,4,2,1,60,0,1
135369,-76.9230769230769,4,2,1,60,0,1
135457,-83.3333333333333,4,2,1,5,0,1
135545,-83.3333333333333,4,2,1,60,0,1
135722,-71.4285714285714,4,2,1,60,0,1
135810,-83.3333333333333,4,2,1,5,0,1
135898,-83.3333333333333,4,2,1,60,0,1
136604,-166.666666666667,4,2,1,60,0,1
136869,-83.3333333333333,4,2,1,60,0,1
136957,-83.3333333333333,4,2,2,70,0,1
137927,-83.3333333333333,4,2,1,40,0,1
138016,-83.3333333333333,4,2,2,70,0,1
138280,-83.3333333333333,4,2,1,40,0,1
138369,-83.3333333333333,4,2,2,70,0,1
138633,-83.3333333333333,4,2,1,40,0,1
138722,-83.3333333333333,4,2,2,70,0,1
139339,-83.3333333333333,4,2,2,5,0,1
139427,-83.3333333333333,4,2,2,70,0,1
140398,-83.3333333333333,4,2,1,40,0,1
140486,-83.3333333333333,4,2,2,70,0,1
140751,-83.3333333333333,4,2,1,40,0,1
140839,-83.3333333333333,4,2,2,70,0,1
141016,-76.9230769230769,4,2,2,70,0,1
141104,-83.3333333333333,4,2,1,40,0,1
141192,-83.3333333333333,4,2,2,70,0,1
141545,-71.4285714285714,4,2,2,70,0,1
141633,-83.3333333333333,4,2,1,40,0,1
141722,-83.3333333333333,4,2,2,70,0,1
141986,-83.3333333333333,4,2,5,70,0,1
142604,-83.3333333333333,4,2,1,70,0,1
142780,-83.3333333333333,4,2,5,70,0,1
143310,-83.3333333333333,4,2,1,70,0,1
143398,-83.3333333333333,4,2,5,70,0,1
144016,-83.3333333333333,4,2,1,70,0,1
144192,-83.3333333333333,4,2,5,70,0,1
144722,-83.3333333333333,4,2,1,70,0,1
144810,-83.3333333333333,4,2,5,70,0,1
145427,-83.3333333333333,4,2,1,70,0,1
145516,-83.3333333333333,4,2,5,70,0,1
146133,-83.3333333333333,4,2,1,70,0,1
146222,-83.3333333333333,4,2,5,70,0,1
146486,-83.3333333333333,4,2,1,60,0,0
147898,-83.3333333333333,4,2,1,70,0,1
148074,-83.3333333333333,4,2,2,70,0,1
148869,-83.3333333333333,4,2,1,70,0,1
149133,-83.3333333333333,4,2,2,70,0,1
149222,-83.3333333333333,4,2,1,70,0,1
149486,-83.3333333333333,4,2,2,70,0,1
149663,-83.3333333333333,4,2,1,70,0,1
149839,-83.3333333333333,4,2,2,70,0,1
149927,-83.3333333333333,4,2,1,70,0,1
150192,-83.3333333333333,4,2,2,70,0,1
150280,-83.3333333333333,4,2,1,70,0,1
150898,-83.3333333333333,4,2,2,70,0,1
151074,-83.3333333333333,4,2,1,70,0,1
151251,-83.3333333333333,4,2,2,70,0,1
151427,-83.3333333333333,4,2,1,70,0,1
151604,-83.3333333333333,4,2,2,70,0,1
151780,-83.3333333333333,4,2,1,70,0,1
151957,-83.3333333333333,4,2,2,70,0,1
152045,-83.3333333333333,4,2,1,70,0,1
152310,-83.3333333333333,4,2,2,70,0,1
152398,-83.3333333333333,4,2,2,5,0,1
152486,-83.3333333333333,4,2,1,70,0,1
152663,-83.3333333333333,4,2,2,70,0,1
152751,-83.3333333333333,4,2,2,5,0,1
152839,-83.3333333333333,4,2,1,70,0,1
153016,-83.3333333333333,4,2,2,70,0,1
153104,-83.3333333333333,4,2,1,70,0,1
153369,-83.3333333333333,4,2,2,70,0,1
153457,-83.3333333333333,4,2,1,70,0,1
153722,-83.3333333333333,4,2,2,70,0,1
153898,-83.3333333333333,4,2,1,70,0,1
154074,-83.3333333333333,4,2,2,70,0,1
154251,-83.3333333333333,4,2,1,70,0,1
154780,-83.3333333333333,4,2,2,70,0,1
154869,-83.3333333333333,4,2,1,70,0,1
155133,-83.3333333333333,4,2,2,70,0,1
155310,-83.3333333333333,4,2,1,70,0,1
155486,-83.3333333333333,4,2,2,70,0,1
155574,-83.3333333333333,4,2,1,70,0,1
155839,-83.3333333333333,4,2,2,70,0,1
155927,-83.3333333333333,4,2,1,70,0,1
156545,-83.3333333333333,4,2,2,70,0,1
156722,-83.3333333333333,4,2,1,70,0,1
156898,-83.3333333333333,4,2,2,70,0,1
157074,-83.3333333333333,4,2,1,70,0,1
157251,-83.3333333333333,4,2,2,70,0,1
157427,-83.3333333333333,4,2,1,70,0,1
157604,-83.3333333333333,4,2,2,70,0,1
157692,-83.3333333333333,4,2,1,70,0,1
157957,-83.3333333333333,4,2,2,70,0,1
158045,-83.3333333333333,4,2,1,5,0,1
158133,-83.3333333333333,4,2,1,70,0,1
158310,-83.3333333333333,4,2,2,70,0,1
158398,-83.3333333333333,4,2,2,5,0,1
158486,-83.3333333333333,4,2,1,70,0,1
158663,-83.3333333333333,4,2,2,70,0,1
158751,-83.3333333333333,4,2,1,70,0,1
159016,-83.3333333333333,4,2,2,70,0,1
159104,-83.3333333333333,4,2,1,70,0,1
159192,-200,4,2,1,70,0,1
159369,-83.3333333333333,4,2,2,70,0,1
159545,-83.3333333333333,4,2,1,70,0,1
159722,-83.3333333333333,4,2,2,70,0,1
159898,-83.3333333333333,4,2,1,70,0,1
160074,-83.3333333333333,4,2,2,70,0,1
160251,-83.3333333333333,4,2,1,70,0,1
160427,-83.3333333333333,4,2,5,70,0,1
160516,-83.3333333333333,4,2,1,70,0,1
160604,-83.3333333333333,4,2,5,70,0,1
160780,-83.3333333333333,4,2,2,70,0,1
160957,-83.3333333333333,4,2,1,70,0,1
161133,-83.3333333333333,4,2,2,70,0,1
161310,-83.3333333333333,4,2,1,70,0,1
161486,-83.3333333333333,4,2,2,70,0,1
161663,-83.3333333333333,4,2,1,70,0,1
161839,-83.3333333333333,4,2,5,70,0,1
161927,-83.3333333333333,4,2,1,70,0,1
162192,-83.3333333333333,4,2,2,70,0,1
162369,-83.3333333333333,4,2,1,70,0,1
162545,-83.3333333333333,4,2,2,70,0,1
162722,-83.3333333333333,4,2,1,70,0,1
163163,-83.3333333333333,4,2,1,5,0,1
163251,-83.3333333333333,4,2,2,70,0,1
163339,-83.3333333333333,4,2,1,70,0,1
163604,-83.3333333333333,4,2,2,70,0,1
163780,-83.3333333333333,4,2,1,70,0,1
163957,-83.3333333333333,4,2,5,70,0,1
164310,-83.3333333333333,4,2,5,70,0,1
164398,-83.3333333333333,4,2,1,70,0,1
164663,-83.3333333333333,4,2,5,70,0,1
164751,-83.3333333333333,4,2,1,70,0,1
164839,-83.3333333333333,4,2,5,70,0,1
165192,-83.3333333333333,4,2,1,70,0,1
165369,-83.3333333333333,4,2,5,70,0,1
165722,-83.3333333333333,4,2,5,70,0,1
165810,-83.3333333333333,4,2,1,70,0,1
166074,-83.3333333333333,4,2,5,70,0,1
166163,-83.3333333333333,4,2,1,70,0,1
166251,-83.3333333333333,4,2,5,70,0,1
166427,-83.3333333333333,4,2,2,70,0,1
166604,-83.3333333333333,4,2,1,70,0,1
166780,-83.3333333333333,4,2,2,70,0,1
166957,-83.3333333333333,4,2,5,70,0,1
167310,-83.3333333333333,4,2,1,70,0,1
167398,-83.3333333333333,4,2,5,70,0,1
168016,-83.3333333333333,4,2,1,70,0,1
168104,-83.3333333333333,4,2,5,70,0,1
168722,-83.3333333333333,4,2,1,70,0,1
168810,-83.3333333333333,4,2,5,70,0,1
168986,-83.3333333333333,4,2,1,70,0,1
169074,-83.3333333333333,4,2,1,50,0,0
170486,-133.333333333333,4,2,3,45,0,0
170663,-133.333333333333,4,2,3,35,0,0
171016,-133.333333333333,4,2,3,45,0,0
171192,-133.333333333333,4,2,3,35,0,0
171545,-133.333333333333,4,2,3,45,0,0
171722,-133.333333333333,4,2,3,35,0,0
171898,-133.333333333333,4,2,3,45,0,0
172074,-133.333333333333,4,2,3,35,0,0
172427,-133.333333333333,4,2,3,45,0,0
172604,-133.333333333333,4,2,3,35,0,0
172957,-133.333333333333,4,2,3,45,0,0
173133,-133.333333333333,4,2,3,35,0,0
173310,-133.333333333333,4,2,3,45,0,0
173486,-133.333333333333,4,2,3,35,0,0
173839,-133.333333333333,4,2,3,45,0,0
174016,-133.333333333333,4,2,3,35,0,0
174369,-133.333333333333,4,2,3,45,0,0
174545,-133.333333333333,4,2,3,35,0,0
174722,-133.333333333333,4,2,3,45,0,0
174898,-133.333333333333,4,2,3,35,0,0
175251,-133.333333333333,4,2,3,45,0,0
175427,-133.333333333333,4,2,3,35,0,0
175780,-133.333333333333,4,2,3,45,0,0
175957,-133.333333333333,4,2,3,35,0,0
176133,-133.333333333333,4,2,3,45,0,0
176310,-133.333333333333,4,2,3,35,0,0
176663,-133.333333333333,4,2,3,45,0,0
176839,-133.333333333333,4,2,3,35,0,0
177192,-133.333333333333,4,2,3,45,0,0
177369,-133.333333333333,4,2,3,35,0,0
177545,-133.333333333333,4,2,3,45,0,0
177722,-133.333333333333,4,2,3,35,0,0
178074,-133.333333333333,4,2,3,45,0,0
178251,-133.333333333333,4,2,3,35,0,0
178604,-133.333333333333,4,2,3,45,0,0
178780,-133.333333333333,4,2,3,35,0,0
178957,-133.333333333333,4,2,3,45,0,0
179133,-133.333333333333,4,2,3,35,0,0
179486,-133.333333333333,4,2,3,45,0,0
179663,-133.333333333333,4,2,3,35,0,0
180016,-133.333333333333,4,2,3,45,0,0
180192,-133.333333333333,4,2,3,35,0,0
180369,-133.333333333333,4,2,3,45,0,0
180545,-133.333333333333,4,2,3,35,0,0
180898,-133.333333333333,4,2,3,45,0,0
181074,-133.333333333333,4,2,3,35,0,0
181427,-133.333333333333,4,2,3,45,0,0
181604,-133.333333333333,4,2,3,35,0,0
181780,-133.333333333333,4,2,3,55,0,0
192369,-133.333333333333,4,2,1,25,0,0
192722,-83.3333333333333,4,2,1,60,0,0
192898,-83.3333333333333,4,2,1,10,0,0
193074,-100,4,2,3,50,0,0
194133,-200,4,2,3,50,0,0
195369,-200,4,2,3,10,0,0
195545,-83.3333333333333,4,2,1,60,0,0
195722,-83.3333333333333,4,2,1,10,0,0
195898,-100,4,2,3,50,0,0
196957,-83.3333333333333,4,2,1,60,0,0
197133,-83.3333333333333,4,2,1,10,0,0
197310,-200,4,2,3,50,0,0
198192,-200,4,2,3,10,0,0
198369,-83.3333333333333,4,2,1,60,0,0
198545,-83.3333333333333,4,2,1,10,0,0
198722,-100,4,2,3,50,0,0
199780,-200,4,2,3,50,0,0
201016,-200,4,2,3,10,0,0
201192,-83.3333333333333,4,2,1,60,0,0
201369,-83.3333333333333,4,2,3,10,0,0
201545,-83.3333333333333,4,2,3,50,0,0
202604,-83.3333333333333,4,2,1,60,0,0
202780,-83.3333333333333,4,2,1,10,0,0
202957,-100,4,2,3,50,0,0
204192,-83.3333333333333,4,2,1,60,0,0
204280,-100,4,2,1,10,0,0
204369,-100,4,2,3,50,0,0
205427,-200,4,2,3,50,0,0
206839,-83.3333333333333,4,2,1,60,0,0
207016,-83.3333333333333,4,2,1,10,0,0
207192,-100,4,2,3,50,0,0
208251,-83.3333333333333,4,2,1,60,0,0
208427,-83.3333333333333,4,2,1,10,0,0
208604,-200,4,2,3,50,0,0
209663,-83.3333333333333,4,2,1,60,0,0
209839,-83.3333333333333,4,2,1,10,0,0
210016,-100,4,2,3,50,0,0
211074,-200,4,2,3,50,0,0
212486,-83.3333333333333,4,2,1,50,0,0
212663,-83.3333333333333,4,2,1,10,0,0
212839,-83.3333333333333,4,2,3,50,0,0
213898,-83.3333333333333,4,2,1,60,0,0
214074,-83.3333333333333,4,2,1,10,0,0
214251,-333.333333333333,4,2,3,50,0,0
215310,-83.3333333333333,4,2,1,50,0,0
215486,-83.3333333333333,4,2,1,10,0,0
215663,-100,4,2,3,40,0,0
226957,-100,4,1,3,40,0,0
229427,-133.333333333333,4,1,3,50,0,0
229780,-100,4,1,3,50,0,0
232251,-133.333333333333,4,1,3,50,0,0
232604,-100,4,1,3,50,0,0
235427,-100,4,2,1,50,0,0
237016,-100,4,3,0,50,0,0
237898,-333.333333333333,4,2,1,50,0,0
238074,-333.333333333333,4,2,1,20,0,0
238251,-71.4285714285714,4,2,1,60,0,1
238427,-71.4285714285714,4,2,5,60,0,1
238516,-71.4285714285714,4,2,1,60,0,1
238780,-71.4285714285714,4,2,5,60,0,1
238869,-71.4285714285714,4,2,1,60,0,1
239486,-71.4285714285714,4,2,5,60,0,1
239574,-71.4285714285714,4,2,1,60,0,1
239839,-71.4285714285714,4,2,5,60,0,1
239927,-71.4285714285714,4,2,1,60,0,1
240192,-71.4285714285714,4,2,5,60,0,1
240280,-71.4285714285714,4,2,1,60,0,1
240898,-71.4285714285714,4,2,5,60,0,1
240986,-71.4285714285714,4,2,1,60,0,1
241251,-71.4285714285714,4,2,5,60,0,1
241339,-71.4285714285714,4,2,1,60,0,1
241604,-71.4285714285714,4,2,5,60,0,1
241692,-71.4285714285714,4,2,1,60,0,1
242310,-71.4285714285714,4,2,5,60,0,1
242398,-71.4285714285714,4,2,1,60,0,1
242663,-71.4285714285714,4,2,5,60,0,1
242751,-71.4285714285714,4,2,1,60,0,1
243016,-71.4285714285714,4,2,5,60,0,1
243104,-71.4285714285714,4,2,1,60,0,1
243722,-71.4285714285714,4,2,5,60,0,1
243810,-71.4285714285714,4,2,1,60,0,1
244074,-71.4285714285714,4,2,5,60,0,1
244163,-71.4285714285714,4,2,1,60,0,1
244427,-71.4285714285714,4,2,5,60,0,1
244516,-71.4285714285714,4,2,1,60,0,1
245133,-71.4285714285714,4,2,5,60,0,1
245222,-71.4285714285714,4,2,1,60,0,1
245486,-71.4285714285714,4,2,5,60,0,1
245574,-71.4285714285714,4,2,1,60,0,1
245839,-71.4285714285714,4,2,5,60,0,1
245927,-71.4285714285714,4,2,1,60,0,1
246545,-71.4285714285714,4,2,5,60,0,1
246633,-71.4285714285714,4,2,1,60,0,1
246898,-71.4285714285714,4,2,5,60,0,1
246986,-71.4285714285714,4,2,1,60,0,1
247251,-71.4285714285714,4,2,5,60,0,1
247339,-71.4285714285714,4,2,1,60,0,1
247957,-71.4285714285714,4,2,5,60,0,1
248045,-71.4285714285714,4,2,1,60,0,1
248310,-71.4285714285714,4,2,5,60,0,1
248398,-71.4285714285714,4,2,1,60,0,1
248663,-71.4285714285714,4,2,5,60,0,1
248751,-71.4285714285714,4,2,1,60,0,1
249369,-71.4285714285714,4,2,5,60,0,1
249457,-71.4285714285714,4,2,1,60,0,1
249545,-333.333333333333,4,2,0,40,0,1
249722,-333.333333333333,4,2,5,40,0,1
249810,-71.4285714285714,4,2,1,60,0,1
250074,-71.4285714285714,4,2,5,60,0,1
250163,-71.4285714285714,4,2,1,60,0,1
250780,-71.4285714285714,4,2,5,60,0,1
250869,-71.4285714285714,4,2,1,60,0,1
251133,-71.4285714285714,4,2,5,60,0,1
251222,-71.4285714285714,4,2,1,60,0,1
251486,-71.4285714285714,4,2,5,60,0,1
251574,-71.4285714285714,4,2,1,60,0,1
252192,-71.4285714285714,4,2,5,60,0,1
252280,-71.4285714285714,4,2,1,60,0,1
252545,-71.4285714285714,4,2,5,60,0,1
252633,-71.4285714285714,4,2,1,60,0,1
252898,-71.4285714285714,4,2,5,60,0,1
252986,-71.4285714285714,4,2,1,60,0,1
253604,-71.4285714285714,4,2,5,60,0,1
253692,-71.4285714285714,4,2,1,60,0,1
253957,-71.4285714285714,4,2,5,60,0,1
254045,-71.4285714285714,4,2,1,60,0,1
254310,-71.4285714285714,4,2,5,60,0,1
254398,-71.4285714285714,4,2,1,60,0,1
254663,-71.4285714285714,4,2,5,60,0,1
254751,-71.4285714285714,4,2,1,60,0,1
255016,-71.4285714285714,4,2,5,60,0,1
255104,-71.4285714285714,4,2,1,60,0,1
255369,-71.4285714285714,4,2,5,60,0,1
255457,-71.4285714285714,4,2,1,60,0,1
255722,-71.4285714285714,4,2,5,60,0,1
255810,-71.4285714285714,4,2,1,60,0,1
255898,-71.4285714285714,4,2,5,60,0,1
256074,-71.4285714285714,4,2,5,60,0,1
256163,-71.4285714285714,4,2,1,60,0,1
256427,-71.4285714285714,4,2,5,60,0,1
256516,-71.4285714285714,4,2,1,60,0,1
256780,-71.4285714285714,4,2,5,60,0,1
256869,-71.4285714285714,4,2,1,60,0,1
257133,-71.4285714285714,4,2,5,60,0,1
257222,-71.4285714285714,4,2,1,60,0,1
257310,-71.4285714285714,4,2,5,60,0,1
257486,-71.4285714285714,4,2,5,60,0,1
257574,-71.4285714285714,4,2,1,60,0,1
257839,-71.4285714285714,4,2,5,60,0,1
257927,-71.4285714285714,4,2,1,60,0,1
258192,-71.4285714285714,4,2,5,60,0,1
258280,-71.4285714285714,4,2,1,60,0,1
258545,-71.4285714285714,4,2,5,60,0,1
258633,-71.4285714285714,4,2,1,60,0,1
258898,-71.4285714285714,4,2,5,60,0,1
258986,-71.4285714285714,4,2,1,60,0,1
259251,-71.4285714285714,4,2,5,60,0,1
259339,-71.4285714285714,4,2,1,60,0,1
259427,-71.4285714285714,4,2,1,60,0,0
259604,-71.4285714285714,4,2,5,60,0,0
259692,-90.9090909090909,4,2,1,60,0,0
259957,-125,4,2,5,60,0,0
260133,-125,4,2,1,60,0,0
260222,-90.9090909090909,4,2,1,50,0,0
260663,-71.4285714285714,4,2,1,50,0,0
260839,-333.333333333333,4,2,1,50,0,0
261016,-83.3333333333333,4,2,1,60,0,1
261369,-83.3333333333333,4,2,5,60,0,1
261545,-83.3333333333333,4,2,1,60,0,1
262074,-83.3333333333333,4,2,5,60,0,1
262163,-83.3333333333333,4,2,1,60,0,1
262427,-83.3333333333333,4,2,5,60,0,1
262516,-83.3333333333333,4,2,1,60,0,1
262604,-83.3333333333333,4,2,1,60,0,1
262780,-83.3333333333333,4,2,5,60,0,1
262869,-83.3333333333333,4,2,1,60,0,1
263133,-83.3333333333333,4,2,5,60,0,1
263222,-83.3333333333333,4,2,1,60,0,1
263839,-83.3333333333333,4,2,5,60,0,1
264016,-83.3333333333333,4,2,1,60,0,1
264192,-83.3333333333333,4,2,5,60,0,1
264369,-83.3333333333333,4,2,1,60,0,1
264545,-83.3333333333333,4,2,5,60,0,1
264722,-83.3333333333333,4,2,1,60,0,1
264898,-83.3333333333333,4,2,5,60,0,1
264986,-83.3333333333333,4,2,1,60,0,1
265251,-83.3333333333333,4,2,5,60,0,1
265339,-83.3333333333333,4,2,5,5,0,1
265427,-83.3333333333333,4,2,1,60,0,1
265604,-83.3333333333333,4,2,5,60,0,1
265692,-83.3333333333333,4,2,5,5,0,1
265780,-83.3333333333333,4,2,1,60,0,1
265957,-83.3333333333333,4,2,5,60,0,1
266045,-83.3333333333333,4,2,1,60,0,1
266310,-83.3333333333333,4,2,5,60,0,1
266398,-83.3333333333333,4,2,1,60,0,1
266663,-83.3333333333333,4,2,5,60,0,1
266839,-83.3333333333333,4,2,1,60,0,1
267016,-83.3333333333333,4,2,5,60,0,1
267192,-83.3333333333333,4,2,1,60,0,1
267722,-83.3333333333333,4,2,5,60,0,1
267810,-83.3333333333333,4,2,1,60,0,1
268074,-83.3333333333333,4,2,5,60,0,1
268163,-83.3333333333333,4,2,1,60,0,1
268251,-83.3333333333333,4,2,1,60,0,1
268427,-83.3333333333333,4,2,5,60,0,1
268516,-83.3333333333333,4,2,1,60,0,1
268780,-83.3333333333333,4,2,5,60,0,1
268869,-83.3333333333333,4,2,1,60,0,1
269486,-83.3333333333333,4,2,5,60,0,1
269663,-83.3333333333333,4,2,1,60,0,1
269839,-83.3333333333333,4,2,5,60,0,1
270016,-83.3333333333333,4,2,1,60,0,1
270192,-83.3333333333333,4,2,5,60,0,1
270369,-83.3333333333333,4,2,1,60,0,1
270545,-83.3333333333333,4,2,5,60,0,1
270633,-83.3333333333333,4,2,1,60,0,1
270898,-83.3333333333333,4,2,5,60,0,1
270986,-83.3333333333333,4,2,1,60,0,1
271251,-83.3333333333333,4,2,5,60,0,1
271339,-83.3333333333333,4,2,5,5,0,1
271427,-83.3333333333333,4,2,1,60,0,1
271604,-83.3333333333333,4,2,5,60,0,1
271692,-83.3333333333333,4,2,1,60,0,1
271957,-83.3333333333333,4,2,5,60,0,1
272045,-83.3333333333333,4,2,1,60,0,1
272133,-200,4,2,1,60,0,1
272310,-83.3333333333333,4,2,5,60,0,1
272486,-83.3333333333333,4,2,1,60,0,1
272663,-83.3333333333333,4,2,5,60,0,1
272839,-83.3333333333333,4,2,1,60,0,1
273016,-83.3333333333333,4,2,5,60,0,1
273192,-83.3333333333333,4,2,1,60,0,1
273369,-83.3333333333333,4,2,5,60,0,1
273457,-83.3333333333333,4,2,1,60,0,1
273722,-83.3333333333333,4,2,5,60,0,1
273898,-83.3333333333333,4,2,1,60,0,1
274074,-83.3333333333333,4,2,5,60,0,1
274251,-83.3333333333333,4,2,1,60,0,1
274427,-83.3333333333333,4,2,5,60,0,1
274604,-83.3333333333333,4,2,1,60,0,1
274780,-83.3333333333333,4,2,5,60,0,1
274869,-83.3333333333333,4,2,1,60,0,1
275133,-83.3333333333333,4,2,5,60,0,1
275310,-83.3333333333333,4,2,1,60,0,1
275486,-83.3333333333333,4,2,5,60,0,1
275663,-83.3333333333333,4,2,1,60,0,1
276192,-83.3333333333333,4,2,5,60,0,1
276280,-83.3333333333333,4,2,1,60,0,1
276545,-83.3333333333333,4,2,5,60,0,1
276722,-83.3333333333333,4,2,1,60,0,1
276898,-83.3333333333333,4,2,5,60,0,1
276986,-83.3333333333333,4,2,1,60,0,1
277074,-83.3333333333333,4,2,5,60,0,1
277163,-83.3333333333333,4,2,1,60,0,1
277251,-83.3333333333333,4,2,5,60,0,1
277339,-83.3333333333333,4,2,1,60,0,1
277604,-83.3333333333333,4,2,5,60,0,1
277692,-83.3333333333333,4,2,1,60,0,1
277957,-83.3333333333333,4,2,5,60,0,1
278133,-83.3333333333333,4,2,1,60,0,1
278310,-83.3333333333333,4,2,5,60,0,1
278486,-83.3333333333333,4,2,1,60,0,1
278663,-83.3333333333333,4,2,5,60,0,1
278751,-83.3333333333333,4,2,1,60,0,1
279016,-83.3333333333333,4,2,5,60,0,1
279104,-83.3333333333333,4,2,1,60,0,1
279369,-83.3333333333333,4,2,5,60,0,1
279545,-83.3333333333333,4,2,1,60,0,1
279722,-83.3333333333333,4,2,5,60,0,1
279986,-83.3333333333333,4,2,1,60,0,1
280074,-83.3333333333333,4,2,5,60,0,1
280163,-83.3333333333333,4,2,1,60,0,1
280427,-83.3333333333333,4,2,5,60,0,1
280516,-83.3333333333333,4,2,1,60,0,1
280604,-83.3333333333333,4,2,5,60,0,1
280692,-83.3333333333333,4,2,1,60,0,1
280780,-83.3333333333333,4,2,5,60,0,1
280957,-83.3333333333333,4,2,1,60,0,1
281133,-83.3333333333333,4,2,5,60,0,1
281222,-83.3333333333333,4,2,1,60,0,1
281310,-83.3333333333333,4,2,5,60,0,1
281486,-83.3333333333333,4,2,5,60,0,1
281574,-83.3333333333333,4,2,1,60,0,1
281839,-83.3333333333333,4,2,5,60,0,1
282016,-83.3333333333333,4,2,1,50,0,0
283427,-133.333333333333,4,2,2,50,0,0
294722,-285.714285714286,4,2,1,50,0,0
295074,-133.333333333333,4,2,2,60,0,0
299663,-133.333333333333,4,2,5,60,0,0
300016,-133.333333333333,4,2,2,60,0,0
300192,-133.333333333333,4,2,5,60,0,0
300369,-133.333333333333,4,2,5,60,0,0
300722,-133.333333333333,4,2,2,60,0,0
300898,-133.333333333333,4,2,5,60,0,0
301251,-133.333333333333,4,2,5,60,0,0
301339,-133.333333333333,4,2,2,60,0,0
301604,-133.333333333333,4,2,5,60,0,0
301692,-133.333333333333,4,2,2,60,0,0
301780,-133.333333333333,4,2,5,60,0,0
301957,-133.333333333333,4,2,5,60,0,0
302133,-133.333333333333,4,2,2,60,0,0
302310,-133.333333333333,4,2,5,60,0,0
302839,-100,4,2,2,60,0,0
303016,-100,4,2,5,60,0,0
303192,-133.333333333333,4,2,5,60,0,0
303369,-133.333333333333,4,2,5,60,0,0
303545,-133.333333333333,4,2,2,60,0,0
303722,-133.333333333333,4,2,5,60,0,0
304074,-133.333333333333,4,2,5,60,0,0
304251,-100,4,2,1,60,0,0
304427,-100,4,2,5,60,0,0
304692,-100,4,2,1,40,0,0
304957,-100,4,2,1,30,0,0
305133,-100,4,2,1,20,0,0
305663,-100,4,2,1,30,0,0
305839,-100,4,2,1,40,0,0
306016,-100,4,2,1,50,0,0

[Colours]
Combo1 : 81,147,247
Combo2 : 221,185,172
Combo3 : 217,239,165
Combo4 : 219,111,203

[HitObjects]
119,67,1075,6,0,L|115:11,1,56.9999982604981,4|0,3:2|0:0,0:0:0:0:
180,139,1427,2,0,P|135:145|96:176,1,95,0|0,1:0|0:0,1:1:0:0:
254,207,1780,6,0,L|258:150,1,56.9999982604981,0|0,3:0|0:0,0:0:0:0:
237,290,2133,2,0,P|283:283|320:254,1,95,0|0,1:2|0:0,1:1:0:0:
339,68,2486,6,0,L|343:125,1,56.9999982604981,0|0,3:0|0:0,0:0:0:0:
416,161,2839,2,0,P|452:131|499:125,1,95,0|0,1:0|0:0,1:1:0:0:
512,294,3192,6,0,L|497:228,1,56.9999982604981,0|0,3:2|0:0,0:0:0:0:
362,31,3545,2,0,L|342:124,1,95,0|0,1:2|0:0,1:1:0:0:
256,277,3898,6,0,P|262:304|279:327,1,56.9999982604981,0|0,3:2|0:0,0:0:0:0:
318,210,4251,2,0,B|218:197,1,95,0|0,1:0|0:0,1:1:0:0:
85,325,4604,6,0,P|79:293|58:265,1,56.9999982604981,0|0,3:0|0:0,0:0:0:0:
0,208,4957,2,0,B|94:195,1,95,0|0,1:2|0:0,1:1:0:0:
210,79,5310,6,0,P|192:105|187:140,1,56.9999982604981,0|0,3:0|0:0,0:0:0:0:
112,98,5663,2,0,B|12:111,1,95,0|0,1:0|0:0,1:1:0:0:
164,240,6016,6,0,P|192:243|218:257,1,56.9999982604981,0|0,3:2|0:0,0:0:0:0:
395,330,6369,2,0,P|347:332|305:353,1,95,0|0,1:2|0:0,1:1:0:0:
453,197,6722,6,0,L|459:253,1,56.9999982604981,0|0,3:2|0:0,0:0:0:0:
397,141,7074,2,0,B|379:159|379:159|368:232,1,95,0|0,1:0|0:0,1:1:0:0:
324,2,7427,6,0,L|330:58,1,56.9999982604981,0|0,3:0|0:0,0:0:0:0:
404,65,7780,2,0,B|422:47|422:47|495:36,1,95,0|0,1:2|0:0,1:1:0:0:
375,180,8133,6,0,L|312:170,1,56.9999982604981,0|0,3:0|0:0,0:0:0:0:
221,123,8486,2,0,B|239:141|239:141|250:214,1,95,0|0,1:0|0:0,1:1:0:0:
55,230,8839,6,0,L|65:167,1,56.9999982604981,0|0,3:2|0:0,0:0:0:0:
264,303,9192,2,0,L|246:191,1,95,0|0,1:2|0:0,1:1:0:0:
126,342,9545,6,0,P|145:368|171:380,1,56.9999982604981,0|0,3:2|0:0,0:0:0:0:
167,274,9898,2,0,B|125:257|125:257|77:273,1,95,0|0,1:0|0:0,1:1:0:0:
64,104,10251,6,0,P|90:123|102:149,1,56.9999982604981,0|0,3:0|0:0,0:0:0:0:
167,100,10604,2,0,B|213:85|213:85|273:107,1,95,0|0,1:2|0:0,1:0:0:0:
379,234,10957,6,0,P|351:219|317:218,1,56.9999982604981,0|0,3:0|0:0,0:0:0:0:
252,224,11310,2,0,B|268:269|268:269|251:314,1,95,0|0,1:0|0:0,1:1:0:0:
195,39,11663,6,0,P|180:67|179:101,1,56.9999982604981,0|0,3:2|0:0,0:0:0:0:
471,76,12016,2,0,P|494:119|495:172,1,95,0|0,1:2|0:0,1:0:0:0:
421,143,12369,5,0,0:0:0:0:
427,213,12722,6,0,L|418:115,1,71.2500027179719,12|0,3:1|0:0,0:0:0:0:
335,258,13074,2,0,L|326:160,1,71.2500027179719,8|0,1:0|0:0,0:0:0:0:
244,303,13427,2,0,L|235:205,1,71.2500027179719,8|0,3:1|0:0,0:0:0:0:
353,122,13780,6,0,P|342:168|311:202,1,71.2500027179719,8|0,1:0|0:0,0:0:0:0:
241,39,14133,2,0,P|265:79|269:126,1,71.2500027179719,8|0,3:1|0:0,0:0:0:0:
105,64,14486,2,0,P|151:74|185:105,1,71.2500027179719,8|0,1:1|0:0,0:0:0:0:
25,175,14839,2,0,P|64:149|110:146,1,71.2500027179719,8|0,3:1|0:0,0:0:0:0:
236,328,15192,6,0,B|195:331|195:331|145:308,1,71.2500027179719,8|0,3:1|0:0,0:0:0:0:
260,195,15545,2,0,B|286:181|286:181|327:186,1,71.2500027179719,8|0,1:0|0:0,0:0:0:0:
381,326,15898,2,0,B|353:338|353:338|312:336,1,71.2500027179719,8|0,3:1|0:0,0:0:0:0:
407,186,16251,2,0,B|433:174|433:174|475:176,1,71.2500027179719,12|0,1:1|0:0,3:0:0:0:
240,164,16604,6,0,L|170:173,1,71.2500027179719,8|0,1:0|0:0,0:0:0:0:
374,289,16957,2,0,L|304:281,1,71.2500027179719,8|0,3:1|0:0,0:0:0:0:
227,271,17222,1,0,1:1:0:0:
227,271,17310,2,0,L|230:320,1,35.625001358986,0|0,1:1|0:0,0:0:0:0:
234,382,17486,1,8,0:1:0:0:
146,219,17663,5,8,1:1:0:0:
168,200,17751,1,0,1:1:0:0:
194,189,17839,1,8,0:1:0:0:
222,185,17927,1,0,1:1:0:0:
248,191,18016,5,4,3:1:0:0:
227,271,18192,1,8,0:1:0:0:
319,127,18369,1,8,1:1:0:0:
340,206,18545,1,8,0:1:0:0:
220,64,18722,5,8,3:1:0:0:
193,58,18810,1,0,1:1:0:0:
165,61,18898,1,8,0:1:0:0:
139,73,18986,1,0,1:1:0:0:
118,91,19074,5,8,1:1:0:0:
91,101,19163,1,0,1:1:0:0:
62,97,19251,1,8,0:1:0:0:
35,87,19339,1,0,1:1:0:0:
16,65,19427,5,8,3:1:0:0:
81,7,19604,1,8,0:1:0:0:
96,186,19780,1,8,1:1:0:0:
91,101,19957,1,8,0:1:0:0:
163,282,20133,5,8,3:1:0:0:
190,288,20222,1,0,1:1:0:0:
218,285,20310,1,8,0:1:0:0:
244,273,20398,1,0,1:1:0:0:
265,255,20486,5,8,1:1:0:0:
295,250,20574,1,0,1:1:0:0:
323,258,20663,1,8,0:1:0:0:
347,274,20751,1,0,1:1:0:0:
363,298,20839,5,12,3:1:0:0:
405,272,20927,1,0,1:1:0:0:
425,225,21016,1,8,0:1:0:0:
425,175,21104,1,0,1:1:0:0:
406,128,21192,1,8,1:1:0:0:
364,100,21280,1,0,1:1:0:0:
314,94,21369,5,8,0:1:0:0:
269,115,21457,1,0,1:1:0:0:
219,121,21545,1,12,3:1:0:0:
170,110,21633,1,0,1:1:0:0:
136,72,21722,1,8,0:1:0:0:
86,66,21810,1,0,1:1:0:0:
44,92,21898,5,8,1:1:0:0:
28,138,21986,1,0,1:1:0:0:
36,186,22074,1,8,0:1:0:0:
71,221,22163,1,0,1:1:0:0:
120,222,22251,5,8,3:1:0:0:
256,192,22339,12,0,23486,0:0:0:0:
300,108,23663,6,0,L|312:28,1,61.7499971733095,0|0,0:1|0:0,0:0:0:0:
233,177,24016,2,0,L|221:97,1,61.7499971733095
298,251,24369,2,0,L|309:181,1,61.7499971733095
234,320,24722,2,0,L|222:240,1,61.7499971733095
86,228,25074,6,0,P|106:264|150:284,1,61.7499971733095
64,152,25427,2,0,P|28:172|8:216,1,61.7499971733095
140,130,25780,2,0,P|120:94|76:74,1,61.7499971733095
162,206,26133,2,0,P|198:186|218:142,1,61.7499971733095
284,112,26486,6,0,L|292:192,1,61.7499971733095
360,198,26839,2,0,L|352:278,1,61.7499971733095
431,158,27192,2,0,L|439:238,1,61.7499971733095
494,268,27545,2,0,L|486:348,1,61.7499971733095
411,341,27898,6,0,P|381:342|352:353,1,61.7499971733095
320,283,28251,2,0,P|290:291|260:291,1,61.7499971733095
199,340,28604,1,0,0:0:0:0:
199,340,28780,1,0,0:0:0:0:
124,312,28957,5,0,0:0:0:0:
124,312,29133,1,0,0:0:0:0:
86,236,29310,2,0,B|166:228,1,61.7499971733095,0|0,0:2|0:0,0:0:0:0:
278,196,29663,5,0,0:0:0:0:
247,217,29839,1,0,0:0:0:0:
294,162,30016,1,0,0:0:0:0:
281,240,30192,1,2,0:0:0:0:
220,148,30369,1,2,0:0:0:0:
367,219,30545,1,2,0:0:0:0:
250,330,30722,2,0,B|330:338,1,71.2500027179719,2|2,0:0|0:0,0:0:0:0:
220,148,31074,5,2,0:0:0:0:
250,330,31251,1,2,0:0:0:0:
294,162,31427,1,2,0:0:0:0:
179,304,31604,1,2,0:0:0:0:
335,227,31780,1,2,0:0:0:0:
147,235,31957,1,2,0:0:0:0:
379,144,32133,5,2,0:0:0:0:
379,144,32310,1,2,0:0:0:0:
324,341,32486,1,2,0:0:0:0:
324,341,32663,1,2,0:0:0:0:
182,187,32839,1,2,0:0:0:0:
182,187,33016,1,2,0:0:0:0:
335,26,33192,1,2,0:0:0:0:
335,26,33369,1,2,0:0:0:0:
17,166,34957,5,2,0:0:0:0:
17,166,35133,1,2,0:0:0:0:
17,166,35310,2,0,L|23:246,1,71.2500027179719,2|0,0:0|0:0,0:0:0:0:
118,122,35663,1,2,0:0:0:0:
101,196,35839,1,2,0:0:0:0:
206,41,36016,2,0,L|200:121,1,71.2500027179719,2|0,0:0|0:0,0:0:0:0:
196,206,36369,5,2,0:0:0:0:
196,206,36545,1,2,0:0:0:0:
196,206,36722,2,0,P|169:183|128:175,1,71.2500027179719,2|0,0:0|0:0,0:0:0:0:
18,272,37074,1,2,0:0:0:0:
92,255,37250,1,2,0:0:0:0:
226,382,37427,2,0,P|248:355|257:320,1,71.2500027179719,2|0,0:0|0:0,0:0:0:0:
275,238,37780,5,2,0:0:0:0:
275,238,37957,1,2,0:0:0:0:
275,238,38133,2,0,B|192:229,1,71.2500027179719,2|0,0:0|0:0,0:0:0:0:
98,150,38486,1,2,0:0:0:0:
128,219,38662,1,2,0:0:0:0:
196,78,38839,2,0,B|187:161,1,71.2500027179719,2|0,0:0|0:0,0:0:0:0:
217,236,39192,5,2,0:0:0:0:
217,236,39369,1,2,0:0:0:0:
217,236,39545,2,0,L|138:223,1,71.2500027179719,2|0,0:0|0:0,0:0:0:0:
38,306,39898,1,2,0:0:0:0:
13,213,40074,1,2,0:0:0:0:
97,106,40251,1,2,0:0:0:0:
162,147,40427,1,0,0:0:0:0:
236,109,40604,5,2,0:0:0:0:
236,109,40780,1,2,0:0:0:0:
236,109,40957,2,0,P|245:155|238:190,1,71.2500027179719,2|0,0:0|0:0,0:0:0:0:
157,287,41310,1,2,0:0:0:0:
168,212,41486,1,2,0:0:0:0:
233,348,41663,2,0,P|195:375|160:384,1,71.2500027179719,2|0,0:0|0:0,0:0:0:0:
163,294,42016,5,2,0:0:0:0:
163,294,42192,1,2,0:0:0:0:
163,294,42369,2,0,L|169:212,1,71.2500027179719,2|0,0:0|0:0,0:0:0:0:
226,72,42722,1,2,0:0:0:0:
214,152,42898,1,2,0:0:0:0:
364,124,43074,2,0,L|282:130,1,71.2500027179719,2|0,0:0|0:0,0:0:0:0:
231,78,43427,5,2,0:0:0:0:
231,78,43604,1,2,0:0:0:0:
231,78,43780,2,0,P|217:110|221:159,1,71.2500027179719,2|0,0:0|0:0,0:0:0:0:
309,203,44133,1,2,0:0:0:0:
292,129,44309,1,2,0:0:0:0:
252,263,44486,2,0,P|282:279|331:280,1,71.2500027179719,2|0,0:0|0:0,0:0:0:0:
386,236,44839,5,2,0:0:0:0:
386,236,45016,1,2,0:0:0:0:
386,236,45192,2,0,L|380:149,1,71.2500027179719,2|0,0:0|0:0,0:0:0:0:
318,48,45545,1,2,0:0:0:0:
223,78,45722,1,2,0:0:0:0:
152,204,45898,1,2,0:0:0:0:
229,220,46074,1,0,0:0:0:0:
299,276,46251,5,2,0:0:0:0:
299,276,46427,1,2,0:0:0:0:
299,276,46604,2,0,B|289:350,1,71.2500027179719,2|0,0:0|0:0,0:0:0:0:
386,291,46957,1,2,0:0:0:0:
369,365,47133,1,2,0:0:0:0:
462,242,47310,2,0,B|452:168,1,71.2500027179719,2|0,0:0|0:0,0:0:0:0:
386,136,47663,5,2,0:0:0:0:
386,136,47839,1,2,0:0:0:0:
386,136,48016,2,0,P|354:149|328:182,1,71.2500027179719,2|0,0:0|0:0,0:0:0:0:
386,291,48369,1,2,0:0:0:0:
403,217,48545,1,2,0:0:0:0:
306,330,48722,2,0,P|273:316|250:289,1,71.2500027179719,2|0,0:0|0:0,0:0:0:0:
173,259,49074,5,2,0:0:0:0:
173,259,49251,1,2,0:0:0:0:
173,259,49427,2,0,L|182:341,1,71.2500027179719,2|0,0:0|0:0,0:0:0:0:
104,192,49780,1,2,0:0:0:0:
87,266,49956,1,2,0:0:0:0:
18,135,50133,2,0,L|27:217,1,71.2500027179719,2|0,0:0|0:0,0:0:0:0:
111,199,50486,5,2,0:0:0:0:
111,199,50663,1,2,0:0:0:0:
111,199,50839,2,0,P|138:176|179:168,1,71.2500027179719,2|0,0:0|0:0,0:0:0:0:
270,254,51192,1,2,0:0:0:0:
173,249,51368,1,2,0:0:0:0:
122,104,51545,1,2,0:0:0:0:
199,95,51722,1,0,0:0:0:0:
267,50,51898,5,2,0:0:0:0:
267,50,52074,1,2,0:0:0:0:
267,50,52251,2,0,P|295:73|308:109,1,71.2500027179719,2|0,0:0|0:0,0:0:0:0:
288,248,52604,1,2,0:0:0:0:
271,174,52780,1,2,0:0:0:0:
237,308,52957,2,0,P|267:326|302:327,1,71.2500027179719,2|0,0:0|0:0,0:0:0:0:
377,285,53310,5,2,0:0:0:0:
377,285,53486,1,2,0:0:0:0:
377,285,53663,2,0,L|383:375,1,71.2500027179719,2|0,0:0|0:0,0:0:0:0:
293,252,54016,1,2,0:0:0:0:
302,327,54192,1,2,0:0:0:0:
213,198,54369,2,0,L|207:288,1,71.2500027179719,2|0,0:0|0:0,0:0:0:0:
300,259,54722,5,2,0:0:0:0:
300,259,54898,1,2,0:0:0:0:
300,259,55074,2,0,P|327:282|368:290,1,71.2500027179719,2|0,0:0|0:0,0:0:0:0:
390,135,55427,1,2,0:0:0:0:
361,205,55604,1,2,0:0:0:0:
280,71,55780,1,2,0:0:0:0:
309,141,55957,1,0,0:0:0:0:
182,60,57545,5,10,1:2:0:0:
248,98,57722,1,2,0:0:0:0:
234,174,57898,1,2,0:0:0:0:
284,29,58074,5,8,1:2:0:0:
333,90,58251,1,2,0:0:0:0:
312,164,58427,1,2,0:0:0:0:
166,139,58604,5,10,1:2:0:0:
234,174,58780,1,2,0:0:0:0:
175,299,58957,6,0,L|170:212,1,71.2500027179719,8|2,1:2|0:0,0:0:0:0:
166,139,59310,1,2,0:0:0:0:
253,316,59486,6,0,L|258:229,1,71.2500027179719,8|2,1:2|0:0,0:0:0:0:
262,162,59839,1,2,0:0:0:0:
325,361,60016,5,10,1:2:0:0:
374,300,60192,1,2,0:0:0:0:
487,383,60369,5,8,1:2:0:0:
411,368,60545,1,2,0:0:0:0:
374,300,60722,1,2,0:0:0:0:
402,158,60898,5,8,1:2:0:0:
411,233,61074,1,2,0:0:0:0:
374,300,61251,1,2,0:0:0:0:
363,90,61427,5,10,1:2:0:0:
402,158,61604,1,2,0:0:0:0:
257,265,61780,6,0,P|255:227|264:189,1,71.2500027179719,10|2,1:2|0:0,0:0:0:0:
335,234,62133,1,2,0:0:0:0:
182,161,62310,6,0,P|207:132|240:112,1,71.2500027179719,8|2,1:2|0:0,0:0:0:0:
261,194,62663,1,2,0:0:0:0:
103,182,62839,5,10,1:2:0:0:
118,104,63015,1,2,0:0:0:0:
171,269,63192,5,10,1:2:0:0:
92,260,63369,1,2,0:0:0:0:
44,322,63545,1,2,0:0:0:0:
220,329,63722,5,8,1:2:0:0:
249,256,63898,1,2,0:0:0:0:
206,190,64074,1,2,0:0:0:0:
318,309,64251,5,10,1:2:0:0:
329,231,64427,1,0,0:0:0:0:
166,133,64604,6,0,P|184:171|217:196,1,71.2500027179719,10|2,1:2|0:0,0:0:0:0:
246,118,64957,1,2,0:0:0:0:
99,88,65133,6,0,P|84:127|90:168,1,71.2500027179719,8|2,1:2|0:0,0:0:0:0:
166,133,65486,1,2,0:0:0:0:
304,20,65663,5,10,1:2:0:0:
228,36,65839,1,0,0:0:0:0:
395,89,66016,5,8,1:2:0:0:
319,104,66192,1,2,0:0:0:0:
282,172,66369,1,2,0:0:0:0:
169,89,66545,5,8,1:2:0:0:
245,104,66721,1,2,0:0:0:0:
282,172,66898,1,2,0:0:0:0:
97,212,67074,5,10,1:2:0:0:
161,169,67251,1,0,0:0:0:0:
288,242,67427,6,0,L|281:165,1,71.2500027179719,10|2,1:2|0:0,0:0:0:0:
359,200,67780,1,2,0:0:0:0:
137,176,67957,6,0,L|130:253,1,71.2500027179719,10|2,1:2|0:0,0:0:0:0:
211,215,68310,1,0,0:0:0:0:
88,69,68486,5,0,0:0:0:0:
32,124,68663,1,10,1:2:0:0:
229,13,68839,6,0,P|265:11|298:24,1,71.2500027179719,14|2,1:2|0:0,0:0:0:0:
369,49,69192,1,2,0:0:0:0:
294,148,69369,2,0,P|280:115|253:91,1,71.2500027179719,14|2,1:2|0:0,0:0:0:0:
215,165,69722,1,2,0:0:0:0:
332,216,69898,2,0,P|357:192|369:158,1,71.2500027179719,14|0,1:2|0:0,0:0:0:0:
357,79,70251,1,10,1:2:0:0:
263,188,70427,6,0,P|259:222|271:255,1,71.2500027179719,6|2,0:0|0:0,0:0:0:0:
332,300,70780,1,8,1:2:0:0:
460,249,70957,2,0,L|378:237,1,71.2500027179719,6|2,0:0|0:0,0:0:0:0:
271,256,71310,2,0,L|189:268,1,71.2500027179719,14|2,1:2|0:0,0:0:0:0:
115,165,71663,6,0,L|39:158,1,71.2500027179719,12|2,1:2|0:0,0:0:0:0:
26,86,72016,1,2,0:0:0:0:
108,1,72192,2,0,L|101:77,1,71.2500027179719,12|2,1:2|0:0,0:0:0:0:
26,86,72545,1,2,0:0:0:0:
180,56,72722,2,0,L|187:126,1,71.2500027179719,14|0,1:2|0:0,0:0:0:0:
197,204,73074,1,10,1:2:0:0:
331,165,73251,6,0,L|261:158,1,71.2500027179719,6|0,0:0|0:0,0:0:0:0:
197,204,73604,1,8,1:2:0:0:
321,326,73780,1,6,0:0:0:0:
290,237,73957,1,2,0:0:0:0:
130,312,74133,2,0,L|45:294,1,71.2500027179719,14|0,1:2|0:0,0:0:0:0:
196,146,74486,6,0,P|239:151|269:176,1,71.2500027179719,14|2,1:2|0:0,0:0:0:0:
208,226,74839,1,2,0:0:0:0:
128,102,75016,2,0,P|161:73|197:66,1,71.2500027179719,12|2,1:2|0:0,0:0:0:0:
196,146,75369,1,2,0:0:0:0:
105,247,75545,2,0,P|67:245|29:222,1,71.2500027179719,14|0,1:2|0:0,0:0:0:0:
89,168,75898,1,10,1:2:0:0:
171,294,76074,6,0,P|142:319|99:330,1,71.2500027179719,6|2,0:0|0:0,0:0:0:0:
105,247,76427,1,8,1:2:0:0:
192,136,76604,2,0,P|187:169|178:206,1,71.2500027179719,6|2,0:0|0:0,0:0:0:0:
297,69,76957,2,0,P|306:103|311:138,1,71.2500027179719,14|0,1:2|0:0,0:0:0:0:
464,12,77310,6,0,P|459:45|450:82,1,71.2500027179719,14|2,1:2|0:0,0:0:0:0:
386,123,77663,1,2,0:0:0:0:
391,201,77839,1,12,1:2:0:0:
477,247,78016,5,2,0:0:0:0:
391,201,78192,1,2,0:0:0:0:
250,211,78369,1,2,0:0:0:0:
106,347,78545,1,2,0:0:0:0:
213,213,79427,6,0,L|221:265,1,47.5
108,233,79780,2,0,L|115:279,1,47.5
307,223,80133,6,0,L|206:212,1,95,2|0,0:0|0:0,0:0:0:0:
91,137,80663,2,0,L|236:121,1,142.5,2|0,0:0|0:0,0:0:0:0:
383,236,81545,6,0,P|414:212|471:213,1,95,2|0,0:0|0:0,0:0:0:0:
398,345,82074,2,0,P|348:306|258:308,1,142.5,2|0,0:0|0:0,0:0:0:0:
296,118,82957,6,0,P|290:168|292:219,1,95,2|0,0:0|0:0,0:0:0:0:
251,31,83486,2,0,P|216:93|172:150,1,142.5,2|0,0:0|0:0,0:0:0:0:
51,281,84369,6,0,L|26:183,1,95,2|0,0:0|0:0,0:0:0:0:
109,363,84898,2,0,L|134:265,1,95,2|0,0:0|0:0,0:0:0:0:
200,338,85427,2,0,L|211:384,1,47.5,2|0,0:0|0:0,0:0:0:0:
369,322,85780,6,0,P|319:310|265:330,1,95,2|0,0:0|0:0,0:0:0:0:
393,218,86310,2,0,P|447:262|473:330,1,142.5,2|0,0:0|0:0,0:0:0:0:
278,321,87192,6,0,B|261:272|261:272|274:219,1,95,2|0,0:0|0:0,0:0:0:0:
200,82,87722,2,0,B|215:145|215:145|189:221,1,142.5,2|0,0:0|0:0,0:0:0:0:
13,276,88604,6,0,L|26:369,1,95,2|0,0:0|0:0,0:0:0:0:
64,163,89133,2,0,L|86:15,1,142.5,2|0,0:0|0:0,0:0:0:0:
298,70,90016,6,0,P|267:35|222:25,1,95,2|0,0:0|0:0,0:0:0:0:
220,152,90545,2,0,L|226:105,1,47.5,2|0,0:0|0:0,0:0:0:0:
145,114,90898,1,0,0:0:0:0:
237,219,91074,2,0,P|234:183|219:151,1,71.25
188,273,91427,6,0,P|237:249|304:269,1,118.75,2|0,0:2|0:0,0:0:0:0:
305,338,91957,2,0,P|323:285|384:252,1,118.75,2|0,0:0|0:0,0:0:0:0:
374,253,92486,1,0,0:0:0:0:
251,190,92839,6,0,L|132:200,1,118.75,2|0,0:0|0:0,0:0:0:0:
69,246,93369,2,0,L|187:256,1,118.75,2|0,0:0|0:0,0:0:0:0:
187,256,93898,1,0,0:0:0:0:
358,327,94251,6,0,P|363:283|407:219,1,118.75,2|0,0:0|0:0,0:0:0:0:
328,261,94780,2,0,P|323:217|279:153,1,118.75,2|0,0:0|0:0,0:0:0:0:
282,155,95310,1,0,0:0:0:0:
356,15,95663,6,0,P|403:-9|472:8,1,118.75,2|0,0:0|0:0,0:0:0:0:
503,48,96192,2,0,P|479:47|456:54,1,47.5,2|0,0:0|0:0,0:0:0:0:
339,100,96545,1,2,0:0:0:0:
425,203,96722,2,0,L|415:129,1,71.25,2|0,0:0|0:0,0:0:0:0:
454,249,97074,6,0,P|378:242|328:269,1,118.75,2|0,0:0|0:0,0:0:0:0:
269,227,97604,2,0,P|327:275|343:330,1,118.75,2|0,0:0|0:0,0:0:0:0:
342,314,98133,1,0,0:0:0:0:
94,194,98486,6,0,L|217:177,1,118.75,2|0,0:0|0:0,0:0:0:0:
269,227,99016,2,0,L|146:210,1,118.75,2|0,0:0|0:0,0:0:0:0:
151,210,99545,1,0,0:0:0:0:
322,99,99898,6,0,P|281:79|260:5,1,118.75,2|0,0:0|0:0,0:0:0:0:
246,103,100427,2,0,P|218:103|183:95,1,47.5,2|0,0:0|0:0,0:0:0:0:
339,21,100780,1,2,0:0:0:0:
387,163,100957,1,2,0:0:0:0:
262,365,101133,6,0,B|227:358|196:376|196:376|212:345|218:290|179:233|114:230|91:283|114:328|150:348|177:309|150:291,1,308.75,2|0,0:0|0:0,0:0:0:0:
108,202,102369,6,0,B|55:218|48:296|48:296|44:266|33:241,1,170.999994781494,8|0,1:1|0:0,0:0:0:0:
108,202,102722,6,2,P|120:103|94:13,1,190,14|2,3:1|0:1,0:1:0:0:
233,227,103251,2,2,P|297:204|424:245,1,190,10|2,3:1|0:1,0:1:0:0:
206,67,103780,6,2,B|179:113|184:191|234:227|234:227|184:191|120:187|62:219,1,356.25,10|0,3:1|0:1,0:1:0:0:
67,314,105192,6,0,B|117:309|144:273|144:273|155:317|211:336,1,170.999994781494,8|0,1:1|0:0,1:1:0:0:
283,287,105545,6,2,B|347:297|347:297|411:279|411:279|478:291,1,190,10|2,3:1|0:1,0:1:0:0:
223,126,106074,2,2,B|159:116|159:116|95:134|95:134|28:122,1,190,10|0,3:1|0:1,0:1:0:0:
222,345,106604,6,0,B|209:315|216:298|216:298|187:309|161:301|161:301|124:290|94:303,1,170.999994781494,8|0,1:1|0:0,0:0:0:0:
189,226,106957,6,2,B|277:206|253:262|339:241,1,142.5,2|0,3:1|0:1,0:1:0:0:
458,96,107663,2,2,L|450:180,1,71.25,2|0,3:1|0:1,0:1:0:0:
365,111,108016,6,0,B|320:97|319:58|312:48|312:48|298:56|281:83|234:81,1,170.999994781494,8|0,1:1|0:0,0:0:0:0:
160,36,108369,6,2,B|109:37|68:18|68:18|28:49|4:100,1,190,10|0,3:1|0:1,0:1:0:0:
157,285,108898,2,2,B|155:234|174:193|174:193|143:153|92:129,1,190,10|0,3:1|0:1,0:1:0:0:
294,340,109427,6,2,B|311:280|250:249|250:249|358:275|420:226|450:148|343:150|383:201,1,356.25,2|0,3:1|0:1,0:1:0:0:
341,86,110839,6,0,B|322:65|309:59|309:59|292:64|277:87|277:87|299:132|294:180,1,170.999994781494,8|0,1:0|0:0,0:0:0:0:
388,185,111192,6,2,L|356:381,1,190,10|0,3:1|0:1,0:1:0:0:
156,134,111722,2,2,L|186:322,1,190,10|0,3:1|0:1,0:1:0:0:
297,46,112251,6,0,B|309:26|337:14|337:14|357:78|321:146,1,170.999994781494,8|0,1:0|0:0,0:0:0:0:
294,202,112604,6,2,P|372:151|464:167,1,190,10|0,3:1|0:1,0:1:0:0:
456,310,113133,2,2,P|433:269|393:245,1,95,10|0,3:1|0:1,0:1:0:0:
239,304,113486,2,2,P|285:308|327:287,1,95,10|0,3:1|0:1,0:1:0:0:
243,88,113839,6,0,P|214:89|187:98,1,56.9999982604981,8|0,1:0|0:0,0:0:0:0:
117,136,114016,6,2,P|61:207|69:268,1,142.5,6|0,3:1|0:1,0:1:0:0:
99,325,114369,2,0,L|154:333,1,47.5,0|0,3:0|0:0,0:0:0:0:
219,351,114545,1,2,0:1:0:0:
238,209,114722,6,0,L|218:351,1,142.5,2|0,3:1|0:0,0:0:0:0:
295,339,115074,2,2,P|341:342|377:372,1,95,6|0,3:1|0:1,0:1:0:0:
460,154,115427,6,0,L|452:56,1,95,0|0,3:1|0:0,0:0:0:0:
310,265,115780,2,0,L|318:167,1,95,0|0,3:0|0:0,0:0:0:0:
196,0,116133,2,0,L|203:94,1,95,0|0,3:0|0:0,0:0:0:0:
94,287,116486,6,0,L|99:215,1,71.25,8|0,1:0|0:0,0:0:0:0:
69,139,116839,6,2,P|92:187|201:199,1,142.5,2|2,3:1|0:1,0:1:0:0:
272,213,117192,2,0,P|249:232|234:257,1,47.5,0|0,3:0|0:0,0:0:0:0:
208,312,117369,1,2,0:1:0:0:
452,243,117545,6,0,B|406:250|406:250|365:275|365:275|307:282,1,142.5,2|0,3:1|0:0,0:0:0:0:
272,213,117898,6,0,B|346:203,1,71.25,8|0,1:0|0:0,0:0:0:0:
241,284,118251,6,2,P|194:257|158:218,1,95,2|0,3:1|0:1,0:1:0:0:
412,150,118604,2,2,P|455:119|488:77,1,95,0|0,3:1|0:1,0:1:0:0:
192,68,118957,2,2,P|150:34|122:-11,1,95,2|0,3:1|0:1,0:1:0:0:
272,213,119310,6,0,L|260:294,1,71.25,8|0,1:0|0:0,0:0:0:0:
246,359,119663,5,2,3:1:0:0:
144,180,119839,1,14,3:1:0:0:
39,347,120016,1,0,3:1:0:0:
4,211,120192,1,2,3:1:0:0:
188,312,120369,5,2,3:1:0:0:
254,180,120545,1,0,3:1:0:0:
160,219,120722,1,2,3:1:0:0:
295,279,120898,1,4,3:1:0:0:
172,106,121074,5,2,3:1:0:0:
188,312,121251,1,2,3:1:0:0:
7,207,121427,1,0,3:1:0:0:
26,347,121604,1,2,3:1:0:0:
94,87,121780,6,0,L|89:134,1,47.5,2|0,3:1|0:0,0:0:0:0:
74,272,121957,1,0,3:0:0:0:
289,86,122133,6,0,L|294:143,1,47.5,8|0,1:1|0:0,0:0:0:0:
309,322,122310,1,0,3:0:0:0:
448,264,122486,5,2,3:1:0:0:
392,255,122574,1,0,3:0:0:0:
339,274,122663,1,2,3:1:0:0:
309,322,122751,1,0,3:0:0:0:
256,341,122839,5,0,3:0:0:0:
202,325,122927,1,0,3:0:0:0:
173,275,123016,1,10,3:1:0:0:
174,218,123104,1,0,3:0:0:0:
199,167,123192,5,2,3:1:0:0:
194,110,123280,1,0,3:0:0:0:
155,67,123369,1,0,3:0:0:0:
100,50,123457,1,0,3:0:0:0:
45,67,123545,5,10,3:1:0:0:
9,110,123633,1,0,3:0:0:0:
5,167,123722,1,0,3:0:0:0:
28,218,123810,1,0,3:0:0:0:
77,246,123898,6,0,L|134:235,1,47.5
244,218,124074,1,12,3:3:0:0:
244,218,124163,1,8,3:0:0:0:
244,218,124251,2,0,P|230:275|242:318,1,95,10|8,3:3|0:0,0:0:0:0:
310,269,124516,1,8,3:0:0:0:
310,269,124604,2,0,L|358:273,1,47.5,8|8,3:0|3:0,0:0:0:0:
204,128,124780,1,8,3:0:0:0:
204,128,124869,1,8,3:0:0:0:
204,128,124957,6,0,L|149:135,1,42.7499986953736,8|0,3:1|0:0,0:0:0:0:
82,100,125310,5,6,3:1:0:0:
128,254,125486,1,0,0:1:0:0:
213,54,125663,1,2,3:1:0:0:
102,179,125839,1,0,0:0:0:0:
328,152,126016,1,2,3:1:0:0:
161,131,126192,1,0,0:0:0:0:
347,265,126369,1,2,3:1:0:0:
383,11,126545,6,2,L|392:85,1,56.9999982604981,2|0,0:1|0:1,0:1:0:0:
401,143,126722,1,0,3:0:0:0:
267,56,126898,6,2,L|257:130,1,56.9999982604981,2|0,0:1|0:1,0:1:0:0:
249,188,127074,1,0,3:0:0:0:
118,25,127251,6,2,L|125:81,1,56.9999982604981,2|0,0:1|0:1,0:1:0:0:
136,158,127427,1,0,3:0:0:0:
317,0,127604,5,2,0:1:0:0:
259,112,127780,1,0,3:0:0:0:
430,224,127957,6,2,L|440:150,1,56.9999982604981,2|0,0:1|0:1,0:1:0:0:
494,98,128133,6,2,B|441:80|441:80|386:99,1,113.999996520996,2|0,3:1|0:1,0:1:0:0:
188,0,128486,2,2,B|207:51|207:51|188:107,1,113.999996520996,2|0,3:1|0:1,0:1:0:0:
21,245,128839,2,2,B|137:215|93:283|206:241,1,170.999994781494,2|0,3:1|0:1,0:1:0:0:
187,247,129192,1,2,3:1:0:0:
327,0,129369,6,2,L|335:78,1,56.9999982604981,2|0,0:1|0:1,0:1:0:0:
341,133,129545,1,0,3:0:0:0:
188,0,129722,6,2,L|180:78,1,61.7499971733095,2|0,0:1|0:1,0:1:0:0:
166,176,129898,1,0,3:0:0:0:
22,0,130074,6,2,L|30:78,1,66.4999979705811,2|0,0:1|0:1,0:1:0:0:
48,225,130251,1,0,3:0:0:0:
105,88,130427,5,2,0:1:0:0:
184,284,130604,1,2,3:1:0:0:
224,181,130780,1,2,0:1:0:0:
380,358,130957,5,2,3:1:0:0:
270,251,131133,1,0,0:0:0:0:
495,195,131310,1,2,3:1:0:0:
358,274,131486,1,0,0:0:0:0:
446,45,131663,1,2,3:1:0:0:
422,200,131839,1,0,0:0:0:0:
320,0,132016,1,2,3:1:0:0:
292,215,132192,6,2,P|324:204|347:202,1,56.9999982604981,2|0,0:1|0:1,0:1:0:0:
422,200,132369,1,0,3:0:0:0:
342,325,132545,6,2,P|375:325|398:331,1,56.9999982604981,2|0,0:1|0:1,0:1:0:0:
469,355,132722,1,0,3:0:0:0:
258,298,132898,6,2,P|275:269|291:252,1,56.9999982604981,2|0,0:1|0:1,0:1:0:0:
346,202,133074,1,0,3:0:0:0:
216,371,133251,5,2,0:1:0:0:
139,267,133427,1,0,3:0:0:0:
342,325,133604,6,2,P|371:308|388:292,1,56.9999982604981,2|0,0:1|0:1,0:1:0:0:
459,215,133780,6,2,L|345:201,1,113.999996520996,2|0,3:1|0:1,0:1:0:0:
134,89,134133,2,2,L|247:75,1,113.999996520996,2|0,3:1|0:1,0:1:0:0:
13,299,134486,2,2,B|40:297|67:290|67:290|98:293|128:300|128:300|157:294|181:291,1,170.999994781494,2|0,3:1|0:1,0:1:0:0:
181,290,134839,1,2,3:1:0:0:
422,349,135016,6,2,P|422:316|415:287,1,56.9999982604981,2|0,0:1|0:1,0:1:0:0:
351,121,135192,1,4,3:1:0:0:
265,355,135369,6,2,P|263:320|272:290,1,61.7499971733095,2|0,0:1|0:1,0:1:0:0:
297,216,135545,1,0,3:0:0:0:
507,278,135722,6,2,P|495:245|477:219,1,66.4999979705811,2|0,0:1|0:1,0:1:0:0:
379,95,135898,1,4,3:1:0:0:
197,254,136074,1,2,0:1:0:0:
197,254,136163,2,2,P|252:217|312:221,1,113.999996520996,2|0,3:1|0:1,0:1:0:0:
375,254,136427,2,0,L|367:319,1,56.9999982604981,2|0,3:1|0:0,0:0:0:0:
299,218,136604,6,2,B|296:186|296:186|311:152,1,56.9999982604981,0|0,0:1|3:0,0:1:0:0:
345,98,136869,1,0,3:0:0:0:
345,98,136957,5,10,3:1:0:0:
375,254,137133,1,0,0:0:0:0:
261,52,137310,1,2,3:1:0:0:
299,218,137486,1,0,0:0:0:0:
403,2,137663,1,10,3:1:0:0:
477,261,137839,6,2,P|476:229|468:190,1,56.9999982604981,2|0,0:1|0:1,0:1:0:0:
460,132,138016,1,0,3:0:0:0:
299,218,138192,6,2,P|300:184|308:147,1,56.9999982604981,2|0,0:1|0:1,0:1:0:0:
338,98,138369,1,8,3:1:0:0:
401,331,138545,6,0,P|400:300|392:260,1,56.9999982604981,2|0,0:1|0:0,0:0:0:0:
381,201,138722,1,0,3:0:0:0:
246,384,138898,5,2,0:1:0:0:
317,278,139074,1,8,3:1:0:0:
133,349,139251,6,0,P|134:318|142:278,1,56.9999982604981,2|0,0:1|0:0,0:0:0:0:
152,146,139427,6,2,P|216:175|238:225,1,113.999996520996,6|0,3:1|0:1,0:1:0:0:
452,142,139780,2,2,P|401:191|398:245,1,113.999996520996,10|0,3:1|0:1,0:1:0:0:
298,3,140133,2,2,P|323:97|290:167,1,170.999994781494,2|0,3:1|0:1,0:1:0:0:
235,211,140486,1,10,3:1:0:0:
22,280,140663,6,2,P|21:248|27:213,1,56.9999982604981,2|0,0:1|0:0,0:1:0:0:
39,148,140839,1,0,3:0:0:0:
201,336,141016,6,2,P|202:305|197:274,1,61.7499971733095,2|0,0:1|0:1,0:1:0:0:
183,150,141192,1,8,3:1:0:0:
370,384,141369,1,2,1:0:0:0:
370,384,141457,1,8,0:1:0:0:
370,384,141545,6,0,P|364:351|365:317,1,66.4999979705811,0|0,3:0|0:0,0:0:0:0:
388,136,141721,1,2,0:1:0:0:
198,275,141898,5,10,1:1:0:0:
241,238,141986,1,2,1:0:0:0:
295,223,142074,1,10,0:1:0:0:
351,230,142163,1,2,1:0:0:0:
400,257,142251,5,14,3:1:0:0:
284,77,142427,1,0,2:1:0:0:
244,342,142604,1,10,1:1:0:0:
365,145,142780,1,0,0:1:0:0:
111,224,142957,5,10,3:1:0:0:
78,214,143045,1,0,1:0:0:0:
52,191,143133,1,8,2:1:0:0:
40,158,143222,1,0,1:0:0:0:
50,125,143310,5,10,1:1:0:0:
99,96,143398,1,0,1:0:0:0:
155,89,143486,1,10,0:1:0:0:
211,94,143574,1,0,1:0:0:0:
260,123,143663,5,12,3:1:0:0:
321,337,143839,1,2,0:1:0:0:
339,65,144016,1,8,1:0:0:0:
212,260,144192,1,2,0:1:0:0:
339,65,144369,5,8,3:1:0:0:
372,60,144457,1,0,1:0:0:0:
405,63,144545,1,10,0:1:0:0:
434,80,144633,1,0,1:0:0:0:
457,105,144722,5,8,1:0:0:0:
467,137,144810,1,0,1:0:0:0:
465,171,144898,1,10,0:1:0:0:
444,198,144986,1,0,1:0:0:0:
412,209,145074,5,10,3:1:0:0:
372,167,145163,1,0,1:0:0:0:
317,150,145251,1,8,0:1:0:0:
260,155,145339,1,0,1:0:0:0:
209,181,145427,5,10,1:0:0:0:
153,194,145516,1,0,1:0:0:0:
99,174,145604,1,8,0:1:0:0:
73,123,145692,1,0,1:0:0:0:
79,66,145780,5,10,3:1:0:0:
126,34,145869,1,0,1:0:0:0:
182,31,145957,1,8,0:1:0:0:
235,50,146045,1,0,1:0:0:0:
266,98,146133,6,8,L|259:162,1,56.9999982604981,10|0,1:1|1:0,1:0:0:0:
89,258,146310,2,8,L|82:201,1,56.9999982604981,10|0,0:1|1:0,1:0:0:0:
73,123,146486,5,0,3:1:0:0:
347,75,146663,2,8,L|333:193,1,113.999996520996,2|0,0:1|0:0,1:0:0:0:
263,384,147016,6,2,P|322:322|409:321,1,170.999994781494,2|0,3:1|0:1,0:1:0:0:
482,233,147369,2,2,L|478:293,1,56.9999982604981,2|2,0:1|0:1,0:1:0:0:
471,367,147545,1,10,1:1:0:0:
350,232,147722,1,2,0:1:0:0:
124,348,147898,6,0,P|73:311|63:254,1,113.999996520996,4|0,3:1|0:0,0:0:0:0:
183,126,148251,1,8,1:0:0:0:
140,268,148427,1,0,0:0:0:0:
55,63,148604,6,0,B|155:95|123:27|243:59,1,170.999994781494,0|0,3:0|0:0,0:0:0:0:
287,94,148957,2,0,L|294:151,1,56.9999982604981,8|0,1:0|0:0,0:0:0:0:
251,244,149133,1,0,0:0:0:0:
251,244,149222,1,0,0:0:0:0:
251,244,149310,6,0,P|305:221|369:233,1,113.999996520996,0|0,3:0|0:0,0:0:0:0:
263,373,149663,2,0,L|255:317,1,56.9999982604981,8|0,1:0|0:0,0:0:0:0:
176,242,149839,2,0,L|168:298,1,56.9999982604981
154,372,150016,1,0,3:0:0:0:
191,149,150192,1,0,0:0:0:0:
191,149,150280,1,0,0:0:0:0:
191,149,150369,2,0,P|157:148|129:158,1,56.9999982604981,8|0,1:0|0:0,0:0:0:0:
67,188,150545,2,0,P|42:211|29:238,1,56.9999982604981
49,305,150722,6,0,L|165:317,1,113.999996520996,0|0,3:0|0:0,0:0:0:0:
305,139,151074,2,0,L|190:150,1,113.999996520996,8|0,1:0|0:0,0:0:0:0:
358,328,151427,2,0,L|474:340,1,113.999996520996,0|0,3:0|0:0,0:0:0:0:
272,317,151780,1,8,1:0:0:0:
387,126,151957,6,0,L|403:194,1,56.9999982604981
423,254,152133,1,0,3:0:0:0:
320,76,152310,6,0,L|304:144,1,56.9999982604981
287,205,152486,1,8,1:0:0:0:
452,39,152663,6,0,L|468:107,1,56.9999982604981
413,310,152839,6,0,L|422:253,1,56.9999982604981,0|0,3:0|0:0,0:0:0:0:
287,205,153016,1,0,0:0:0:0:
287,205,153104,1,0,0:0:0:0:
287,205,153192,2,0,L|296:260,1,56.9999982604981,8|0,1:0|0:0,0:0:0:0:
442,179,153369,2,0,L|454:123,1,56.9999982604981,0|0,0:3|0:0,0:0:0:0:
296,261,153545,6,0,P|245:234|186:235,1,113.999996520996,0|0,3:0|0:0,0:0:0:0:
41,331,153898,1,8,1:0:0:0:
18,171,154074,1,0,0:0:0:0:
278,168,154251,6,0,B|228:171|228:171|170:152|170:152|102:158,1,170.999994781494,0|0,3:0|0:0,0:0:0:0:
145,26,154604,2,0,L|140:83,1,56.9999982604981,8|0,1:0|0:0,0:0:0:0:
135,238,154780,1,0,0:0:0:0:
135,238,154869,1,0,0:0:0:0:
135,238,154957,6,0,L|19:227,1,113.999996520996,0|0,3:0|0:0,0:0:0:0:
239,222,155310,6,0,L|232:288,1,56.9999982604981,8|0,0:1|0:0,0:0:0:0:
152,367,155486,2,0,L|145:300,1,56.9999982604981
135,238,155663,1,0,3:0:0:0:
321,384,155839,1,0,0:0:0:0:
321,384,155927,1,0,0:0:0:0:
321,384,156016,2,0,L|263:377,1,56.9999982604981,8|0,1:0|0:0,0:0:0:0:
226,314,156192,2,0,L|168:321,1,56.9999982604981
108,366,156369,6,0,P|57:327|-7:331,1,113.999996520996,0|0,3:0|0:0,0:0:0:0:
240,239,156722,2,0,P|301:219|360:244,1,113.999996520996,8|0,1:0|0:0,0:0:0:0:
97,91,157074,2,0,P|99:156|143:203,1,113.999996520996,0|0,3:0|0:0,0:0:0:0:
345,150,157427,1,8,1:0:0:0:
169,320,157604,6,0,L|173:256,1,56.9999982604981
180,86,157781,1,0,3:0:0:0:
344,325,157957,6,0,L|340:261,1,56.9999982604981
334,153,158133,1,8,1:0:0:0:
130,271,158310,6,0,L|194:267,1,56.9999982604981
243,212,158486,6,0,P|242:181|247:148,1,56.9999982604981,0|0,3:0|0:0,0:0:0:0:
348,67,158663,1,0,0:0:0:0:
348,67,158751,1,0,0:0:0:0:
348,67,158839,2,0,P|331:89|310:109,1,56.9999982604981,8|0,1:0|0:0,0:0:0:0:
237,80,159016,2,0,P|216:59|195:43,1,56.9999982604981
114,120,159192,6,0,L|165:113,1,47.5,4|0,0:1|0:0,0:0:0:0:
242,291,159545,6,0,L|128:276,1,113.999996520996,8|0,1:0|0:0,0:0:0:0:
373,125,159898,2,0,L|486:111,1,113.999996520996,0|0,3:0|0:0,0:0:0:0:
242,291,160251,1,8,1:0:0:0:
282,270,160339,1,0,1:0:0:0:
327,265,160427,1,8,0:1:0:0:
369,281,160516,1,0,1:0:0:0:
402,311,160604,6,0,P|454:263|462:215,1,113.999996520996,8|0,3:1|0:0,0:0:0:0:
250,110,160957,2,0,P|198:158|190:206,1,113.999996520996,8|0,1:0|0:0,0:0:0:0:
318,374,161310,1,0,3:0:0:0:
272,192,161486,1,0,0:0:0:0:
174,341,161663,1,8,1:0:0:0:
128,341,161751,1,0,1:0:0:0:
88,318,161839,1,8,0:1:0:0:
62,281,161927,1,0,1:0:0:0:
62,235,162016,6,0,L|78:115,1,113.999996520996,0|0,3:0|0:0,0:0:0:0:
332,154,162369,1,8,1:0:0:0:
160,252,162545,1,0,0:0:0:0:
204,22,162722,2,0,P|264:-2|364:54,1,170.999994781494,0|0,3:0|1:0,0:0:0:0:
355,40,163074,2,0,L|347:104,1,56.9999982604981,8|0,1:0|0:0,0:0:0:0:
288,260,163251,2,0,L|280:196,1,56.9999982604981
271,128,163427,5,0,3:0:0:0:
149,278,163604,1,0,0:0:0:0:
223,49,163780,1,8,1:0:0:0:
372,188,163957,1,8,0:1:0:0:
372,188,164045,1,0,1:0:0:0:
372,188,164133,6,0,L|364:246,1,56.9999982604981,8|0,3:1|1:0,0:0:0:0:
263,275,164310,1,8,0:1:0:0:
263,275,164398,1,0,1:0:0:0:
263,275,164486,2,0,L|271:339,1,56.9999982604981,8|0,1:0|1:0,0:0:0:0:
156,193,164663,2,0,L|148:249,1,56.9999982604981,8|0,0:1|1:0,0:0:0:0:
134,327,164839,5,8,3:1:0:0:
116,118,165016,1,0,0:0:0:0:
223,333,165192,1,8,1:0:0:0:
53,229,165369,1,0,0:0:0:0:
296,101,165545,5,8,3:1:0:0:
324,119,165633,1,0,1:0:0:0:
345,146,165722,1,8,0:1:0:0:
355,178,165810,1,0,1:1:0:0:
352,211,165898,5,8,1:0:0:0:
295,205,165986,1,0,1:0:0:0:
240,222,166074,1,8,0:1:0:0:
194,257,166163,1,0,1:0:0:0:
174,310,166251,5,8,3:1:0:0:
228,115,166427,1,0,0:0:0:0:
90,327,166604,1,8,1:0:0:0:
295,205,166780,1,0,0:0:0:0:
39,150,166957,5,8,3:1:0:0:
69,166,167045,1,0,1:1:0:0:
103,166,167133,1,8,2:1:0:0:
135,155,167222,1,0,1:1:0:0:
163,137,167310,5,8,1:1:0:0:
195,129,167398,1,0,1:1:0:0:
229,129,167486,1,8,0:1:0:0:
260,141,167574,1,0,1:1:0:0:
286,162,167663,5,8,3:1:0:0:
323,120,167751,1,0,1:1:0:0:
317,64,167839,1,8,0:1:0:0:
340,13,167927,1,0,1:1:0:0:
395,0,168016,5,8,1:1:0:0:
448,18,168104,1,0,1:1:0:0:
479,66,168192,1,8,0:1:0:0:
475,123,168280,1,0,1:1:0:0:
446,173,168369,5,8,3:1:0:0:
390,187,168457,1,0,1:1:0:0:
335,173,168545,1,8,0:1:0:0:
278,179,168633,1,0,1:1:0:0:
240,222,168722,6,0,L|251:291,1,56.9999982604981,8|0,1:1|1:1,1:1:0:0:
352,97,168898,2,0,L|360:41,1,56.9999982604981,0|0,1:1|1:1,1:1:0:0:
125,93,169074,5,0,3:0:0:0:
256,192,169163,12,8,170133,1:0:0:0:
168,154,170486,6,0,L|238:144,2,71.2500027179719,10|2|2,1:2|0:0|0:0,0:0:0:0:
57,236,171016,2,0,L|127:246,1,71.2500027179719,8|2,1:2|0:0,0:0:0:0:
193,288,171369,1,2,0:0:0:0:
238,143,171545,2,0,L|327:131,1,71.2500027179719,10|0,1:2|0:0,0:0:0:0:
368,189,171898,6,0,L|356:278,2,71.2500027179719,10|2|2,1:2|0:0|0:0,0:0:0:0:
423,70,172427,2,0,L|435:159,1,71.2500027179719,8|2,1:2|0:0,0:0:0:0:
446,219,172780,1,2,0:0:0:0:
308,133,172957,2,0,L|237:143,1,71.2500027179719,8|0,1:2|0:0,0:0:0:0:
161,157,173310,6,0,P|163:121|171:86,2,71.2500027179719,10|2|2,1:2|0:0|0:0,0:0:0:0:
218,287,173839,2,0,P|215:251|209:216,2,71.2500027179719,8|2|2,1:2|0:0|0:0,0:0:0:0:
144,263,174369,2,0,P|108:263|73:269,1,71.2500027179719,10|0,1:2|0:0,0:0:0:0:
327,382,174722,6,0,P|303:357|264:326,1,71.2500027179719,10|2,1:2|0:0,0:0:0:0:
218,287,175074,1,2,0:0:0:0:
361,216,175251,2,0,P|358:252|351:286,1,71.2500027179719,8|2,1:2|0:0,0:0:0:0:
280,239,175604,1,2,0:0:0:0:
417,92,175780,2,0,P|424:126|426:162,1,71.2500027179719,10|0,1:2|0:0,0:0:0:0:
444,243,176133,6,0,P|480:225|533:227,2,71.2500027179719,10|2|2,1:2|0:0|0:0,0:0:0:0:
293,196,176663,2,0,P|331:201|366:219,1,71.2500027179719,8|2,1:2|0:0,0:0:0:0:
384,290,177016,1,2,0:0:0:0:
282,384,177192,2,0,P|287:346|305:311,1,71.2500027179719,2|0,1:2|0:0,0:0:0:0:
368,371,177545,6,0,P|403:370|436:356,2,71.2500027179719,10|2|2,1:2|0:0|0:0,0:0:0:0:
234,296,178074,2,0,P|269:300|300:316,1,71.2500027179719,8|2,1:2|0:0,0:0:0:0:
244,378,178427,1,2,0:0:0:0:
168,248,178604,2,0,P|197:226|234:214,1,71.2500027179719,10|0,1:2|0:0,0:0:0:0:
308,212,178957,6,0,L|320:127,2,71.2500027179719,10|2|2,1:2|0:0|0:0,0:0:0:0:
279,70,179486,2,0,L|267:0,2,71.2500027179719,8|2|2,1:2|0:0|0:0,0:0:0:0:
214,120,180016,2,0,L|143:114,1,71.2500027179719,10|0,1:2|0:0,0:0:0:0:
179,275,180369,6,0,L|184:346,1,71.2500027179719,10|2,1:2|0:0,0:0:0:0:
261,299,180722,1,2,0:0:0:0:
239,143,180898,2,0,L|234:215,1,71.2500027179719,8|2,1:2|0:0,0:0:0:0:
307,239,181251,1,2,0:0:0:0:
320,63,181427,2,0,L|315:135,1,71.2500027179719,10|0,1:2|0:0,0:0:0:0:
179,275,181780,6,0,P|200:314|236:332,1,71.2500027179719,6|2,1:2|0:0,0:0:0:0:
256,257,182133,1,2,0:0:0:0:
130,213,182310,2,0,P|103:248|102:288,1,71.2500027179719,14|2,1:2|0:0,0:0:0:0:
179,276,182663,1,2,0:0:0:0:
174,142,182839,2,0,P|131:129|93:142,1,71.2500027179719,14|0,1:2|0:0,0:0:0:0:
34,159,183192,1,10,1:2:0:0:
7,298,183369,6,0,P|34:268|36:221,1,71.2500027179719,6|2,0:0|0:0,0:0:0:0:
34,159,183722,1,8,1:2:0:0:
109,293,183898,2,0,L|179:285,1,71.2500027179719,6|2,0:0|0:0,0:0:0:0:
113,157,184251,2,0,L|183:166,1,71.2500027179719,14|0,1:2|0:0,0:0:0:0:
136,0,184604,6,0,L|211:9,1,71.2500027179719,14|2,1:2|0:0,0:0:0:0:
282,23,184957,1,2,0:0:0:0:
405,76,185133,2,0,L|335:86,1,71.2500027179719,14|2,1:2|0:0,0:0:0:0:
260,101,185486,1,2,0:0:0:0:
143,152,185663,2,0,L|213:161,1,71.2500027179719,14|2,1:2|0:0,0:0:0:0:
290,175,186016,1,10,1:2:0:0:
270,321,186192,6,0,L|280:245,1,71.2500027179719,6|2,0:0|0:0,0:0:0:0:
290,175,186545,1,8,1:2:0:0:
178,55,186722,1,2,0:0:0:0:
143,152,186898,1,0,0:0:0:0:
330,168,187074,2,0,L|325:97,1,71.2500027179719,14|0,1:2|0:0,0:0:0:0:
116,228,187427,6,0,P|153:233|198:209,1,71.2500027179719,6|2,1:2|0:0,0:0:0:0:
143,152,187780,1,2,0:0:0:0:
44,265,187957,2,0,P|63:294|94:310,1,71.2500027179719,4|2,1:2|0:0,0:0:0:0:
116,228,188310,1,2,0:0:0:0:
71,104,188486,2,0,P|56:136|57:171,1,71.2500027179719,14|0,1:2|0:0,0:0:0:0:
116,228,188839,1,10,1:2:0:0:
257,185,189016,6,0,P|222:178|179:194,1,71.2500027179719,6|2,0:0|0:0,0:0:0:0:
116,228,189369,1,8,1:2:0:0:
101,73,189545,2,0,L|107:143,1,71.2500027179719,6|2,0:0|0:0,0:0:0:0:
254,25,189898,2,0,L|248:104,1,71.2500027179719,14|0,1:2|0:0,0:0:0:0:
442,15,190251,6,0,L|448:85,1,71.2500027179719,14|2,1:2|0:0,0:0:0:0:
419,157,190604,1,2,0:0:0:0:
407,234,190780,1,12,1:2:0:0:
422,325,190957,5,2,0:0:0:0:
407,234,191133,1,2,0:0:0:0:
297,155,191310,1,2,0:0:0:0:
85,124,191486,1,2,0:0:0:0:
342,170,192369,5,0,0:0:0:0:
88,107,192722,6,0,B|103:67|103:67|106:109|117:138|117:138|125:157|121:208,1,170.999994781494,8|0,1:0|0:0,0:0:0:0:
58,269,193074,6,2,P|128:226|246:224,1,190,14|0,3:1|0:0,0:1:0:0:
449,257,193604,2,2,P|397:192|287:150,1,190,10|0,1:1|0:0,0:1:0:0:
183,340,194133,6,2,B|229:267|236:201|220:109|157:89|81:114|91:228|169:165,1,356.25,10|2,1:1|0:1,0:1:0:0:
215,258,195545,6,0,B|277:252|277:252|330:275|330:275|388:269,1,170.999994781494,8|0,1:0|0:0,0:0:0:0:
476,265,195898,6,2,B|458:223|458:223|444:367,1,190,14|0,1:0|0:0,0:1:0:0:
237,182,196427,2,0,B|223:38|223:38|201:91,1,190,10|0,1:0|0:0,0:0:0:0:
30,289,196957,6,0,B|63:294|95:287|95:287|130:276|152:292|152:292|171:273|171:273|161:242,1,170.999994781494,8|0,1:0|0:0,0:0:0:0:
232,320,197310,6,2,B|247:286|247:286|236:181,1,142.5,14|0,1:1|0:1,0:1:0:0:
345,41,198016,2,2,P|375:23|410:21,1,71.25,10|0,1:1|0:1,0:1:0:0:
400,102,198369,6,0,B|414:138|393:181|393:181|414:225|414:225|410:265,1,170.999994781494,8|0,1:0|0:0,0:0:0:0:
366,326,198722,6,2,B|325:308|274:317|274:317|229:292|180:299,1,190,14|0,1:1|0:1,0:1:0:0:
82,98,199251,2,2,B|124:80|174:89|174:89|218:63|274:70,1,190,10|0,1:1|0:1,0:1:0:0:
437,231,199780,6,10,B|463:158|418:106|418:106|440:48|403:-12|403:-12|345:8|349:67,1,356.25,10|8,1:0|0:0,0:1:0:0:
269,115,201192,6,8,B|299:176|365:154|365:154|378:177|372:206,1,170.999994781494,8|8,1:0|0:0,0:0:0:0:
269,115,201545,6,10,B|152:77|183:158|47:115,1,227.999993041992,14|0,1:1|0:1,0:1:0:0:
287,306,202074,2,2,B|413:275|387:346|510:321,1,227.999993041992,10|0,1:0|0:0,0:1:0:0:
195,317,202604,6,0,B|158:323|134:310|134:310|104:325|72:326|72:326|103:329|126:348,1,170.999994781494,8|0,1:0|0:0,0:0:0:0:
7,284,202957,6,2,P|15:205|79:250,1,190,10|0,1:1|0:1,0:1:0:0:
145,134,203486,2,2,P|184:140|160:171,1,95,10|0,1:1|0:1,0:1:0:0:
283,181,203839,2,2,P|308:211|269:217,1,95,10|0,1:1|0:1,0:1:0:0:
401,317,204192,6,0,P|377:299|358:276,1,56.9999982604981,8|0,1:0|0:0,0:0:0:0:
283,181,204369,6,2,P|285:279|271:371,1,190,14|0,1:1|0:1,0:1:0:0:
27,384,204898,2,2,P|25:286|39:194,1,190,10|0,1:1|0:1,0:1:0:0:
280,92,205427,6,2,B|216:72|154:106|140:169|140:169|116:162|91:154|92:123|89:85|34:61|2:105|46:148|70:102,1,356.25,10|0,1:1|0:1,0:1:0:0:
89,229,206839,6,0,B|47:244|20:280|20:280|39:237|47:197,1,170.999994781494,8|0,1:0|0:0,0:0:0:0:
175,236,207192,6,2,B|236:246|236:246|306:227|306:227|360:238,1,190,10|0,1:1|0:1,0:1:0:0:
501,4,207722,2,2,B|439:20|439:20|367:7|367:7|315:23,1,190,10|0,1:1|0:1,0:1:0:0:
441,270,208251,6,0,B|456:215|456:215|451:162|451:162|435:146|435:146|419:154|410:175,1,170.999994781494,8|0,1:0|0:0,0:0:0:0:
360,238,208604,6,2,P|289:249|237:201,1,142.5,14|2,1:0|0:0,0:1:0:0:
76,354,209310,2,0,P|112:354|143:371,1,71.25,10|0,1:0|0:0,0:0:0:0:
220,345,209663,6,0,B|241:298|241:298|230:239|230:239|240:206|240:206|210:227,1,170.999994781494,8|0,1:0|0:0,0:0:0:0:
280,137,210016,6,2,P|316:78|443:56,1,190,14|0,1:1|0:1,0:1:0:0:
512,247,210545,2,2,P|468:164|379:138,1,190,14|0,1:0|0:0,0:1:0:0:
239,341,211074,6,2,B|211:310|211:310|275:288|354:330|354:330|423:361|468:336|468:336|497:345|522:344,1,356.25,14|0,1:1|0:1,0:1:0:0:
431,268,212486,6,0,B|432:238|440:219|440:219|435:192|418:161|418:161|430:132|430:132|426:102,1,170.999994781494,8|0,1:0|0:0,0:0:0:0:
352,224,212839,6,2,P|254:171|220:65,1,227.999993041992,14|0,1:1|0:1,0:1:0:0:
7,259,213369,2,2,P|105:206|139:100,1,227.999993041992,10|0,1:1|0:0,0:1:0:0:
249,310,213898,6,0,B|272:307|288:296|288:296|251:275|229:265|229:265|192:272|155:284,1,170.999994781494,8|0,1:0|0:0,0:0:0:0:
92,337,214251,6,0,P|90:259|129:192,1,156.74999521637,8|0,1:0|0:0,0:0:0:0:
237,253,215310,6,0,P|176:267|219:339,1,170.999994781494,8|0,1:0|0:0,0:0:0:0:
331,330,215663,5,0,0:0:0:0:
331,330,216192,1,0,0:0:0:0:
242,357,217074,5,2,0:0:0:0:
242,357,217604,1,0,0:0:0:0:
233,262,218486,5,2,0:0:0:0:
233,262,219016,1,0,0:0:0:0:
323,184,219898,5,2,0:0:0:0:
323,184,220427,1,0,0:0:0:0:
323,184,220957,1,0,0:0:0:0:
133,68,221310,5,2,0:0:0:0:
133,68,221839,1,0,0:0:0:0:
155,177,222722,5,2,0:0:0:0:
155,177,223251,1,0,0:0:0:0:
230,99,224133,5,2,0:0:0:0:
230,99,224663,1,0,0:0:0:0:
438,219,225545,5,2,0:0:0:0:
438,219,226074,1,0,0:0:0:0:
441,238,226427,1,0,0:0:0:0:
445,261,226604,1,0,0:0:0:0:
420,338,226957,5,10,0:0:0:0:
380,311,227045,1,0,0:0:0:0:
334,298,227133,1,2,0:0:0:0:
286,305,227222,1,0,0:0:0:0:
247,332,227310,1,8,0:0:0:0:
200,337,227398,1,0,0:0:0:0:
156,318,227486,1,2,0:0:0:0:
132,276,227574,1,0,0:0:0:0:
147,230,227663,5,10,0:0:0:0:
190,211,227751,1,0,0:0:0:0:
234,225,227839,1,0,0:0:0:0:
279,212,227927,1,0,0:0:0:0:
315,181,228016,5,10,0:0:0:0:
332,126,228104,1,0,0:0:0:0:
317,71,228192,1,0,0:0:0:0:
271,37,228280,1,0,0:0:0:0:
213,38,228369,6,0,L|155:45,3,47.5,8|0|0|0,0:0|0:0|0:0|0:0,0:0:0:0:
134,128,228722,2,0,L|87:122,3,47.5,8|0|0|0,0:0|0:0|0:0|0:0,0:0:0:0:
194,216,229074,2,0,L|147:221,3,47.5,8|0|0|0,0:0|0:0|0:0|0:0,0:0:0:0:
110,320,229427,2,0,L|104:367,3,35.625001358986,8|8|8|8,0:0|0:0|0:0|0:0,0:0:0:0:
182,347,229780,5,10,0:0:0:0:
224,369,229869,1,0,0:0:0:0:
271,371,229957,1,2,0:0:0:0:
314,353,230045,1,0,0:0:0:0:
337,312,230133,1,8,0:0:0:0:
339,265,230222,1,0,0:0:0:0:
317,222,230310,1,2,0:0:0:0:
274,200,230398,1,0,0:0:0:0:
254,157,230486,5,8,0:0:0:0:
262,110,230574,1,0,0:0:0:0:
288,70,230663,1,0,0:0:0:0:
333,56,230751,1,0,0:0:0:0:
380,59,230839,5,8,0:0:0:0:
346,104,230927,1,8,0:0:0:0:
352,161,231016,1,8,0:0:0:0:
395,196,231104,1,8,0:0:0:0:
451,196,231192,6,0,L|499:190,3,47.5,14|0|0|0,0:0|0:0|0:0|0:0,0:0:0:0:
403,301,231545,2,0,L|356:295,3,47.5,8|0|0|0,0:0|0:0|0:0|0:0,0:0:0:0:
257,215,231898,2,0,L|305:209,3,47.5,10|0|0|0,0:0|0:0|0:0|0:0,0:0:0:0:
207,345,232251,2,0,L|149:338,3,35.625001358986,8|8|8|8,0:0|0:0|0:0|0:0,0:0:0:0:
280,354,232604,5,8,1:0:0:0:
220,134,232780,1,10,0:0:0:0:
103,334,232957,1,8,0:0:0:0:
65,167,233133,1,10,0:0:0:0:
284,277,233310,5,10,0:0:0:0:
381,123,233486,1,8,0:0:0:0:
252,146,233663,1,10,0:0:0:0:
421,254,233839,1,10,0:0:0:0:
187,307,234016,5,14,0:0:0:0:
223,54,234192,1,10,0:0:0:0:
342,246,234369,1,8,0:0:0:0:
383,86,234545,1,10,0:0:0:0:
193,227,234722,5,10,0:0:0:0:
149,64,234898,1,8,0:0:0:0:
202,373,235074,6,0,L|209:317,1,47.5,8|0,0:3|0:0,0:0:0:0:
347,120,235251,2,0,L|352:167,1,47.5,8|0,0:0|0:0,0:0:0:0:
202,373,235427,5,6,3:1:0:0:
156,338,235516,1,0,3:1:0:0:
134,285,235604,1,0,3:1:0:0:
129,228,235692,1,0,3:1:0:0:
152,176,235780,5,2,3:1:0:0:
182,127,235869,1,0,3:1:0:0:
178,70,235957,1,0,3:1:0:0:
142,25,236045,1,0,3:1:0:0:
86,11,236133,5,2,3:1:0:0:
71,66,236222,1,0,3:1:0:0:
82,121,236310,1,0,3:1:0:0:
123,159,236398,1,0,3:1:0:0:
176,177,236486,5,14,3:1:0:0:
237,153,236574,1,0,3:1:0:0:
304,150,236663,1,0,3:1:0:0:
368,164,236751,1,0,3:1:0:0:
416,208,236839,5,0,3:1:0:0:
264,277,237016,1,12,0:0:0:0:
264,277,237104,1,8,0:0:0:0:
264,277,237192,2,0,L|156:264,1,95,10|8,0:0|0:0,0:0:0:0:
96,296,237457,1,8,0:0:0:0:
96,296,237545,2,0,L|106:374,1,47.5,8|8,0:0|0:0,0:0:0:0:
216,184,237722,1,8,0:0:0:0:
216,184,237810,1,8,0:0:0:0:
216,184,237898,6,0,L|222:140,1,42.7499986953736,8|0,3:1|0:0,0:0:0:0:
20,240,238251,6,2,P|64:217|154:224,1,132.999995941162,2|0,3:1|0:1,0:1:0:0:
104,383,238516,1,2,0:1:0:0:
100,358,238604,2,0,L|91:281,1,66.4999979705811,10|0,1:1|0:0,0:0:0:0:
219,260,238780,2,0,L|227:194,1,66.4999979705811,2|0,0:1|0:0,0:0:0:0:
336,358,238957,1,0,3:0:0:0:
343,337,239045,2,2,B|342:300|365:274|365:274|345:245|349:194,1,132.999995941162,2|0,0:1|0:1,0:1:0:0:
424,328,239310,6,2,P|456:333|489:333,1,66.4999979705811,10|0,1:1|0:1,0:1:0:0:
348,212,239486,2,2,P|316:217|285:229,1,66.4999979705811,2|0,0:1|0:1,0:1:0:0:
480,142,239663,6,0,P|473:75|456:11,1,132.999995941162,2|0,3:1|0:0,0:0:0:0:
330,125,239927,1,2,0:1:0:0:
330,148,240016,2,0,P|335:180|346:211,1,66.4999979705811,10|0,1:1|0:0,0:0:0:0:
259,30,240192,2,2,P|259:63|252:95,1,66.4999979705811,2|0,0:1|0:1,0:1:0:0:
193,242,240369,1,0,3:0:0:0:
190,221,240457,2,2,B|182:125|182:125|192:140|210:161,1,132.999995941162,2|0,0:1|0:1,0:1:0:0:
341,73,240722,6,2,P|373:68|407:66,1,66.4999979705811,10|0,1:1|0:1,0:1:0:0:
375,283,240898,2,2,P|341:282|309:276,1,66.4999979705811,2|0,0:1|0:1,0:1:0:0:
182,125,241074,6,0,P|104:122|51:168,1,132.999995941162,2|0,3:1|0:0,0:0:0:0:
139,289,241339,1,2,0:1:0:0:
149,275,241427,2,0,P|147:242|132:199,1,66.4999979705811,10|0,1:1|0:0,0:0:0:0:
0,103,241604,2,0,P|1:70|16:27,1,66.4999979705811,2|0,0:1|0:3,0:0:0:0:
182,125,241780,1,0,3:1:0:0:
191,109,241869,2,2,B|223:60|213:12|213:12|184:27,1,132.999995941162,2|0,0:1|0:1,0:1:0:0:
347,193,242133,6,0,B|341:144|341:144|328:166,1,66.4999979705811,10|0,1:0|0:0,0:0:0:0:
218,257,242310,2,2,B|224:306|224:306|237:284,1,66.4999979705811,2|0,0:1|0:1,0:1:0:0:
347,193,242486,6,2,B|421:216|398:162|475:183,1,132.999995941162,2|0,3:1|0:1,0:1:0:0:
512,332,242751,1,2,0:1:0:0:
495,328,242839,2,0,L|428:316,1,66.4999979705811,10|0,1:1|0:0,0:0:0:0:
321,384,243016,1,2,0:1:0:0:
304,380,243104,2,0,L|237:368,1,66.4999979705811,0|0,0:1|3:0,0:0:0:0:
153,295,243280,2,2,L|21:317,1,132.999995941162,2|0,0:1|0:1,0:1:0:0:
10,184,243545,6,2,B|50:187|73:202,1,66.4999979705811,10|0,1:1|0:1,0:1:0:0:
112,56,243722,2,2,B|138:86|143:113,1,66.4999979705811,2|0,0:1|0:1,0:1:0:0:
232,22,243898,6,2,B|273:17|273:17|300:21|324:32|324:32|374:27,1,132.999995941162,2|0,3:1|0:1,0:1:0:0:
377,182,244163,1,2,0:1:0:0:
378,201,244251,2,0,L|383:276,1,66.4999979705811,10|0,1:1|0:0,0:0:0:0:
431,118,244427,2,0,L|435:51,1,66.4999979705811,2|0,0:1|0:0,0:0:0:0:
273,138,244604,1,0,3:0:0:0:
272,157,244692,2,2,P|317:207|382:197,1,132.999995941162,2|0,0:1|0:1,0:1:0:0:
201,233,244957,6,2,P|169:242|140:258,1,66.4999979705811,10|0,1:0|0:0,0:1:0:0:
331,290,245133,2,2,P|349:314|363:352,1,66.4999979705811,2|0,0:1|0:1,0:1:0:0:
140,258,245310,6,0,B|136:207|151:159|151:159|166:192,1,132.999995941162,2|0,3:1|0:1,0:0:0:0:
248,296,245574,1,2,0:1:0:0:
253,315,245663,2,0,B|259:345|259:345|251:388,1,66.4999979705811,10|0,1:1|0:0,0:0:0:0:
327,209,245839,2,2,B|333:175|333:175|323:141,1,66.4999979705811,2|0,0:1|0:1,0:1:0:0:
444,326,246016,1,0,3:1:0:0:
439,308,246104,2,2,B|422:245|422:245|442:172,1,132.999995941162,2|0,0:1|0:1,0:1:0:0:
248,184,246369,6,2,L|230:247,1,66.4999979705811,10|0,1:1|0:1,0:1:0:0:
404,119,246545,2,2,L|396:49,1,66.4999979705811,2|0,0:1|0:1,0:1:0:0:
201,61,246722,6,2,L|164:188,1,132.999995941162,6|0,3:1|0:1,0:1:0:0:
121,351,246986,1,2,0:1:0:0:
101,353,247074,2,2,L|31:360,1,66.4999979705811,10|0,1:1|0:1,0:1:0:0:
229,247,247251,2,2,L|295:241,1,66.4999979705811,2|0,0:1|0:1,0:1:0:0:
414,370,247427,1,0,3:0:0:0:
393,372,247516,2,2,B|328:371|349:318|251:326,1,132.999995941162,2|0,0:1|0:1,0:1:0:0:
421,193,247780,6,2,P|388:207|365:230,1,66.4999979705811,10|0,1:1|0:1,0:1:0:0:
201,132,247957,2,2,P|233:146|256:169,1,66.4999979705811,2|0,0:1|0:1,0:1:0:0:
427,52,248133,6,2,P|361:88|317:141,1,132.999995941162,6|0,3:1|0:1,0:1:0:0:
437,279,248398,1,2,0:1:0:0:
434,258,248486,2,0,P|428:223|419:187,1,66.4999979705811,10|0,1:0|0:0,0:0:0:0:
272,325,248663,1,2,0:1:0:0:
275,305,248751,2,0,P|281:267|290:234,1,66.4999979705811,0|0,0:0|3:0,0:0:0:0:
103,281,248927,2,2,B|75:232|83:177|116:169|143:193|102:215,1,132.999995941162,2|0,0:1|0:0,0:1:0:0:
137,348,249192,6,2,P|179:339|212:339,1,66.4999979705811,10|0,1:1|0:1,0:1:0:0:
288,239,249369,2,2,P|254:237|222:229,1,66.4999979705811,2|0,0:1|0:1,0:1:0:0:
200,158,249545,6,0,L|202:129,1,28.4999991302491,6|0,1:2|1:0,0:0:0:0:
276,151,249810,1,2,1:0:0:0:
296,172,249898,6,0,L|287:245,1,66.4999979705811,10|0,1:0|0:0,0:0:0:0:
155,65,250074,2,2,L|146:-1,1,66.4999979705811,2|0,0:1|0:1,0:1:0:0:
342,107,250251,1,0,3:0:0:0:
361,126,250339,2,2,B|364:152|371:170|371:170|368:192|357:214|357:214|357:240|366:267,1,132.999995941162,2|0,0:1|0:1,0:1:0:0:
200,158,250604,6,0,P|169:152|126:154,1,66.4999979705811,10|0,1:1|0:0,0:0:0:0:
202,338,250780,2,0,P|238:330|272:317,1,66.4999979705811,2|0,0:1|0:0,0:0:0:0:
134,152,250957,6,2,B|142:195|142:195|128:247|128:247|137:288,1,132.999995941162,2|0,3:1|0:1,0:1:0:0:
29,144,251222,1,2,0:1:0:0:
33,119,251310,2,0,L|42:47,1,66.4999979705811,10|0,1:1|0:0,0:0:0:0:
222,71,251486,2,2,L|214:5,1,66.4999979705811,2|0,0:1|0:1,0:1:0:0:
136,217,251663,1,0,3:1:0:0:
132,244,251751,2,2,L|114:382,1,132.999995941162,2|0,0:1|0:1,0:1:0:0:
304,224,252016,6,0,P|336:234|362:255,1,66.4999979705811,10|0,0:1|0:0,0:0:0:0:
204,109,252192,2,0,P|173:120|147:141,1,66.4999979705811,2|0,2:1|0:0,0:0:0:0:
328,32,252369,6,2,P|393:37|453:65,1,132.999995941162,6|0,3:1|0:1,0:1:0:0:
304,224,252633,1,2,0:1:0:0:
307,196,252722,2,0,L|316:120,1,66.4999979705811,10|0,1:1|0:1,1:1:0:0:
388,326,252898,2,0,L|464:317,1,66.4999979705811,2|0,0:1|0:0,1:1:0:0:
232,220,253074,1,0,3:0:0:0:
226,248,253163,2,2,B|219:287|219:287|229:313|248:338|248:338|248:360|242:386,1,132.999995941162,2|0,0:1|0:1,0:1:0:0:
406,178,253427,6,2,L|413:256,1,66.4999979705811,10|0,1:1|0:1,0:1:0:0:
283,124,253604,2,2,L|277:190,1,66.4999979705811,2|0,0:1|0:1,0:1:0:0:
175,53,253780,6,2,B|105:80|123:30|35:46,1,132.999995941162,2|0,3:1|1:1,0:1:0:0:
56,231,254045,1,2,1:1:0:0:
83,225,254133,2,0,L|156:214,1,66.4999979705811,10|0,1:0|0:0,0:0:0:0:
210,352,254310,1,10,0:1:0:0:
237,348,254398,2,0,L|310:337,1,66.4999979705811,2|0,1:1|3:1,0:0:0:0:
374,201,254575,1,2,1:1:0:0:
404,207,254663,2,0,L|477:218,1,66.4999979705811,10|0,0:1|0:0,0:0:0:0:
328,98,254839,6,2,P|324:61|317:25,1,66.4999979705811,10|0,1:1|1:1,0:1:0:0:
148,215,255016,2,2,P|126:239|108:267,1,66.4999979705811,10|0,0:1|1:1,0:1:0:0:
255,127,255192,6,2,P|195:108|118:120,1,132.999995941162,6|0,3:1|0:1,0:1:0:0:
107,267,255457,1,2,1:1:0:0:
135,267,255545,2,0,P|172:264|206:260,1,66.4999979705811,10|0,1:0|0:0,0:0:0:0:
173,33,255722,2,2,P|206:34|238:40,1,66.4999979705811,10|0,0:1|0:1,0:1:0:0:
324,231,255898,5,8,3:1:0:0:
328,200,255986,1,2,1:0:0:0:
332,168,256074,1,10,0:1:0:0:
336,136,256163,1,0,1:0:0:0:
340,104,256251,6,2,L|348:32,1,66.4999979705811,10|0,1:1|1:1,0:1:0:0:
203,199,256427,2,2,L|212:264,1,66.4999979705811,10|0,0:1|1:1,0:1:0:0:
445,261,256604,6,2,P|368:260|321:228,1,132.999995941162,6|8,3:1|0:1,0:1:0:0:
155,114,256869,1,2,1:1:0:0:
126,116,256957,2,0,L|54:124,1,66.4999979705811,10|0,1:1|0:0,0:0:0:0:
95,312,257133,2,0,L|162:319,1,66.4999979705811,10|0,0:1|0:1,0:0:0:0:
324,231,257310,5,8,3:1:0:0:
356,221,257398,1,2,1:1:0:0:
389,222,257486,1,10,0:1:0:0:
418,236,257574,1,0,1:0:0:0:
440,260,257663,6,2,P|454:291|467:329,1,66.4999979705811,10|0,1:1|1:1,0:1:0:0:
254,174,257839,2,2,P|239:206|226:243,1,66.4999979705811,10|0,0:1|1:1,0:1:0:0:
152,0,258016,5,6,3:1:0:0:
128,22,258104,1,2,1:0:0:0:
116,52,258192,1,8,0:1:0:0:
116,85,258280,1,2,1:0:0:0:
126,116,258369,5,10,1:0:0:0:
162,144,258457,1,0,1:0:0:0:
208,145,258545,1,10,0:1:0:0:
250,127,258633,1,0,1:0:0:0:
296,130,258722,5,0,3:0:0:0:
349,157,258810,1,2,1:0:0:0:
375,210,258898,1,10,0:1:0:0:
374,269,258986,1,0,1:0:0:0:
339,317,259074,5,10,1:0:0:0:
267,281,259163,1,0,1:0:0:0:
187,272,259251,1,10,0:1:0:0:
108,284,259339,1,0,1:0:0:0:
48,337,259427,6,2,P|73:274|50:200,1,132.999995941162,6|0,3:1|0:1,0:1:0:0:
5,11,259692,6,0,P|27:62|83:91,1,104.500003189087,2|0,1:1|0:0,0:0:0:0:
164,23,259957,6,0,P|126:8|81:21,1,76,2|4,1:1|3:1,0:0:0:0:
225,194,260222,6,0,P|271:174|297:123,1,104.500003189087,2|0,1:1|1:0,0:0:0:0:
345,320,260486,6,2,L|340:269,1,52.2500015945435,2|0,3:1|0:1,0:1:0:0:
403,208,260663,6,2,L|409:140,1,66.4999979705811,2|0,3:1|0:1,0:1:0:0:
357,59,260839,6,0,L|359:90,1,28.4999991302491,4|0,0:0|0:0,0:0:0:0:
318,65,261104,1,0,3:0:0:0:
273,74,261192,1,8,3:1:0:0:
225,194,261369,1,0,0:0:0:0:
47,156,261545,6,0,B|101:154|101:154|163:123|163:123|211:121,1,170.999994781494,0|0,3:0|0:0,0:0:0:0:
306,200,261898,2,0,L|298:140,1,56.9999982604981,8|0,1:0|0:0,0:0:0:0:
284,1,262074,1,0,3:0:0:0:
329,0,262162,1,0,3:0:0:0:
372,16,262251,1,0,3:0:0:0:
319,275,262427,5,0,0:0:0:0:
187,107,262604,2,0,L|180:163,1,56.9999982604981,8|0,1:0|0:0,0:0:0:0:
168,238,262780,1,0,0:0:0:0:
8,121,262957,2,0,L|15:177,1,56.9999982604981,8|0,3:0|0:0,0:0:0:0:
32,307,263133,1,0,0:0:0:0:
74,289,263222,1,0,0:0:0:0:
119,290,263310,2,0,P|151:292|177:306,1,56.9999982604981,8|0,1:0|0:0,0:0:0:0:
236,339,263486,2,0,P|259:361|270:388,1,56.9999982604981
171,381,263663,5,0,3:0:0:0:
179,163,263839,1,0,0:0:0:0:
348,349,264016,1,8,1:0:0:0:
168,238,264192,1,0,0:0:0:0:
410,140,264369,2,0,L|393:253,1,113.999996520996,0|0,3:0|0:0,0:0:0:0:
168,238,264722,1,8,1:0:0:0:
339,80,264898,6,0,L|331:140,1,56.9999982604981
319,215,265074,1,0,3:0:0:0:
156,50,265251,6,0,L|164:110,1,56.9999982604981
176,186,265427,1,8,1:0:0:0:
346,23,265604,6,0,L|338:83,1,56.9999982604981
258,168,265780,6,0,P|288:157|320:152,1,56.9999982604981,0|0,3:0|0:0,0:0:0:0:
487,237,265957,1,0,0:0:0:0:
474,193,266045,1,0,0:0:0:0:
438,164,266133,2,0,P|408:147|379:137,1,56.9999982604981,8|0,1:0|0:0,0:0:0:0:
284,292,266310,2,0,P|298:267|308:240,1,56.9999982604981
195,125,266486,6,0,B|144:139|144:105|81:121,1,113.999996520996,0|0,3:0|0:0,0:0:0:0:
29,278,266839,1,8,1:0:0:0:
83,120,267016,1,0,0:0:0:0:
183,311,267192,6,0,B|262:291|262:291|349:310,1,170.999994781494,0|0,3:0|0:0,0:0:0:0:
448,245,267545,2,0,P|432:268|421:295,1,56.9999982604981,8|0,1:0|0:0,0:0:0:0:
320,384,267722,1,0,0:0:0:0:
366,378,267810,1,0,0:0:0:0:
412,376,267898,1,0,3:0:0:0:
512,118,268074,5,0,0:0:0:0:
352,229,268251,2,0,P|342:203|326:179,1,56.9999982604981,8|0,1:0|0:0,0:0:0:0:
270,126,268427,1,0,0:0:0:0:
242,316,268604,2,0,P|259:293|269:266,1,56.9999982604981,0|0,3:0|0:0,0:0:0:0:
170,116,268780,1,0,0:0:0:0:
152,158,268869,1,0,0:0:0:0:
147,203,268957,2,0,L|156:265,1,56.9999982604981,8|0,1:0|0:0,0:0:0:0:
167,328,269133,2,0,L|176:390,1,56.9999982604981
91,306,269310,5,0,3:0:0:0:
344,268,269486,1,0,0:0:0:0:
79,165,269663,1,8,1:0:0:0:
175,384,269839,1,0,0:0:0:0:
301,163,270016,2,0,P|364:154|420:159,1,113.999996520996,0|0,3:0|0:0,0:0:0:0:
253,384,270369,1,8,1:0:0:0:
157,76,270545,6,0,L|163:143,1,56.9999982604981
178,304,270722,1,0,3:0:0:0:
361,42,270898,6,0,L|355:109,1,56.9999982604981
344,223,271074,1,8,1:0:0:0:
160,109,271251,6,0,L|154:176,1,56.9999982604981
124,258,271427,6,0,P|152:261|180:261,1,56.9999982604981,0|0,3:0|0:0,0:0:0:0:
358,151,271604,1,0,0:0:0:0:
313,144,271692,1,0,0:0:0:0:
269,157,271780,2,0,P|246:174|226:194,1,56.9999982604981,8|0,1:0|0:0,0:0:0:0:
342,328,271957,2,0,P|345:354|345:383,1,56.9999982604981
465,159,272133,6,0,L|512:153,1,47.5,4|0,0:1|3:1,3:1:0:0:
254,334,272486,6,0,P|196:304|181:245,1,113.999996520996,8|0,1:0|0:0,0:0:0:0:
497,241,272839,2,0,P|467:299|408:314,1,113.999996520996,0|0,3:0|0:0,0:0:0:0:
303,48,273192,1,8,3:1:0:0:
347,40,273280,1,0,1:0:0:0:
391,52,273369,1,8,0:1:0:0:
425,81,273457,1,0,1:0:0:0:
436,125,273545,6,0,L|420:245,1,113.999996520996,0|0,3:0|0:0,0:0:0:0:
198,0,273898,2,0,L|213:113,1,113.999996520996,8|0,1:0|0:0,0:0:0:0:
241,299,274251,1,0,3:0:0:0:
76,120,274427,2,0,L|67:183,1,56.9999982604981
52,298,274604,1,8,1:0:0:0:
97,302,274692,1,0,1:0:0:0:
138,283,274780,1,8,0:1:0:0:
173,253,274869,1,0,1:0:0:0:
184,209,274957,6,0,P|238:177|313:183,1,113.999996520996,4|0,3:1|0:0,0:0:0:0:
399,384,275310,1,8,1:0:0:0:
254,251,275486,1,0,0:0:0:0:
440,100,275663,2,0,L|455:279,1,170.999994781494,0|0,3:0|1:0,0:0:0:0:
458,344,276016,2,0,P|428:338|404:329,1,56.9999982604981,8|0,1:0|0:0,0:0:0:0:
329,170,276192,2,0,P|347:146|369:130,1,56.9999982604981
440,100,276369,5,0,3:0:0:0:
336,296,276545,1,0,0:0:0:0:
310,34,276722,1,8,1:0:0:0:
176,197,276898,1,0,0:0:0:0:
176,197,276986,1,0,0:0:0:0:
176,197,277074,6,0,P|179:225|187:252,1,56.9999982604981,8|0,3:1|0:1,0:0:0:0:
329,170,277251,1,0,0:0:0:0:
329,170,277339,1,0,0:0:0:0:
329,170,277427,2,0,P|340:138|347:109,1,56.9999982604981,8|0,1:0|0:0,0:0:0:0:
222,2,277604,2,0,P|212:29|207:57,1,56.9999982604981
212,130,277780,5,4,3:1:0:0:
411,184,277957,1,0,0:0:0:0:
153,249,278133,1,8,1:0:0:0:
315,119,278310,1,0,0:0:0:0:
260,365,278486,5,0,3:0:0:0:
298,341,278574,1,0,1:0:0:0:
320,300,278663,1,8,0:1:0:0:
324,254,278751,1,0,1:0:0:0:
307,211,278839,5,8,1:0:0:0:
257,183,278927,1,0,1:0:0:0:
229,132,279016,1,8,0:1:0:0:
240,76,279104,1,0,1:0:0:0:
280,36,279192,5,4,3:1:0:0:
250,256,279369,1,0,0:0:0:0:
211,0,279545,1,8,1:0:0:0:
311,210,279722,1,0,0:0:0:0:
74,89,279898,5,8,3:1:0:0:
113,66,279986,1,0,1:0:0:0:
158,62,280074,1,8,0:1:0:0:
202,75,280163,1,0,1:0:0:0:
234,106,280251,5,8,1:0:0:0:
275,124,280339,1,0,1:0:0:0:
320,125,280427,1,8,0:1:0:0:
363,110,280516,1,0,1:0:0:0:
397,79,280604,5,8,3:1:0:0:
435,120,280692,1,0,1:0:0:0:
438,176,280780,1,8,0:1:0:0:
410,226,280869,1,0,1:0:0:0:
356,246,280957,5,8,1:0:0:0:
311,210,281045,1,0,1:0:0:0:
255,200,281133,1,8,0:1:0:0:
202,222,281222,1,0,1:0:0:0:
173,270,281310,5,8,3:1:0:0:
175,326,281398,1,0,1:0:0:0:
210,370,281486,1,8,0:1:0:0:
266,377,281574,1,0,1:0:0:0:
322,369,281663,6,0,L|378:363,1,56.9999982604981,8|0,1:0|1:0,0:0:0:0:
202,222,281839,2,0,L|145:228,1,56.9999982604981,8|0,0:1|1:0,0:0:0:0:
356,78,282016,5,0,3:0:0:0:
256,192,282104,12,0,283339,0:0:0:0:
212,232,283427,6,0,L|220:308,1,71.2500027179719,0|0,3:0|0:0,0:0:0:0:
124,172,283780,2,0,L|116:248,1,71.2500027179719,8|0,1:0|0:0,0:0:0:0:
192,80,284133,2,0,L|200:156,1,71.2500027179719,0|0,3:0|0:0,0:0:0:0:
99,26,284486,2,0,L|92:96,1,71.2500027179719,8|0,1:0|0:0,0:0:0:0:
227,213,284839,6,0,P|203:177|199:145,1,71.2500027179719,0|0,3:0|0:0,0:0:0:0:
313,85,285192,2,0,P|304:127|284:152,1,71.2500027179719,8|0,1:0|0:0,0:0:0:0:
223,12,285545,1,0,3:0:0:0:
232,86,285721,1,0,0:0:0:0:
147,225,285898,1,8,1:0:0:0:
155,300,286074,1,0,0:0:0:0:
372,253,286251,6,0,L|384:341,1,71.2500027179719,0|0,3:0|0:0,0:0:0:0:
392,168,286604,2,0,L|462:221,1,71.2500027179719,8|0,1:0|0:0,0:0:0:0:
344,96,286957,2,0,L|432:84,1,71.2500027179719,0|0,3:0|0:0,0:0:0:0:
253,82,287310,2,0,L|307:10,1,71.2500027179719,8|0,1:0|0:0,0:0:0:0:
274,252,287663,6,0,P|240:236|216:199,1,71.2500027179719,0|0,3:0|0:0,0:0:0:0:
253,82,288016,2,0,P|237:116|200:140,1,71.2500027179719,8|0,1:0|0:0,0:0:0:0:
74,189,288368,1,0,3:0:0:0:
148,182,288545,1,0,0:0:0:0:
209,317,288722,1,8,1:0:0:0:
285,310,288898,1,0,0:0:0:0:
453,170,289074,6,0,L|448:258,1,71.2500027179719,0|0,3:0|0:0,3:0:0:0:
362,343,289427,2,0,L|357:272,1,71.2500027179719,8|0,1:0|0:0,3:0:0:0:
296,136,289780,2,0,L|291:224,1,71.2500027179719,0|0,3:0|0:0,3:0:0:0:
209,317,290133,2,0,L|205:246,1,71.2500027179719,8|0,1:0|0:0,3:0:0:0:
161,65,290486,6,0,P|126:87|107:123,1,71.2500027179719,0|0,3:0|0:0,0:0:0:0:
85,236,290839,2,0,P|119:215|138:179,1,71.2500027179719,8|0,1:0|0:0,0:0:0:0:
44,71,291192,1,0,3:0:0:0:
48,146,291368,1,0,0:0:0:0:
205,166,291545,1,8,1:0:0:0:
211,242,291721,1,0,0:0:0:0:
353,91,291898,6,0,B|425:95,1,71.2500027179719,0|0,3:0|0:0,0:0:0:0:
394,215,292251,2,0,B|322:219,1,71.2500027179719,8|0,1:0|0:0,0:0:0:0:
202,139,292604,2,0,B|274:143,1,71.2500027179719,0|0,3:0|0:0,0:0:0:0:
282,288,292957,2,0,L|192:300,1,71.2500027179719,8|0,1:0|0:0,0:0:0:0:
82,167,293310,6,0,L|94:257,1,71.2500027179719,0|0,3:0|0:0,0:0:0:0:
267,62,293663,2,0,L|255:152,1,71.2500027179719,8|0,1:0|0:0,0:0:0:0:
361,276,294016,1,8,1:0:0:0:
354,351,294192,1,0,0:0:0:0:
154,235,294369,1,8,1:0:0:0:
165,310,294545,1,0,0:0:0:0:
215,67,294722,6,0,L|207:105,1,33.2499989852906
251,161,295074,6,0,L|321:170,1,71.2500027179719,8|0,1:0|0:0,0:0:0:0:
490,115,295427,2,0,L|420:124,1,71.2500027179719,8|0,3:1|0:0,0:0:0:0:
384,279,295780,2,0,L|393:209,1,71.2500027179719,8|0,1:0|0:0,0:0:0:0:
156,84,296133,6,0,P|112:98|89:122,1,71.2500027179719,8|0,3:1|0:0,0:0:0:0:
322,171,296486,2,0,P|318:135|299:105,1,71.2500027179719,8|0,1:0|0:0,0:0:0:0:
143,306,296839,2,0,P|172:324|207:328,1,71.2500027179719,8|0,3:1|0:0,0:0:0:0:
156,84,297192,2,0,P|112:98|89:122,1,71.2500027179719,8|0,1:0|0:0,0:0:0:0:
198,250,297545,6,0,L|190:169,1,71.2500027179719,12|0,3:1|0:0,0:0:0:0:
422,113,297898,2,0,L|341:121,1,71.2500027179719,8|0,1:0|0:0,0:0:0:0:
263,342,298251,2,0,L|271:261,1,71.2500027179719,8|0,3:1|0:0,0:0:0:0:
496,184,298604,2,0,L|426:191,1,71.2500027179719,8|0,1:0|0:0,0:0:0:0:
195,215,298957,6,0,L|125:223,1,71.2500027179719,8|0,3:1|0:0,0:0:0:0:
180,0,299310,2,0,L|109:8,1,71.2500027179719,8|0,1:0|0:0,0:0:0:0:
48,48,299574,1,8,1:0:0:0:
48,48,299663,1,8,3:1:0:0:
71,121,299839,1,8,0:1:0:0:
192,249,300016,5,8,1:0:0:0:
173,226,300104,1,0,1:0:0:0:
149,209,300192,1,0,1:0:0:0:
120,202,300280,1,0,1:0:0:0:
91,203,300369,5,12,3:1:0:0:
120,283,300545,1,8,0:1:0:0:
181,132,300722,1,8,1:0:0:0:
149,209,300898,1,8,0:1:0:0:
257,44,301074,5,8,3:1:0:0:
285,39,301163,1,0,1:0:0:0:
313,40,301251,1,8,0:1:0:0:
338,52,301339,1,0,1:0:0:0:
354,75,301427,5,8,1:0:0:0:
378,89,301516,1,0,1:0:0:0:
405,96,301604,1,8,0:1:0:0:
433,96,301692,1,0,1:0:0:0:
460,88,301780,5,8,3:1:0:0:
417,8,301957,1,8,0:1:0:0:
321,150,302133,1,8,1:0:0:0:
407,174,302310,1,8,0:1:0:0:
222,246,302486,5,8,3:1:0:0:
213,273,302574,1,0,1:0:0:0:
215,301,302663,1,8,0:1:0:0:
222,328,302751,1,0,1:0:0:0:
235,352,302839,2,0,L|292:344,1,47.5,8|0,1:0|1:0,0:0:0:0:
138,244,303016,2,0,L|81:236,1,47.5,8|0,0:1|1:0,0:0:0:0:
220,107,303192,5,8,3:1:0:0:
254,138,303280,1,0,1:0:0:0:
271,181,303369,1,8,0:1:0:0:
272,227,303457,1,0,1:0:0:0:
259,271,303545,5,8,1:0:0:0:
274,314,303633,1,0,1:0:0:0:
310,342,303722,1,8,0:1:0:0:
356,345,303810,1,0,1:0:0:0:
397,324,303898,5,8,3:1:0:0:
412,280,303986,1,0,1:0:0:0:
398,235,304074,1,8,0:1:0:0:
402,188,304163,1,0,1:0:0:0:
427,148,304251,6,0,L|485:152,1,47.5,8|0,1:0|1:0,0:0:0:0:
294,3,304427,2,0,L|342:-1,1,47.5,8|0,0:1|1:0,0:0:0:0:
185,153,304604,5,0,3:0:0:0:
256,192,304692,12,4,306016,3:2:0:0:
