osu file format v14

[General]
AudioFilename: #The_Relentless_(Modified).mp3
AudioLeadIn: 0
PreviewTime: 123365
Countdown: 1
SampleSet: None
StackLeniency: 0.7
Mode: 2
LetterboxInBreaks: 1
WidescreenStoryboard: 0

[Editor]
Bookmarks: 100071,100247
DistanceSpacing: 0.5
BeatDivisor: 4
GridSize: 16
TimelineZoom: 2.799999

[Metadata]
Title:#The_Relentless_(Modified)
TitleUnicode:#The_Relentless_(Modified)
Artist:DJ Noriken
ArtistUnicode:DJ Noriken
Creator:CLSW
Version:EX
Source:beatmania IIDX
Tags:the relentless pendual 22 dubcore dubstep uk hardcore
BeatmapID:1274502
BeatmapSetID:603421

[Difficulty]
HPDrainRate:6
CircleSize:4
OverallDifficulty:9.6
ApproachRate:9.6
SliderMultiplier:1.6
SliderTickRate:2

[Events]
//Background and Video events
0,0,"bg.jpg",0,0
//Break Periods
//Storyboard Layer 0 (Background)
//Storyboard Layer 1 (Fail)
//Storyboard Layer 2 (Pass)
//Storyboard Layer 3 (Foreground)
//Storyboard Sound Samples

[TimingPoints]
542,352.941176470588,4,2,1,50,1,0
11483,-100,4,2,1,60,0,0
22071,-83.3333333333333,4,2,1,60,0,0
22424,-62.5,4,2,1,60,0,0
22777,-50,4,2,1,60,0,0
23130,-100,4,2,1,60,0,0
31600,-100,4,2,1,40,0,0
31953,-100,4,2,1,45,0,0
32306,-100,4,2,1,50,0,0
32659,-100,4,2,1,60,0,0
33012,-100,4,2,1,70,0,0
34071,-62.5,4,2,1,60,0,0
34424,-100,4,2,1,50,0,0
45365,-50,4,2,1,50,0,0
45718,-83.3333333333333,4,2,1,60,0,0
51365,-83.3333333333333,4,2,1,80,0,0
55247,-83.3333333333333,4,2,1,60,0,0
55953,-62.5,4,2,1,60,0,0
56659,-50,4,2,1,60,0,0
57012,-62.5,4,1,1,40,0,1
57365,-62.5,4,1,1,60,0,1
62659,-62.5,4,1,1,40,0,1
63012,-62.5,4,1,1,60,0,1
68306,-62.5,4,1,1,40,0,1
68659,-62.5,4,1,1,60,0,1
73953,-62.5,4,1,1,40,0,1
74306,-62.5,4,1,1,60,0,1
78189,-62.5,4,1,1,40,0,0
79600,-83.3333333333333,4,2,1,50,0,0
85247,-83.3333333333333,4,2,1,60,0,0
90894,-83.3333333333333,4,2,1,70,0,0
102189,-100,4,2,1,50,0,0
110659,-100,4,2,1,40,0,0
111012,-100,4,2,1,45,0,0
111365,-100,4,2,1,40,0,0
111718,-100,4,2,1,60,0,0
112071,-100,4,2,1,70,0,0
112777,-50,4,2,1,70,0,0
113483,-83.3333333333333,4,2,1,70,0,0
118424,-83.3333333333333,4,2,1,50,0,0
118777,-83.3333333333333,4,2,1,70,0,0
119130,-83.3333333333333,4,3,1,70,0,0
123365,-83.3333333333333,4,2,1,50,0,0
124247,-50,4,2,1,50,0,0
124777,-62.5,4,1,1,40,0,1
125130,-62.5,4,1,1,60,0,1
130424,-62.5,4,1,1,40,0,1
130777,-62.5,4,1,1,60,0,1
136071,-62.5,4,1,1,40,0,1
136424,-62.5,4,1,1,60,0,1
141718,-62.5,4,1,1,40,0,1
142071,-62.5,4,1,1,60,0,1
145953,-62.5,4,2,1,50,0,0
147365,-62.5,4,1,1,60,0,0
168894,-62.5,4,1,1,30,0,0
169600,-50,4,1,1,30,0,0
169953,-100,4,2,1,50,0,0
189894,-100,4,2,1,30,0,0
190071,-100,4,2,1,35,0,0
190424,-100,4,2,1,40,0,0
190777,-100,4,2,1,50,0,0
192189,-62.5,4,2,1,50,0,0
192541,-83.3333333333333,4,2,1,55,0,0
202512,-83.3333333333333,4,2,1,45,0,0
202777,-83.3333333333333,4,2,1,55,0,0
203130,-83.3333333333333,4,2,1,65,0,0
203483,-83.3333333333333,4,2,1,75,0,0
203836,-83.3333333333333,4,2,1,65,0,0
209483,-83.3333333333333,4,3,1,65,0,0
213718,-83.3333333333333,4,2,1,65,0,0
214071,-62.5,4,2,1,65,0,0
214777,-50,4,2,1,65,0,0
215130,-62.5,4,1,1,60,0,1
226071,-62.5,4,2,1,60,0,1
226424,-62.5,4,1,1,60,0,1
236306,-62.5,4,2,1,60,0,0
237718,-62.5,4,1,1,65,0,1
243012,-62.5,4,2,1,65,0,1
243365,-62.5,4,1,1,65,0,1
249012,-62.5,4,2,1,60,0,1
249365,-62.5,4,1,1,60,0,1
254306,-62.5,4,2,1,60,0,1
254659,-62.5,4,1,1,60,0,1
258894,-62.5,4,2,1,60,0,0
259953,-50,4,2,1,60,0,0
260306,-62.5,4,1,1,40,0,1
260659,-62.5,4,1,1,60,0,1
265953,-62.5,4,1,1,40,0,1
266306,-62.5,4,1,1,60,0,1
271600,-62.5,4,1,1,40,0,1
271953,-62.5,4,1,1,60,0,1
277247,-62.5,4,1,1,50,0,1
277600,-62.5,4,1,1,60,0,1
281483,-62.5,4,2,1,60,0,0
282541,-50,4,2,1,60,0,0
282894,-100,4,2,1,50,0,0

[Colours]
Combo1 : 242,104,13
Combo2 : 0,151,151
Combo3 : 128,0,128
Combo4 : 0,221,221

[HitObjects]
176,192,542,6,0,L|336:192,1,160,4|0,3:1|0:0,0:0:0:0:
256,144,1071,1,0,0:0:0:0:
416,144,1247,2,0,L|432:224,1,80,8|0,0:0|0:0,0:0:0:0:
272,224,1600,2,0,L|256:304,1,80,0|0,0:0|0:0,0:0:0:0:
416,304,1953,5,0,3:0:0:0:
457,239,2129,1,0,0:0:0:0:
428,168,2305,1,0,3:0:0:0:
353,152,2482,1,0,0:0:0:0:
192,128,2659,2,0,L|288:128,1,80,8|0,0:0|0:0,0:0:0:0:
112,128,3012,2,0,L|16:128,1,80,0|0,0:0|0:0,0:0:0:0:
272,192,3365,6,0,L|96:192,1,160,0|0,3:0|0:0,0:0:0:0:
192,160,3894,1,0,0:0:0:0:
32,128,4071,2,0,L|192:128,1,160,8|0,0:0|0:0,0:0:0:0:
112,80,4600,1,0,0:0:0:0:
272,80,4777,6,0,P|304:128|304:160,1,80,0|0,3:0|0:0,0:0:0:0:
240,176,5041,2,0,L|144:176,1,80,0|0,3:0|0:0,0:0:0:0:
224,224,5306,1,0,3:0:0:0:
64,224,5483,2,0,L|160:224,1,80,8|0,0:0|0:0,0:0:0:0:
304,224,5836,1,0,3:0:0:0:
144,224,6012,1,8,0:0:0:0:
384,224,6189,6,0,P|432:208|368:160,1,160,0|0,3:0|0:0,0:0:0:0:
304,160,6718,1,0,0:0:0:0:
464,160,6894,2,0,L|480:240,1,80,8|0,0:0|0:0,0:0:0:0:
320,240,7247,2,0,L|304:320,1,80,0|0,0:0|0:0,0:0:0:0:
144,320,7600,6,0,L|304:320,1,160,0|0,3:0|3:0,0:0:0:0:
224,256,8130,1,0,0:0:0:0:
384,256,8306,2,0,L|288:256,1,80,8|0,0:0|0:0,0:0:0:0:
144,256,8659,2,0,L|224:256,1,80,0|0,0:0|0:0,0:0:0:0:
64,256,9012,6,0,P|48:208|128:160,1,160,0|0,3:0|0:0,0:0:0:0:
208,160,9541,1,0,0:0:0:0:
48,160,9718,2,0,L|32:240,1,80,8|0,0:0|0:0,0:0:0:0:
192,240,10071,2,0,L|96:240,1,80,0|0,0:0|0:0,0:0:0:0:
272,240,10424,6,0,L|368:240,1,80,0|0,3:0|0:0,0:0:0:0:
288,224,10689,2,0,L|288:144,1,80,0|0,3:0|0:0,0:0:0:0:
224,144,10953,2,0,L|128:144,1,80,0|8,3:0|0:0,0:0:0:0:
304,144,11306,1,0,0:0:0:0:
32,304,11483,2,0,P|16:256|48:176,1,120,8|0,0:1|0:0,0:0:0:0:
256,192,11836,6,0,L|144:192,1,80,4|0,3:2|0:0,0:0:0:0:
336,192,12189,1,2,0:0:0:0:
176,192,12365,2,0,L|160:240,2,40,0|0|10,0:0|0:0|0:0,0:0:0:0:
336,160,12718,1,0,0:0:0:0:
96,160,12894,2,0,L|208:160,1,80,2|0,0:0|0:0,0:0:0:0:
336,112,13247,6,0,L|256:112,1,80,2|0,3:2|0:0,0:0:0:0:
416,112,13600,2,0,L|432:192,1,80,2|0,3:2|0:0,0:0:0:0:
176,176,13953,1,10,0:0:0:0:
336,176,14130,2,0,L|352:224,2,40,0|0|2,0:0|0:0|0:0,0:0:0:0:
256,192,14483,1,0,0:0:0:0:
16,208,14659,6,0,L|96:208,1,80,2|0,3:2|0:0,0:0:0:0:
256,208,15012,2,0,L|176:208,1,80,2|0,0:0|0:0,0:0:0:0:
496,208,15365,2,0,L|416:208,1,80,10|0,0:0|0:0,0:0:0:0:
400,176,15630,1,0,0:0:0:0:
384,144,15718,1,2,0:0:0:0:
464,112,15894,1,0,0:0:0:0:
176,112,16071,6,0,L|64:112,1,80,0|0,3:2|0:0,0:0:0:0:
256,112,16336,2,0,L|368:112,1,80,0|0,1:2|3:0,0:0:0:0:
432,32,16600,2,0,L|352:32,1,80,10|0,0:0|0:0,0:0:0:0:
256,32,16953,5,0,0:0:0:0:
80,32,17130,2,0,L|160:32,2,80,0|8|2,3:0|0:0|3:2,0:0:0:0:
384,32,17659,6,0,L|400:80,1,40,0|0,0:0|0:0,0:0:0:0:
336,80,17836,1,2,0:0:0:0:
496,80,18012,1,0,0:0:0:0:
336,112,18189,2,0,L|416:112,1,80,8|0,0:0|0:0,0:0:0:0:
256,112,18541,2,0,L|176:112,1,80,2|0,0:0|0:0,0:0:0:0:
336,176,18894,5,2,3:2:0:0:
176,176,19071,2,0,L|192:224,1,40,0|0,0:0|0:0,0:0:0:0:
128,224,19247,1,2,3:2:0:0:
288,224,19424,1,0,0:0:0:0:
128,256,19600,2,0,L|32:256,1,80,10|0,0:0|0:0,0:0:0:0:
208,256,19953,2,0,L|304:256,1,80,0|0,0:0|0:0,0:0:0:0:
128,224,20306,5,2,3:2:0:0:
384,240,20483,2,0,L|400:192,1,40,0|0,0:0|0:0,0:0:0:0:
336,192,20659,2,0,L|352:144,1,40,2|0,0:0|0:0,0:0:0:0:
288,144,20836,2,0,L|304:96,1,40,0|0,0:0|0:0,0:0:0:0:
224,96,21012,5,10,0:0:0:0:
195,123,21100,1,0,0:0:0:0:
179,159,21188,1,0,0:0:0:0:
178,199,21276,1,0,0:0:0:0:
193,236,21364,1,2,0:0:0:0:
221,264,21453,1,0,0:0:0:0:
304,288,21541,1,0,0:0:0:0:
343,287,21629,1,0,0:0:0:0:
176,288,21718,6,0,L|32:288,1,120,0|0,3:0|0:0,0:0:0:0:
128,240,22071,2,0,L|16:240,1,95.9999970703126,0|2,0:0|0:1,0:0:0:0:
384,240,22424,6,0,P|448:208|384:144,1,192,0|0,0:0|0:0,0:0:0:0:
192,192,22777,2,0,P|224:144|336:128,1,160,0|0,0:0|0:0,0:0:0:0:
32,224,23130,6,0,L|48:144,1,80,4|2,3:1|0:0,0:0:0:0:
176,224,23483,2,0,L|160:144,1,80,0|2,0:0|0:0,0:0:0:0:
288,224,23836,2,0,L|304:144,1,80,0|2,0:0|0:0,0:0:0:0:
432,224,24189,2,0,L|416:144,1,80,0|2,0:0|0:0,0:0:0:0:
496,112,24541,6,0,L|416:112,1,80,0|2,0:0|0:0,0:0:0:0:
288,112,24894,2,0,L|368:112,1,80,0|2,0:0|0:0,0:0:0:0:
240,112,25247,2,0,L|320:112,1,80,0|2,0:0|0:0,0:0:0:0:
192,112,25600,2,0,L|112:112,1,80,0|2,0:0|0:0,0:0:0:0:
240,128,25953,6,0,L|256:208,1,80,0|2,0:0|0:0,0:0:0:0:
128,208,26306,2,0,L|224:208,1,80,0|2,0:0|0:0,0:0:0:0:
336,208,26659,2,0,L|320:288,1,80,0|2,0:0|0:0,0:0:0:0:
448,304,27012,2,0,L|368:304,1,80,0|2,0:0|0:0,0:0:0:0:
112,304,27365,6,0,L|208:304,1,80,0|2,0:0|0:0,0:0:0:0:
64,304,27718,2,0,L|48:224,1,80,0|2,0:0|0:0,0:0:0:0:
176,208,28071,2,0,L|96:208,1,80,0|2,0:0|0:0,0:0:0:0:
224,208,28424,2,0,L|240:128,1,80,0|2,0:0|0:0,0:0:0:0:
480,128,28777,6,0,L|384:128,1,80,4|2,3:1|0:0,0:0:0:0:
272,128,29130,2,0,L|288:208,1,80,0|2,0:0|0:0,0:0:0:0:
160,208,29483,2,0,L|80:208,1,80,0|2,0:0|0:0,0:0:0:0:
480,128,29836,2,0,L|400:128,1,80,0|2,0:0|0:0,0:0:0:0:
32,128,30189,6,0,L|128:128,1,80,0|2,0:0|0:0,0:0:0:0:
240,128,30542,2,0,L|224:208,1,80,0|2,0:0|0:0,0:0:0:0:
352,208,30895,2,0,L|432:208,1,80,0|2,0:0|0:0,0:0:0:0:
32,128,31248,2,0,L|112:128,1,80,0|2,0:0|0:0,0:0:0:0:
360,224,31600,6,0,L|376:176,1,40,0|0,0:0|3:0,0:0:0:0:
296,176,31777,2,0,L|296:128,1,40,0|0,3:0|3:0,0:0:0:0:
216,176,31953,2,0,L|216:128,1,40,0|0,3:0|3:0,0:0:0:0:
152,224,32130,2,0,L|136:176,1,40,0|0,3:0|3:0,0:0:0:0:
139,186,32306,6,0,L|152:224,1,40,0|0,3:0|3:0,0:0:0:0:
216,136,32483,2,0,L|216:176,1,40,0|0,3:0|3:0,0:0:0:0:
296,136,32659,2,0,L|296:176,1,40,0|0,3:0|3:0,0:0:0:0:
372,186,32836,2,0,L|360:224,1,40,0|0,3:0|3:0,0:0:0:0:
144,288,33012,6,0,P|192:256|112:144,1,200,4|0,3:1|0:0,0:0:0:0:
224,144,33541,1,0,3:0:0:0:
480,144,33718,1,8,0:1:0:0:
320,144,33894,2,0,L|304:192,1,40,0|0,3:0|3:0,0:0:0:0:
32,160,34071,2,0,L|176:160,1,128,8|0,0:0|0:0,0:0:0:0:
480,240,34424,6,0,L|384:240,1,80,6|0,3:1|0:0,0:0:0:0:
368,240,34689,1,2,0:1:0:0:
208,224,34777,1,2,0:1:0:0:
193,188,34865,1,0,0:0:0:0:
209,153,34953,1,2,0:1:0:0:
246,139,35041,1,0,0:0:0:0:
320,144,35130,6,0,L|336:192,1,40,8|2,0:1|0:1,0:0:0:0:
176,176,35306,2,0,L|192:128,1,40,2|0,0:1|0:0,0:0:0:0:
384,144,35483,1,2,0:1:0:0:
414,118,35571,1,0,0:0:0:0:
415,79,35659,1,0,0:0:0:0:
388,51,35747,1,0,0:0:0:0:
224,48,35836,5,2,3:1:0:0:
176,48,35924,1,0,0:0:0:0:
144,48,36012,1,0,0:0:0:0:
304,96,36100,2,0,L|352:96,2,40,2|2|0,0:1|0:1|0:0,0:0:0:0:
128,96,36365,2,0,L|112:144,1,40,2|0,0:1|0:0,0:0:0:0:
176,144,36541,6,0,L|224:144,1,40,8|2,0:1|0:1,0:0:0:0:
48,160,36718,2,0,L|32:208,1,40,2|0,0:1|0:0,0:0:0:0:
192,256,36894,1,2,0:1:0:0:
221,230,36982,1,0,0:0:0:0:
222,191,37070,1,0,0:0:0:0:
195,163,37158,1,0,0:0:0:0:
256,160,37247,6,0,L|352:160,1,80,2|0,3:1|0:0,0:0:0:0:
288,128,37512,1,2,0:1:0:0:
448,128,37600,2,0,L|464:176,1,40,2|0,0:1|0:0,0:0:0:0:
304,176,37777,2,0,L|288:128,1,40,2|0,0:1|0:0,0:0:0:0:
224,128,37953,6,0,L|176:128,1,40,8|2,0:1|0:1,0:0:0:0:
352,128,38130,2,0,L|368:80,1,40,2|0,0:1|0:0,0:0:0:0:
208,96,38306,1,2,0:1:0:0:
170,99,38394,1,0,0:0:0:0:
157,135,38482,1,0,0:0:0:0:
183,162,38570,1,0,0:0:0:0:
352,208,38659,6,0,L|256:208,1,80,2|0,3:1|0:0,0:0:0:0:
240,208,38924,1,2,0:1:0:0:
80,208,39012,2,0,L|64:256,1,40,2|0,0:1|0:0,0:0:0:0:
224,256,39189,2,0,L|240:208,1,40,2|0,0:1|0:0,0:0:0:0:
176,208,39365,6,0,L|160:160,1,40,8|2,0:1|0:1,0:0:0:0:
320,144,39541,2,0,L|256:144,1,40,2|0,0:1|0:0,0:0:0:0:
112,144,39718,1,2,0:1:0:0:
93,110,39806,1,0,0:0:0:0:
111,76,39894,1,0,0:0:0:0:
149,73,39982,1,0,0:0:0:0:
320,80,40071,6,0,L|416:80,1,80,6|0,3:1|0:0,0:0:0:0:
416,112,40336,1,2,0:1:0:0:
192,112,40424,2,0,L|176:160,1,40,2|0,0:1|0:0,0:0:0:0:
336,192,40600,2,0,L|272:192,1,40,2|0,0:1|0:0,0:0:0:0:
128,192,40777,6,0,L|144:240,1,40,8|2,0:1|0:1,0:0:0:0:
304,288,40953,2,0,L|352:288,1,40,2|0,0:1|0:0,0:0:0:0:
144,288,41130,1,2,0:1:0:0:
115,264,41218,1,0,0:0:0:0:
121,226,41306,1,0,0:0:0:0:
157,213,41394,1,0,0:0:0:0:
320,208,41483,6,0,L|416:208,1,80,2|0,3:1|0:0,0:0:0:0:
416,176,41747,1,2,0:1:0:0:
256,160,41836,2,0,L|304:160,1,40,2|0,0:1|0:0,0:0:0:0:
464,144,42012,2,0,L|448:96,1,40,2|0,0:1|0:0,0:0:0:0:
384,80,42189,6,0,L|320:80,1,40,8|2,0:1|0:1,0:0:0:0:
128,80,42365,2,0,L|144:128,1,40,2|0,0:1|0:0,0:0:0:0:
304,160,42541,1,2,0:1:0:0:
339,147,42629,1,0,0:0:0:0:
346,109,42717,1,0,0:0:0:0:
316,85,42805,1,0,0:0:0:0:
32,224,42894,6,0,L|112:224,1,80,6|0,3:1|0:0,0:0:0:0:
128,256,43159,1,2,0:1:0:0:
288,256,43247,2,0,L|208:256,1,80,2|2,0:1|0:1,0:0:0:0:
480,224,43600,6,0,L|400:224,1,80,12|2,0:1|0:1,0:0:0:0:
384,256,43865,1,0,0:0:0:0:
224,256,43953,2,0,L|304:256,1,80,2|0,0:1|0:0,0:0:0:0:
32,272,44306,6,0,P|32:224|160:32,1,280,4|0,3:1|0:0,0:0:0:0:
224,64,45012,6,0,L|80:64,1,120
288,48,45365,6,0,P|365:57|415:117,1,160,8|0,0:3|0:0,0:0:0:0:
16,176,45718,6,0,L|112:176,1,95.9999970703126,4|0,3:1|0:0,0:0:0:0:
128,208,45983,1,0,0:0:0:0:
144,240,46071,1,0,0:0:0:0:
304,240,46247,2,0,L|208:240,1,95.9999970703126,2|0,0:0|0:0,0:0:0:0:
368,240,46600,1,0,0:0:0:0:
384,192,46689,1,0,0:0:0:0:
400,144,46777,1,2,0:0:0:0:
240,144,46953,1,0,0:0:0:0:
496,96,47130,6,0,L|400:96,1,95.9999970703126,2|0,3:2|0:0,0:0:0:0:
384,128,47394,1,2,0:0:0:0:
368,160,47483,1,0,0:0:0:0:
208,160,47659,1,2,0:0:0:0:
368,192,47836,1,0,0:0:0:0:
128,192,48012,1,0,0:0:0:0:
144,224,48100,1,0,0:0:0:0:
160,256,48189,1,2,0:0:0:0:
320,256,48365,1,0,0:0:0:0:
16,160,48541,6,0,L|112:160,1,95.9999970703126,2|0,3:2|0:0,0:0:0:0:
128,192,48806,1,2,0:0:0:0:
144,224,48894,1,0,0:0:0:0:
304,224,49071,2,0,L|208:224,1,95.9999970703126,2|0,0:0|0:0,0:0:0:0:
192,256,49336,1,2,0:0:0:0:
176,288,49424,1,0,0:0:0:0:
336,288,49600,2,0,L|224:288,1,95.9999970703126,2|0,0:0|0:0,0:0:0:0:
496,160,49953,6,0,L|400:160,1,95.9999970703126,2|0,3:2|0:0,0:0:0:0:
240,160,50306,2,0,L|336:160,1,95.9999970703126,0|2,0:0|0:0,0:0:0:0:
352,192,50571,1,0,0:0:0:0:
192,208,50659,2,0,L|208:256,1,47.9999985351563,2|2,0:1|0:1,0:0:0:0:
368,256,50836,2,0,L|384:304,1,47.9999985351563,2|2,0:1|0:1,0:0:0:0:
192,304,51012,2,0,L|96:304,1,95.9999970703126,0|0,0:1|0:0,0:0:0:0:
416,128,51365,6,0,L|320:128,2,95.9999970703126,4|0|0,3:1|3:0|0:0,0:0:0:0:
256,128,51894,2,0,L|304:128,1,47.9999985351563,0|0,3:0|3:0,0:0:0:0:
96,96,52071,6,0,L|192:96,2,95.9999970703126,4|0|0,3:1|3:0|3:0,0:0:0:0:
256,128,52600,2,0,L|176:128,1,47.9999985351563,0|0,3:0|3:0,0:0:0:0:
384,112,52777,5,4,3:1:0:0:
256,112,52953,1,0,3:0:0:0:
496,64,53130,1,0,3:0:0:0:
232,64,53306,2,0,L|280:64,1,47.9999985351563,0|0,3:0|3:0,0:0:0:0:
128,112,53483,5,4,3:1:0:0:
256,112,53659,1,0,3:0:0:0:
16,64,53836,1,0,3:0:0:0:
280,64,54012,2,0,L|232:64,1,47.9999985351563,0|0,3:0|3:0,0:0:0:0:
480,224,54189,6,0,L|464:176,1,47.9999985351563,4|0,3:2|3:0,0:0:0:0:
384,176,54365,2,0,L|336:176,1,47.9999985351563,0|0,3:0|3:0,0:0:0:0:
416,176,54541,2,0,L|400:128,1,47.9999985351563,4|0,3:2|3:0,0:0:0:0:
240,128,54718,2,0,L|192:128,1,47.9999985351563,0|0,3:0|0:0,0:0:0:0:
352,144,54894,6,0,L|336:192,1,47.9999985351563,0|0,3:2|0:0,0:0:0:0:
272,192,55071,1,0,3:0:0:0:
96,224,55159,2,0,L|112:272,1,47.9999985351563,0|0,3:0|0:0,0:0:0:0:
176,272,55336,1,0,0:0:0:0:
272,272,55424,2,0,L|224:272,1,47.9999985351563,0|0,3:0|0:0,0:0:0:0:
480,336,55600,6,0,L|304:336,1,143.999995605469,4|0,3:2|0:0,0:0:0:0:
176,336,55953,2,0,L|304:336,1,128,0|2,0:0|0:1,0:0:0:0:
64,336,56306,6,0,P|16:304|109:213,1,192,0|0,0:0|0:0,0:0:0:0:
320,176,56659,6,0,L|512:176,1,160,8|0,0:0|0:0,0:0:0:0:
144,176,57012,6,0,L|96:176,7,32,6|2|2|2|2|2|2|0,3:1|0:0|0:0|0:0|0:0|0:0|0:0|0:0,0:0:0:0:
176,176,57365,2,0,L|192:112,1,64,0|0,0:0|0:0,0:0:0:0:
352,112,57541,2,0,L|432:112,1,64,0|0,3:0|3:0,0:0:0:0:
224,256,57718,6,0,L|80:256,1,128,10|0,0:0|0:0,0:0:0:0:
304,256,57983,2,0,P|336:224|288:155,1,128,0|0,3:0|0:0,0:0:0:0:
224,160,58247,2,0,L|96:160,1,128,2|0,3:1|3:0,0:0:0:0:
160,128,58512,5,0,0:0:0:0:
96,128,58600,1,2,0:0:0:0:
256,128,58777,2,0,L|336:128,2,64,0|0|2,0:0|0:0|3:1,0:0:0:0:
416,176,59130,6,0,L|288:176,1,128,8|0,0:0|3:0,0:0:0:0:
208,176,59394,2,0,P|192:240|208:304,1,128,0|0,0:0|0:0,0:0:0:0:
416,304,59659,2,0,L|336:304,1,64,8|0,0:0|0:0,0:0:0:0:
80,304,59836,6,0,L|208:304,1,128,0|0,3:0|0:0,0:0:0:0:
144,272,60100,1,2,2:1:0:0:
304,272,60189,2,0,L|320:208,1,64,2|0,0:0|0:0,0:0:0:0:
240,208,60365,2,0,L|240:128,1,64,0|0,0:0|2:0,0:0:0:0:
400,144,60541,6,0,L|384:80,1,64,10|0,0:0|0:0,0:0:0:0:
464,80,60718,2,0,L|464:16,1,64,2|0,0:0|3:0,0:0:0:0:
288,32,60894,2,0,L|208:32,1,64,0|0,0:0|0:0,0:0:0:0:
48,32,61071,2,0,L|112:32,1,64,2|0,3:1|3:0,0:0:0:0:
288,96,61247,6,0,L|288:160,1,64,0|0,3:0|0:0,0:0:0:0:
224,160,61424,2,0,L|224:224,1,64,0|0,0:0|0:0,0:0:0:0:
304,224,61600,2,0,L|320:288,1,64,0|0,0:0|0:0,0:0:0:0:
240,288,61777,2,0,L|256:352,1,64,2|0,3:1|3:0,0:0:0:0:
416,351,61953,6,0,P|448:319|403:250,1,128,10|0,0:0|3:0,0:0:0:0:
336,240,62218,2,0,L|208:240,1,128,0|2,3:0|3:1,0:0:0:0:
272,192,62483,2,0,L|192:192,1,64,0|0,3:0|0:0,0:0:0:0:
416,192,62659,6,0,L|448:192,7,32,6|2|2|2|2|2|2|0,3:1|0:0|0:0|0:0|0:0|0:0|0:0|0:0,0:0:0:0:
384,192,63012,2,0,L|304:192,1,64,0|0,0:0|0:0,0:0:0:0:
480,144,63189,2,0,L|400:144,1,64,0|0,3:0|3:0,0:0:0:0:
256,144,63365,6,0,L|112:144,1,128,10|0,0:0|0:0,0:0:0:0:
336,144,63630,2,0,P|352:208|336:272,1,128,0|0,3:0|0:0,0:0:0:0:
256,272,63894,2,0,L|400:272,1,128,2|0,3:1|3:0,0:0:0:0:
320,224,64159,5,0,0:0:0:0:
160,224,64247,1,2,0:0:0:0:
320,160,64424,2,0,L|256:160,1,64,0|0,0:0|0:0,0:0:0:0:
96,160,64600,1,2,3:1:0:0:
256,192,64777,6,0,L|272:256,1,64,8|0,0:0|0:0,0:0:0:0:
192,256,64953,2,0,L|208:320,1,64,0|0,3:0|0:0,0:0:0:0:
368,320,65130,2,0,P|400:288|304:192,1,192,0|0,3:0|2:0,0:0:0:0:
160,192,65483,6,0,L|16:192,1,128,4|2,3:1|2:1,0:0:0:0:
96,144,65747,1,2,3:1:0:0:
256,144,65836,2,0,L|272:208,1,64,0|0,0:0|0:0,0:0:0:0:
192,208,66012,2,0,L|176:272,1,64,2|0,3:1|3:0,0:0:0:0:
336,256,66189,6,0,L|256:256,1,64,8|2,0:0|0:0,0:0:0:0:
112,256,66365,2,0,L|48:256,1,64,2|0,3:1|0:0,0:0:0:0:
256,256,66541,1,2,3:1:0:0:
304,217,66629,1,0,0:0:0:0:
304,156,66717,1,0,3:0:0:0:
254,119,66805,1,0,0:0:0:0:
496,112,66894,6,0,L|352:112,1,128,2|8,3:1|0:0,0:0:0:0:
208,80,67159,2,0,L|352:80,1,128,2|8,3:1|0:0,0:0:0:0:
256,96,67424,2,0,L|176:96,1,64,2|0,3:1|0:0,0:0:0:0:
352,96,67600,6,0,L|368:160,1,64,8|2,0:0|0:0,0:0:0:0:
288,176,67777,2,0,L|304:240,1,64,2|0,3:1|3:0,0:0:0:0:
464,272,67953,2,0,L|320:272,1,128,10|0,0:0|0:0,0:0:0:0:
64,272,68306,6,0,L|16:272,7,32,6|2|2|2|2|2|2|0,3:1|0:0|0:0|0:0|0:0|0:0|0:0|0:0,0:0:0:0:
96,272,68659,2,0,L|112:208,1,64,0|0,0:0|0:0,0:0:0:0:
272,208,68836,2,0,L|192:208,1,64,0|0,3:0|3:0,0:0:0:0:
48,208,69012,6,0,P|32:160|96:112,1,128,10|0,0:0|0:0,0:0:0:0:
256,112,69277,2,0,L|384:112,1,128,0|0,3:0|0:0,0:0:0:0:
304,128,69541,2,0,P|255:165|269:224,1,128,2|0,3:1|3:0,0:0:0:0:
336,256,69806,5,0,0:0:0:0:
272,288,69894,1,2,0:0:0:0:
432,288,70071,2,0,L|368:288,2,64,0|0|2,0:0|0:0|3:1,0:0:0:0:
192,288,70424,6,0,P|160:256|211:188,1,128,8|0,0:0|3:0,0:0:0:0:
352,192,70689,2,0,L|208:192,1,128,0|0,0:0|0:0,0:0:0:0:
304,192,70953,2,0,P|336:160|320:96,1,64,0|0,0:0|0:0,0:0:0:0:
128,96,71130,6,0,L|256:96,1,128,0|0,3:0|0:0,0:0:0:0:
272,128,71394,1,2,2:1:0:0:
352,160,71483,2,0,L|272:160,1,64,2|0,0:0|0:0,0:0:0:0:
208,160,71659,2,0,L|192:224,1,64,0|0,0:0|2:0,0:0:0:0:
352,256,71836,6,0,L|256:256,1,64,10|0,0:0|0:0,0:0:0:0:
128,256,72012,2,0,L|48:256,1,64,2|0,0:0|3:0,0:0:0:0:
160,272,72189,2,0,L|256:272,1,64,0|0,0:0|0:0,0:0:0:0:
384,272,72365,2,0,L|464:272,1,64,2|0,3:1|0:0,0:0:0:0:
224,240,72541,6,0,L|208:176,1,64,0|0,3:0|0:0,0:0:0:0:
288,176,72718,1,2,0:0:0:0:
128,176,72894,2,0,L|112:112,1,64,0|0,0:0|0:0,0:0:0:0:
304,80,73071,2,0,L|160:80,1,128,2|10,3:1|0:0,0:0:0:0:
240,32,73336,5,0,0:0:0:0:
32,64,73424,2,0,L|112:64,1,64,0|0,3:0|0:0,0:0:0:0:
416,32,73600,6,0,P|464:80|400:176,1,192,8|0,0:2|0:0,0:0:0:0:
96,176,73953,6,0,L|64:176,7,32,6|2|2|2|2|2|2|0,3:1|0:0|0:0|0:0|0:0|0:0|0:0|0:0,0:0:0:0:
128,144,74306,2,0,L|64:144,1,64,0|0,0:0|0:0,0:0:0:0:
224,144,74483,2,0,L|304:144,1,64,0|0,3:0|3:0,0:0:0:0:
448,176,74659,6,0,L|304:176,1,128,10|0,0:0|0:0,0:0:0:0:
160,240,74924,2,0,L|304:240,1,128,0|0,3:0|0:0,0:0:0:0:
208,208,75189,2,0,L|80:208,1,128,2|0,3:1|3:0,0:0:0:0:
272,240,75453,6,0,L|192:240,1,64,0|2,0:0|0:0,0:0:0:0:
336,208,75718,1,0,0:0:0:0:
176,176,75806,2,0,L|240:176,1,64,0|2,0:0|3:1,0:0:0:0:
112,224,76071,6,0,L|128:304,1,64,8|0,0:0|0:0,0:0:0:0:
336,272,76247,2,0,L|320:336,1,64,0|0,3:0|0:0,0:0:0:0:
128,256,76424,2,0,P|80:224|160:128,1,192,0|0,3:0|2:0,0:0:0:0:
384,128,76777,6,0,L|256:128,1,128,6|0,3:1|0:0,0:0:0:0:
416,160,77041,2,0,P|480:208|480:256,1,128,2|0,3:1|0:0,0:0:0:0:
416,288,77306,2,0,L|512:288,1,64,2|0,3:1|3:0,0:0:0:0:
256,288,77483,6,0,L|240:224,1,64,8|2,0:0|0:0,0:0:0:0:
320,224,77659,2,0,L|336:160,1,64,2|0,0:0|0:0,0:0:0:0:
128,288,77836,1,2,3:1:0:0:
83,246,77924,1,0,0:0:0:0:
96,186,78012,1,0,3:0:0:0:
154,166,78100,1,0,3:0:0:0:
368,160,78189,5,4,3:1:0:0:
368,160,78894,6,0,L|352:224,1,64,2|2,0:0|0:0,0:0:0:0:
192,224,79071,2,0,L|176:288,1,64,2|2,0:0|0:0,0:0:0:0:
16,336,79247,2,0,L|160:336,1,128,8|0,0:2|0:0,0:0:0:0:
496,336,79600,6,0,L|400:336,1,95.9999970703126,4|0,3:2|0:0,0:0:0:0:
320,336,79865,2,0,P|304:320|335:253,1,95.9999970703126,0|0,0:0|0:0,0:0:0:0:
496,256,80130,2,0,L|400:256,1,95.9999970703126,0|8,0:0|3:0,0:0:0:0:
320,240,80394,2,0,L|256:240,2,47.9999985351563,0|0|8,0:0|0:0|3:0,0:0:0:0:
240,240,80659,2,0,P|192:240|160:208,1,95.9999970703126,0|8,0:0|3:0,0:0:0:0:
320,160,81012,6,0,L|416:160,1,95.9999970703126,8|0,3:0|0:0,0:0:0:0:
336,160,81277,2,0,P|320:144|351:77,1,95.9999970703126,0|0,0:0|0:0,0:0:0:0:
416,80,81541,2,0,L|304:80,1,95.9999970703126,0|8,0:0|3:0,0:0:0:0:
160,80,81806,2,0,L|176:128,1,47.9999985351563,0|0,0:0|0:0,0:0:0:0:
240,128,81983,1,8,3:0:0:0:
160,128,82071,2,0,P|112:176|160:208,1,143.999995605469,0|0,0:0|0:0,0:0:0:0:
320,208,82424,6,0,L|336:304,1,95.9999970703126,8|0,3:0|0:0,0:0:0:0:
256,304,82689,2,0,L|128:304,1,95.9999970703126,0|0,0:0|0:0,0:0:0:0:
320,304,82953,2,0,L|336:208,1,95.9999970703126,0|8,0:0|3:0,0:0:0:0:
256,208,83218,2,0,L|192:208,2,47.9999985351563,0|0|8,0:0|0:0|3:0,0:0:0:0:
176,144,83483,2,0,L|288:144,1,95.9999970703126,0|8,0:0|3:0,0:0:0:0:
144,160,83836,6,0,L|128:256,1,95.9999970703126,8|0,3:0|0:0,0:0:0:0:
304,256,84101,2,0,L|208:256,1,95.9999970703126,0|0,0:0|0:0,0:0:0:0:
128,161,84365,2,0,L|144:256,1,95.9999970703126,0|8,0:0|3:0,0:0:0:0:
224,240,84630,2,0,L|288:240,2,47.9999985351563,0|0|0,0:0|0:0|0:0,0:0:0:0:
304,240,84894,2,0,P|352:208|304:160,1,143.999995605469,0|0,0:0|0:0,0:0:0:0:
128,128,85247,6,0,L|256:128,1,95.9999970703126,4|0,3:2|0:0,0:0:0:0:
256,176,85512,1,0,0:0:0:0:
32,192,85600,2,0,L|160:192,1,95.9999970703126,8|0,3:0|0:0,0:0:0:0:
160,240,85865,1,0,0:0:0:0:
352,240,85953,2,0,L|256:240,1,95.9999970703126,8|0,3:0|0:0,0:0:0:0:
416,240,86218,2,0,P|464:208|480:160,1,95.9999970703126,8|0,3:0|0:0,0:0:0:0:
160,240,86483,2,0,L|96:240,1,47.9999985351563,8|0,3:0|0:0,0:0:0:0:
384,128,86659,6,0,L|256:128,1,95.9999970703126,8|0,3:0|0:0,0:0:0:0:
256,176,86924,1,0,0:0:0:0:
480,192,87012,2,0,L|352:192,1,95.9999970703126,8|0,3:0|0:0,0:0:0:0:
352,240,87277,1,0,0:0:0:0:
160,240,87365,2,0,L|256:240,1,95.9999970703126,8|0,3:0|0:0,0:0:0:0:
96,240,87630,2,0,P|48:208|110:106,1,191.999994140625,8|0,3:0|0:0,0:0:0:0:
336,96,88071,5,6,3:1:0:0:
176,96,88247,2,0,L|256:96,2,47.9999985351563,0|2|2,0:0|3:1|0:1,0:0:0:0:
416,96,88600,1,2,3:1:0:0:
96,96,88777,1,8,0:1:0:0:
256,96,88953,1,2,3:1:0:0:
416,160,89130,1,2,3:1:0:0:
96,160,89306,1,0,3:0:0:0:
416,224,89483,6,0,L|304:224,1,95.9999970703126,6|8,3:1|0:1,0:0:0:0:
368,192,89747,1,2,3:1:0:0:
208,192,89836,2,0,L|304:192,1,95.9999970703126,0|2,0:0|3:1,0:0:0:0:
64,208,90189,2,0,L|48:256,1,47.9999985351563,8|2,0:1|0:1,0:0:0:0:
208,256,90365,2,0,L|224:304,1,47.9999985351563,2|0,3:1|3:0,0:0:0:0:
448,304,90541,2,0,P|464:256|384:208,1,143.999995605469,8|0,0:1|0:0,0:0:0:0:
176,160,90894,5,4,3:1:0:0:
336,160,91071,2,0,L|352:208,2,47.9999985351563,0|0|8,0:0|0:0|0:1,0:0:0:0:
208,192,91424,2,0,L|208:256,2,47.9999985351563,0|0|0,0:0|0:0|3:0,0:0:0:0:
80,176,91777,2,0,L|64:224,2,47.9999985351563,0|0|8,0:0|0:0|0:1,0:0:0:0:
336,128,92130,1,0,0:1:0:0:
176,128,92306,6,0,L|272:128,1,95.9999970703126,0|0,3:0|0:0,0:0:0:0:
288,176,92571,1,0,0:0:0:0:
368,224,92659,2,0,L|256:224,1,95.9999970703126,8|0,0:1|0:0,0:0:0:0:
256,272,92924,1,0,0:0:0:0:
416,272,93012,2,0,L|304:272,1,95.9999970703126,0|0,3:0|0:0,0:0:0:0:
304,320,93277,1,0,0:0:0:0:
464,320,93365,2,0,L|480:272,1,47.9999985351563,8|0,0:1|0:0,0:0:0:0:
400,272,93541,2,0,L|384:320,1,47.9999985351563,0|0,0:0|0:0,0:0:0:0:
224,320,93718,6,0,L|128:320,1,95.9999970703126,0|0,3:0|0:0,0:0:0:0:
112,272,93983,1,0,0:0:0:0:
288,240,94071,2,0,L|176:240,1,95.9999970703126,8|0,0:1|0:0,0:0:0:0:
208,192,94336,1,0,0:0:0:0:
368,112,94424,2,0,L|272:112,1,95.9999970703126,0|0,3:0|0:0,0:0:0:0:
256,64,94689,1,0,0:0:0:0:
96,64,94777,2,0,L|208:64,1,95.9999970703126,8|0,0:1|0:0,0:0:0:0:
176,112,95042,1,0,0:0:0:0:
336,240,95130,6,0,P|384:192|352:160,1,95.9999970703126,0|0,3:0|0:0,0:0:0:0:
336,144,95394,1,0,0:0:0:0:
176,240,95483,2,0,P|128:192|160:160,1,95.9999970703126,8|0,0:1|0:0,0:0:0:0:
176,144,95747,1,0,0:0:0:0:
336,176,95836,2,0,L|320:224,1,47.9999985351563,0|0,3:0|0:0,0:0:0:0:
240,224,96012,2,0,L|224:272,1,47.9999985351563,0|0,0:0|0:0,0:0:0:0:
384,288,96189,2,0,P|432:256|365:219,1,143.999995605469,0|2,0:0|0:1,0:0:0:0:
160,192,96541,6,0,L|272:192,1,95.9999970703126,12|0,3:1|3:0,0:0:0:0:
96,192,96894,1,8,3:1:0:0:
256,192,97071,2,0,L|256:240,1,47.9999985351563,0|0,3:0|3:0,0:0:0:0:
352,192,97247,2,0,L|240:192,1,95.9999970703126,8|0,3:1|3:0,0:0:0:0:
416,192,97600,1,8,3:1:0:0:
256,192,97777,2,0,L|256:240,1,47.9999985351563,0|0,3:0|3:0,0:0:0:0:
496,240,97953,6,0,L|400:240,1,95.9999970703126,12|0,3:1|3:0,0:0:0:0:
112,240,98306,1,8,3:1:0:0:
400,288,98483,2,0,L|320:288,1,47.9999985351563,0|0,3:0|3:0,0:0:0:0:
16,240,98659,2,0,L|112:240,1,95.9999970703126,8|0,3:1|3:0,0:0:0:0:
400,240,99012,1,8,3:1:0:0:
112,288,99189,2,0,L|192:288,1,47.9999985351563,0|0,3:0|3:0,0:0:0:0:
400,288,99365,6,0,L|448:288,1,47.9999985351563,8|0,3:1|3:0,0:0:0:0:
368,288,99541,2,0,L|368:240,1,47.9999985351563,0|0,3:0|3:0,0:0:0:0:
288,240,99718,2,0,L|240:240,1,47.9999985351563,0|0,3:0|3:0,0:0:0:0:
400,240,99894,2,0,L|448:240,1,47.9999985351563,0|0,3:0|3:0,0:0:0:0:
224,240,100071,6,0,L|192:240,2,23.9999992675781,4|0|0,3:1|3:0|3:0,0:0:0:0:
416,160,100247,2,0,L|432:112,1,47.9999985351563,0|0,3:0|3:0,0:0:0:0:
256,160,100424,2,0,L|256:96,1,47.9999985351563,0|0,3:0|3:0,0:0:0:0:
96,224,100600,2,0,L|80:176,1,47.9999985351563,0|0,3:0|3:0,0:0:0:0:
479,191,100777,6,0,P|431:85|322:45,1,239.999992675781,4|0,3:1|0:0,0:0:0:0:
256,96,101306,2,0,L|271:141,1,47.9999985351563,0|0,0:0|0:0,0:0:0:0:
336,144,101483,6,0,P|328:213|272:255,1,143.999995605469,0|0,0:0|0:0,0:0:0:0:
208,239,101836,2,0,P|277:245|319:302,1,143.999995605469,0|0,0:0|0:0,0:0:0:0:
48,304,102189,6,0,L|64:224,1,80,4|2,3:1|0:0,0:0:0:0:
192,224,102541,2,0,L|208:304,1,80,0|2,0:0|0:0,0:0:0:0:
368,288,102894,2,0,L|352:208,1,80,0|2,0:0|0:0,0:0:0:0:
224,208,103247,2,0,L|208:288,1,80,0|2,0:0|0:0,0:0:0:0:
496,240,103600,6,0,L|400:240,1,80,0|2,0:0|0:0,0:0:0:0:
256,240,103953,2,0,L|336:240,1,80,0|2,0:0|0:0,0:0:0:0:
96,240,104306,2,0,L|80:160,1,80,0|2,0:0|0:0,0:0:0:0:
240,160,104659,2,0,L|256:80,1,80,0|2,0:0|0:0,0:0:0:0:
16,96,105012,6,0,P|32:160|128:192,3,160,0|0|0|0,0:0|0:0|0:0|0:0,0:0:0:0:
304,160,106424,6,0,P|288:224|192:256,3,160,0|0|0|0,0:0|0:0|0:0|0:0,0:0:0:0:
400,272,107836,6,0,L|304:272,1,80,0|2,0:0|0:0,0:0:0:0:
160,272,108189,1,2,0:0:0:0:
320,240,108365,1,2,0:0:0:0:
160,240,108541,2,0,L|80:240,1,80,0|2,0:0|0:0,0:0:0:0:
240,192,108894,2,0,L|320:192,1,80,2|0,0:0|0:0,0:0:0:0:
160,192,109247,5,2,0:0:0:0:
109,134,109423,1,2,0:0:0:0:
131,61,109599,1,2,0:0:0:0:
205,40,109776,1,0,0:0:0:0:
80,48,109953,2,0,L|64:128,1,80,0|2,0:0|0:0,0:0:0:0:
224,128,110306,2,0,L|240:208,1,80,2|0,0:0|0:0,0:0:0:0:
400,224,110659,6,0,L|304:224,1,80,0|0,0:0|3:0,0:0:0:0:
304,176,110924,1,0,3:0:0:0:
368,144,111012,2,0,L|304:144,1,40,0|0,3:0|3:0,0:0:0:0:
256,144,111189,2,0,L|192:144,1,40,0|0,3:0|3:0,0:0:0:0:
288,144,111365,6,0,L|272:96,1,40,0|0,3:0|3:0,0:0:0:0:
208,112,111541,2,0,L|192:64,1,40,0|0,3:0|3:0,0:0:0:0:
256,64,111718,2,0,L|208:64,1,40,0|0,3:0|3:0,0:0:0:0:
64,64,111894,2,0,L|16:64,1,40,0|0,3:0|3:0,0:0:0:0:
256,176,112071,5,0,3:0:0:0:
256,240,112777,6,0,P|128:192|96:96,1,240,8|0,0:0|0:0,0:0:0:0:
256,240,113130,2,0,P|384:192|416:96,1,240,8|0,0:0|0:0,0:0:0:0:
224,96,113483,6,0,L|128:96,1,95.9999970703126,4|0,3:1|0:0,0:0:0:0:
288,128,113836,1,8,0:0:0:0:
128,128,114012,1,0,0:0:0:0:
384,176,114189,2,0,L|288:176,1,95.9999970703126,8|0,0:0|0:0,0:0:0:0:
128,176,114541,2,0,L|224:176,1,95.9999970703126,8|0,0:0|0:0,0:0:0:0:
480,176,114894,6,0,L|496:272,1,95.9999970703126,0|0,3:0|0:0,0:0:0:0:
336,272,115247,2,0,L|320:368,1,95.9999970703126,8|0,0:0|0:0,0:0:0:0:
32,176,115600,2,0,L|16:272,1,95.9999970703126,8|0,0:0|0:0,0:0:0:0:
176,272,115953,2,0,L|192:368,1,95.9999970703126,8|0,0:0|0:0,0:0:0:0:
480,304,116306,6,0,L|368:304,2,95.9999970703126,0|0|8,3:0|0:0|0:0,0:0:0:0:
176,224,116836,1,0,0:0:0:0:
336,192,117012,2,0,L|320:288,1,95.9999970703126,8|0,0:0|0:0,0:0:0:0:
32,288,117365,2,0,L|144:288,1,95.9999970703126,8|0,0:0|0:0,0:0:0:0:
384,256,117718,5,0,3:0:0:0:
256,240,117894,1,0,0:0:0:0:
128,240,118071,1,8,0:0:0:0:
480,192,118247,1,0,0:0:0:0:
224,160,118424,2,0,L|176:160,1,47.9999985351563,2|2,0:1|0:1,0:0:0:0:
336,160,118600,2,0,L|288:160,1,47.9999985351563,2|2,0:1|0:1,0:0:0:0:
32,160,118777,2,0,P|48:240|112:272,1,143.999995605469,2|0,0:1|0:0,0:0:0:0:
256,256,119130,5,4,0:1:0:0:
128,224,119306,1,0,0:0:0:0:
272,192,119483,1,0,0:0:0:0:
112,176,119659,2,0,L|96:240,1,47.9999985351563,0|0,0:0|0:0,0:0:0:0:
256,208,119836,1,4,0:2:0:0:
384,176,120012,1,0,0:0:0:0:
240,112,120189,1,0,0:0:0:0:
400,96,120365,2,0,L|416:144,1,47.9999985351563,0|0,0:0|0:0,0:0:0:0:
112,128,120541,5,4,0:1:0:0:
256,144,120718,1,0,0:0:0:0:
400,160,120894,1,0,0:0:0:0:
112,96,121071,2,0,L|160:96,1,47.9999985351563,0|0,0:0|0:0,0:0:0:0:
496,96,121247,1,4,0:2:0:0:
256,64,121424,1,0,0:0:0:0:
16,80,121600,1,0,0:0:0:0:
496,160,121777,2,0,L|448:160,1,47.9999985351563,0|0,0:0|0:0,0:0:0:0:
32,128,121953,6,0,L|16:176,1,47.9999985351563,0|0,0:0|0:0,0:0:0:0:
96,176,122130,2,0,L|96:224,1,47.9999985351563,0|0,0:0|0:0,0:0:0:0:
176,224,122306,2,0,L|176:272,1,47.9999985351563,0|0,0:0|0:0,0:0:0:0:
256,272,122483,2,0,L|272:320,1,47.9999985351563,0|0,0:0|0:0,0:0:0:0:
488,128,122659,6,0,L|504:176,2,47.9999985351563,0|0|0,0:0|0:0|2:0,0:0:0:0:
256,128,122924,2,0,L|256:192,2,47.9999985351563,0|0|0,0:0|0:0|2:0,0:0:0:0:
32,128,123189,2,0,L|16:176,1,47.9999985351563,0|0,0:0|2:0,0:0:0:0:
256,288,123365,6,0,L|352:288,1,95.9999970703126,0|8,3:0|0:3,0:0:0:0:
160,288,123718,1,8,0:3:0:0:
416,304,123894,2,0,L|416:256,1,47.9999985351563,2|8,0:1|0:3,0:0:0:0:
256,256,124071,2,0,L|256:208,1,47.9999985351563,0|8,0:0|0:3,0:0:0:0:
96,208,124247,1,0,0:0:0:0:
352,128,124424,6,0,P|416:192|324:308,1,240,8|0,0:0|0:0,0:0:0:0:
160,304,124777,6,0,L|112:304,7,32,6|2|2|2|2|2|2|0,3:1|0:0|0:0|0:0|0:0|0:0|0:0|0:0,0:0:0:0:
192,256,125130,2,0,L|112:256,1,64,8|0,0:0|0:0,0:0:0:0:
288,256,125306,2,0,L|304:192,1,64,0|0,0:0|0:0,0:0:0:0:
464,192,125483,5,2,0:0:0:0:
401,198,125571,1,0,0:0:0:0:
352,239,125659,1,0,3:0:0:0:
334,299,125747,1,0,0:0:0:0:
176,176,125836,1,8,0:0:0:0:
238,182,125924,1,0,0:0:0:0:
400,240,126012,1,2,0:0:0:0:
418,300,126100,1,0,0:0:0:0:
144,288,126189,6,0,L|128:224,1,64,0|0,3:0|0:0,0:0:0:0:
288,160,126365,2,0,L|224:160,1,64,2|0,0:0|0:0,0:0:0:0:
288,160,126541,2,0,L|304:96,1,64,8|0,0:0|0:0,0:0:0:0:
464,96,126718,2,0,L|384:96,1,64,2|0,0:0|0:0,0:0:0:0:
208,96,126894,6,0,P|144:112|128:144,1,96,2|0,0:0|2:0,0:0:0:0:
304,96,127071,2,0,L|352:96|384:96,1,64,0|0,3:0|0:0,0:0:0:0:
144,96,127247,2,0,L|160:96|208:96,1,64,8|0,0:0|0:0,0:0:0:0:
381,134,127424,2,0,P|350:99|304:96,1,96,0|0,0:0|2:0,0:0:0:0:
80,144,127600,6,0,P|32:192|112:256,1,192,0|2,3:0|2:1,0:0:0:0:
272,256,127953,2,0,L|256:192,1,64,10|0,0:0|0:0,0:0:0:0:
176,176,128130,2,0,L|240:176,1,64,0|0,0:0|0:0,0:0:0:0:
400,176,128306,6,0,L|304:176,1,64,2|0,0:0|0:0,0:0:0:0:
176,176,128483,2,0,L|96:176,1,64,2|0,3:1|0:0,0:0:0:0:
272,208,128659,2,0,L|336:208,1,64,8|0,0:0|0:0,0:0:0:0:
496,208,128836,2,0,L|400:208,1,64,2|0,0:0|0:0,0:0:0:0:
176,304,129012,6,0,L|80:304,1,64,0|0,3:0|0:0,0:0:0:0:
288,272,129189,2,0,L|208:272,1,64,2|0,0:0|0:0,0:0:0:0:
144,240,129365,2,0,L|224:240,1,64,8|0,0:0|0:0,0:0:0:0:
384,224,129541,2,0,L|320:224,1,64,2|0,0:0|3:0,0:0:0:0:
96,112,129718,6,0,L|224:112,1,128,0|0,0:0|3:0,0:0:0:0:
160,160,129983,1,0,0:0:0:0:
320,160,130071,2,0,L|336:224,1,64,10|0,0:0|0:0,0:0:0:0:
256,224,130247,2,0,L|256:288,1,64,0|0,0:0|0:0,0:0:0:0:
448,288,130424,6,0,L|480:288,7,32,6|2|2|2|2|2|2|0,3:1|0:0|0:0|0:0|0:0|0:0|0:0|0:0,0:0:0:0:
416,288,130777,2,0,L|352:288,1,64,8|0,0:0|0:0,0:0:0:0:
192,320,130953,2,0,L|256:320,1,64,0|0,0:0|0:0,0:0:0:0:
80,224,131130,6,0,L|16:224,1,64,2|0,0:0|0:0,0:0:0:0:
240,224,131306,2,0,L|256:288,1,64,0|0,3:0|0:0,0:0:0:0:
176,320,131483,2,0,L|256:320,1,64,8|0,0:0|0:0,0:0:0:0:
400,320,131659,2,0,L|416:256,1,64,2|0,0:0|0:0,0:0:0:0:
256,176,131836,6,0,L|192:176,3,64,0|0|2|0,3:0|0:0|0:0|0:0,0:0:0:0:
384,176,132189,2,0,L|320:176,3,64,8|0|2|0,0:0|0:0|0:0|0:0,0:0:0:0:
128,176,132541,6,0,P|94:213|112:256,1,96,2|0,0:0|2:0,0:0:0:0:
288,240,132718,2,0,L|304:304,1,64,0|0,3:0|0:0,0:0:0:0:
496,320,132894,2,0,L|304:320,1,192,8|0,0:0|0:0,0:0:0:0:
144,320,133247,5,6,3:1:0:0:
304,272,133424,2,0,L|240:272,1,64,0|2,0:0|0:0,0:0:0:0:
80,272,133600,1,10,0:0:0:0:
384,240,133777,1,2,0:0:0:0:
224,208,133953,2,0,L|304:208,1,64,0|2,0:0|0:0,0:0:0:0:
448,208,134130,1,2,3:1:0:0:
160,176,134306,2,0,L|288:176,1,128,10|0,0:0|0:0,0:0:0:0:
16,224,134659,5,2,3:1:0:0:
320,224,134836,1,0,0:0:0:0:
256,224,134924,1,2,0:0:0:0:
192,224,135012,1,10,0:0:0:0:
496,224,135189,1,2,0:0:0:0:
192,128,135365,2,0,L|176:192,1,64,0|0,0:0|0:0,0:0:0:0:
256,192,135541,2,0,L|256:256,1,64,2|0,3:1|0:0,0:0:0:0:
448,304,135718,2,0,L|304:304,1,128,10|0,0:0|0:0,0:0:0:0:
64,304,136071,6,0,L|32:304,7,32,6|2|2|2|2|2|2|0,3:1|0:0|0:0|0:0|0:0|0:0|0:0|0:0,0:0:0:0:
96,304,136424,2,0,L|112:240,1,64,8|0,0:0|0:0,0:0:0:0:
272,240,136600,2,0,L|288:176,1,64,0|0,0:0|0:0,0:0:0:0:
448,112,136777,6,0,L|304:112,1,128,2|0,0:0|3:0,0:0:0:0:
304,160,137041,1,0,0:0:0:0:
144,176,137130,2,0,L|288:176,1,128,8|2,0:0|0:0,0:0:0:0:
288,224,137394,1,0,0:0:0:0:
80,224,137483,6,0,L|96:288,1,64,0|0,3:0|0:0,0:0:0:0:
288,320,137659,2,0,L|352:320,1,64,2|0,0:0|0:0,0:0:0:0:
160,272,137836,2,0,L|224:272,1,64,8|0,0:0|0:0,0:0:0:0:
416,256,138012,2,0,L|432:320,1,64,2|0,0:0|0:0,0:0:0:0:
256,208,138189,6,0,L|256:112,1,96,2|0,0:0|2:0,0:0:0:0:
128,96,138365,2,0,P|128:144|160:160,1,64,0|0,3:0|0:0,0:0:0:0:
384,96,138541,2,0,P|384:144|352:160,1,64,8|0,0:0|0:0,0:0:0:0:
208,112,138718,2,0,L|320:112,1,96,0|0,0:0|2:0,0:0:0:0:
480,192,138894,6,0,L|304:192,1,128,0|0,3:0|0:0,0:0:0:0:
336,144,139159,1,2,2:1:0:0:
496,144,139247,2,0,L|480:208,1,64,10|0,0:0|0:0,0:0:0:0:
400,224,139424,2,0,L|384:288,1,64,0|0,0:0|0:0,0:0:0:0:
224,288,139600,6,0,L|304:288,1,64,2|0,0:0|0:0,0:0:0:0:
224,288,139777,2,0,L|208:224,1,64,2|0,3:1|0:0,0:0:0:0:
368,208,139953,2,0,L|288:208,1,64,8|0,0:0|0:0,0:0:0:0:
368,208,140130,2,0,L|384:144,1,64,2|0,0:0|0:0,0:0:0:0:
224,112,140306,6,0,L|144:112,1,64,0|0,3:0|0:0,0:0:0:0:
400,112,140483,2,0,L|336:112,1,64,2|0,0:0|0:0,0:0:0:0:
272,112,140659,2,0,L|256:176,1,64,8|0,0:0|0:0,0:0:0:0:
448,176,140836,2,0,L|368:176,1,64,2|0,0:0|3:0,0:0:0:0:
144,225,141012,6,0,L|240:225,1,64,0|0,0:0|0:0,0:0:0:0:
368,224,141189,2,0,L|304:224,1,64,0|0,3:0|3:0,0:0:0:0:
96,192,141365,2,0,P|48:176|105:83,1,192,8|0,0:2|0:0,0:0:0:0:
288,80,141718,6,0,L|320:80,7,32,6|2|2|2|2|2|2|0,3:1|0:0|0:0|0:0|0:0|0:0|0:0|0:0,0:0:0:0:
256,80,142071,2,0,L|160:80,1,64,8|0,0:0|0:0,0:0:0:0:
352,112,142247,2,0,L|368:176,1,64,0|0,0:0|0:0,0:0:0:0:
192,208,142424,6,0,L|272:208,1,64,2|0,0:0|0:0,0:0:0:0:
96,144,142600,2,0,L|176:144,1,64,0|0,3:0|0:0,0:0:0:0:
240,144,142777,2,0,L|320:144,1,64,8|0,0:0|0:0,0:0:0:0:
48,208,142953,2,0,L|112:208,1,64,2|0,0:0|0:0,0:0:0:0:
416,160,143130,6,0,L|432:224,1,64,0|0,3:0|0:0,0:0:0:0:
368,224,143306,2,0,L|384:288,1,64,2|0,0:0|0:0,0:0:0:0:
224,160,143483,2,0,L|208:224,1,64,8|0,0:0|0:0,0:0:0:0:
272,224,143659,2,0,L|256:288,1,64,2|0,0:0|0:0,0:0:0:0:
416,320,143836,6,0,L|304:320,1,96,0|0,0:0|0:0,0:0:0:0:
256,320,144012,2,0,P|224:256|407:110,1,320,0|0,3:0|2:0,0:0:0:0:
128,64,144541,5,6,3:1:0:0:
256,96,144718,2,0,L|192:96,1,64,0|2,0:0|0:0,0:0:0:0:
32,96,144894,1,0,0:0:0:0:
192,144,145071,1,2,0:0:0:0:
32,192,145247,2,0,L|96:192,1,64,0|2,0:0|0:0,0:0:0:0:
256,192,145424,2,0,L|336:192,1,64,0|0,3:0|0:0,0:0:0:0:
480,192,145600,2,0,L|352:192,1,128,10|0,0:0|0:0,0:0:0:0:
96,192,145953,6,0,P|64:256|108:297,1,128,4|0,3:1|0:0,0:0:0:0:
160,288,146218,2,0,L|288:288,1,128,0|0,0:0|0:0,0:0:0:0:
352,240,146483,2,0,P|384:304|340:345,1,128,0|0,0:0|0:0,0:0:0:0:
288,336,146747,2,0,L|160:336,1,128,0|0,0:0|0:0,0:0:0:0:
416,144,147012,6,0,P|448:208|356:301,1,192,8|0,0:0|0:0,0:0:0:0:
16,192,147365,6,0,L|176:192,2,128,6|2|2,3:1|0:0|0:0,0:0:0:0:
256,192,147894,2,0,L|320:192,2,64,0|0|2,0:0|0:0|0:0,0:0:0:0:
384,144,148247,2,0,L|240:144,1,128,0|10,3:0|0:0,0:0:0:0:
16,144,148600,1,2,0:0:0:0:
368,192,148777,6,0,L|496:192,1,128,2|0,0:0|0:0,0:0:0:0:
144,192,149130,2,0,L|16:192,1,128,10|0,0:0|0:0,0:0:0:0:
336,160,149483,1,2,0:0:0:0:
176,160,149659,1,0,3:0:0:0:
416,192,149836,1,2,0:0:0:0:
96,192,150012,1,2,0:0:0:0:
496,240,150189,6,0,L|352:240,1,128,2|2,0:0|0:0,0:0:0:0:
16,240,150541,2,0,L|160:240,1,128,10|0,0:0|0:0,0:0:0:0:
416,160,150894,1,2,0:0:0:0:
256,160,151071,2,0,L|240:224,2,64,0|0|2,3:0|3:0|0:0,0:0:0:0:
416,224,151424,1,2,0:0:0:0:
128,224,151600,6,0,L|272:224,1,128,2|0,0:0|2:0,0:0:0:0:
496,224,151953,2,0,L|352:224,1,128,10|0,0:0|2:0,0:0:0:0:
16,176,152306,2,0,L|160:176,2,128,0|2|10,0:0|3:1|0:0,0:0:0:0:
256,160,152836,1,0,0:0:0:0:
496,176,153012,6,0,L|368:176,1,128,2|2,3:1|0:0,0:0:0:0:
16,176,153365,2,0,L|144:176,1,128,10|0,0:0|0:0,0:0:0:0:
496,160,153718,1,2,0:0:0:0:
192,128,153894,1,0,3:0:0:0:
256,128,153983,1,0,0:0:0:0:
320,128,154071,1,2,0:0:0:0:
16,128,154247,1,2,0:0:0:0:
368,192,154424,6,0,L|496:192,1,128,2|0,0:0|0:0,0:0:0:0:
192,192,154777,2,0,L|320:192,1,128,10|0,0:0|0:0,0:0:0:0:
16,192,155130,1,2,0:0:0:0:
144,224,155306,1,0,3:0:0:0:
272,224,155483,1,10,0:0:0:0:
16,192,155659,1,2,0:0:0:0:
320,160,155836,6,0,L|192:160,1,128,2|2,3:1|0:0,0:0:0:0:
496,144,156189,1,10,0:0:0:0:
256,128,156365,1,2,0:0:0:0:
16,128,156541,2,0,L|144:128,1,128,2|0,0:0|3:0,0:0:0:0:
400,96,156894,1,10,0:0:0:0:
112,96,157071,1,2,0:0:0:0:
496,192,157247,6,0,L|368:192,1,128,2|0,0:0|2:0,0:0:0:0:
16,192,157600,2,0,L|144:192,1,128,10|0,0:0|2:0,0:0:0:0:
400,192,157953,6,0,L|448:192,14,32,2|0|0|0|2|0|0|0|2|0|0|0|0|0|0,0:0|0:0|2:0|0:0|3:1|0:0|2:0|0:0|0:0|0:0|0:0|0:0|0:0|0:0|2:0,0:0:0:0:
144,192,158659,6,0,L|16:192,1,128,6|2,3:1|0:0,0:0:0:0:
336,144,159012,1,10,0:0:0:0:
176,144,159189,1,0,0:0:0:0:
160,176,159277,1,0,0:0:0:0:
144,208,159365,1,2,0:0:0:0:
496,192,159541,1,0,3:0:0:0:
176,208,159718,1,10,0:0:0:0:
336,208,159894,1,2,0:0:0:0:
16,160,160071,6,0,L|144:160,3,128,2|0|10|0,3:1|0:0|0:0|0:0,0:0:0:0:
496,160,160777,2,0,L|352:160,1,128,2|0,0:0|3:0,0:0:0:0:
64,112,161130,1,10,0:0:0:0:
448,112,161306,1,2,0:0:0:0:
192,112,161483,6,0,L|320:112,1,128,6|2,3:1|0:0,0:0:0:0:
176,160,161836,1,2,0:0:0:0:
336,160,162012,1,0,0:0:0:0:
16,192,162189,2,0,L|144:192,1,128,2|0,0:0|3:0,0:0:0:0:
432,192,162541,1,10,0:0:0:0:
80,192,162718,1,2,0:0:0:0:
320,256,162894,6,0,L|192:256,1,128,6|2,3:1|0:0,0:0:0:0:
496,192,163247,2,0,L|368:192,1,128,10|0,0:0|2:0,0:0:0:0:
16,224,163600,2,0,L|32:288,1,64,2|0,0:0|2:0,0:0:0:0:
112,288,163777,2,0,L|128:352,1,64,2|2,3:1|2:1,0:0:0:0:
320,352,163953,2,0,L|176:352,1,128,10|0,0:0|0:0,0:0:0:0:
496,112,164306,6,0,L|352:112,1,128,6|2,3:1|0:0,0:0:0:0:
112,112,164659,1,10,0:0:0:0:
256,112,164836,1,0,0:0:0:0:
400,112,165012,1,2,0:0:0:0:
16,112,165189,1,0,3:0:0:0:
23,175,165277,1,0,0:0:0:0:
31,239,165365,1,10,0:0:0:0:
160,240,165541,1,2,0:0:0:0:
496,208,165718,5,6,3:1:0:0:
256,192,165894,1,0,0:0:0:0:
96,192,166071,1,10,0:0:0:0:
416,192,166247,1,0,0:0:0:0:
32,144,166424,2,0,L|16:208,1,64,2|0,0:0|0:0,0:0:0:0:
224,224,166600,2,0,L|288:224,1,64,0|0,3:0|0:0,0:0:0:0:
496,224,166777,2,0,L|480:96,1,128,10|2,0:0|0:0,0:0:0:0:
192,80,167130,6,0,L|320:80,1,128,6|2,3:1|0:0,0:0:0:0:
32,96,167483,2,0,L|48:160,1,64,10|0,0:0|0:0,0:0:0:0:
128,160,167659,2,0,L|144:224,1,64,2|0,0:0|0:0,0:0:0:0:
496,96,167836,6,0,L|480:160,1,64,6|0,3:1|0:0,0:0:0:0:
320,160,168012,2,0,L|304:224,1,64,8|0,0:3|0:3,0:0:0:0:
32,144,168189,2,0,L|48:208,1,64,10|0,0:0|0:0,0:0:0:0:
256,208,168365,2,0,L|272:272,1,64,2|0,0:0|0:0,0:0:0:0:
496,320,168541,6,0,L|368:320,1,128,2|0,0:1|0:0,0:0:0:0:
112,320,168894,1,0,0:1:0:0:
368,272,169071,1,0,0:0:0:0:
32,320,169247,6,0,P|32:256|176:208,1,192,2|0,0:0|0:0,0:0:0:0:
336,144,169600,6,0,L|144:144,1,160,8|0,0:2|0:0,0:0:0:0:
480,304,169953,6,0,L|384:304,3,80,4|2|0|2,3:1|0:0|0:0|0:0,0:0:0:0:
256,304,170659,2,0,L|336:304,3,80,0|2|0|2,0:0|0:0|0:0|0:0,0:0:0:0:
176,304,171365,6,0,L|96:304,3,80,0|2|0|2,0:0|0:0|0:0|0:0,0:0:0:0:
368,288,172071,2,0,L|384:208,1,80,0|2,0:0|0:0,0:0:0:0:
256,208,172424,2,0,L|240:128,1,80,0|2,0:0|0:0,0:0:0:0:
80,128,172777,6,0,L|160:128,2,80,0|2|0,0:0|0:0|0:0,0:0:0:0:
208,128,173306,1,2,0:0:0:0:
336,128,173483,2,0,L|256:128,2,80,0|0|0,0:0|0:0|0:0,0:0:0:0:
208,128,174012,1,0,0:0:0:0:
80,176,174189,6,0,L|176:176,1,80,0|2,0:0|0:0,0:0:0:0:
288,176,174541,2,0,L|208:176,1,80,0|2,0:0|0:0,0:0:0:0:
336,176,174894,2,0,L|352:256,1,80,0|2,0:0|0:0,0:0:0:0:
224,256,175247,2,0,L|208:336,1,80,0|2,0:0|0:0,0:0:0:0:
368,336,175600,5,0,0:0:0:0:
208,336,175777,2,0,L|192:288,1,40,2|0,0:0|0:0,0:0:0:0:
256,288,175953,2,0,L|240:240,1,40,2|0,0:0|0:0,0:0:0:0:
304,240,176130,1,2,0:0:0:0:
176,240,176306,2,0,L|80:240,1,80,0|2,0:0|0:0,0:0:0:0:
224,192,176659,1,2,0:0:0:0:
96,192,176836,1,0,0:0:0:0:
352,192,177012,5,2,0:0:0:0:
224,192,177189,2,0,L|208:144,1,40,0|0,0:0|0:0,0:0:0:0:
272,144,177365,2,0,L|256:96,1,40,2|0,0:0|0:0,0:0:0:0:
192,96,177541,1,2,0:0:0:0:
320,64,177718,2,0,L|224:64,1,80,0|2,0:0|0:0,0:0:0:0:
368,96,178071,2,0,L|448:96,1,80,2|0,0:0|0:0,0:0:0:0:
288,112,178424,6,0,L|272:192,1,80,0|2,0:0|0:0,0:0:0:0:
144,192,178777,2,0,L|160:272,1,80,0|2,0:0|0:0,0:0:0:0:
288,176,179130,2,0,L|304:256,1,80,0|2,0:0|0:0,0:0:0:0:
432,256,179483,2,0,L|416:336,1,80,0|2,0:0|0:0,0:0:0:0:
256,336,179836,5,0,0:0:0:0:
200,285,180012,1,2,0:0:0:0:
231,216,180188,1,0,0:0:0:0:
305,223,180365,1,2,0:0:0:0:
176,208,180541,2,0,L|160:288,1,80,0|2,0:0|0:0,0:0:0:0:
320,288,180894,2,0,L|336:208,1,80,0|2,0:0|0:0,0:0:0:0:
32,176,181247,6,0,L|112:176,1,80,12|0,3:2|0:0,0:0:0:0:
256,176,181600,2,0,L|176:176,1,80,8|2,0:0|0:0,0:0:0:0:
160,128,181865,1,0,0:0:0:0:
144,96,181953,1,8,0:0:0:0:
288,96,182130,1,2,0:0:0:0:
144,48,182306,2,0,L|224:48,1,80,8|2,0:0|0:0,0:0:0:0:
368,48,182659,6,0,L|272:48,1,80,8|2,0:0|0:0,0:0:0:0:
432,96,183012,1,8,0:0:0:0:
288,144,183189,1,0,0:0:0:0:
272,176,183277,1,0,0:0:0:0:
256,208,183365,1,8,0:0:0:0:
400,208,183541,1,2,0:0:0:0:
256,256,183718,2,0,L|352:256,1,80,8|0,0:0|0:0,0:0:0:0:
176,256,184071,6,0,L|96:256,1,80,8|0,0:0|0:0,0:0:0:0:
256,256,184424,2,0,L|272:176,1,80,8|2,0:0|0:0,0:0:0:0:
400,176,184777,2,0,L|496:176,1,80,8|2,0:0|0:0,0:0:0:0:
320,176,185130,2,0,L|304:96,1,80,8|2,0:0|0:0,0:0:0:0:
144,96,185483,6,0,L|48:96,1,80,8|2,0:0|0:0,0:0:0:0:
48,144,185747,1,0,0:0:0:0:
128,144,185836,2,0,L|224:144,1,80,8|2,0:0|0:0,0:0:0:0:
368,144,186189,2,0,L|272:144,1,80,8|2,0:0|0:0,0:0:0:0:
448,144,186541,2,0,L|464:64,1,80,8|2,0:0|0:0,0:0:0:0:
416,64,186806,1,0,0:0:0:0:
336,64,186894,6,0,L|240:64,1,80,8|2,0:0|0:0,0:0:0:0:
416,96,187247,1,10,0:0:0:0:
256,112,187424,2,0,L|272:160,1,40,2|0,0:0|0:0,0:0:0:0:
208,160,187600,2,0,L|224:208,1,40,8|0,0:0|0:0,0:0:0:0:
160,208,187777,1,2,0:0:0:0:
304,208,187953,2,0,L|208:208,1,80,10|0,0:0|0:0,0:0:0:0:
64,208,188306,5,10,0:0:0:0:
224,208,188483,2,0,L|240:256,1,40,2|0,0:0|0:0,0:0:0:0:
176,256,188659,1,8,0:0:0:0:
336,256,188836,1,0,0:0:0:0:
176,304,189012,2,0,L|96:304,1,80,10|2,0:0|0:0,0:0:0:0:
256,304,189365,1,10,0:0:0:0:
96,304,189541,1,0,0:0:0:0:
416,288,189718,6,0,L|336:288,1,80,8|8,0:0|3:0,0:0:0:0:
304,256,189983,1,8,3:0:0:0:
336,240,190071,1,0,3:0:0:0:
372,225,190159,1,0,3:0:0:0:
387,189,190247,1,0,3:0:0:0:
371,154,190335,1,0,3:0:0:0:
336,128,190424,6,0,L|272:128,1,40,0|0,3:0|3:0,0:0:0:0:
208,128,190600,2,0,L|144:128,1,40,0|0,3:0|3:0,0:0:0:0:
80,128,190777,2,0,L|16:128,1,40,0|0,3:0|3:0,0:0:0:0:
336,128,190953,2,0,L|272:128,1,40,0|0,3:0|3:0,0:0:0:0:
80,128,191130,6,0,P|32:160|96:304,1,240,4|0,3:1|3:0,0:0:0:0:
352,304,191836,2,0,L|272:304,1,80,8|0,0:2|3:0,0:0:0:0:
256,256,192100,1,0,3:0:0:0:
480,192,192189,2,0,L|352:192,1,128,12|0,3:2|0:0,0:0:0:0:
32,208,192541,6,0,L|48:160,1,47.9999985351563,4|0,3:1|0:0,0:0:0:0:
112,160,192718,2,0,L|128:112,1,47.9999985351563,2|0,0:0|0:0,0:0:0:0:
192,128,192894,2,0,L|208:80,1,47.9999985351563,0|0,0:0|0:0,0:0:0:0:
48,96,193071,2,0,L|64:48,1,47.9999985351563,2|0,0:0|0:0,0:0:0:0:
416,256,193248,6,0,L|400:208,1,47.9999985351563,2|0,0:0|0:0,0:0:0:0:
336,208,193424,2,0,L|320:160,1,47.9999985351563,0|0,0:0|0:0,0:0:0:0:
255,173,193600,2,0,L|239:125,1,47.9999985351563,2|0,0:0|0:0,0:0:0:0:
400,112,193777,2,0,L|336:112,1,47.9999985351563,0|0,0:0|0:0,0:0:0:0:
272,112,193953,6,0,L|288:160,1,47.9999985351563,2|0,0:0|0:0,0:0:0:0:
368,192,194130,2,0,L|304:192,1,47.9999985351563,2|0,0:0|0:0,0:0:0:0:
160,192,194306,2,0,L|96:192,1,47.9999985351563,0|0,0:0|0:0,0:0:0:0:
32,192,194482,2,0,L|48:240,1,47.9999985351563,2|0,0:0|0:0,0:0:0:0:
128,272,194659,6,0,L|176:272,1,47.9999985351563,2|0,0:0|0:0,0:0:0:0:
336,272,194836,2,0,L|384:272,1,47.9999985351563,0|0,0:0|0:0,0:0:0:0:
320,272,195012,2,0,L|304:224,1,47.9999985351563,2|0,0:0|0:0,0:0:0:0:
240,224,195189,2,0,L|176:224,1,47.9999985351563,0|0,0:0|0:0,0:0:0:0:
416,208,195365,6,0,L|464:208,1,47.9999985351563,2|0,0:0|0:0,0:0:0:0:
400,160,195541,2,0,L|352:160,1,47.9999985351563,2|0,0:0|0:0,0:0:0:0:
416,208,195718,2,0,L|464:208,1,47.9999985351563,0|0,0:0|0:0,0:0:0:0:
272,224,195894,2,0,L|256:288,1,47.9999985351563,2|0,0:0|0:0,0:0:0:0:
96,208,196071,6,0,L|48:208,1,47.9999985351563,2|0,0:0|0:0,0:0:0:0:
112,160,196247,2,0,L|160:160,1,47.9999985351563,0|0,0:0|0:0,0:0:0:0:
96,208,196424,2,0,L|48:208,1,47.9999985351563,2|0,0:0|0:0,0:0:0:0:
240,224,196600,2,0,L|256:272,1,47.9999985351563,0|0,0:0|0:0,0:0:0:0:
416,272,196777,6,0,L|400:224,1,47.9999985351563,2|0,0:0|0:0,0:0:0:0:
320,208,196953,2,0,L|256:208,1,47.9999985351563,2|0,0:0|0:0,0:0:0:0:
112,192,197130,2,0,L|96:144,1,47.9999985351563,0|0,0:0|0:0,0:0:0:0:
176,128,197306,2,0,L|192:80,1,47.9999985351563,2|0,0:0|0:0,0:0:0:0:
272,80,197483,6,0,L|336:80,1,47.9999985351563,2|0,0:0|0:0,0:0:0:0:
160,160,197659,2,0,L|176:208,1,47.9999985351563,0|0,0:0|0:0,0:0:0:0:
256,192,197836,2,0,L|336:192,1,47.9999985351563,2|0,0:0|0:0,0:0:0:0:
384,192,198012,2,0,L|400:240,1,47.9999985351563,0|0,0:0|0:0,0:0:0:0:
112,272,198189,6,0,L|176:272,1,47.9999985351563,0|0,0:0|0:0,0:0:0:0:
240,272,198365,2,0,L|240:208,1,47.9999985351563,2|0,0:0|0:0,0:0:0:0:
160,224,198541,2,0,L|96:224,1,47.9999985351563,2|0,0:0|0:0,0:0:0:0:
32,224,198718,2,0,L|32:288,1,47.9999985351563,2|0,0:0|0:0,0:0:0:0:
192,160,198894,6,0,L|240:160,1,47.9999985351563,0|0,0:0|0:0,0:0:0:0:
320,160,199071,2,0,L|320:224,1,47.9999985351563,2|0,0:0|0:0,0:0:0:0:
240,208,199247,2,0,L|192:208,1,47.9999985351563,2|0,0:0|0:0,0:0:0:0:
352,208,199424,2,0,L|352:160,1,47.9999985351563,0|0,0:0|0:0,0:0:0:0:
272,160,199600,6,0,L|208:160,1,47.9999985351563,2|0,0:0|0:0,0:0:0:0:
144,160,199777,2,0,L|144:208,1,47.9999985351563,0|0,0:0|0:0,0:0:0:0:
304,128,199953,2,0,L|352:128,1,47.9999985351563,2|0,0:0|0:0,0:0:0:0:
432,128,200130,2,0,L|432:192,1,47.9999985351563,2|0,0:0|0:0,0:0:0:0:
352,192,200306,6,0,L|288:192,1,47.9999985351563,0|0,0:0|0:0,0:0:0:0:
464,192,200483,2,0,L|464:144,1,47.9999985351563,2|0,0:0|0:0,0:0:0:0:
384,144,200659,2,0,L|320:144,1,47.9999985351563,2|0,0:0|0:0,0:0:0:0:
256,144,200836,2,0,L|256:192,1,47.9999985351563,0|0,0:0|0:0,0:0:0:0:
496,256,201012,6,0,L|448:256,1,47.9999985351563,2|0,0:0|0:0,0:0:0:0:
368,256,201189,2,0,L|320:256,1,47.9999985351563,0|0,0:0|0:0,0:0:0:0:
240,256,201365,2,0,L|176:256,1,47.9999985351563,2|0,0:0|0:0,0:0:0:0:
272,256,201541,2,0,L|288:208,1,47.9999985351563,0|0,0:0|0:0,0:0:0:0:
16,256,201718,6,0,L|64:256,1,47.9999985351563,2|0,0:0|0:0,0:0:0:0:
144,256,201895,2,0,L|192:256,1,47.9999985351563,0|0,0:0|0:0,0:0:0:0:
112,240,202071,2,0,L|96:192,1,47.9999985351563,2|0,0:0|0:0,0:0:0:0:
344,192,202247,2,0,L|296:192,1,47.9999985351563,0|0,0:0|0:0,0:0:0:0:
216,192,202424,6,0,L|168:192,1,47.9999985351563,2|0,0:0|3:0,0:0:0:0:
248,176,202600,2,0,L|264:128,1,47.9999985351563,0|0,3:0|3:0,0:0:0:0:
496,240,202777,2,0,L|480:192,1,47.9999985351563,0|0,3:0|3:0,0:0:0:0:
320,208,202953,2,0,L|304:160,1,47.9999985351563,0|0,3:0|3:0,0:0:0:0:
144,176,203130,5,0,3:0:0:0:
112,142,203218,1,0,3:0:0:0:
128,100,203306,1,0,3:0:0:0:
173,95,203394,1,0,3:0:0:0:
338,95,203483,2,0,P|397:119|368:176,1,143.999995605469,8|0,0:2|2:0,0:0:0:0:
32,272,203836,6,0,L|144:272,1,95.9999970703126,6|0,3:1|0:0,0:0:0:0:
144,224,204100,1,2,0:1:0:0:
160,176,204189,1,0,0:0:0:0:
320,240,204365,1,2,0:1:0:0:
192,240,204541,1,0,0:2:0:0:
176,208,204630,1,2,0:1:0:0:
160,160,204718,1,0,0:0:0:0:
320,160,204894,2,0,L|224:160,1,95.9999970703126,10|0,0:1|0:0,0:0:0:0:
480,144,205247,5,2,3:1:0:0:
352,144,205424,1,0,0:0:0:0:
336,176,205512,1,2,0:1:0:0:
320,208,205600,1,0,0:0:0:0:
160,224,205777,2,0,L|256:224,1,95.9999970703126,2|0,0:1|0:0,0:0:0:0:
272,272,206041,1,2,0:1:0:0:
288,320,206130,1,0,0:0:0:0:
128,320,206306,1,10,0:1:0:0:
288,320,206483,1,0,0:0:0:0:
16,176,206659,6,0,L|112:176,1,95.9999970703126,6|0,3:1|0:0,0:0:0:0:
128,128,206924,1,2,0:1:0:0:
208,96,207012,2,0,L|96:96,1,95.9999970703126,0|2,0:0|0:1,0:0:0:0:
272,96,207365,1,0,0:0:0:0:
288,128,207453,1,2,0:1:0:0:
304,160,207541,1,0,0:0:0:0:
144,208,207718,1,10,0:1:0:0:
304,240,207894,1,0,0:0:0:0:
464,272,208071,6,0,L|352:272,1,95.9999970703126,2|0,3:1|0:0,0:0:0:0:
352,304,208336,1,2,0:1:0:0:
272,336,208424,2,0,L|368:336,1,95.9999970703126,0|2,0:0|0:1,0:0:0:0:
208,336,208777,2,0,L|192:288,1,47.9999985351563,0|2,0:0|0:1,0:0:0:0:
352,256,208953,2,0,L|336:208,1,47.9999985351563,0|0,0:0|0:0,0:0:0:0:
496,160,209130,2,0,L|384:160,1,95.9999970703126,10|0,0:1|0:0,0:0:0:0:
48,224,209483,6,0,L|144:224,1,95.9999970703126,4|0,0:1|0:0,0:0:0:0:
304,224,209836,2,0,L|208:224,1,95.9999970703126,8|0,0:1|0:0,0:0:0:0:
256,176,210101,1,0,0:0:0:0:
480,176,210189,2,0,L|384:176,1,95.9999970703126,4|0,0:2|0:0,0:0:0:0:
208,144,210542,2,0,L|336:144,1,95.9999970703126,8|0,0:1|0:0,0:0:0:0:
256,112,210807,1,0,0:0:0:0:
64,160,210894,5,4,0:1:0:0:
192,160,211070,1,0,0:0:0:0:
48,112,211247,1,8,0:1:0:0:
208,112,211423,1,0,0:0:0:0:
128,112,211511,1,0,0:0:0:0:
448,160,211600,1,4,0:2:0:0:
320,160,211776,1,0,0:0:0:0:
464,112,211953,1,8,0:1:0:0:
304,112,212129,1,0,0:0:0:0:
384,112,212217,1,0,0:0:0:0:
32,112,212306,6,0,L|48:160,1,47.9999985351563,4|0,0:1|0:0,0:0:0:0:
128,160,212483,2,0,L|144:208,1,47.9999985351563,0|0,0:0|0:0,0:0:0:0:
224,208,212659,2,0,L|240:256,1,47.9999985351563,8|0,0:1|0:0,0:0:0:0:
320,256,212836,2,0,L|336:304,1,47.9999985351563,0|0,0:0|0:0,0:0:0:0:
48,272,213012,6,0,L|112:272,1,47.9999985351563,12|0,0:2|0:0,0:0:0:0:
160,272,213189,1,0,0:0:0:0:
368,208,213277,2,0,L|304:208,1,47.9999985351563,12|0,0:2|2:0,0:0:0:0:
256,208,213453,1,0,0:0:0:0:
432,272,213541,2,0,L|480:272,1,47.9999985351563,12|0,0:2|2:0,0:0:0:0:
176,224,213718,6,0,P|128:192|176:144,1,143.999995605469,0|0,0:0|0:0,0:0:0:0:
336,128,214071,1,0,0:0:0:0:
96,128,214247,1,2,0:1:0:0:
336,224,214424,2,0,P|384:192|304:96,1,192,0|0,0:0|0:0,0:0:0:0:
496,128,214777,6,0,P|464:80|352:64,1,160,8|0,0:0|0:0,0:0:0:0:
32,80,215130,6,0,L|176:80,1,128,6|0,3:1|0:0,0:0:0:0:
352,144,215394,2,0,L|208:144,1,128,2|0,0:0|0:0,0:0:0:0:
416,144,215659,2,0,L|480:144,1,64,2|0,0:0|0:0,0:0:0:0:
256,192,215836,2,0,L|176:192,2,64,0|2|0,0:3|0:0|0:0,0:0:0:0:
320,192,216100,1,0,0:0:0:0:
32,176,216189,2,0,L|176:176,1,128,10|0,3:1|0:0,0:0:0:0:
224,176,216453,1,0,0:0:0:0:
480,192,216541,6,0,L|336:192,1,128,2|0,3:1|0:0,0:0:0:0:
160,224,216806,2,0,L|288:224,1,128,2|0,0:0|0:0,0:0:0:0:
96,208,217071,2,0,L|16:208,1,64,2|0,0:0|0:0,0:0:0:0:
256,128,217247,2,0,L|192:128,1,64,0|2,3:0|0:0,0:0:0:0:
32,128,217424,2,0,L|96:128,1,64,0|0,0:0|0:0,0:0:0:0:
352,192,217600,2,0,L|160:192,1,192,10|0,3:1|0:0,0:0:0:0:
416,192,217953,6,0,P|464:240|480:320,1,128,2|0,3:1|0:0,0:0:0:0:
192,272,218218,2,0,L|336:272,1,128,2|0,0:0|0:0,0:0:0:0:
31,296,218483,2,0,P|50:235|96:192,1,128,2|0,0:0|3:0,0:0:0:0:
256,176,218747,2,0,L|320:176,2,64,2|0|0,0:0|0:0|0:0,0:0:0:0:
416,128,219012,2,0,L|272:128,1,128,10|0,3:1|0:0,0:0:0:0:
224,128,219277,1,0,0:0:0:0:
64,128,219365,6,0,L|192:128,1,128,2|0,3:1|0:0,0:0:0:0:
32,128,219630,2,0,P|48:192|128:224,1,128,2|0,0:0|0:0,0:0:0:0:
448,128,219894,2,0,L|320:128,1,128,2|0,0:0|3:0,0:0:0:0:
480,128,220159,1,2,0:0:0:0:
466,188,220247,1,0,0:0:0:0:
414,223,220335,1,0,0:0:0:0:
160,192,220424,2,0,L|352:192,1,192,10|0,3:1|0:0,0:0:0:0:
96,160,220777,6,0,P|48:208|32:272,1,128,2|0,3:1|0:0,0:0:0:0:
192,272,221041,2,0,L|336:272,1,128,2|0,0:0|0:0,0:0:0:0:
479,264,221306,2,0,P|461:203|432:176,1,64,2|0,0:0|0:0,0:0:0:0:
256,144,221483,1,0,3:0:0:0:
192,144,221571,1,2,0:0:0:0:
256,144,221659,1,0,0:0:0:0:
320,144,221747,1,0,0:0:0:0:
95,160,221836,2,0,P|50:203|32:264,1,128,10|0,3:1|0:0,0:0:0:0:
112,272,222100,1,0,0:0:0:0:
384,272,222189,6,0,L|224:272,1,128,2|0,3:1|0:0,0:0:0:0:
448,224,222453,2,0,L|304:224,1,128,2|0,0:0|0:0,0:0:0:0:
128,224,222718,2,0,L|208:224,1,64,2|0,0:0|0:0,0:0:0:0:
448,224,222894,2,0,L|480:288,1,64,0|2,3:0|0:0,0:0:0:0:
256,288,223071,2,0,L|256:352,1,64
96,336,223247,2,0,P|32:288|64:240,1,128,10|0,3:1|0:0,0:0:0:0:
112,240,223512,1,0,0:0:0:0:
416,176,223600,6,0,L|272:176,1,128,2|0,3:1|0:0,0:0:0:0:
96,176,223865,2,0,L|240:176,1,128,2|0,0:0|0:0,0:0:0:0:
480,256,224130,2,0,P|464:192|371:153,1,128,2|0,0:0|3:0,0:0:0:0:
32,256,224394,1,2,0:0:0:0:
46,194,224482,1,0,0:0:0:0:
95,156,224570,1,0,0:0:0:0:
320,160,224659,2,0,L|192:160,1,128,10|0,3:1|0:0,0:0:0:0:
256,192,224924,1,0,0:0:0:0:
96,208,225012,6,0,P|48:272|80:304,1,128,2|0,3:1|0:0,0:0:0:0:
320,304,225277,2,0,L|176:304,1,128,2|0,0:0|0:0,0:0:0:0:
416,208,225541,2,0,P|464:272|432:304,1,128,2|0,0:0|3:0,0:0:0:0:
192,304,225806,2,0,L|336:304,1,128,2|0,0:0|0:0,0:0:0:0:
96,256,226071,6,0,L|48:256,6,32,8|0|0|0|2|2|2,3:1|0:0|0:0|0:0|0:1|0:1|0:1,0:0:0:0:
256,224,226424,6,0,L|256:96,1,128,6|0,3:1|0:0,0:0:0:0:
416,96,226689,2,0,L|272:96,1,128,2|0,0:0|0:0,0:0:0:0:
96,96,226953,2,0,L|176:96,1,64,2|0,0:0|0:0,0:0:0:0:
352,160,227130,2,0,L|416:160,2,64,0|2|0,3:0|0:0|0:0,0:0:0:0:
288,176,227394,1,0,0:0:0:0:
96,160,227483,2,0,P|32:208|128:256,1,192,10|0,3:1|0:0,0:0:0:0:
256,224,227836,6,0,L|256:96,1,128,2|0,3:1|0:0,0:0:0:0:
96,96,228101,2,0,L|240:96,1,128,2|0,0:0|0:0,0:0:0:0:
416,96,228365,2,0,L|336:96,1,64,2|0,0:0|0:0,0:0:0:0:
160,160,228542,2,0,L|96:160,1,64,0|2,3:0|0:0,0:0:0:0:
352,160,228718,2,0,L|416:160,1,64,0|0,0:0|0:0,0:0:0:0:
192,208,228894,2,0,L|352:208,1,128,10|0,3:1|0:0,0:0:0:0:
256,176,229159,1,0,0:0:0:0:
480,176,229247,6,0,P|464:240|400:272,1,128,2|0,3:1|0:0,0:0:0:0:
256,272,229512,2,0,L|112:272,1,128,2|0,0:0|0:0,0:0:0:0:
288,288,229777,2,0,L|416:288,1,128,2|0,0:0|3:0,0:0:0:0:
112,288,230041,2,0,L|48:288,1,64,2|0,0:0|0:0,0:0:0:0:
32,224,230218,1,0,0:0:0:0:
224,144,230306,2,0,P|288:192|192:240,1,192,10|0,3:1|0:0,0:0:0:0:
64,288,230659,6,0,L|208:288,1,128,2|0,3:1|0:0,0:0:0:0:
128,224,230924,2,0,L|272:224,1,128,2|0,0:0|0:0,0:0:0:0:
192,176,231189,2,0,L|336:176,1,128,2|0,0:0|3:0,0:0:0:0:
128,176,231453,2,0,L|48:176,2,64,2|0|0,0:0|0:0|0:0,0:0:0:0:
320,176,231718,2,0,L|176:176,1,128,10|0,3:1|0:0,0:0:0:0:
256,128,231983,1,0,0:0:0:0:
448,128,232071,6,0,P|480:192|416:224,1,128,2|0,3:1|0:0,0:0:0:0:
192,224,232336,2,0,L|336:224,1,128,2|0,0:0|0:0,0:0:0:0:
64,128,232600,2,0,P|32:192|96:224,1,128,2|0,0:0|3:0,0:0:0:0:
224,256,232865,2,0,L|288:256,2,64,2|0|0,0:0|0:0|0:0,0:0:0:0:
448,128,233130,2,0,P|480:192|384:240,1,192,10|0,3:1|0:0,0:0:0:0:
192,160,233483,6,0,L|336:160,1,128,2|0,3:1|0:0,0:0:0:0:
160,208,233747,2,0,L|16:208,1,128,2|0,0:0|0:0,0:0:0:0:
352,208,234012,2,0,L|496:208,1,128,2|0,0:0|3:0,0:0:0:0:
288,144,234277,2,0,L|192:144,2,64,2|0|0,0:0|0:0|0:0,0:0:0:0:
96,144,234541,2,0,P|32:160|112:208,1,192,10|0,3:1|0:0,0:0:0:0:
352,240,234894,6,0,L|496:240,1,128,2|0,3:1|0:0,0:0:0:0:
288,240,235159,2,0,P|352:224|384:144,1,128,2|0,0:0|0:0,0:0:0:0:
160,240,235424,2,0,L|16:240,1,128,2|0,0:0|3:0,0:0:0:0:
208,208,235689,1,2,0:0:0:0:
147,194,235777,1,0,0:0:0:0:
112,142,235865,1,0,0:0:0:0:
320,96,235953,2,0,L|192:96,1,128,14|0,3:1|0:0,0:0:0:0:
256,64,236218,1,0,0:0:0:0:
32,64,236306,6,0,P|64:128|144:144,1,128,4|0,3:1|0:0,0:0:0:0:
304,160,236571,2,0,L|144:160,1,128,0|0,0:0|0:0,0:0:0:0:
16,256,236836,2,0,L|176:256,1,128,0|0,0:0|0:0,0:0:0:0:
304,256,237100,2,0,P|272:320|192:336,1,128,0|0,0:0|0:0,0:0:0:0:
432,288,237365,6,0,P|480:224|416:128,1,192,8|0,0:0|0:0,0:0:0:0:
256,208,237718,6,0,L|128:208,1,128,6|0,3:1|0:0,0:0:0:0:
192,176,237983,1,2,0:0:0:0:
32,176,238071,2,0,L|16:112,1,64,10|0,3:1|0:0,0:0:0:0:
176,128,238247,2,0,L|176:64,1,64,2|0,0:0|0:0,0:0:0:0:
336,96,238424,2,0,L|432:96,1,64,0|2,3:0|0:0,0:0:0:0:
480,96,238600,2,0,L|384:96,1,64,0|0,0:0|0:0,0:0:0:0:
256,224,238777,2,0,L|96:224,1,128,10|0,3:1|0:0,0:0:0:0:
192,192,239041,1,0,0:0:0:0:
384,192,239130,5,2,3:1:0:0:
256,128,239306,2,0,L|192:128,1,64,0|2,0:0|0:0,0:0:0:0:
352,128,239483,1,10,3:1:0:0:
224,160,239659,1,2,0:0:0:0:
480,160,239836,2,0,L|480:224,1,64,0|2,3:0|0:0,0:0:0:0:
320,224,240012,2,0,L|320:288,1,64,2|0,0:0|0:0,0:0:0:0:
160,288,240189,2,0,L|32:288,1,128,10|0,0:0|0:0,0:0:0:0:
96,240,240453,1,0,0:0:0:0:
32,192,240541,6,0,L|176:192,1,128,2|0,3:1|0:0,0:0:0:0:
224,192,240806,1,2,0:0:0:0:
64,192,240894,2,0,L|64:128,1,64,10|0,3:1|0:0,0:0:0:0:
288,128,241071,2,0,L|224:128,1,64,2|0,0:0|0:0,0:0:0:0:
64,192,241247,2,0,L|64:256,1,64,0|2,3:0|0:0,0:0:0:0:
224,192,241424,2,0,L|304:192,1,64,0|0,0:0|0:0,0:0:0:0:
448,256,241600,2,0,L|272:256,1,128,10|0,3:1|0:0,0:0:0:0:
384,224,241865,1,0,0:0:0:0:
224,224,241953,6,0,L|336:224,1,64,2|0,3:1|0:0,0:0:0:0:
128,224,242130,2,0,L|128:160,1,64,0|2,0:0|0:0,0:0:0:0:
144,112,242306,2,0,L|208:112,1,64,10|0,3:1|0:0,0:0:0:0:
48,80,242483,2,0,L|128:80,1,64,2|0,0:0|0:0,0:0:0:0:
272,80,242659,6,0,L|288:144,1,64,0|2,3:0|0:0,0:0:0:0:
208,160,242836,2,0,L|208:240,1,64,2|0,0:0|0:0,0:0:0:0:
48,224,243012,1,10,3:1:0:0:
31,283,243100,1,0,0:0:0:0:
65,335,243188,1,0,0:0:0:0:
126,343,243276,1,0,0:0:0:0:
288,336,243365,6,0,L|432:336,1,128,2|0,3:1|0:0,0:0:0:0:
352,288,243630,1,2,0:0:0:0:
192,288,243718,2,0,L|176:224,1,64,10|0,3:1|0:0,0:0:0:0:
336,176,243894,2,0,L|256:176,1,64,2|0,0:0|0:0,0:0:0:0:
112,176,244071,2,0,L|192:176,3,64,0|2|0|0,3:0|0:0|0:0|0:0,0:0:0:0:
16,128,244424,2,0,L|160:128,1,128,10|0,3:1|0:0,0:0:0:0:
80,96,244689,1,0,0:0:0:0:
384,96,244777,6,0,L|256:96,1,128,2|0,3:1|0:0,0:0:0:0:
320,128,245041,1,2,0:0:0:0:
160,128,245130,2,0,L|144:192,1,64,10|0,3:1|0:0,0:0:0:0:
304,192,245306,2,0,L|304:256,1,64,2|0,0:0|0:0,0:0:0:0:
384,240,245483,2,0,L|400:304,1,64,0|2,3:0|0:0,0:0:0:0:
224,320,245659,2,0,L|384:320,1,128,2|2,0:0|0:0,0:0:0:0:
96,320,246012,2,0,L|160:320,1,64,0|0,0:0|0:0,0:0:0:0:
480,208,246189,6,0,L|352:208,1,128,6|0,3:1|0:0,0:0:0:0:
416,160,246453,1,2,0:0:0:0:
256,160,246541,2,0,L|240:224,1,64,2|0,0:0|0:0,0:0:0:0:
320,224,246718,2,0,L|320:288,1,64,2|0,0:0|0:0,0:0:0:0:
160,256,246894,6,0,L|144:320,1,64,8|0,0:0|0:0,0:0:0:0:
224,304,247071,2,0,L|224:368,1,64,2|0,3:1|0:0,0:0:0:0:
64,368,247247,1,2,3:1:0:0:
32,314,247335,1,0,0:0:0:0:
53,256,247423,1,0,3:0:0:0:
111,236,247511,1,0,3:0:0:0:
320,176,247600,6,0,L|176:176,1,128,2|8,3:1|0:0,0:0:0:0:
256,112,247865,1,2,3:1:0:0:
96,112,247953,2,0,L|160:112,1,64,0|8,0:0|0:0,0:0:0:0:
224,80,248130,2,0,L|144:80,1,64,2|0,3:1|0:0,0:0:0:0:
480,160,248306,2,0,L|416:160,1,64,8|0,0:0|0:0,0:0:0:0:
256,160,248483,2,0,L|320:160,1,64,8|0,0:0|0:0,0:0:0:0:
96,240,248659,6,0,L|240:240,1,128,2|0,0:0|0:0,0:0:0:0:
160,288,248924,1,0,2:0:0:0:
448,288,249012,6,0,P|480:224|432:96,1,192,0|0,0:0|0:0,0:0:0:0:
160,112,249365,6,0,L|224:112,1,64,14|0,3:1|0:0,0:0:0:0:
384,112,249541,2,0,L|304:112,1,64,2|0,0:0|0:0,0:0:0:0:
160,160,249718,2,0,L|144:224,1,64,0|2,3:0|0:0,0:0:0:0:
224,224,249894,2,0,L|224:288,1,64,0|0,0:0|0:0,0:0:0:0:
384,208,250071,2,0,L|400:272,1,64,10|0,3:1|0:0,0:0:0:0:
320,272,250247,2,0,L|320:336,1,64,0|0,0:0|0:0,0:0:0:0:
128,336,250424,6,0,L|272:336,1,128,2|0,3:1|0:0,0:0:0:0:
192,288,250689,1,2,0:0:0:0:
416,272,250777,2,0,L|336:272,1,64,10|0,3:1|0:0,0:0:0:0:
192,272,250953,2,0,L|256:272,1,64,2|0,0:0|0:0,0:0:0:0:
64,272,251130,2,0,L|80:208,1,64,0|2,3:0|0:0,0:0:0:0:
240,192,251306,2,0,L|304:192,1,64,0|0,0:0|0:0,0:0:0:0:
464,160,251483,2,0,L|320:160,1,128,10|0,3:1|0:0,0:0:0:0:
400,112,251747,1,0,0:0:0:0:
96,112,251836,6,0,L|240:112,1,128,2|0,3:1|0:0,0:0:0:0:
160,80,252100,1,2,0:0:0:0:
352,96,252189,2,0,L|256:96,1,64,0|2,0:0|0:0,0:0:0:0:
224,64,252365,2,0,L|288:64,1,64,2|0,0:0|0:0,0:0:0:0:
96,112,252541,2,0,L|80:176,1,64,0|2,3:0|0:0,0:0:0:0:
160,176,252718,2,0,L|176:240,1,64,2|0,0:0|0:0,0:0:0:0:
336,240,252894,2,0,L|448:240,1,64,10|0,3:1|0:0,0:0:0:0:
240,272,253071,2,0,L|160:272,1,64,0|0,0:0|0:0,0:0:0:0:
384,176,253247,6,0,L|240:176,1,128,2|0,3:1|0:0,0:0:0:0:
192,176,253512,1,2,0:0:0:0:
448,128,253600,2,0,L|304:128,1,128,0|2,0:0|0:0,0:0:0:0:
32,128,253953,2,0,L|112:128,1,64,0|2,3:0|0:0,0:0:0:0:
256,128,254130,2,0,L|272:192,1,64,2|0,0:0|0:0,0:0:0:0:
480,256,254306,2,0,L|272:256,1,192,2|0,0:1|0:0,0:0:0:0:
128,208,254659,5,8,3:1:0:0:
288,192,254836,2,0,L|208:192,1,64,0|0,3:0|3:0,0:0:0:0:
384,208,255012,1,8,0:0:0:0:
224,192,255189,2,0,L|304:192,1,64,0|0,3:0|3:0,0:0:0:0:
128,208,255365,1,8,0:0:0:0:
288,160,255541,2,0,L|208:160,1,64,0|0,3:0|3:0,0:0:0:0:
64,160,255718,1,8,0:0:0:0:
352,112,255894,2,0,L|272:112,1,64,0|0,3:0|3:0,0:0:0:0:
128,112,256071,5,8,0:0:0:0:
384,160,256247,2,0,L|464:160,1,64,0|0,3:0|3:0,0:0:0:0:
128,160,256424,1,8,0:0:0:0:
288,160,256600,2,0,L|384:160,1,64,0|0,3:0|3:0,0:0:0:0:
128,208,256777,2,0,L|208:208,1,64,8|0,0:0|0:0,0:0:0:0:
256,256,256953,2,0,L|192:256,1,64,0|0,3:0|3:0,0:0:0:0:
448,352,257130,2,0,L|256:352,1,192,8|0,0:0|3:0,0:0:0:0:
416,352,257483,6,0,L|400:288,1,64,12|0,3:1|3:0,0:0:0:0:
320,288,257659,2,0,L|304:224,1,64,0|0,3:0|3:0,0:0:0:0:
224,224,257836,2,0,L|208:160,1,64,8|0,3:1|3:0,0:0:0:0:
128,160,258012,2,0,L|112:96,1,64,0|0,3:0|3:0,0:0:0:0:
32,112,258189,6,0,L|16:48,1,64,12|0,3:1|0:0,0:0:0:0:
176,97,258365,2,0,L|112:97,1,64,0|0,3:0|3:0,0:0:0:0:
320,96,258541,2,0,L|240:96,1,64,8|0,3:1|3:0,0:0:0:0:
32,112,258718,2,0,L|16:48,1,64,0|0,3:0|3:0,0:0:0:0:
496,32,258894,6,0,L|368:32,1,128,0|0,3:0|0:0,0:0:0:0:
432,64,259159,1,0,0:0:0:0:
96,176,259247,1,0,0:0:0:0:
256,176,259424,1,2,0:1:0:0:
496,176,259600,5,0,0:0:0:0:
16,192,259777,1,0,3:0:0:0:
48,216,259835,1,0,3:0:0:0:
98,217,259894,1,0,3:0:0:0:
448,224,259953,6,0,P|416:176|304:160,1,160,8|0,3:2|0:0,0:0:0:0:
64,160,260306,6,0,L|32:160,7,32,6|2|2|2|2|2|2|0,3:1|0:0|0:0|0:0|0:0|0:0|0:0|0:0,0:0:0:0:
96,128,260659,2,0,L|16:128,1,64,8|0,0:0|0:0,0:0:0:0:
192,128,260836,2,0,L|128:128,1,64,0|0,0:0|0:0,0:0:0:0:
288,128,261012,6,0,L|304:192,1,64,2|0,0:0|0:0,0:0:0:0:
224,192,261189,2,0,L|224:256,1,64,0|0,3:0|0:0,0:0:0:0:
144,256,261365,2,0,L|128:320,1,64,8|0,0:0|0:0,0:0:0:0:
288,320,261541,2,0,L|400:320,1,64,2|0,0:0|0:0,0:0:0:0:
144,256,261718,6,0,L|128:192,1,64,0|0,3:0|0:0,0:0:0:0:
288,160,261894,2,0,L|192:160,3,64,2|0|8|0,0:0|0:0|0:0|0:0,0:0:0:0:
384,160,262247,2,0,L|368:96,1,64,2|0,0:0|0:0,0:0:0:0:
96,112,262424,6,0,P|32:128|16:176,1,96,2|0,0:0|2:0,0:0:0:0:
176,176,262600,2,0,L|176:239,1,64,0|0,3:0|0:0,0:0:0:0:
336,176,262777,2,0,L|336:256,1,64,8|0,0:0|0:0,0:0:0:0:
496,144,262953,2,0,P|465:108|418:105,1,96,0|0,0:0|2:0,0:0:0:0:
192,80,263130,6,0,L|320:80,1,128,0|0,3:0|0:0,0:0:0:0:
256,112,263394,1,2,2:1:0:0:
416,112,263483,2,0,L|432:176,1,64,10|0,0:0|0:0,0:0:0:0:
256,176,263659,2,0,L|256:256,1,64,0|0,0:0|0:0,0:0:0:0:
96,112,263836,6,0,L|80:176,1,64,2|0,0:0|0:0,0:0:0:0:
288,192,264012,2,0,L|208:192,1,64,2|0,3:1|0:0,0:0:0:0:
416,112,264189,2,0,L|432:176,1,64,8|0,0:0|0:0,0:0:0:0:
224,192,264365,2,0,L|304:192,1,64,2|0,0:0|0:0,0:0:0:0:
32,176,264541,6,0,L|48:240,1,64,0|0,0:0|0:0,0:0:0:0:
128,240,264718,2,0,L|144:304,1,64,2|0,0:0|0:0,0:0:0:0:
480,176,264894,2,0,L|464:240,1,64,8|0,0:0|0:0,0:0:0:0:
384,240,265071,2,0,L|368:304,1,64,2|0,0:0|3:0,0:0:0:0:
192,256,265247,6,0,L|320:256,1,128,0|0,0:0|3:0,0:0:0:0:
256,224,265512,1,0,0:0:0:0:
416,224,265600,1,10,0:0:0:0:
471,198,265688,1,0,0:0:0:0:
472,138,265776,1,0,0:0:0:0:
417,111,265864,1,0,0:0:0:0:
176,112,265953,6,0,L|144:112,7,32,6|2|2|2|2|2|2|0,3:1|0:0|0:0|0:0|0:0|0:0|0:0|0:0,0:0:0:0:
208,112,266306,2,0,L|224:176,1,64,8|0,0:0|0:0,0:0:0:0:
64,208,266483,2,0,L|160:208,1,64,0|0,0:0|0:0,0:0:0:0:
208,208,266659,6,0,L|192:272,1,64,2|0,0:0|0:0,0:0:0:0:
352,272,266836,2,0,L|288:272,1,64,0|0,3:0|0:0,0:0:0:0:
32,272,267012,2,0,L|160:272,1,128,8|2,0:0|0:0,0:0:0:0:
96,224,267277,1,0,0:0:0:0:
288,224,267365,6,0,L|352:224,1,64,0|0,3:0|0:0,0:0:0:0:
192,224,267541,2,0,L|192:160,1,64,2|0,0:0|0:0,0:0:0:0:
96,160,267718,2,0,L|16:160,1,64,8|0,0:0|0:0,0:0:0:0:
192,160,267894,2,0,L|192:96,1,64,2|0,0:0|0:0,0:0:0:0:
352,96,268071,6,0,L|208:96,1,128,2|0,0:0|3:0,0:0:0:0:
288,128,268336,1,0,0:0:0:0:
96,128,268424,2,0,P|32:176|96:240,1,192,8|0,0:0|0:0,0:0:0:0:
288,240,268777,5,6,3:1:0:0:
128,208,268953,2,0,L|192:208,1,64,0|2,0:0|0:0,0:0:0:0:
352,208,269130,2,0,L|288:208,1,64,10|0,0:0|0:0,0:0:0:0:
448,208,269306,2,0,L|464:272,1,64,2|0,0:0|0:0,0:0:0:0:
224,256,269483,6,0,L|208:320,1,64,0|2,0:0|0:0,0:0:0:0:
288,288,269659,2,0,L|288:352,1,64,2|0,3:1|0:0,0:0:0:0:
448,256,269836,2,0,L|464:320,1,64,10|0,0:0|0:0,0:0:0:0:
384,288,270012,2,0,L|384:352,1,64,0|0,0:0|0:0,0:0:0:0:
160,208,270189,6,0,L|288:208,1,128,2|0,3:1|0:0,0:0:0:0:
224,176,270453,1,2,0:0:0:0:
64,176,270541,2,0,L|48:240,1,64,10|0,0:0|0:0,0:0:0:0:
288,176,270718,2,0,L|304:240,1,64,2|0,0:0|3:0,0:0:0:0:
128,240,270894,5,0,0:0:0:0:
111,299,270982,1,0,0:0:0:0:
145,351,271070,1,2,3:1:0:0:
206,359,271158,1,0,0:0:0:0:
288,224,271247,2,0,P|224:272|288:336,1,192,10|0,0:0|0:0,0:0:0:0:
448,336,271600,6,0,L|480:336,7,32,6|2|2|2|2|2|2|0,3:1|0:0|0:0|0:0|0:0|0:0|0:0|0:0,0:0:0:0:
416,336,271953,2,0,L|496:336,1,64,8|0,0:0|0:0,0:0:0:0:
320,304,272130,2,0,L|400:304,1,64
208,304,272306,6,0,L|192:240,1,64,2|0,0:0|0:0,0:0:0:0:
112,240,272483,2,0,L|96:304,1,64,0|0,3:0|0:0,0:0:0:0:
288,304,272659,2,0,L|224:304,1,64,8|0,0:0|0:0,0:0:0:0:
416,256,272836,2,0,L|432:192,1,64,2|0,0:0|0:0,0:0:0:0:
256,128,273012,6,0,L|320:128,3,64,0|0|2|0,3:0|0:0|0:0|0:0,0:0:0:0:
128,128,273365,2,0,L|192:128,3,64,8|0|2|0,0:0|0:0|0:0|0:0,0:0:0:0:
32,128,273718,6,0,P|48:176|112:192,1,96,2|0,0:0|2:0,0:0:0:0:
352,144,273894,2,0,P|338:188|304:208,1,64,0|0,3:0|0:0,0:0:0:0:
160,144,274071,2,0,P|173:188|208:208,1,64,8|0,0:0|0:0,0:0:0:0:
480,128,274247,2,0,P|464:176|400:192,1,96,0|0,0:0|2:0,0:0:0:0:
256,192,274424,6,0,L|112:192,1,128,4|0,3:1|0:0,0:0:0:0:
192,160,274689,1,2,2:1:0:0:
384,160,274777,2,0,L|400:224,1,64,10|0,0:0|0:0,0:0:0:0:
224,256,274953,2,0,L|304:256,1,64,0|0,0:0|0:0,0:0:0:0:
112,240,275130,6,0,L|96:176,1,64,2|0,0:0|0:0,0:0:0:0:
176,160,275306,2,0,L|176:96,1,64,2|0,3:1|0:0,0:0:0:0:
336,128,275483,2,0,L|352:64,1,64,8|0,0:0|0:0,0:0:0:0:
112,240,275659,2,0,L|96:176,1,64,2|0,0:1|0:0,0:0:0:0:
288,144,275836,6,0,L|208:144,1,64,0|0,3:0|0:0,0:0:0:0:
144,144,276012,2,0,L|144:208,1,64,2|0,0:0|0:0,0:0:0:0:
304,208,276189,2,0,L|368:208,1,64,8|0,0:0|0:0,0:0:0:0:
208,256,276365,2,0,L|128:256,1,64,2|0,0:0|3:0,0:0:0:0:
368,240,276541,6,0,L|384:176,1,64,0|0,0:0|0:0,0:0:0:0:
224,176,276718,6,0,L|224:112,1,64,0|0,3:0|3:0,0:0:0:0:
32,160,276894,6,0,P|48:224|160:272,1,192,8|0,0:2|0:0,0:0:0:0:
352,272,277247,6,0,L|384:272,7,32,6|2|2|2|2|2|2|0,3:1|0:0|0:0|0:0|0:0|0:0|0:0|0:0,0:0:0:0:
320,272,277600,2,0,L|256:272,1,64,8|0,0:0|0:0,0:0:0:0:
448,272,277777,2,0,L|368:272,1,64,0|0,0:0|0:0,0:0:0:0:
192,272,277953,6,0,L|176:208,1,64,2|0,0:0|0:0,0:0:0:0:
256,208,278130,2,0,L|256:144,1,64,0|0,3:0|0:0,0:0:0:0:
96,144,278306,2,0,L|112:80,1,64,8|0,0:0|0:0,0:0:0:0:
32,80,278483,2,0,L|32:160,1,64,2|0,0:0|0:0,0:0:0:0:
96,192,278659,6,0,L|16:192,1,64,0|0,3:0|0:0,0:0:0:0:
192,192,278836,2,0,L|192:256,1,64,2|0,0:0|0:0,0:0:0:0:
128,272,279012,2,0,L|192:272,1,64,8|0,0:0|0:0,0:0:0:0:
352,272,279189,2,0,L|352:336,1,64,2|0,0:0|0:0,0:0:0:0:
192,336,279365,6,0,P|176:272|208:256,1,96,2|0,0:0|2:0,0:0:0:0:
352,208,279541,2,0,L|288:208,1,64,0|0,3:0|0:0,0:0:0:0:
32,208,279718,2,0,L|96:208,1,64,8|0,0:0|2:0,0:0:0:0:
192,192,279894,2,0,P|208:128|176:112,1,96,0|0,0:0|2:0,0:0:0:0:
32,80,280071,6,0,L|176:80,1,128,6|0,3:1|0:0,0:0:0:0:
256,80,280336,1,2,0:0:0:0:
480,80,280424,2,0,L|400:80,1,64,10|0,0:0|0:0,0:0:0:0:
256,112,280600,2,0,L|256:192,1,64,2|0,0:0|0:0,0:0:0:0:
32,176,280777,6,0,L|96:176,3,64,0|2|2|0,0:0|0:0|3:1|0:0,0:0:0:0:
256,176,281130,2,0,L|256:256,1,64,10|0,0:0|0:0,0:0:0:0:
32,240,281306,2,0,L|96:240,1,64,0|0,0:0|0:0,0:0:0:0:
352,224,281483,6,0,L|160:224,1,192,4|0,3:1|0:0,0:0:0:0:
480,160,281836,2,0,L|336:160,1,128,0|2,0:0|0:1,0:0:0:0:
32,224,282189,6,0,P|96:192|32:128,1,192,0|0,0:0|0:0,0:0:0:0:
336,112,282541,6,0,L|176:112,1,160,8|0,0:0|0:0,0:0:0:0:
480,192,282894,6,0,L|368:192,1,80,4|0,3:1|0:0,0:0:0:0:
256,192,283247,2,0,L|336:192,1,80,0|0,0:0|0:0,0:0:0:0:
208,192,283600,2,0,L|192:272,1,80,8|0,0:0|0:0,0:0:0:0:
336,272,283953,2,0,L|352:352,1,80
112,352,284306,5,0,3:0:0:0:
78,283,284482,1,0,0:0:0:0:
117,217,284658,1,0,3:0:0:0:
194,215,284835,1,0,0:0:0:0:
48,176,285012,2,0,L|144:176,1,80,8|0,0:0|0:0,0:0:0:0:
256,176,285365,2,0,L|176:176,1,80,0|0,0:0|0:0,0:0:0:0:
320,176,285718,6,0,P|384:192|416:288,1,160,0|0,3:0|0:0,0:0:0:0:
288,272,286247,1,0,0:0:0:0:
419,272,286424,2,0,P|393:199|320:176,1,160,8|0,0:0|0:0,0:0:0:0:
448,176,286953,1,0,0:0:0:0:
288,176,287130,6,0,L|176:176,1,80,0|0,3:0|0:0,0:0:0:0:
160,176,287394,2,0,P|128:224|144:272,1,80,0|0,3:0|0:0,0:0:0:0:
176,240,287659,2,0,L|272:240,1,80,0|8,3:0|0:0,0:0:0:0:
112,240,288012,1,0,0:0:0:0:
368,240,288189,2,0,L|272:240,1,80,0|8,3:0|0:0,0:0:0:0:
160,240,288541,5,0,3:0:0:0:
400,240,288718,2,0,L|384:192,1,40,0|0,0:0|0:0,0:0:0:0:
320,192,288894,2,0,L|304:144,1,40,0|0,0:0|0:0,0:0:0:0:
240,160,289071,2,0,L|224:112,1,40,0|0,0:0|0:0,0:0:0:0:
288,96,289247,2,0,L|192:96,1,80,8|0,0:0|0:0,0:0:0:0:
80,96,289600,2,0,L|160:96,1,80,0|0,0:0|0:0,0:0:0:0:
288,128,289953,5,0,3:0:0:0:
160,128,290130,2,0,L|144:176,1,40,0|0,0:0|0:0,0:0:0:0:
208,160,290306,2,0,L|192:208,1,40,0|0,3:0|0:0,0:0:0:0:
256,208,290483,1,0,0:0:0:0:
128,208,290659,2,0,L|32:208,1,80,8|0,0:0|0:0,0:0:0:0:
176,208,291012,1,0,0:0:0:0:
48,208,291189,1,0,0:0:0:0:
288,256,291365,6,0,L|384:256,1,80,0|0,3:0|0:0,0:0:0:0:
224,256,291718,2,0,L|208:336,1,80,0|0,0:0|0:0,0:0:0:0:
368,336,292071,2,0,L|240:336,1,120,8|0,0:0|0:0,0:0:0:0:
320,304,292424,2,0,L|416:304,1,80,0|0,0:0|0:0,0:0:0:0:
256,256,292777,6,0,P|256:208|336:208,2,120,0|0|0,3:0|3:0|3:0,0:0:0:0:
384,240,293483,2,0,L|288:240,1,80,8|0,0:0|0:0,0:0:0:0:
32,240,293836,1,8,0:1:0:0:
256,192,294189,6,0,L|368:192,1,80,4|0,3:1|0:0,0:0:0:0:
176,192,294542,1,8,0:0:0:0:
336,192,294718,2,0,L|352:240,2,40,0|0|8,0:0|0:0|1:2,0:0:0:0:
176,160,295071,1,0,0:0:0:0:
416,160,295247,2,0,L|304:160,1,80,8|0,0:0|0:0,0:0:0:0:
176,112,295600,6,0,L|256:112,1,80,8|0,3:2|0:0,0:0:0:0:
96,112,295953,2,0,L|80:192,1,80,8|0,3:2|0:0,0:0:0:0:
336,176,296306,1,8,1:2:0:0:
176,176,296483,2,0,L|160:224,2,40,0|0|8,0:0|0:0|0:0,0:0:0:0:
256,192,296836,1,0,0:0:0:0:
496,208,297012,6,0,L|416:208,1,80,8|0,3:2|0:0,0:0:0:0:
256,208,297365,2,0,L|336:208,1,80,8|0,0:0|0:0,0:0:0:0:
16,208,297718,2,0,L|96:208,1,80,8|0,1:2|0:0,0:0:0:0:
112,176,297983,1,0,0:0:0:0:
128,144,298071,1,8,0:0:0:0:
48,112,298247,1,0,0:0:0:0:
336,112,298424,6,0,L|448:112,1,80,8|0,3:2|0:0,0:0:0:0:
256,112,298777,2,0,L|144:112,1,80,8|0,0:0|3:0,0:0:0:0:
160,64,299042,1,0,0:0:0:0:
80,32,299130,2,0,L|160:32,1,80,8|0,1:2|0:0,0:0:0:0:
432,32,299483,2,0,L|352:32,2,80,8|0|0,3:2|1:0|3:0,0:0:0:0:
128,32,300012,6,0,L|112:80,1,40,0|0,0:0|0:0,0:0:0:0:
176,80,300189,1,8,0:0:0:0:
16,80,300365,1,0,0:0:0:0:
176,112,300542,2,0,L|96:112,1,80,8|0,1:2|0:0,0:0:0:0:
256,112,300894,2,0,L|336:112,1,80,8|0,0:0|0:0,0:0:0:0:
176,176,301247,5,8,3:2:0:0:
336,176,301424,2,0,L|320:224,1,40,0|0,0:0|0:0,0:0:0:0:
384,224,301600,1,8,3:2:0:0:
224,224,301777,1,0,0:0:0:0:
384,256,301953,2,0,L|480:256,1,80,8|0,1:2|0:0,0:0:0:0:
304,256,302306,2,0,L|208:256,1,80,8|0,0:0|0:0,0:0:0:0:
384,224,302659,5,8,3:2:0:0:
224,176,302836,2,0,L|320:176,1,80,0|8,0:0|0:0,0:0:0:0:
144,176,303189,1,0,0:0:0:0:
304,128,303365,2,0,L|224:128,1,80,8|0,1:2|0:0,0:0:0:0:
384,160,303718,1,8,0:0:0:0:
224,176,303894,1,0,0:0:0:0:
64,176,304071,6,0,L|80:272,1,80,0|0,3:0|0:0,0:0:0:0:
208,256,304424,2,0,L|192:336,1,80,0|0,0:0|0:0,0:0:0:0:
448,176,304777,2,0,L|432:272,1,80,0|0,0:0|0:0,0:0:0:0:
304,256,305130,2,0,L|320:336,1,80,0|0,0:0|0:0,0:0:0:0:
