osu file format v14

[General]
AudioFilename: audio.mp3
AudioLeadIn: 0
PreviewTime: 98425
Countdown: 1
SampleSet: Soft
StackLeniency: 0.7
Mode: 1
LetterboxInBreaks: 0
WidescreenStoryboard: 0

[Editor]
DistanceSpacing: 1.1
BeatDivisor: 4
GridSize: 8
TimelineZoom: 3.799999

[Metadata]
Title:#MAGiCVLGiRL_TRVP_B3VTZ
TitleUnicode:#MAGiCVLGiRL_TRVP_B3VTZ
Artist:DJ Noriken
ArtistUnicode:DJ Noriken
Creator:MMzz
Version:Inner Oni
Source:beatmania IIDX
Tags:24 SINOBUZ NEON/TWERKCORE
BeatmapID:1199592
BeatmapSetID:566279

[Difficulty]
HPDrainRate:6
CircleSize:5
OverallDifficulty:6
ApproachRate:5
SliderMultiplier:1.4
SliderTickRate:1

[Events]
//Background and Video events
0,0,"bdfzdczvb.jpg",0,0
//Break Periods
//Storyboard Layer 0 (Background)
//Storyboard Layer 1 (Fail)
//Storyboard Layer 2 (Pass)
//Storyboard Layer 3 (Foreground)
//Storyboard Sound Samples

[TimingPoints]
2425,300,4,1,0,85,1,0
21625,-95.2380952380952,4,1,0,85,0,0
24025,-90.9090909090909,4,1,0,85,0,0
26425,-86.9565217391304,4,1,0,85,0,0
28825,-83.3333333333333,4,1,0,85,0,0
30625,-90.9090909090909,4,1,0,85,0,0
31225,-100,4,1,0,85,0,0
42025,-83.3333333333333,4,1,0,85,0,1
50425,-111.111111111111,4,1,0,85,0,0
60625,-100,4,1,0,85,0,0
69625,-95.2380952380952,4,1,0,85,0,0
72025,-90.9090909090909,4,1,0,85,0,0
74425,-86.9565217391304,4,1,0,85,0,0
76825,-83.3333333333333,4,1,0,85,0,0
79225,-80,4,1,0,85,0,1
86425,-86.9565217391304,4,1,0,85,0,1
88825,-90.9090909090909,4,1,0,85,0,0
89125,-80,4,1,0,85,0,1
91225,-76.9230769230769,4,1,0,85,0,1
93625,-74.0740740740741,4,1,0,85,0,1
96025,-71.4285714285714,4,1,0,85,0,1
97225,-71.4285714285714,4,1,0,85,0,0
97825,-76.9230769230769,4,1,0,85,0,0
98425,-83.3333333333333,4,1,0,85,0,1
108025,-95.2380952380952,4,1,0,85,0,0
108325,-83.3333333333333,4,1,0,85,0,1
117025,-90.9090909090909,4,1,0,85,0,1
117625,-100,4,2,0,85,0,0

[HitObjects]
240,112,2425,5,8,0:0:0:0:
240,112,2575,1,8,0:0:0:0:
176,152,2725,1,0,0:0:0:0:
176,152,2875,1,0,0:0:0:0:
96,144,3025,1,8,0:0:0:0:
248,128,3325,1,8,0:0:0:0:
168,136,3475,1,0,0:0:0:0:
168,136,3775,1,8,0:0:0:0:
168,136,3925,1,0,0:0:0:0:
168,136,4075,1,0,0:0:0:0:
168,136,4225,1,8,0:0:0:0:
168,136,4375,1,0,0:0:0:0:
168,136,4525,1,8,0:0:0:0:
168,136,4825,1,8,0:0:0:0:
184,64,4975,1,8,0:0:0:0:
184,64,5125,1,0,0:0:0:0:
184,64,5275,1,0,0:0:0:0:
184,64,5425,1,8,0:0:0:0:
184,64,5575,1,8,0:0:0:0:
184,64,5725,1,0,0:0:0:0:
184,64,5875,1,8,0:0:0:0:
184,64,6175,1,8,0:0:0:0:
184,64,6325,1,8,0:0:0:0:
184,64,6475,1,0,0:0:0:0:
192,216,6775,1,8,0:0:0:0:
184,136,6925,1,0,0:0:0:0:
184,136,7225,1,8,0:0:0:0:
184,136,7375,1,8,0:0:0:0:
184,136,7525,1,0,0:0:0:0:
184,136,7675,1,0,0:0:0:0:
184,136,7825,1,8,0:0:0:0:
184,136,8125,1,8,0:0:0:0:
200,128,8425,1,8,0:0:0:0:
184,136,8575,1,8,0:0:0:0:
184,136,8725,1,0,0:0:0:0:
184,136,8875,1,0,0:0:0:0:
184,136,9025,1,8,0:0:0:0:
184,136,9325,1,8,0:0:0:0:
184,136,9625,1,8,0:0:0:0:
184,136,9775,1,8,0:0:0:0:
184,136,9925,1,0,0:0:0:0:
184,136,10075,1,0,0:0:0:0:
184,136,10225,1,8,0:0:0:0:
184,136,10525,1,8,0:0:0:0:
184,136,10675,1,0,0:0:0:0:
184,136,10975,1,8,0:0:0:0:
184,136,11125,1,0,0:0:0:0:
184,136,11275,1,0,0:0:0:0:
184,136,11425,1,8,0:0:0:0:
184,136,11575,1,8,0:0:0:0:
264,128,11725,1,0,0:0:0:0:
264,128,11825,1,0,0:0:0:0:
264,128,11925,1,0,0:0:0:0:
264,128,12025,1,4,0:0:0:0:
112,168,12325,1,0,0:0:0:0:
184,152,12475,1,0,0:0:0:0:
184,152,12625,1,8,0:0:0:0:
232,96,12775,1,0,0:0:0:0:
208,120,12850,1,0,0:0:0:0:
184,152,12925,1,0,0:0:0:0:
208,120,13075,1,8,0:0:0:0:
208,112,13225,1,0,0:0:0:0:
160,168,13375,1,8,0:0:0:0:
184,136,13450,1,8,0:0:0:0:
208,112,13525,1,0,0:0:0:0:
136,144,13675,1,0,0:0:0:0:
64,176,13825,1,8,0:0:0:0:
136,160,13975,1,0,0:0:0:0:
136,160,14125,1,0,0:0:0:0:
136,160,14200,1,0,0:0:0:0:
136,160,14275,1,8,0:0:0:0:
136,160,14350,1,8,0:0:0:0:
240,112,14425,1,0,0:0:0:0:
168,144,14725,1,0,0:0:0:0:
168,144,14875,1,0,0:0:0:0:
168,144,15025,1,8,0:0:0:0:
168,144,15175,1,0,0:0:0:0:
168,144,15250,1,0,0:0:0:0:
168,144,15325,1,0,0:0:0:0:
168,144,15475,1,8,0:0:0:0:
224,136,15625,1,0,0:0:0:0:
168,144,15775,1,8,0:0:0:0:
168,144,15850,1,8,0:0:0:0:
224,136,15925,1,0,0:0:0:0:
168,144,16075,1,0,0:0:0:0:
112,192,16225,1,8,0:0:0:0:
168,136,16375,1,0,0:0:0:0:
144,160,16450,1,0,0:0:0:0:
184,152,16525,1,8,0:0:0:0:
144,152,16600,1,0,0:0:0:0:
104,144,16675,1,8,0:0:0:0:
224,136,16825,1,4,0:0:0:0:
224,136,16975,1,8,0:0:0:0:
224,136,17050,1,8,0:0:0:0:
224,136,17125,1,8,0:0:0:0:
224,136,17275,1,8,0:0:0:0:
224,136,17425,1,8,0:0:0:0:
224,136,17500,1,8,0:0:0:0:
224,136,17575,1,0,0:0:0:0:
224,136,17725,1,8,0:0:0:0:
224,136,17875,1,8,0:0:0:0:
224,136,18025,1,4,0:0:0:0:
224,136,18175,1,8,0:0:0:0:
224,136,18250,1,8,0:0:0:0:
224,136,18325,1,0,0:0:0:0:
224,136,18475,1,8,0:0:0:0:
224,136,18625,1,8,0:0:0:0:
224,136,18700,1,8,0:0:0:0:
224,136,18775,1,0,0:0:0:0:
224,136,18925,1,8,0:0:0:0:
224,136,19000,1,0,0:0:0:0:
224,136,19075,1,8,0:0:0:0:
208,144,19225,1,0,0:0:0:0:
248,144,19300,1,0,0:0:0:0:
248,144,19375,1,8,0:0:0:0:
248,144,19450,1,8,0:0:0:0:
248,144,19525,1,8,0:0:0:0:
248,144,19600,1,8,0:0:0:0:
248,144,19675,1,0,0:0:0:0:
248,144,19750,1,0,0:0:0:0:
248,144,19825,1,8,0:0:0:0:
248,144,19900,1,8,0:0:0:0:
248,144,19975,1,0,0:0:0:0:
248,144,20050,1,8,0:0:0:0:
248,144,20125,1,0,0:0:0:0:
248,144,20200,1,8,0:0:0:0:
248,144,20275,1,8,0:0:0:0:
248,144,20350,1,8,0:0:0:0:
208,144,20425,1,0,0:0:0:0:
208,144,21025,1,12,0:0:0:0:
208,144,21325,1,12,0:0:0:0:
208,144,21625,1,0,0:0:0:0:
208,144,21700,1,0,0:0:0:0:
208,144,21775,1,0,0:0:0:0:
200,64,21925,1,8,0:0:0:0:
208,144,22075,1,8,0:0:0:0:
192,72,22225,1,0,0:0:0:0:
200,112,22300,1,0,0:0:0:0:
200,112,22375,1,8,0:0:0:0:
200,112,22525,1,8,0:0:0:0:
200,112,22675,1,0,0:0:0:0:
200,112,22750,1,0,0:0:0:0:
200,112,22825,1,8,0:0:0:0:
200,112,22975,1,8,0:0:0:0:
200,112,23050,1,0,0:0:0:0:
200,112,23125,1,8,0:0:0:0:
200,112,23275,1,8,0:0:0:0:
200,112,23425,1,8,0:0:0:0:
168,136,23500,1,8,0:0:0:0:
200,112,23575,1,0,0:0:0:0:
200,112,23650,1,0,0:0:0:0:
200,112,23725,1,8,0:0:0:0:
200,112,23875,1,8,0:0:0:0:
208,144,24025,1,0,0:0:0:0:
208,144,24100,1,0,0:0:0:0:
208,144,24175,1,0,0:0:0:0:
208,144,24325,1,8,0:0:0:0:
208,144,24475,1,8,0:0:0:0:
208,144,24625,1,0,0:0:0:0:
208,144,24700,1,0,0:0:0:0:
208,144,24775,1,8,0:0:0:0:
208,144,24925,1,8,0:0:0:0:
208,144,25075,1,0,0:0:0:0:
208,144,25150,1,0,0:0:0:0:
208,144,25225,1,8,0:0:0:0:
208,144,25375,1,8,0:0:0:0:
208,144,25450,1,0,0:0:0:0:
208,144,25525,1,8,0:0:0:0:
208,144,25675,1,8,0:0:0:0:
208,144,25825,1,8,0:0:0:0:
208,144,25900,1,8,0:0:0:0:
208,144,25975,1,0,0:0:0:0:
208,144,26050,1,8,0:0:0:0:
208,144,26125,1,0,0:0:0:0:
208,144,26275,1,0,0:0:0:0:
272,184,26425,1,0,0:0:0:0:
272,184,26500,1,0,0:0:0:0:
272,184,26575,1,0,0:0:0:0:
272,184,26650,1,0,0:0:0:0:
272,184,26725,1,8,0:0:0:0:
272,184,26875,1,8,0:0:0:0:
272,184,27025,1,0,0:0:0:0:
272,184,27100,1,0,0:0:0:0:
272,184,27175,1,8,0:0:0:0:
272,184,27325,1,8,0:0:0:0:
272,184,27400,1,0,0:0:0:0:
272,184,27475,1,0,0:0:0:0:
272,184,27550,1,0,0:0:0:0:
272,184,27625,1,8,0:0:0:0:
272,184,27775,1,8,0:0:0:0:
272,184,27850,1,0,0:0:0:0:
272,184,27925,1,8,0:0:0:0:
232,176,28000,1,8,0:0:0:0:
272,184,28075,1,0,0:0:0:0:
248,184,28225,1,8,0:0:0:0:
248,184,28300,1,8,0:0:0:0:
248,184,28375,1,0,0:0:0:0:
248,184,28450,1,0,0:0:0:0:
248,184,28525,1,8,0:0:0:0:
248,184,28675,1,8,0:0:0:0:
248,184,28825,1,0,0:0:0:0:
248,184,28900,1,0,0:0:0:0:
248,184,28975,1,8,0:0:0:0:
248,184,29050,1,8,0:0:0:0:
248,184,29125,1,8,0:0:0:0:
248,184,29200,1,8,0:0:0:0:
248,184,29275,1,8,0:0:0:0:
248,184,29350,1,8,0:0:0:0:
248,184,29425,1,0,0:0:0:0:
208,176,29500,1,0,0:0:0:0:
168,168,29575,1,8,0:0:0:0:
168,168,29650,1,0,0:0:0:0:
168,168,29725,1,8,0:0:0:0:
168,168,29800,1,8,0:0:0:0:
168,168,29875,1,8,0:0:0:0:
168,168,29950,1,8,0:0:0:0:
248,184,30025,1,0,0:0:0:0:
248,184,30625,1,0,0:0:0:0:
248,184,30775,1,0,0:0:0:0:
248,184,30925,1,12,0:0:0:0:
248,184,31225,1,4,0:0:0:0:
248,184,31525,1,8,0:0:0:0:
248,184,31675,1,0,0:0:0:0:
248,184,31825,1,8,0:0:0:0:
248,184,31975,1,8,0:0:0:0:
248,184,32125,1,0,0:0:0:0:
248,184,32275,1,8,0:0:0:0:
248,184,32350,1,8,0:0:0:0:
248,184,32425,1,0,0:0:0:0:
248,184,32575,1,8,0:0:0:0:
248,184,32725,1,8,0:0:0:0:
248,184,32875,1,0,0:0:0:0:
248,184,32950,1,0,0:0:0:0:
248,184,33025,1,0,0:0:0:0:
248,184,33175,1,0,0:0:0:0:
248,184,33325,1,8,0:0:0:0:
96,184,33625,1,0,0:0:0:0:
248,184,33925,1,8,0:0:0:0:
168,184,34075,1,0,0:0:0:0:
168,184,34225,1,8,0:0:0:0:
168,184,34375,1,8,0:0:0:0:
168,184,34525,1,0,0:0:0:0:
168,184,34675,1,8,0:0:0:0:
168,184,34750,1,8,0:0:0:0:
168,184,34825,1,0,0:0:0:0:
168,184,34975,1,0,0:0:0:0:
168,184,35125,1,8,0:0:0:0:
168,184,35275,1,0,0:0:0:0:
168,184,35425,1,8,0:0:0:0:
168,184,35500,1,0,0:0:0:0:
168,184,35575,1,8,0:0:0:0:
168,184,35725,1,12,0:0:0:0:
168,184,36025,1,4,0:0:0:0:
168,184,36325,1,8,0:0:0:0:
168,184,36475,1,0,0:0:0:0:
168,184,36625,1,8,0:0:0:0:
168,184,36775,1,8,0:0:0:0:
168,184,36925,1,0,0:0:0:0:
168,184,37075,1,8,0:0:0:0:
168,184,37150,1,8,0:0:0:0:
168,184,37225,1,0,0:0:0:0:
168,184,37375,1,8,0:0:0:0:
168,184,37525,1,8,0:0:0:0:
168,184,37675,1,0,0:0:0:0:
168,184,37750,1,0,0:0:0:0:
168,184,37825,1,0,0:0:0:0:
168,184,37975,1,0,0:0:0:0:
168,184,38125,1,8,0:0:0:0:
168,184,38425,1,0,0:0:0:0:
240,208,38575,1,8,0:0:0:0:
200,200,38650,1,8,0:0:0:0:
200,200,38725,1,8,0:0:0:0:
168,184,38875,1,0,0:0:0:0:
168,184,39025,1,0,0:0:0:0:
200,160,39100,1,0,0:0:0:0:
200,160,39175,1,8,0:0:0:0:
168,184,39325,1,0,0:0:0:0:
144,152,39475,1,8,0:0:0:0:
208,32,39625,1,8,0:0:0:0:
200,72,39700,1,8,0:0:0:0:
168,184,39775,1,0,0:0:0:0:
176,144,39850,1,8,0:0:0:0:
168,184,39925,1,0,0:0:0:0:
128,120,40075,1,8,0:0:0:0:
144,152,40150,1,0,0:0:0:0:
296,96,40225,1,8,0:0:0:0:
240,136,40375,1,0,0:0:0:0:
176,176,40525,1,12,0:0:0:0:
32,128,40825,1,4,0:0:0:0:
320,232,41425,1,0,0:0:0:0:
280,216,41500,1,0,0:0:0:0:
240,200,41575,1,0,0:0:0:0:
200,184,41650,1,0,0:0:0:0:
160,168,41725,1,8,0:0:0:0:
312,160,42025,1,12,0:0:0:0:
232,160,42175,1,8,0:0:0:0:
192,160,42250,1,8,0:0:0:0:
192,160,42325,1,0,0:0:0:0:
192,160,42475,1,8,0:0:0:0:
192,160,42625,1,0,0:0:0:0:
192,160,42700,1,0,0:0:0:0:
192,160,42775,1,0,0:0:0:0:
192,160,42925,1,8,0:0:0:0:
192,160,43225,1,0,0:0:0:0:
160,136,43300,1,0,0:0:0:0:
160,136,43375,1,0,0:0:0:0:
192,160,43525,1,8,0:0:0:0:
192,160,43675,1,0,0:0:0:0:
152,168,43750,1,0,0:0:0:0:
192,160,43825,1,8,0:0:0:0:
192,160,43975,1,8,0:0:0:0:
192,160,44125,1,0,0:0:0:0:
160,136,44200,1,0,0:0:0:0:
112,168,44275,1,8,0:0:0:0:
152,168,44350,1,8,0:0:0:0:
192,160,44425,1,0,0:0:0:0:
112,168,44575,1,8,0:0:0:0:
160,136,44650,1,0,0:0:0:0:
192,168,44725,1,8,0:0:0:0:
192,160,44875,1,0,0:0:0:0:
192,160,45025,1,8,0:0:0:0:
192,160,45100,1,0,0:0:0:0:
192,160,45175,1,8,0:0:0:0:
192,160,45250,1,0,0:0:0:0:
192,160,45325,1,8,0:0:0:0:
32,144,45625,1,0,0:0:0:0:
104,112,45775,1,8,0:0:0:0:
136,88,45850,1,8,0:0:0:0:
136,88,45925,1,8,0:0:0:0:
248,168,46075,1,0,0:0:0:0:
184,120,46225,1,0,0:0:0:0:
152,96,46300,1,0,0:0:0:0:
136,88,46375,1,8,0:0:0:0:
136,88,46450,1,8,0:0:0:0:
32,136,46525,1,0,0:0:0:0:
88,88,46675,1,8,0:0:0:0:
120,64,46750,1,8,0:0:0:0:
176,160,46825,1,0,0:0:0:0:
120,64,46975,1,8,0:0:0:0:
120,64,47050,1,8,0:0:0:0:
120,64,47125,1,8,0:0:0:0:
152,152,47275,1,0,0:0:0:0:
80,176,47425,1,8,0:0:0:0:
120,160,47500,1,0,0:0:0:0:
120,160,47575,1,8,0:0:0:0:
120,160,47650,1,0,0:0:0:0:
200,152,47725,1,8,0:0:0:0:
128,136,47875,1,0,0:0:0:0:
152,152,48025,1,0,0:0:0:0:
112,152,48100,1,0,0:0:0:0:
72,152,48175,1,8,0:0:0:0:
72,152,48250,1,8,0:0:0:0:
72,152,48325,1,8,0:0:0:0:
96,120,48400,1,8,0:0:0:0:
152,152,48475,1,0,0:0:0:0:
96,120,48550,1,8,0:0:0:0:
152,152,48625,1,0,0:0:0:0:
112,160,48700,1,8,0:0:0:0:
112,160,48775,1,8,0:0:0:0:
112,160,48850,1,8,0:0:0:0:
152,152,48925,1,0,0:0:0:0:
96,120,49000,1,8,0:0:0:0:
112,160,49075,1,8,0:0:0:0:
96,120,49150,1,8,0:0:0:0:
160,104,49225,1,8,0:0:0:0:
192,80,49300,1,8,0:0:0:0:
152,152,49375,1,0,0:0:0:0:
168,120,49450,1,8,0:0:0:0:
152,152,49525,1,0,0:0:0:0:
184,136,49600,1,8,0:0:0:0:
184,136,49675,1,8,0:0:0:0:
184,136,49750,1,8,0:0:0:0:
120,0,49825,1,0,0:0:0:0:
168,120,49975,1,0,0:0:0:0:
152,136,50125,1,8,0:0:0:0:
144,104,50425,1,4,0:0:0:0:
168,120,50575,1,0,0:0:0:0:
168,120,50725,1,8,0:0:0:0:
168,120,50875,1,0,0:0:0:0:
312,56,51175,1,8,0:0:0:0:
280,72,51250,1,8,0:0:0:0:
240,88,51325,1,0,0:0:0:0:
168,120,51475,1,8,0:0:0:0:
240,88,51625,1,0,0:0:0:0:
168,120,51775,1,0,0:0:0:0:
240,88,51925,1,8,0:0:0:0:
168,120,52075,1,0,0:0:0:0:
320,80,52375,1,8,0:0:0:0:
248,96,52525,1,0,0:0:0:0:
104,144,52825,1,0,0:0:0:0:
176,120,52975,1,0,0:0:0:0:
208,136,53050,1,0,0:0:0:0:
248,96,53125,1,8,0:0:0:0:
208,136,53275,1,0,0:0:0:0:
104,144,53425,1,8,0:0:0:0:
176,120,53575,1,8,0:0:0:0:
248,96,53725,1,0,0:0:0:0:
176,120,53875,1,8,0:0:0:0:
208,136,54025,1,0,0:0:0:0:
176,120,54175,1,8,0:0:0:0:
176,120,54250,1,8,0:0:0:0:
248,96,54325,1,0,0:0:0:0:
176,112,54475,1,8,0:0:0:0:
240,64,54625,1,0,0:0:0:0:
176,112,54775,1,0,0:0:0:0:
240,64,54925,1,8,0:0:0:0:
120,160,55225,1,0,0:0:0:0:
176,112,55375,1,8,0:0:0:0:
240,64,55525,1,0,0:0:0:0:
176,112,55825,1,8,0:0:0:0:
176,112,55975,1,0,0:0:0:0:
176,112,56050,1,0,0:0:0:0:
176,112,56125,1,8,0:0:0:0:
176,112,56275,1,8,0:0:0:0:
248,144,56425,1,0,0:0:0:0:
312,104,56575,1,8,0:0:0:0:
280,120,56650,1,8,0:0:0:0:
280,120,56725,1,0,0:0:0:0:
280,120,56875,1,8,0:0:0:0:
280,120,57175,1,8,0:0:0:0:
280,120,57325,1,0,0:0:0:0:
160,216,57625,1,8,0:0:0:0:
224,168,57775,1,0,0:0:0:0:
224,168,57850,1,0,0:0:0:0:
224,168,57925,1,0,0:0:0:0:
224,168,58075,1,8,0:0:0:0:
224,168,58225,1,0,0:0:0:0:
224,168,58375,1,0,0:0:0:0:
224,168,58525,1,8,0:0:0:0:
224,168,58825,1,0,0:0:0:0:
224,168,58975,1,8,0:0:0:0:
224,168,59050,1,8,0:0:0:0:
224,168,59125,1,8,0:0:0:0:
224,168,59275,1,0,0:0:0:0:
224,168,59425,1,8,0:0:0:0:
224,168,59575,1,8,0:0:0:0:
224,168,59725,1,0,0:0:0:0:
224,168,59875,1,8,0:0:0:0:
224,168,60025,1,0,0:0:0:0:
160,224,60625,1,12,0:0:0:0:
312,56,60775,1,8,0:0:0:0:
280,72,60850,1,8,0:0:0:0:
240,88,60925,1,0,0:0:0:0:
168,120,61075,1,8,0:0:0:0:
240,88,61225,1,0,0:0:0:0:
168,120,61375,1,0,0:0:0:0:
240,88,61525,1,8,0:0:0:0:
168,120,61675,1,0,0:0:0:0:
320,80,61975,1,8,0:0:0:0:
248,96,62125,1,0,0:0:0:0:
104,144,62425,1,0,0:0:0:0:
176,120,62575,1,0,0:0:0:0:
208,136,62650,1,0,0:0:0:0:
248,96,62725,1,8,0:0:0:0:
208,136,62875,1,0,0:0:0:0:
104,144,63025,1,8,0:0:0:0:
176,120,63175,1,8,0:0:0:0:
248,96,63325,1,0,0:0:0:0:
176,120,63475,1,8,0:0:0:0:
208,136,63625,1,0,0:0:0:0:
176,120,63775,1,8,0:0:0:0:
176,120,63850,1,8,0:0:0:0:
248,96,63925,1,0,0:0:0:0:
176,112,64075,1,8,0:0:0:0:
240,64,64225,1,0,0:0:0:0:
176,112,64375,1,0,0:0:0:0:
240,64,64525,1,8,0:0:0:0:
120,160,64825,1,0,0:0:0:0:
120,160,64975,1,0,0:0:0:0:
120,160,65050,1,0,0:0:0:0:
240,64,65125,1,8,0:0:0:0:
176,104,65275,1,0,0:0:0:0:
176,112,65425,1,8,0:0:0:0:
176,112,65725,1,8,0:0:0:0:
176,112,65875,1,8,0:0:0:0:
248,144,66025,1,0,0:0:0:0:
312,104,66175,1,8,0:0:0:0:
280,120,66250,1,8,0:0:0:0:
280,120,66325,1,0,0:0:0:0:
280,120,66475,1,0,0:0:0:0:
208,144,66625,1,8,0:0:0:0:
120,104,66775,1,0,0:0:0:0:
280,120,66925,1,8,0:0:0:0:
240,136,67000,1,0,0:0:0:0:
200,152,67075,1,8,0:0:0:0:
160,216,67225,1,8,0:0:0:0:
224,168,67375,1,0,0:0:0:0:
224,168,67450,1,0,0:0:0:0:
224,168,67525,1,0,0:0:0:0:
224,168,67675,1,8,0:0:0:0:
224,168,67825,1,0,0:0:0:0:
224,168,67975,1,0,0:0:0:0:
224,168,68125,1,12,0:0:0:0:
224,168,69025,1,8,0:0:0:0:
224,168,69175,1,8,0:0:0:0:
224,168,69325,1,0,0:0:0:0:
224,168,69475,1,8,0:0:0:0:
224,168,69625,1,4,0:0:0:0:
184,232,69775,1,8,0:0:0:0:
208,200,69850,1,8,0:0:0:0:
208,200,69925,1,0,0:0:0:0:
144,160,70075,1,8,0:0:0:0:
224,168,70225,1,0,0:0:0:0:
176,104,70375,1,8,0:0:0:0:
112,120,70450,1,0,0:0:0:0:
200,136,70600,1,0,0:0:0:0:
224,168,70675,1,8,0:0:0:0:
160,136,70825,1,0,0:0:0:0:
232,104,70975,1,8,0:0:0:0:
200,120,71050,1,8,0:0:0:0:
280,216,71125,1,0,0:0:0:0:
224,160,71275,1,8,0:0:0:0:
160,136,71425,1,0,0:0:0:0:
184,104,71500,1,0,0:0:0:0:
184,104,71575,1,8,0:0:0:0:
248,192,71650,1,0,0:0:0:0:
184,104,71800,1,0,0:0:0:0:
152,136,71875,1,8,0:0:0:0:
208,160,72025,1,4,0:0:0:0:
160,136,72175,1,8,0:0:0:0:
160,136,72250,1,8,0:0:0:0:
72,104,72325,1,0,0:0:0:0:
160,136,72475,1,8,0:0:0:0:
208,160,72625,1,0,0:0:0:0:
128,144,72775,1,8,0:0:0:0:
104,120,72850,1,0,0:0:0:0:
128,144,73000,1,0,0:0:0:0:
208,160,73075,1,8,0:0:0:0:
144,136,73225,1,0,0:0:0:0:
128,144,73375,1,8,0:0:0:0:
128,144,73450,1,8,0:0:0:0:
288,184,73525,1,0,0:0:0:0:
224,136,73675,1,8,0:0:0:0:
144,136,73825,1,0,0:0:0:0:
192,112,73900,1,0,0:0:0:0:
192,112,73975,1,8,0:0:0:0:
264,176,74050,1,0,0:0:0:0:
192,112,74125,1,0,0:0:0:0:
192,112,74200,1,8,0:0:0:0:
160,128,74275,1,0,0:0:0:0:
160,128,74425,1,4,0:0:0:0:
232,144,74575,1,8,0:0:0:0:
192,136,74650,1,8,0:0:0:0:
192,136,74725,1,0,0:0:0:0:
192,136,74875,1,8,0:0:0:0:
192,136,74950,1,0,0:0:0:0:
192,136,75025,1,0,0:0:0:0:
192,136,75100,1,0,0:0:0:0:
192,136,75175,1,8,0:0:0:0:
192,136,75250,1,8,0:0:0:0:
192,136,75325,1,0,0:0:0:0:
192,136,75475,1,8,0:0:0:0:
192,136,75625,1,4,0:0:0:0:
192,136,75775,1,8,0:0:0:0:
192,136,75850,1,8,0:0:0:0:
192,136,75925,1,0,0:0:0:0:
192,136,76075,1,8,0:0:0:0:
192,136,76225,1,0,0:0:0:0:
192,136,76300,1,0,0:0:0:0:
192,136,76375,1,8,0:0:0:0:
192,136,76450,1,0,0:0:0:0:
192,136,76525,1,8,0:0:0:0:
152,152,76600,1,8,0:0:0:0:
192,56,76675,1,0,0:0:0:0:
240,184,76825,1,8,0:0:0:0:
240,184,76900,1,8,0:0:0:0:
240,184,76975,1,0,0:0:0:0:
240,184,77050,1,0,0:0:0:0:
240,184,77125,1,8,0:0:0:0:
240,184,77200,1,8,0:0:0:0:
240,184,77275,1,0,0:0:0:0:
240,184,77350,1,0,0:0:0:0:
240,184,77425,1,8,0:0:0:0:
240,184,77500,1,8,0:0:0:0:
240,184,77575,1,8,0:0:0:0:
240,184,77650,1,0,0:0:0:0:
240,184,77725,1,8,0:0:0:0:
240,184,77800,1,8,0:0:0:0:
240,184,77875,1,8,0:0:0:0:
208,168,77950,1,8,0:0:0:0:
240,184,78025,1,4,0:0:0:0:
240,184,78325,1,4,0:0:0:0:
224,168,79225,1,4,0:0:0:0:
224,168,79525,1,8,0:0:0:0:
128,144,79675,1,8,0:0:0:0:
224,168,79825,1,0,0:0:0:0:
224,168,79975,1,0,0:0:0:0:
224,168,80125,1,8,0:0:0:0:
224,168,80275,1,8,0:0:0:0:
224,168,80350,1,8,0:0:0:0:
224,168,80425,1,0,0:0:0:0:
224,168,80575,1,0,0:0:0:0:
224,168,80725,1,8,0:0:0:0:
224,168,80875,1,8,0:0:0:0:
224,168,81025,1,0,0:0:0:0:
224,168,81100,1,0,0:0:0:0:
224,168,81175,1,0,0:0:0:0:
224,168,81325,1,8,0:0:0:0:
128,0,81625,1,0,0:0:0:0:
232,160,81925,1,8,0:0:0:0:
232,160,82075,1,8,0:0:0:0:
136,168,82225,1,0,0:0:0:0:
136,168,82375,1,0,0:0:0:0:
136,168,82525,1,8,0:0:0:0:
136,168,82675,1,8,0:0:0:0:
96,144,82750,1,8,0:0:0:0:
96,144,82825,1,0,0:0:0:0:
96,144,82975,1,0,0:0:0:0:
96,144,83125,1,8,0:0:0:0:
96,144,83275,1,0,0:0:0:0:
96,144,83425,1,8,0:0:0:0:
96,144,83500,1,0,0:0:0:0:
96,144,83575,1,8,0:0:0:0:
96,144,83725,1,8,0:0:0:0:
288,184,84025,1,4,0:0:0:0:
96,144,84325,1,8,0:0:0:0:
176,160,84475,1,8,0:0:0:0:
272,184,84625,1,0,0:0:0:0:
176,160,84775,1,0,0:0:0:0:
272,184,84925,1,8,0:0:0:0:
176,160,85075,1,8,0:0:0:0:
224,176,85150,1,8,0:0:0:0:
176,160,85225,1,0,0:0:0:0:
272,184,85375,1,0,0:0:0:0:
176,160,85525,1,8,0:0:0:0:
272,184,85675,1,8,0:0:0:0:
176,160,85825,1,0,0:0:0:0:
176,160,85900,1,0,0:0:0:0:
176,160,85975,1,0,0:0:0:0:
176,160,86125,1,8,0:0:0:0:
176,160,86425,1,0,0:0:0:0:
264,176,86575,1,8,0:0:0:0:
224,160,86650,1,8,0:0:0:0:
176,160,86725,1,8,0:0:0:0:
176,160,86875,1,0,0:0:0:0:
176,160,87025,1,0,0:0:0:0:
152,120,87100,1,0,0:0:0:0:
176,160,87175,1,8,0:0:0:0:
152,120,87250,1,8,0:0:0:0:
176,160,87325,1,0,0:0:0:0:
176,160,87475,1,8,0:0:0:0:
176,72,87625,1,8,0:0:0:0:
176,120,87700,1,8,0:0:0:0:
176,160,87775,1,0,0:0:0:0:
176,120,87850,1,8,0:0:0:0:
176,160,87925,1,0,0:0:0:0:
176,160,88075,1,8,0:0:0:0:
176,120,88150,1,0,0:0:0:0:
296,32,88225,1,8,0:0:0:0:
232,96,88375,1,0,0:0:0:0:
176,168,88525,1,12,0:0:0:0:
264,16,88825,1,4,0:0:0:0:
160,176,89125,1,8,0:0:0:0:
184,136,89200,1,8,0:0:0:0:
184,136,89275,1,8,0:0:0:0:
184,136,89425,1,0,0:0:0:0:
184,136,89575,1,8,0:0:0:0:
184,136,89650,1,8,0:0:0:0:
184,136,89725,1,0,0:0:0:0:
184,136,89875,1,8,0:0:0:0:
184,136,90025,1,0,0:0:0:0:
184,136,90175,1,8,0:0:0:0:
184,136,90250,1,8,0:0:0:0:
184,136,90325,1,0,0:0:0:0:
184,136,90400,1,0,0:0:0:0:
184,136,90475,1,8,0:0:0:0:
184,136,90625,1,0,0:0:0:0:
184,136,90775,1,8,0:0:0:0:
184,136,90850,1,0,0:0:0:0:
184,136,90925,1,8,0:0:0:0:
184,136,91000,1,0,0:0:0:0:
184,136,91075,1,8,0:0:0:0:
232,48,91225,1,4,0:0:0:0:
184,136,91375,1,8,0:0:0:0:
208,96,91450,1,8,0:0:0:0:
184,136,91525,1,0,0:0:0:0:
232,48,91675,1,8,0:0:0:0:
208,96,91825,1,0,0:0:0:0:
168,184,91975,1,8,0:0:0:0:
192,136,92050,1,8,0:0:0:0:
168,176,92125,1,0,0:0:0:0:
168,176,92275,1,8,0:0:0:0:
216,88,92425,1,0,0:0:0:0:
168,176,92575,1,8,0:0:0:0:
192,128,92650,1,8,0:0:0:0:
168,168,92725,1,0,0:0:0:0:
176,120,92800,1,0,0:0:0:0:
168,168,92875,1,8,0:0:0:0:
160,72,93025,1,0,0:0:0:0:
160,72,93175,1,8,0:0:0:0:
160,72,93250,1,0,0:0:0:0:
160,72,93325,1,8,0:0:0:0:
120,96,93400,1,0,0:0:0:0:
160,72,93475,1,8,0:0:0:0:
168,168,93625,1,4,0:0:0:0:
264,136,93775,1,8,0:0:0:0:
264,136,93850,1,8,0:0:0:0:
264,136,93925,1,8,0:0:0:0:
264,136,94075,1,0,0:0:0:0:
264,136,94225,1,8,0:0:0:0:
224,96,94300,1,0,0:0:0:0:
264,136,94375,1,8,0:0:0:0:
264,136,94450,1,8,0:0:0:0:
264,136,94525,1,0,0:0:0:0:
264,136,94675,1,8,0:0:0:0:
168,176,94825,1,0,0:0:0:0:
264,136,94975,1,8,0:0:0:0:
216,160,95050,1,8,0:0:0:0:
168,176,95125,1,8,0:0:0:0:
264,136,95275,1,0,0:0:0:0:
168,176,95425,1,8,0:0:0:0:
216,160,95500,1,0,0:0:0:0:
168,176,95575,1,8,0:0:0:0:
216,160,95650,1,8,0:0:0:0:
168,176,95725,1,0,0:0:0:0:
216,160,95800,1,0,0:0:0:0:
168,176,95875,1,8,0:0:0:0:
264,136,96025,1,0,0:0:0:0:
264,136,96100,1,0,0:0:0:0:
264,136,96175,1,8,0:0:0:0:
264,136,96250,1,8,0:0:0:0:
264,136,96325,1,0,0:0:0:0:
264,136,96400,1,0,0:0:0:0:
264,136,96475,1,8,0:0:0:0:
264,136,96550,1,8,0:0:0:0:
264,136,96625,1,0,0:0:0:0:
264,136,96700,1,8,0:0:0:0:
264,136,96775,1,8,0:0:0:0:
264,136,96850,1,8,0:0:0:0:
224,96,96925,1,0,0:0:0:0:
264,136,97000,1,8,0:0:0:0:
224,96,97075,1,8,0:0:0:0:
264,136,97150,1,8,0:0:0:0:
208,168,97225,1,4,0:0:0:0:
168,168,97825,1,12,0:0:0:0:
168,168,98125,1,12,0:0:0:0:
352,232,98425,1,4,0:0:0:0:
272,184,98575,1,0,0:0:0:0:
232,160,98650,1,0,0:0:0:0:
232,160,98725,1,8,0:0:0:0:
232,160,98875,1,0,0:0:0:0:
232,160,99025,1,8,0:0:0:0:
232,160,99175,1,0,0:0:0:0:
232,160,99250,1,0,0:0:0:0:
232,160,99325,1,0,0:0:0:0:
232,160,99475,1,8,0:0:0:0:
232,160,99625,1,0,0:0:0:0:
232,160,99775,1,8,0:0:0:0:
232,160,99850,1,8,0:0:0:0:
232,160,99925,1,0,0:0:0:0:
232,160,100075,1,0,0:0:0:0:
232,160,100225,1,8,0:0:0:0:
232,160,100300,1,0,0:0:0:0:
232,160,100375,1,0,0:0:0:0:
232,160,100450,1,0,0:0:0:0:
232,160,100525,1,8,0:0:0:0:
232,160,100825,1,0,0:0:0:0:
232,160,100975,1,0,0:0:0:0:
232,160,101050,1,0,0:0:0:0:
232,160,101125,1,8,0:0:0:0:
232,160,101275,1,0,0:0:0:0:
232,160,101425,1,8,0:0:0:0:
232,160,101575,1,8,0:0:0:0:
232,160,101650,1,8,0:0:0:0:
232,160,101725,1,0,0:0:0:0:
184,152,101800,1,0,0:0:0:0:
232,160,101875,1,8,0:0:0:0:
232,160,102025,1,0,0:0:0:0:
232,160,102175,1,8,0:0:0:0:
232,160,102250,1,0,0:0:0:0:
232,160,102325,1,8,0:0:0:0:
232,160,102475,1,8,0:0:0:0:
232,160,102625,1,0,0:0:0:0:
192,136,102700,1,0,0:0:0:0:
232,160,102775,1,8,0:0:0:0:
232,160,102850,1,0,0:0:0:0:
232,160,102925,1,8,0:0:0:0:
232,160,103225,1,4,0:0:0:0:
232,160,103375,1,0,0:0:0:0:
232,160,103450,1,0,0:0:0:0:
232,160,103525,1,8,0:0:0:0:
232,160,103675,1,0,0:0:0:0:
232,160,103825,1,8,0:0:0:0:
232,160,103900,1,0,0:0:0:0:
232,160,103975,1,0,0:0:0:0:
232,160,104050,1,0,0:0:0:0:
232,160,104125,1,8,0:0:0:0:
232,160,104425,1,0,0:0:0:0:
232,160,104575,1,0,0:0:0:0:
232,160,104650,1,0,0:0:0:0:
232,160,104725,1,8,0:0:0:0:
232,160,104875,1,0,0:0:0:0:
232,160,105025,1,8,0:0:0:0:
232,160,105100,1,8,0:0:0:0:
232,160,105175,1,0,0:0:0:0:
232,160,105250,1,0,0:0:0:0:
232,160,105325,1,8,0:0:0:0:
232,160,105625,1,0,0:0:0:0:
232,64,105775,1,0,0:0:0:0:
232,112,105850,1,0,0:0:0:0:
232,112,105925,1,8,0:0:0:0:
232,112,106075,1,0,0:0:0:0:
232,112,106225,1,8,0:0:0:0:
200,152,106300,1,8,0:0:0:0:
136,128,106375,1,0,0:0:0:0:
144,136,106450,1,0,0:0:0:0:
200,152,106525,1,8,0:0:0:0:
184,104,106600,1,0,0:0:0:0:
104,160,106675,1,8,0:0:0:0:
200,152,106825,1,0,0:0:0:0:
176,56,106975,1,8,0:0:0:0:
184,104,107050,1,0,0:0:0:0:
184,104,107125,1,8,0:0:0:0:
184,104,107275,1,8,0:0:0:0:
144,136,107350,1,8,0:0:0:0:
112,40,107425,1,0,0:0:0:0:
144,72,107500,1,0,0:0:0:0:
184,104,107575,1,8,0:0:0:0:
104,40,107725,1,8,0:0:0:0:
240,152,108025,1,0,0:0:0:0:
240,152,108325,1,4,0:0:0:0:
240,152,108475,1,0,0:0:0:0:
240,152,108550,1,0,0:0:0:0:
240,152,108625,1,8,0:0:0:0:
152,160,108775,1,0,0:0:0:0:
240,144,108925,1,8,0:0:0:0:
152,160,109075,1,0,0:0:0:0:
200,152,109150,1,0,0:0:0:0:
152,160,109225,1,8,0:0:0:0:
240,136,109375,1,0,0:0:0:0:
192,152,109450,1,0,0:0:0:0:
192,152,109525,1,8,0:0:0:0:
200,152,109600,1,8,0:0:0:0:
200,152,109675,1,0,0:0:0:0:
200,152,109825,1,8,0:0:0:0:
192,152,109975,1,0,0:0:0:0:
192,152,110050,1,0,0:0:0:0:
192,152,110125,1,8,0:0:0:0:
192,152,110275,1,8,0:0:0:0:
200,152,110425,1,4,0:0:0:0:
200,152,110575,1,8,0:0:0:0:
192,152,110650,1,8,0:0:0:0:
192,152,110725,1,8,0:0:0:0:
280,184,110875,1,0,0:0:0:0:
192,152,111025,1,8,0:0:0:0:
232,168,111100,1,8,0:0:0:0:
232,168,111175,1,0,0:0:0:0:
232,168,111250,1,0,0:0:0:0:
232,168,111325,1,8,0:0:0:0:
208,152,111475,1,0,0:0:0:0:
296,184,111625,1,8,0:0:0:0:
232,168,111700,1,0,0:0:0:0:
232,168,111775,1,8,0:0:0:0:
232,168,111850,1,0,0:0:0:0:
232,168,111925,1,8,0:0:0:0:
232,168,112075,1,0,0:0:0:0:
144,136,112225,1,8,0:0:0:0:
184,152,112300,1,0,0:0:0:0:
184,152,112375,1,8,0:0:0:0:
184,152,112450,1,8,0:0:0:0:
184,152,112525,1,0,0:0:0:0:
208,152,112675,5,0,0:0:0:0:
208,152,112750,1,0,0:0:0:0:
208,152,112825,1,8,0:0:0:0:
208,152,112975,1,0,0:0:0:0:
208,152,113050,1,0,0:0:0:0:
208,152,113200,1,8,0:0:0:0:
208,152,113275,1,0,0:0:0:0:
208,152,113425,1,8,0:0:0:0:
208,152,113575,1,0,0:0:0:0:
208,152,113650,1,0,0:0:0:0:
208,152,113725,1,8,0:0:0:0:
208,152,113800,1,8,0:0:0:0:
208,152,113875,1,0,0:0:0:0:
208,152,113950,1,0,0:0:0:0:
208,152,114025,1,8,0:0:0:0:
112,176,114175,1,0,0:0:0:0:
160,160,114250,1,0,0:0:0:0:
256,152,114400,1,8,0:0:0:0:
208,160,114475,1,0,0:0:0:0:
104,160,114625,1,8,0:0:0:0:
200,152,114775,1,0,0:0:0:0:
200,152,114850,1,0,0:0:0:0:
200,152,114925,1,8,0:0:0:0:
200,152,115000,1,0,0:0:0:0:
200,152,115075,1,0,0:0:0:0:
200,152,115150,1,0,0:0:0:0:
200,152,115225,1,8,0:0:0:0:
200,152,115300,1,8,0:0:0:0:
200,152,115375,1,0,0:0:0:0:
200,152,115450,1,0,0:0:0:0:
200,152,115525,1,8,0:0:0:0:
200,152,115600,1,8,0:0:0:0:
200,152,115675,1,0,0:0:0:0:
200,152,115750,1,0,0:0:0:0:
152,136,115825,1,8,0:0:0:0:
200,152,115900,1,8,0:0:0:0:
152,136,115975,1,0,0:0:0:0:
200,152,116050,1,0,0:0:0:0:
152,136,116125,1,8,0:0:0:0:
200,152,116200,1,8,0:0:0:0:
152,136,116275,1,8,0:0:0:0:
168,88,116350,1,8,0:0:0:0:
152,136,116425,1,0,0:0:0:0:
120,120,117025,1,8,0:0:0:0:
120,120,117175,1,0,0:0:0:0:
120,120,117325,1,12,0:0:0:0:
256,192,117625,12,0,120325,0:0:0:0:
