osu file format v14

[General]
AudioFilename: Unorthodox Red.mp3
AudioLeadIn: 0
PreviewTime: 125909
Countdown: 0
SampleSet: Soft
StackLeniency: 0.7
Mode: 3
LetterboxInBreaks: 0
SpecialStyle: 0
WidescreenStoryboard: 1

[Editor]
DistanceSpacing: 0.8
BeatDivisor: 4
GridSize: 8
TimelineZoom: 2

[Metadata]
Title:Unorthodox Red
TitleUnicode:Unorthodox Red
Artist:DJ Nanasaki
ArtistUnicode:DJ Nanasaki
Creator:ExNeko
Version:4K Hyper
Source:東方紅魔郷 ~ the Embodiment of Scarlet Devil.
Tags:Video Game Hardcore Instrumental 紅楼 ~ Eastern Dream... Deram.. Just Push Play ExInyf Tofu1222 _Stan Ridho 2307 _VianK_ Shima Rin
BeatmapID:1425816
BeatmapSetID:650554

[Difficulty]
HPDrainRate:7
CircleSize:4
OverallDifficulty:7
ApproachRate:5
SliderMultiplier:1.4
SliderTickRate:1

[Events]
//Background and Video events
0,0,"2090172.jpg",0,0
//Break Periods
//Storyboard Layer 0 (Background)
//Storyboard Layer 1 (Fail)
//Storyboard Layer 2 (Pass)
//Storyboard Layer 3 (Foreground)
//Storyboard Layer 4 (Overlay)
//Storyboard Sound Samples

[TimingPoints]
90,272.727272727273,4,2,1,50,1,0
69908,272.727272727273,4,2,1,50,1,0
70180,273.972602739726,4,2,1,50,1,0
70453,275.229357798165,4,2,1,50,1,0
70453,-99.009900990099,4,2,1,50,0,0
70728,276.497695852535,4,2,1,50,1,0
70728,-99.009900990099,4,2,1,50,0,0
71004,277.777777777778,4,2,1,50,1,0
71004,-98.0392156862745,4,2,1,50,0,0
71281,279.06976744186,4,2,1,50,1,0
71281,-98.0392156862745,4,2,1,50,0,0
71560,280.373831775701,4,2,1,50,1,0
71560,-97.0873786407767,4,2,1,50,0,0
71840,281.69014084507,4,2,1,50,1,0
71840,-97.0873786407767,4,2,1,50,0,0
72121,283.018867924528,4,2,1,50,1,0
72121,-96.1538461538461,4,2,1,50,0,0
74385,300,4,2,1,50,1,0
74385,-90.9090909090909,4,2,1,50,0,0
76785,315.789473684211,4,2,1,50,1,0
76785,-86.2068965517241,4,2,1,50,0,0
79311,333.333333333333,4,2,1,50,1,0
79311,-81.9672131147541,4,2,1,50,0,0
81977,352.941176470588,4,2,1,50,1,0
81977,-77.5193798449612,4,2,1,50,0,0
84800,375,4,2,1,50,1,0
84800,-72.463768115942,4,2,1,50,0,0
87800,400,4,2,1,50,1,0
87800,-68.0272108843537,4,2,1,50,0,0
91000,272.727272727273,4,2,1,50,1,0
178272,-100,4,2,1,50,0,1
213181,-100,4,2,1,50,0,0

[HitObjects]
64,192,90,5,4,0:0:0:0:
192,192,90,1,2,0:0:0:0:
320,192,226,1,0,0:0:0:0:
64,192,362,1,8,0:0:0:0:
448,192,362,1,0,0:0:0:0:
192,192,499,1,0,0:0:0:0:
320,192,635,1,2,0:0:0:0:
64,192,771,1,0,0:0:0:0:
192,192,908,1,8,0:0:0:0:
448,192,908,1,0,0:0:0:0:
320,192,1044,1,0,0:0:0:0:
64,192,1180,1,2,0:0:0:0:
192,192,1317,1,0,0:0:0:0:
320,192,1453,1,8,0:0:0:0:
448,192,1453,1,0,0:0:0:0:
64,192,1590,1,0,0:0:0:0:
192,192,1726,1,2,0:0:0:0:
448,192,1862,1,0,0:0:0:0:
64,192,1999,1,8,0:0:0:0:
320,192,1999,1,0,0:0:0:0:
192,192,2135,1,0,0:0:0:0:
448,192,2271,1,2,0:0:0:0:
320,192,2408,1,0,0:0:0:0:
64,192,2544,1,8,0:0:0:0:
192,192,2544,1,0,0:0:0:0:
448,192,2680,1,0,0:0:0:0:
320,192,2817,1,2,0:0:0:0:
192,192,2953,1,0,0:0:0:0:
64,192,3090,1,8,0:0:0:0:
448,192,3090,1,0,0:0:0:0:
192,192,3226,1,0,0:0:0:0:
320,192,3362,1,2,0:0:0:0:
64,192,3499,1,0,0:0:0:0:
192,192,3635,1,8,0:0:0:0:
448,192,3635,1,0,0:0:0:0:
320,192,3771,1,0,0:0:0:0:
64,192,3908,1,2,0:0:0:0:
192,192,4044,1,0,0:0:0:0:
320,192,4180,1,8,0:0:0:0:
448,192,4180,1,0,0:0:0:0:
64,192,4317,1,2,0:0:0:0:
192,192,4317,1,0,0:0:0:0:
320,192,4453,1,2,0:0:0:0:
448,192,4453,1,0,0:0:0:0:
192,192,4590,1,0,0:0:0:0:
64,192,4726,1,8,0:0:0:0:
448,192,4726,1,0,0:0:0:0:
320,192,4862,1,0,0:0:0:0:
192,192,4999,1,2,0:0:0:0:
448,192,5135,1,0,0:0:0:0:
64,192,5271,1,8,0:0:0:0:
320,192,5271,1,0,0:0:0:0:
192,192,5408,1,0,0:0:0:0:
448,192,5544,1,2,0:0:0:0:
320,192,5680,1,0,0:0:0:0:
64,192,5817,1,8,0:0:0:0:
192,192,5817,1,0,0:0:0:0:
448,192,5953,1,0,0:0:0:0:
320,192,6090,1,2,0:0:0:0:
64,192,6226,1,0,0:0:0:0:
192,192,6362,1,8,0:0:0:0:
448,192,6362,1,0,0:0:0:0:
320,192,6499,1,0,0:0:0:0:
64,192,6635,1,2,0:0:0:0:
192,192,6771,1,0,0:0:0:0:
320,192,6908,1,8,0:0:0:0:
448,192,6908,1,0,0:0:0:0:
64,192,7044,1,0,0:0:0:0:
192,192,7180,1,2,0:0:0:0:
320,192,7317,1,0,0:0:0:0:
64,192,7453,1,8,0:0:0:0:
448,192,7453,1,0,0:0:0:0:
320,192,7590,1,0,0:0:0:0:
192,192,7726,1,2,0:0:0:0:
320,192,7862,1,2,0:0:0:0:
64,192,7999,1,8,0:0:0:0:
448,192,7999,1,0,0:0:0:0:
192,192,8271,1,2,0:0:0:0:
320,192,8544,128,8,8817:0:0:0:0:
64,192,8817,1,2,0:0:0:0:
192,192,8817,1,4,0:0:0:0:
320,192,8953,1,0,0:0:0:0:
64,192,9090,1,8,0:0:0:0:
448,192,9090,1,0,0:0:0:0:
192,192,9226,1,0,0:0:0:0:
320,192,9362,1,2,0:0:0:0:
64,192,9499,1,0,0:0:0:0:
192,192,9635,1,8,0:0:0:0:
448,192,9635,1,0,0:0:0:0:
320,192,9771,1,0,0:0:0:0:
64,192,9908,1,2,0:0:0:0:
192,192,10044,1,0,0:0:0:0:
320,192,10180,1,8,0:0:0:0:
448,192,10180,1,0,0:0:0:0:
64,192,10317,1,0,0:0:0:0:
192,192,10453,1,2,0:0:0:0:
448,192,10590,1,0,0:0:0:0:
64,192,10726,1,8,0:0:0:0:
320,192,10726,1,0,0:0:0:0:
192,192,10862,1,0,0:0:0:0:
448,192,10999,1,2,0:0:0:0:
320,192,11135,1,0,0:0:0:0:
64,192,11271,1,8,0:0:0:0:
192,192,11271,1,0,0:0:0:0:
448,192,11408,1,0,0:0:0:0:
320,192,11544,1,2,0:0:0:0:
192,192,11680,1,0,0:0:0:0:
64,192,11817,1,8,0:0:0:0:
448,192,11817,1,0,0:0:0:0:
192,192,11953,1,0,0:0:0:0:
320,192,12090,1,2,0:0:0:0:
64,192,12226,1,0,0:0:0:0:
192,192,12362,1,8,0:0:0:0:
448,192,12362,1,0,0:0:0:0:
320,192,12499,1,0,0:0:0:0:
64,192,12635,1,2,0:0:0:0:
192,192,12771,1,0,0:0:0:0:
320,192,12908,1,8,0:0:0:0:
448,192,12908,1,0,0:0:0:0:
64,192,13044,1,2,0:0:0:0:
192,192,13044,1,0,0:0:0:0:
320,192,13180,1,2,0:0:0:0:
448,192,13180,1,0,0:0:0:0:
192,192,13317,1,0,0:0:0:0:
64,192,13453,1,8,0:0:0:0:
448,192,13453,1,0,0:0:0:0:
320,192,13590,1,0,0:0:0:0:
192,192,13726,1,2,0:0:0:0:
448,192,13862,1,0,0:0:0:0:
64,192,13999,1,8,0:0:0:0:
320,192,13999,1,0,0:0:0:0:
192,192,14135,1,0,0:0:0:0:
448,192,14271,1,2,0:0:0:0:
320,192,14408,1,0,0:0:0:0:
64,192,14544,1,8,0:0:0:0:
192,192,14544,1,0,0:0:0:0:
448,192,14680,1,0,0:0:0:0:
320,192,14817,1,2,0:0:0:0:
64,192,14953,1,0,0:0:0:0:
192,192,15090,1,8,0:0:0:0:
448,192,15090,1,0,0:0:0:0:
320,192,15226,1,0,0:0:0:0:
64,192,15362,1,2,0:0:0:0:
192,192,15499,1,0,0:0:0:0:
320,192,15635,1,8,0:0:0:0:
448,192,15635,1,0,0:0:0:0:
64,192,15771,1,0,0:0:0:0:
192,192,15908,1,2,0:0:0:0:
320,192,16044,1,0,0:0:0:0:
64,192,16180,1,8,0:0:0:0:
448,192,16180,1,0,0:0:0:0:
320,192,16317,1,0,0:0:0:0:
192,192,16453,1,2,0:0:0:0:
320,192,16590,1,2,0:0:0:0:
64,192,16726,1,8,0:0:0:0:
448,192,16726,1,0,0:0:0:0:
320,192,16999,1,2,0:0:0:0:
192,192,17271,128,8,17544:0:0:0:0:
320,192,17544,1,2,0:0:0:0:
448,192,17544,1,4,0:0:0:0:
192,192,17680,1,0,0:0:0:0:
64,192,17817,1,8,0:0:0:0:
448,192,17817,1,0,0:0:0:0:
320,192,17953,1,0,0:0:0:0:
192,192,18090,1,2,0:0:0:0:
448,192,18226,1,0,0:0:0:0:
64,192,18362,1,8,0:0:0:0:
320,192,18362,1,0,0:0:0:0:
192,192,18499,1,0,0:0:0:0:
448,192,18635,1,2,0:0:0:0:
320,192,18771,1,0,0:0:0:0:
64,192,18908,1,8,0:0:0:0:
192,192,18908,1,0,0:0:0:0:
448,192,19044,1,0,0:0:0:0:
320,192,19180,1,2,0:0:0:0:
64,192,19317,1,0,0:0:0:0:
192,192,19453,1,8,0:0:0:0:
448,192,19453,1,0,0:0:0:0:
320,192,19590,1,0,0:0:0:0:
64,192,19726,1,2,0:0:0:0:
192,192,19862,1,0,0:0:0:0:
320,192,19999,1,8,0:0:0:0:
448,192,19999,1,0,0:0:0:0:
64,192,20135,1,0,0:0:0:0:
192,192,20271,1,2,0:0:0:0:
320,192,20408,1,0,0:0:0:0:
64,192,20544,1,8,0:0:0:0:
448,192,20544,1,0,0:0:0:0:
320,192,20680,1,0,0:0:0:0:
192,192,20817,1,2,0:0:0:0:
448,192,20953,1,0,0:0:0:0:
64,192,21090,1,8,0:0:0:0:
320,192,21090,1,0,0:0:0:0:
192,192,21226,1,0,0:0:0:0:
448,192,21362,1,2,0:0:0:0:
320,192,21499,1,0,0:0:0:0:
64,192,21635,1,8,0:0:0:0:
192,192,21635,1,0,0:0:0:0:
320,192,21771,1,2,0:0:0:0:
448,192,21771,1,0,0:0:0:0:
64,192,21908,1,2,0:0:0:0:
192,192,21908,1,0,0:0:0:0:
320,192,22044,1,0,0:0:0:0:
64,192,22180,1,8,0:0:0:0:
448,192,22180,1,0,0:0:0:0:
192,192,22317,1,0,0:0:0:0:
320,192,22453,1,2,0:0:0:0:
64,192,22590,1,0,0:0:0:0:
192,192,22726,1,8,0:0:0:0:
448,192,22726,1,0,0:0:0:0:
320,192,22862,1,0,0:0:0:0:
64,192,22999,1,2,0:0:0:0:
192,192,23135,1,0,0:0:0:0:
320,192,23271,1,8,0:0:0:0:
448,192,23271,1,0,0:0:0:0:
64,192,23408,1,0,0:0:0:0:
192,192,23544,1,2,0:0:0:0:
448,192,23680,1,0,0:0:0:0:
64,192,23817,1,8,0:0:0:0:
320,192,23817,1,0,0:0:0:0:
192,192,23953,1,0,0:0:0:0:
448,192,24090,1,2,0:0:0:0:
320,192,24226,1,0,0:0:0:0:
64,192,24362,1,8,0:0:0:0:
192,192,24362,1,0,0:0:0:0:
448,192,24499,1,0,0:0:0:0:
320,192,24635,1,2,0:0:0:0:
192,192,24771,1,0,0:0:0:0:
64,192,24908,1,8,0:0:0:0:
448,192,24908,1,0,0:0:0:0:
192,192,25044,1,0,0:0:0:0:
320,192,25180,1,2,0:0:0:0:
64,192,25453,1,8,0:0:0:0:
448,192,25453,1,0,0:0:0:0:
320,192,25726,1,2,0:0:0:0:
192,192,25999,1,8,0:0:0:0:
320,192,26271,1,2,0:0:0:0:
448,192,26271,1,4,0:0:0:0:
192,192,26408,1,0,0:0:0:0:
64,192,26544,1,8,0:0:0:0:
448,192,26544,1,0,0:0:0:0:
320,192,26680,1,0,0:0:0:0:
192,192,26817,1,2,0:0:0:0:
448,192,26953,1,0,0:0:0:0:
64,192,27090,1,8,0:0:0:0:
320,192,27090,1,0,0:0:0:0:
192,192,27226,1,0,0:0:0:0:
448,192,27362,1,2,0:0:0:0:
320,192,27499,1,0,0:0:0:0:
64,192,27635,1,8,0:0:0:0:
192,192,27635,1,0,0:0:0:0:
448,192,27771,1,0,0:0:0:0:
320,192,27908,1,2,0:0:0:0:
64,192,28044,1,0,0:0:0:0:
192,192,28180,1,8,0:0:0:0:
448,192,28180,1,0,0:0:0:0:
320,192,28317,1,0,0:0:0:0:
64,192,28453,1,2,0:0:0:0:
192,192,28590,1,0,0:0:0:0:
320,192,28726,1,8,0:0:0:0:
448,192,28726,1,0,0:0:0:0:
64,192,28862,1,0,0:0:0:0:
192,192,28999,1,2,0:0:0:0:
320,192,29135,1,0,0:0:0:0:
64,192,29271,1,8,0:0:0:0:
448,192,29271,1,0,0:0:0:0:
320,192,29408,1,0,0:0:0:0:
192,192,29544,1,2,0:0:0:0:
448,192,29680,1,0,0:0:0:0:
64,192,29817,1,8,0:0:0:0:
320,192,29817,1,0,0:0:0:0:
192,192,29953,1,0,0:0:0:0:
448,192,30090,1,2,0:0:0:0:
320,192,30226,1,0,0:0:0:0:
64,192,30362,1,8,0:0:0:0:
192,192,30362,1,0,0:0:0:0:
320,192,30499,1,2,0:0:0:0:
448,192,30499,1,0,0:0:0:0:
64,192,30635,1,2,0:0:0:0:
192,192,30635,1,4,0:0:0:0:
320,192,30771,1,0,0:0:0:0:
64,192,30908,1,8,0:0:0:0:
448,192,30908,1,0,0:0:0:0:
192,192,31044,1,0,0:0:0:0:
320,192,31180,1,2,0:0:0:0:
64,192,31317,1,0,0:0:0:0:
192,192,31453,1,8,0:0:0:0:
448,192,31453,1,0,0:0:0:0:
320,192,31590,1,0,0:0:0:0:
64,192,31726,1,2,0:0:0:0:
192,192,31862,1,0,0:0:0:0:
320,192,31999,1,8,0:0:0:0:
448,192,31999,1,0,0:0:0:0:
64,192,32135,1,0,0:0:0:0:
192,192,32271,1,2,0:0:0:0:
448,192,32408,1,0,0:0:0:0:
64,192,32544,1,8,0:0:0:0:
320,192,32544,1,0,0:0:0:0:
192,192,32680,1,0,0:0:0:0:
64,192,32817,1,4,0:0:0:0:
448,192,32817,1,2,0:0:0:0:
320,192,32953,1,0,0:0:0:0:
64,192,33090,1,8,0:0:0:0:
192,192,33090,1,0,0:0:0:0:
448,192,33226,1,0,0:0:0:0:
64,192,33362,1,2,0:0:0:0:
320,192,33362,1,4,0:0:0:0:
192,192,33499,1,0,0:0:0:0:
64,192,33635,1,8,0:0:0:0:
448,192,33635,1,0,0:0:0:0:
192,192,33771,1,0,0:0:0:0:
320,192,33908,1,4,0:0:0:0:
448,192,33908,1,2,0:0:0:0:
192,192,34044,1,2,0:0:0:0:
64,192,34180,1,4,0:0:0:0:
448,192,34180,1,8,0:0:0:0:
192,192,34453,1,2,0:0:0:0:
320,192,34453,1,4,0:0:0:0:
448,192,34726,128,12,34999:0:0:0:0:
64,192,34999,1,2,0:0:0:0:
192,192,34999,1,4,0:0:0:0:
320,192,35135,1,0,0:0:0:0:
64,192,35271,1,8,0:0:0:0:
448,192,35271,1,0,0:0:0:0:
192,192,35408,1,0,0:0:0:0:
448,192,35544,1,2,0:0:0:0:
320,192,35680,1,0,0:0:0:0:
64,192,35817,1,8,0:0:0:0:
192,192,35817,1,0,0:0:0:0:
320,192,35953,1,0,0:0:0:0:
448,192,36090,1,2,0:0:0:0:
320,192,36226,1,0,0:0:0:0:
64,192,36362,1,8,0:0:0:0:
192,192,36362,1,0,0:0:0:0:
448,192,36499,1,0,0:0:0:0:
320,192,36635,1,2,0:0:0:0:
192,192,36771,1,0,0:0:0:0:
64,192,36908,1,8,0:0:0:0:
448,192,36908,1,0,0:0:0:0:
320,192,37044,1,0,0:0:0:0:
192,192,37180,1,2,0:0:0:0:
448,192,37317,1,0,0:0:0:0:
64,192,37453,1,8,0:0:0:0:
320,192,37453,1,0,0:0:0:0:
192,192,37590,1,0,0:0:0:0:
320,192,37726,1,2,0:0:0:0:
448,192,37862,1,0,0:0:0:0:
64,192,37999,1,8,0:0:0:0:
192,192,37999,1,0,0:0:0:0:
320,192,38135,1,0,0:0:0:0:
448,192,38271,1,2,0:0:0:0:
192,192,38408,1,0,0:0:0:0:
64,192,38544,1,8,0:0:0:0:
320,192,38544,1,0,0:0:0:0:
448,192,38680,1,0,0:0:0:0:
320,192,38817,1,2,0:0:0:0:
192,192,38953,1,0,0:0:0:0:
64,192,39090,1,8,0:0:0:0:
448,192,39090,1,0,0:0:0:0:
192,192,39226,1,2,0:0:0:0:
320,192,39226,1,0,0:0:0:0:
64,192,39362,1,2,0:0:0:0:
448,192,39362,1,0,0:0:0:0:
192,192,39499,1,0,0:0:0:0:
320,192,39635,1,8,0:0:0:0:
448,192,39635,1,0,0:0:0:0:
192,192,39771,1,0,0:0:0:0:
64,192,39908,1,2,0:0:0:0:
320,192,40044,1,0,0:0:0:0:
192,192,40180,1,8,0:0:0:0:
448,192,40180,1,0,0:0:0:0:
64,192,40317,1,0,0:0:0:0:
320,192,40453,1,2,0:0:0:0:
192,192,40590,1,0,0:0:0:0:
64,192,40726,1,8,0:0:0:0:
448,192,40726,1,0,0:0:0:0:
192,192,40862,1,0,0:0:0:0:
320,192,40999,1,2,0:0:0:0:
192,192,41135,1,0,0:0:0:0:
64,192,41271,1,8,0:0:0:0:
448,192,41271,1,0,0:0:0:0:
192,192,41408,1,0,0:0:0:0:
320,192,41544,1,2,0:0:0:0:
64,192,41680,1,0,0:0:0:0:
192,192,41817,1,8,0:0:0:0:
448,192,41817,1,0,0:0:0:0:
320,192,41953,1,0,0:0:0:0:
192,192,42090,1,2,0:0:0:0:
64,192,42226,1,0,0:0:0:0:
320,192,42362,1,8,0:0:0:0:
448,192,42362,1,0,0:0:0:0:
192,192,42499,1,0,0:0:0:0:
64,192,42635,1,2,0:0:0:0:
448,192,42635,1,0,0:0:0:0:
192,192,42771,1,2,0:0:0:0:
320,192,42771,1,0,0:0:0:0:
64,192,42908,1,8,0:0:0:0:
448,192,42908,1,0,0:0:0:0:
192,192,43180,1,2,0:0:0:0:
320,192,43180,1,0,0:0:0:0:
448,192,43453,128,8,43726:0:0:0:0:
64,192,43726,1,2,0:0:0:0:
192,192,43726,1,4,0:0:0:0:
320,192,43862,1,0,0:0:0:0:
64,192,43999,1,8,0:0:0:0:
448,192,43999,1,0,0:0:0:0:
192,192,44135,1,0,0:0:0:0:
448,192,44271,1,2,0:0:0:0:
320,192,44408,1,0,0:0:0:0:
64,192,44544,1,8,0:0:0:0:
192,192,44544,1,0,0:0:0:0:
320,192,44680,1,0,0:0:0:0:
64,192,44817,1,2,0:0:0:0:
192,192,44953,1,0,0:0:0:0:
320,192,45090,1,8,0:0:0:0:
448,192,45090,1,0,0:0:0:0:
64,192,45226,1,0,0:0:0:0:
192,192,45362,1,2,0:0:0:0:
320,192,45499,1,0,0:0:0:0:
64,192,45635,1,8,0:0:0:0:
448,192,45635,1,0,0:0:0:0:
192,192,45771,1,0,0:0:0:0:
320,192,45908,1,2,0:0:0:0:
64,192,46044,1,0,0:0:0:0:
192,192,46180,1,8,0:0:0:0:
448,192,46180,1,0,0:0:0:0:
320,192,46317,1,0,0:0:0:0:
192,192,46453,1,2,0:0:0:0:
64,192,46590,1,0,0:0:0:0:
320,192,46726,1,8,0:0:0:0:
448,192,46726,1,0,0:0:0:0:
192,192,46862,1,0,0:0:0:0:
64,192,46999,1,2,0:0:0:0:
320,192,47135,1,0,0:0:0:0:
192,192,47271,1,8,0:0:0:0:
448,192,47271,1,0,0:0:0:0:
64,192,47408,1,0,0:0:0:0:
192,192,47544,1,2,0:0:0:0:
320,192,47680,1,0,0:0:0:0:
64,192,47817,1,8,0:0:0:0:
448,192,47817,1,0,0:0:0:0:
192,192,47953,1,2,0:0:0:0:
320,192,47953,1,0,0:0:0:0:
64,192,48090,1,2,0:0:0:0:
448,192,48090,1,0,0:0:0:0:
192,192,48226,1,0,0:0:0:0:
320,192,48362,1,8,0:0:0:0:
448,192,48362,1,0,0:0:0:0:
192,192,48499,1,0,0:0:0:0:
64,192,48635,1,2,0:0:0:0:
192,192,48771,1,0,0:0:0:0:
64,192,48908,1,8,0:0:0:0:
320,192,48908,1,0,0:0:0:0:
448,192,49044,1,0,0:0:0:0:
192,192,49180,1,2,0:0:0:0:
320,192,49317,1,0,0:0:0:0:
64,192,49453,1,8,0:0:0:0:
448,192,49453,1,0,0:0:0:0:
320,192,49590,1,0,0:0:0:0:
192,192,49726,1,2,0:0:0:0:
320,192,49862,1,0,0:0:0:0:
64,192,49999,1,8,0:0:0:0:
448,192,49999,1,0,0:0:0:0:
192,192,50135,1,0,0:0:0:0:
320,192,50271,1,2,0:0:0:0:
448,192,50408,1,0,0:0:0:0:
64,192,50544,1,8,0:0:0:0:
320,192,50544,1,0,0:0:0:0:
192,192,50680,1,0,0:0:0:0:
320,192,50817,1,2,0:0:0:0:
448,192,50953,1,0,0:0:0:0:
64,192,51090,1,8,0:0:0:0:
192,192,51090,1,0,0:0:0:0:
320,192,51226,1,0,0:0:0:0:
64,192,51362,1,2,0:0:0:0:
192,192,51430,1,2,0:0:0:0:
320,192,51499,1,2,0:0:0:0:
448,192,51567,1,2,0:0:0:0:
64,192,51635,1,8,0:0:0:0:
192,192,51635,1,0,0:0:0:0:
320,192,51908,1,2,0:0:0:0:
448,192,51908,1,0,0:0:0:0:
64,192,52044,128,8,52180:0:0:0:0:
320,192,52180,1,2,0:0:0:0:
448,192,52180,1,4,0:0:0:0:
64,192,52317,128,8,52453:0:0:0:0:
320,192,52453,1,2,0:0:0:0:
448,192,52453,1,4,0:0:0:0:
192,192,52590,1,0,0:0:0:0:
64,192,52726,1,8,0:0:0:0:
448,192,52726,1,0,0:0:0:0:
320,192,52862,1,0,0:0:0:0:
64,192,52999,1,2,0:0:0:0:
192,192,53135,1,0,0:0:0:0:
320,192,53271,1,8,0:0:0:0:
448,192,53271,1,0,0:0:0:0:
192,192,53408,1,0,0:0:0:0:
64,192,53544,1,2,0:0:0:0:
192,192,53680,1,0,0:0:0:0:
320,192,53817,1,8,0:0:0:0:
448,192,53817,1,0,0:0:0:0:
64,192,53953,1,0,0:0:0:0:
192,192,54090,1,2,0:0:0:0:
320,192,54226,1,0,0:0:0:0:
64,192,54362,1,8,0:0:0:0:
448,192,54362,1,0,0:0:0:0:
192,192,54499,1,0,0:0:0:0:
320,192,54635,1,2,0:0:0:0:
64,192,54771,1,0,0:0:0:0:
192,192,54908,1,8,0:0:0:0:
448,192,54908,1,0,0:0:0:0:
320,192,55044,1,0,0:0:0:0:
192,192,55180,1,2,0:0:0:0:
64,192,55317,1,0,0:0:0:0:
320,192,55453,1,8,0:0:0:0:
448,192,55453,1,0,0:0:0:0:
192,192,55590,1,0,0:0:0:0:
64,192,55726,1,2,0:0:0:0:
320,192,55862,1,0,0:0:0:0:
192,192,55999,1,8,0:0:0:0:
448,192,55999,1,0,0:0:0:0:
64,192,56135,1,0,0:0:0:0:
192,192,56271,1,2,0:0:0:0:
320,192,56408,1,0,0:0:0:0:
64,192,56544,1,8,0:0:0:0:
448,192,56544,1,0,0:0:0:0:
192,192,56680,1,2,0:0:0:0:
320,192,56680,1,0,0:0:0:0:
64,192,56817,1,2,0:0:0:0:
448,192,56817,1,0,0:0:0:0:
320,192,56953,1,0,0:0:0:0:
64,192,57090,1,8,0:0:0:0:
192,192,57090,1,0,0:0:0:0:
320,192,57226,1,0,0:0:0:0:
448,192,57362,1,2,0:0:0:0:
192,192,57499,1,0,0:0:0:0:
64,192,57635,1,8,0:0:0:0:
320,192,57635,1,0,0:0:0:0:
448,192,57771,1,0,0:0:0:0:
192,192,57908,1,2,0:0:0:0:
320,192,58044,1,0,0:0:0:0:
64,192,58180,1,8,0:0:0:0:
448,192,58180,1,0,0:0:0:0:
320,192,58317,1,0,0:0:0:0:
192,192,58453,1,2,0:0:0:0:
64,192,58590,1,0,0:0:0:0:
192,192,58726,1,8,0:0:0:0:
448,192,58726,1,0,0:0:0:0:
320,192,58862,1,0,0:0:0:0:
192,192,58999,1,2,0:0:0:0:
448,192,59135,1,0,0:0:0:0:
64,192,59271,1,8,0:0:0:0:
320,192,59271,1,0,0:0:0:0:
192,192,59408,1,0,0:0:0:0:
320,192,59544,1,2,0:0:0:0:
448,192,59680,1,0,0:0:0:0:
64,192,59817,1,8,0:0:0:0:
192,192,59817,1,0,0:0:0:0:
320,192,59953,1,0,0:0:0:0:
64,192,60090,1,2,0:0:0:0:
448,192,60090,1,0,0:0:0:0:
192,192,60226,1,2,0:0:0:0:
320,192,60226,1,0,0:0:0:0:
64,192,60362,1,8,0:0:0:0:
448,192,60362,1,0,0:0:0:0:
192,192,60635,1,2,0:0:0:0:
320,192,60635,1,0,0:0:0:0:
64,192,60908,128,8,61180:0:0:0:0:
320,192,61180,1,4,0:0:0:0:
448,192,61180,1,2,0:0:0:0:
192,192,61317,1,0,0:0:0:0:
64,192,61453,1,8,0:0:0:0:
448,192,61453,1,0,0:0:0:0:
192,192,61590,1,0,0:0:0:0:
320,192,61726,1,2,0:0:0:0:
64,192,61862,1,0,0:0:0:0:
192,192,61999,1,8,0:0:0:0:
448,192,61999,1,0,0:0:0:0:
320,192,62135,1,0,0:0:0:0:
192,192,62271,1,2,0:0:0:0:
64,192,62408,1,0,0:0:0:0:
320,192,62544,1,8,0:0:0:0:
448,192,62544,1,0,0:0:0:0:
192,192,62680,1,0,0:0:0:0:
64,192,62817,1,2,0:0:0:0:
192,192,62953,1,0,0:0:0:0:
320,192,63090,1,8,0:0:0:0:
448,192,63090,1,0,0:0:0:0:
64,192,63226,1,0,0:0:0:0:
192,192,63362,1,2,0:0:0:0:
448,192,63499,1,0,0:0:0:0:
64,192,63635,1,8,0:0:0:0:
320,192,63635,1,0,0:0:0:0:
192,192,63771,1,0,0:0:0:0:
64,192,63908,1,2,0:0:0:0:
320,192,64044,1,0,0:0:0:0:
192,192,64180,1,8,0:0:0:0:
448,192,64180,1,0,0:0:0:0:
64,192,64317,1,0,0:0:0:0:
448,192,64453,1,2,0:0:0:0:
192,192,64590,1,0,0:0:0:0:
64,192,64726,1,8,0:0:0:0:
320,192,64726,1,0,0:0:0:0:
448,192,64862,1,0,0:0:0:0:
64,192,64999,1,2,0:0:0:0:
192,192,65135,1,0,0:0:0:0:
320,192,65271,1,8,0:0:0:0:
448,192,65271,1,0,0:0:0:0:
64,192,65408,1,2,0:0:0:0:
192,192,65408,1,0,0:0:0:0:
320,192,65544,1,4,0:0:0:0:
448,192,65544,1,2,0:0:0:0:
192,192,65680,1,0,0:0:0:0:
64,192,65817,1,8,0:0:0:0:
448,192,65817,1,0,0:0:0:0:
192,192,65953,1,0,0:0:0:0:
320,192,66090,1,2,0:0:0:0:
64,192,66226,1,0,0:0:0:0:
192,192,66362,1,8,0:0:0:0:
448,192,66362,1,0,0:0:0:0:
320,192,66499,1,0,0:0:0:0:
64,192,66635,1,4,0:0:0:0:
448,192,66635,1,2,0:0:0:0:
192,192,66771,1,0,0:0:0:0:
320,192,66908,1,8,0:0:0:0:
448,192,66908,1,0,0:0:0:0:
192,192,67044,1,0,0:0:0:0:
64,192,67180,1,2,0:0:0:0:
192,192,67317,1,0,0:0:0:0:
320,192,67453,1,8,0:0:0:0:
448,192,67453,1,0,0:0:0:0:
192,192,67590,1,0,0:0:0:0:
64,192,67726,1,4,0:0:0:0:
448,192,67726,1,2,0:0:0:0:
320,192,67862,1,0,0:0:0:0:
192,192,67999,1,8,0:0:0:0:
448,192,67999,1,0,0:0:0:0:
64,192,68135,1,0,0:0:0:0:
192,192,68271,1,4,0:0:0:0:
320,192,68271,1,2,0:0:0:0:
448,192,68408,1,0,0:0:0:0:
64,192,68544,1,8,0:0:0:0:
320,192,68544,1,0,0:0:0:0:
192,192,68680,1,0,0:0:0:0:
320,192,68817,1,4,0:0:0:0:
448,192,68817,1,2,0:0:0:0:
64,192,68953,1,2,0:0:0:0:
192,192,68953,1,0,0:0:0:0:
320,192,69090,1,8,0:0:0:0:
448,192,69090,1,4,0:0:0:0:
64,192,69362,1,4,0:0:0:0:
192,192,69362,1,2,0:0:0:0:
448,192,69635,128,12,69908:0:0:0:0:
64,192,69908,1,2,0:0:0:0:
192,192,69908,1,4,0:0:0:0:
320,192,70044,1,0,0:0:0:0:
64,192,70180,1,8,0:0:0:0:
448,192,70180,1,0,0:0:0:0:
192,192,70316,1,0,0:0:0:0:
320,192,70453,1,2,0:0:0:0:
448,192,70590,1,0,0:0:0:0:
64,192,70728,1,8,0:0:0:0:
192,192,70728,1,0,0:0:0:0:
320,192,70866,1,0,0:0:0:0:
448,192,71004,1,2,0:0:0:0:
192,192,71142,1,0,0:0:0:0:
64,192,71281,1,8,0:0:0:0:
320,192,71281,1,0,0:0:0:0:
448,192,71420,1,0,0:0:0:0:
192,192,71560,1,2,0:0:0:0:
320,192,71700,1,0,0:0:0:0:
64,192,71840,1,8,0:0:0:0:
448,192,71840,1,0,0:0:0:0:
192,192,71980,1,0,0:0:0:0:
320,192,72121,1,2,0:0:0:0:
64,192,72262,1,0,0:0:0:0:
192,192,72404,1,8,0:0:0:0:
448,192,72404,1,0,0:0:0:0:
320,192,72545,1,0,0:0:0:0:
64,192,72687,1,2,0:0:0:0:
192,192,72828,1,0,0:0:0:0:
320,192,72970,1,8,0:0:0:0:
448,192,72970,1,0,0:0:0:0:
64,192,73111,1,0,0:0:0:0:
192,192,73253,1,2,0:0:0:0:
320,192,73394,1,0,0:0:0:0:
64,192,73536,1,8,0:0:0:0:
448,192,73536,1,0,0:0:0:0:
192,192,73677,1,0,0:0:0:0:
320,192,73819,1,2,0:0:0:0:
192,192,73960,1,0,0:0:0:0:
64,192,74102,1,8,0:0:0:0:
448,192,74102,1,0,0:0:0:0:
192,192,74243,1,2,0:0:0:0:
320,192,74243,1,0,0:0:0:0:
64,192,74385,1,6,0:0:0:0:
448,192,74385,1,0,0:0:0:0:
320,192,74535,1,0,0:0:0:0:
64,192,74685,1,8,0:0:0:0:
192,192,74685,1,0,0:0:0:0:
448,192,74835,1,0,0:0:0:0:
320,192,74985,1,2,0:0:0:0:
192,192,75135,1,0,0:0:0:0:
64,192,75285,1,8,0:0:0:0:
448,192,75285,1,0,0:0:0:0:
320,192,75435,1,0,0:0:0:0:
192,192,75585,1,2,0:0:0:0:
448,192,75735,1,0,0:0:0:0:
64,192,75885,1,8,0:0:0:0:
320,192,75885,1,0,0:0:0:0:
192,192,76035,1,0,0:0:0:0:
448,192,76185,1,2,0:0:0:0:
320,192,76335,1,0,0:0:0:0:
64,192,76485,1,8,0:0:0:0:
192,192,76485,1,0,0:0:0:0:
448,192,76635,1,0,0:0:0:0:
320,192,76785,1,2,0:0:0:0:
192,192,76942,1,0,0:0:0:0:
64,192,77100,1,8,0:0:0:0:
448,192,77100,1,0,0:0:0:0:
320,192,77258,1,0,0:0:0:0:
192,192,77416,1,2,0:0:0:0:
64,192,77574,1,0,0:0:0:0:
320,192,77732,1,8,0:0:0:0:
448,192,77732,1,0,0:0:0:0:
192,192,77890,1,0,0:0:0:0:
64,192,78048,1,2,0:0:0:0:
320,192,78206,1,0,0:0:0:0:
192,192,78363,1,8,0:0:0:0:
448,192,78363,1,0,0:0:0:0:
64,192,78521,1,0,0:0:0:0:
320,192,78679,1,2,0:0:0:0:
192,192,78837,1,0,0:0:0:0:
64,192,78995,1,8,0:0:0:0:
448,192,78995,1,0,0:0:0:0:
192,192,79153,1,2,0:0:0:0:
320,192,79153,1,0,0:0:0:0:
64,192,79311,1,6,0:0:0:0:
448,192,79311,1,0,0:0:0:0:
192,192,79477,1,0,0:0:0:0:
320,192,79644,1,8,0:0:0:0:
448,192,79644,1,0,0:0:0:0:
64,192,79811,1,0,0:0:0:0:
192,192,79977,1,2,0:0:0:0:
320,192,80144,1,0,0:0:0:0:
64,192,80311,1,8,0:0:0:0:
448,192,80311,1,0,0:0:0:0:
192,192,80477,1,0,0:0:0:0:
320,192,80644,1,2,0:0:0:0:
64,192,80811,1,0,0:0:0:0:
192,192,80977,1,8,0:0:0:0:
448,192,80977,1,0,0:0:0:0:
320,192,81144,1,0,0:0:0:0:
64,192,81311,1,2,0:0:0:0:
192,192,81477,1,0,0:0:0:0:
320,192,81644,1,8,0:0:0:0:
448,192,81644,1,0,0:0:0:0:
64,192,81811,1,0,0:0:0:0:
192,192,81977,1,2,0:0:0:0:
320,192,82153,1,0,0:0:0:0:
64,192,82329,1,8,0:0:0:0:
448,192,82329,1,0,0:0:0:0:
192,192,82506,1,0,0:0:0:0:
320,192,82682,1,2,0:0:0:0:
448,192,82859,1,0,0:0:0:0:
64,192,83035,1,8,0:0:0:0:
192,192,83035,1,0,0:0:0:0:
320,192,83212,1,0,0:0:0:0:
448,192,83388,1,2,0:0:0:0:
192,192,83565,1,0,0:0:0:0:
64,192,83741,1,8,0:0:0:0:
320,192,83741,1,0,0:0:0:0:
448,192,83918,1,0,0:0:0:0:
192,192,84094,1,2,0:0:0:0:
320,192,84271,1,0,0:0:0:0:
64,192,84447,1,8,0:0:0:0:
448,192,84447,1,0,0:0:0:0:
192,192,84624,1,2,0:0:0:0:
320,192,84624,1,0,0:0:0:0:
64,192,84800,1,6,0:0:0:0:
448,192,84800,1,0,0:0:0:0:
320,192,84987,1,0,0:0:0:0:
64,192,85175,1,8,0:0:0:0:
192,192,85175,1,0,0:0:0:0:
448,192,85362,1,0,0:0:0:0:
320,192,85550,1,2,0:0:0:0:
192,192,85737,1,0,0:0:0:0:
64,192,85925,1,8,0:0:0:0:
448,192,85925,1,0,0:0:0:0:
320,192,86112,1,0,0:0:0:0:
192,192,86300,1,2,0:0:0:0:
64,192,86487,1,0,0:0:0:0:
320,192,86675,1,8,0:0:0:0:
448,192,86675,1,0,0:0:0:0:
192,192,86862,1,0,0:0:0:0:
64,192,87050,1,2,0:0:0:0:
320,192,87237,1,0,0:0:0:0:
192,192,87425,1,8,0:0:0:0:
448,192,87425,1,0,0:0:0:0:
64,192,87612,1,0,0:0:0:0:
320,192,87800,1,2,0:0:0:0:
192,192,88000,1,0,0:0:0:0:
64,192,88200,1,8,0:0:0:0:
448,192,88200,1,0,0:0:0:0:
320,192,88400,1,0,0:0:0:0:
192,192,88600,1,2,0:0:0:0:
64,192,88800,1,0,0:0:0:0:
320,192,89000,1,8,0:0:0:0:
448,192,89000,1,0,0:0:0:0:
192,192,89200,1,0,0:0:0:0:
64,192,89400,1,2,0:0:0:0:
448,192,89400,1,0,0:0:0:0:
192,192,89600,1,2,0:0:0:0:
320,192,89600,1,0,0:0:0:0:
64,192,89800,1,2,0:0:0:0:
448,192,89800,1,0,0:0:0:0:
320,192,90000,1,0,0:0:0:0:
64,192,90200,1,2,0:0:0:0:
192,192,90200,1,0,0:0:0:0:
320,192,90400,1,0,0:0:0:0:
448,192,90600,128,8,91000:0:0:0:0:
64,192,91000,128,4,99727:0:0:0:0:
192,192,91000,1,2,0:0:0:0:
320,192,99863,1,0,0:0:0:0:
192,192,100000,1,0,0:0:0:0:
64,192,100136,1,0,0:0:0:0:
192,192,100409,1,0,0:0:0:0:
320,192,100545,1,0,0:0:0:0:
448,192,100681,1,0,0:0:0:0:
64,192,100954,1,0,0:0:0:0:
192,192,101090,1,0,0:0:0:0:
320,192,101227,1,0,0:0:0:0:
448,192,101500,1,0,0:0:0:0:
320,192,101636,1,0,0:0:0:0:
192,192,101772,1,0,0:0:0:0:
64,192,102045,1,0,0:0:0:0:
192,192,102181,1,0,0:0:0:0:
320,192,102318,1,0,0:0:0:0:
192,192,102590,1,0,0:0:0:0:
320,192,102727,1,0,0:0:0:0:
448,192,102863,1,0,0:0:0:0:
320,192,103136,1,0,0:0:0:0:
192,192,103272,1,0,0:0:0:0:
64,192,103409,1,0,0:0:0:0:
448,192,103681,1,0,0:0:0:0:
320,192,103818,1,0,0:0:0:0:
192,192,103954,1,0,0:0:0:0:
448,192,104227,1,0,0:0:0:0:
320,192,104363,1,0,0:0:0:0:
64,192,104500,1,0,0:0:0:0:
192,192,104636,1,0,0:0:0:0:
320,192,104772,1,0,0:0:0:0:
448,192,104909,1,0,0:0:0:0:
192,192,105045,1,0,0:0:0:0:
64,192,105181,1,0,0:0:0:0:
320,192,105318,1,0,0:0:0:0:
192,192,105454,1,0,0:0:0:0:
448,192,105590,1,0,0:0:0:0:
320,192,105727,1,0,0:0:0:0:
64,192,105863,1,0,0:0:0:0:
192,192,106000,1,0,0:0:0:0:
320,192,106136,1,0,0:0:0:0:
448,192,106272,1,0,0:0:0:0:
192,192,106409,1,0,0:0:0:0:
320,192,106545,1,0,0:0:0:0:
64,192,106681,1,0,0:0:0:0:
192,192,106818,1,0,0:0:0:0:
320,192,106954,1,0,0:0:0:0:
448,192,107090,1,0,0:0:0:0:
320,192,107227,1,0,0:0:0:0:
192,192,107363,1,0,0:0:0:0:
448,192,107500,1,0,0:0:0:0:
320,192,107636,1,0,0:0:0:0:
192,192,107772,1,0,0:0:0:0:
64,192,107909,1,0,0:0:0:0:
192,192,108045,1,0,0:0:0:0:
320,192,108181,1,0,0:0:0:0:
192,192,108318,1,0,0:0:0:0:
64,192,108454,1,0,0:0:0:0:
448,192,108454,1,0,0:0:0:0:
320,192,108590,1,0,0:0:0:0:
192,192,108727,1,0,0:0:0:0:
64,192,108863,1,0,0:0:0:0:
192,192,109000,1,0,0:0:0:0:
320,192,109136,1,0,0:0:0:0:
448,192,109136,1,0,0:0:0:0:
64,192,109272,1,0,0:0:0:0:
192,192,109409,1,0,0:0:0:0:
320,192,109545,1,0,0:0:0:0:
448,192,109545,1,0,0:0:0:0:
64,192,109681,1,0,0:0:0:0:
192,192,109818,1,0,0:0:0:0:
320,192,109954,1,0,0:0:0:0:
448,192,110090,1,0,0:0:0:0:
64,192,110227,1,0,0:0:0:0:
192,192,110227,1,0,0:0:0:0:
320,192,110363,1,0,0:0:0:0:
448,192,110500,1,0,0:0:0:0:
64,192,110636,1,0,0:0:0:0:
192,192,110636,1,0,0:0:0:0:
320,192,110772,1,0,0:0:0:0:
448,192,110909,1,0,0:0:0:0:
320,192,111045,1,0,0:0:0:0:
192,192,111181,1,0,0:0:0:0:
64,192,111318,1,0,0:0:0:0:
448,192,111318,1,0,0:0:0:0:
192,192,111454,1,0,0:0:0:0:
320,192,111590,1,0,0:0:0:0:
64,192,111727,1,0,0:0:0:0:
448,192,111727,1,0,0:0:0:0:
192,192,111863,1,0,0:0:0:0:
320,192,112000,1,0,0:0:0:0:
448,192,112136,1,0,0:0:0:0:
192,192,112272,1,0,0:0:0:0:
64,192,112409,1,0,0:0:0:0:
448,192,112409,1,0,0:0:0:0:
320,192,112545,1,0,0:0:0:0:
192,192,112681,1,0,0:0:0:0:
64,192,112818,1,0,0:0:0:0:
448,192,112818,1,0,0:0:0:0:
192,192,112954,1,0,0:0:0:0:
320,192,113090,1,0,0:0:0:0:
448,192,113227,1,0,0:0:0:0:
320,192,113363,1,0,0:0:0:0:
64,192,113500,1,0,0:0:0:0:
192,192,113500,1,0,0:0:0:0:
448,192,113636,1,0,0:0:0:0:
320,192,113772,1,0,0:0:0:0:
64,192,113909,1,0,0:0:0:0:
192,192,113909,1,0,0:0:0:0:
448,192,114045,1,0,0:0:0:0:
320,192,114181,1,0,0:0:0:0:
192,192,114318,1,0,0:0:0:0:
64,192,114454,1,0,0:0:0:0:
320,192,114590,1,0,0:0:0:0:
448,192,114590,1,0,0:0:0:0:
192,192,114727,1,0,0:0:0:0:
64,192,114863,1,0,0:0:0:0:
320,192,115000,1,0,0:0:0:0:
448,192,115000,1,0,0:0:0:0:
192,192,115136,1,0,0:0:0:0:
64,192,115272,1,0,0:0:0:0:
192,192,115409,1,0,0:0:0:0:
320,192,115545,1,0,0:0:0:0:
64,192,115681,1,0,0:0:0:0:
448,192,115681,1,0,0:0:0:0:
320,192,115818,1,0,0:0:0:0:
192,192,115954,1,0,0:0:0:0:
64,192,116090,1,0,0:0:0:0:
448,192,116090,1,0,0:0:0:0:
192,192,116227,1,0,0:0:0:0:
320,192,116363,1,0,0:0:0:0:
448,192,116500,1,0,0:0:0:0:
192,192,116636,1,0,0:0:0:0:
64,192,116772,1,0,0:0:0:0:
320,192,116772,1,0,0:0:0:0:
448,192,116909,1,0,0:0:0:0:
192,192,117045,1,0,0:0:0:0:
64,192,117181,1,0,0:0:0:0:
320,192,117181,1,0,0:0:0:0:
448,192,117318,1,0,0:0:0:0:
192,192,117454,1,0,0:0:0:0:
64,192,117590,1,0,0:0:0:0:
192,192,117727,1,0,0:0:0:0:
320,192,117863,1,0,0:0:0:0:
448,192,117863,1,0,0:0:0:0:
64,192,118000,1,0,0:0:0:0:
192,192,118136,1,0,0:0:0:0:
320,192,118272,1,0,0:0:0:0:
448,192,118272,1,0,0:0:0:0:
64,192,118409,1,0,0:0:0:0:
192,192,118545,1,0,0:0:0:0:
320,192,118681,1,0,0:0:0:0:
448,192,118818,1,0,0:0:0:0:
64,192,118954,1,0,0:0:0:0:
192,192,118954,1,0,0:0:0:0:
320,192,119090,1,0,0:0:0:0:
448,192,119227,1,0,0:0:0:0:
64,192,119363,1,0,0:0:0:0:
192,192,119363,1,0,0:0:0:0:
320,192,119500,1,0,0:0:0:0:
448,192,119636,1,0,0:0:0:0:
320,192,119772,1,0,0:0:0:0:
192,192,119909,1,0,0:0:0:0:
64,192,120045,1,0,0:0:0:0:
448,192,120045,1,0,0:0:0:0:
192,192,120181,1,0,0:0:0:0:
320,192,120318,1,0,0:0:0:0:
64,192,120454,1,0,0:0:0:0:
448,192,120454,1,0,0:0:0:0:
192,192,120590,1,0,0:0:0:0:
320,192,120727,1,0,0:0:0:0:
448,192,120863,1,0,0:0:0:0:
192,192,121000,1,0,0:0:0:0:
64,192,121136,1,0,0:0:0:0:
448,192,121136,1,0,0:0:0:0:
320,192,121272,1,0,0:0:0:0:
192,192,121409,1,0,0:0:0:0:
64,192,121545,1,0,0:0:0:0:
448,192,121545,1,0,0:0:0:0:
192,192,121681,1,0,0:0:0:0:
320,192,121818,1,0,0:0:0:0:
448,192,121954,1,0,0:0:0:0:
320,192,122090,1,0,0:0:0:0:
64,192,122227,1,0,0:0:0:0:
192,192,122227,1,0,0:0:0:0:
448,192,122363,1,0,0:0:0:0:
320,192,122500,1,0,0:0:0:0:
64,192,122636,1,0,0:0:0:0:
192,192,122636,1,0,0:0:0:0:
448,192,122772,1,0,0:0:0:0:
320,192,122909,1,0,0:0:0:0:
192,192,123045,1,0,0:0:0:0:
64,192,123181,1,0,0:0:0:0:
320,192,123318,1,0,0:0:0:0:
448,192,123318,1,0,0:0:0:0:
192,192,123454,1,0,0:0:0:0:
64,192,123590,1,0,0:0:0:0:
320,192,123727,1,0,0:0:0:0:
448,192,123727,1,0,0:0:0:0:
192,192,123863,1,0,0:0:0:0:
64,192,124000,1,0,0:0:0:0:
192,192,124136,1,0,0:0:0:0:
320,192,124272,1,0,0:0:0:0:
64,192,124409,1,0,0:0:0:0:
448,192,124409,1,0,0:0:0:0:
320,192,124545,1,0,0:0:0:0:
192,192,124681,1,0,0:0:0:0:
64,192,124818,1,0,0:0:0:0:
448,192,124818,1,0,0:0:0:0:
192,192,124954,1,0,0:0:0:0:
320,192,125090,1,0,0:0:0:0:
448,192,125227,1,0,0:0:0:0:
192,192,125363,1,0,0:0:0:0:
64,192,125500,1,0,0:0:0:0:
320,192,125500,1,0,0:0:0:0:
448,192,125636,1,0,0:0:0:0:
320,192,125772,1,0,0:0:0:0:
64,192,125909,128,4,126181:0:0:0:0:
192,192,125909,1,0,0:0:0:0:
192,192,126454,128,0,126727:0:0:0:0:
320,192,126727,128,0,127000:0:0:0:0:
448,192,127000,128,0,127272:0:0:0:0:
192,192,127272,128,0,127545:0:0:0:0:
64,192,127545,128,0,127818:0:0:0:0:
320,192,127818,128,0,128090:0:0:0:0:
192,192,128090,128,0,128363:0:0:0:0:
448,192,128636,128,0,128909:0:0:0:0:
320,192,128909,128,0,129181:0:0:0:0:
64,192,129181,128,0,129454:0:0:0:0:
320,192,129454,128,0,129727:0:0:0:0:
448,192,129727,128,0,130000:0:0:0:0:
192,192,130000,128,0,130272:0:0:0:0:
320,192,130272,128,0,130545:0:0:0:0:
192,192,130818,128,0,131090:0:0:0:0:
320,192,131090,128,0,131363:0:0:0:0:
64,192,131363,128,0,131636:0:0:0:0:
192,192,131636,128,0,131909:0:0:0:0:
448,192,131909,128,0,132181:0:0:0:0:
192,192,132181,128,0,132454:0:0:0:0:
320,192,132454,128,0,132727:0:0:0:0:
64,192,133000,128,0,133272:0:0:0:0:
192,192,133272,128,0,133545:0:0:0:0:
448,192,133545,128,0,133818:0:0:0:0:
64,192,133818,128,0,134090:0:0:0:0:
320,192,134090,128,0,134363:0:0:0:0:
192,192,134363,128,0,134636:0:0:0:0:
448,192,134636,128,0,134909:0:0:0:0:
192,192,135181,128,0,135454:0:0:0:0:
320,192,135454,128,0,135727:0:0:0:0:
448,192,135727,128,0,136000:0:0:0:0:
192,192,136000,128,0,136272:0:0:0:0:
64,192,136272,128,0,136545:0:0:0:0:
320,192,136545,128,0,136818:0:0:0:0:
192,192,136818,128,0,137090:0:0:0:0:
448,192,137363,128,0,137636:0:0:0:0:
320,192,137636,128,0,137909:0:0:0:0:
64,192,137909,128,0,138181:0:0:0:0:
192,192,138181,128,0,138454:0:0:0:0:
448,192,138454,128,0,138727:0:0:0:0:
64,192,138727,128,0,139000:0:0:0:0:
320,192,139000,128,0,139272:0:0:0:0:
192,192,139545,128,0,139818:0:0:0:0:
320,192,139818,128,0,140090:0:0:0:0:
64,192,140090,128,0,140363:0:0:0:0:
192,192,140363,128,0,140636:0:0:0:0:
448,192,140636,128,0,140909:0:0:0:0:
64,192,140909,128,0,141181:0:0:0:0:
192,192,141181,128,0,141454:0:0:0:0:
320,192,141727,128,0,142000:0:0:0:0:
448,192,142000,128,0,142272:0:0:0:0:
192,192,142272,128,0,142545:0:0:0:0:
64,192,142545,128,0,142818:0:0:0:0:
320,192,142818,128,0,143090:0:0:0:0:
192,192,143090,128,0,143363:0:0:0:0:
64,192,143363,1,2,0:0:0:0:
448,192,143363,1,4,0:0:0:0:
320,192,143500,1,0,0:0:0:0:
192,192,143636,1,8,0:0:0:0:
64,192,143772,1,0,0:0:0:0:
192,192,143909,1,0,0:0:0:0:
320,192,144045,1,2,0:0:0:0:
448,192,144181,1,8,0:0:0:0:
320,192,144318,1,0,0:0:0:0:
64,192,144454,1,2,0:0:0:0:
192,192,144590,1,0,0:0:0:0:
320,192,144727,1,8,0:0:0:0:
64,192,144863,1,0,0:0:0:0:
448,192,145000,1,0,0:0:0:0:
192,192,145136,1,2,0:0:0:0:
320,192,145272,1,8,0:0:0:0:
64,192,145409,1,0,0:0:0:0:
192,192,145545,1,2,0:0:0:0:
448,192,145681,1,0,0:0:0:0:
320,192,145818,1,8,0:0:0:0:
64,192,145954,1,0,0:0:0:0:
192,192,146090,1,0,0:0:0:0:
448,192,146227,1,2,0:0:0:0:
64,192,146363,1,8,0:0:0:0:
320,192,146500,1,0,0:0:0:0:
448,192,146636,1,2,0:0:0:0:
192,192,146772,1,0,0:0:0:0:
320,192,146909,1,8,0:0:0:0:
64,192,147045,1,0,0:0:0:0:
320,192,147181,1,0,0:0:0:0:
192,192,147318,1,2,0:0:0:0:
448,192,147454,1,8,0:0:0:0:
192,192,147590,1,0,0:0:0:0:
320,192,147727,1,2,0:0:0:0:
64,192,147863,1,0,0:0:0:0:
192,192,148000,1,8,0:0:0:0:
448,192,148136,1,0,0:0:0:0:
320,192,148272,1,2,0:0:0:0:
192,192,148409,1,2,0:0:0:0:
64,192,148545,1,8,0:0:0:0:
320,192,148681,1,0,0:0:0:0:
192,192,148818,1,2,0:0:0:0:
448,192,148954,1,0,0:0:0:0:
320,192,149090,1,8,0:0:0:0:
64,192,149227,1,0,0:0:0:0:
192,192,149363,1,2,0:0:0:0:
320,192,149500,1,2,0:0:0:0:
448,192,149636,1,8,0:0:0:0:
320,192,149772,1,2,0:0:0:0:
192,192,149909,1,2,0:0:0:0:
448,192,150045,1,0,0:0:0:0:
64,192,150181,1,8,0:0:0:0:
320,192,150318,1,0,0:0:0:0:
192,192,150454,1,2,0:0:0:0:
448,192,150590,1,2,0:0:0:0:
320,192,150727,1,8,0:0:0:0:
64,192,150863,1,0,0:0:0:0:
192,192,151000,1,2,0:0:0:0:
320,192,151136,1,0,0:0:0:0:
448,192,151272,1,8,0:0:0:0:
64,192,151409,1,0,0:0:0:0:
192,192,151545,1,2,0:0:0:0:
320,192,151681,1,2,0:0:0:0:
448,192,151818,128,8,152090:0:0:0:0:
64,192,152090,1,4,0:0:0:0:
192,192,152090,1,2,0:0:0:0:
320,192,152227,1,0,0:0:0:0:
448,192,152363,1,8,0:0:0:0:
320,192,152500,1,0,0:0:0:0:
192,192,152636,1,2,0:0:0:0:
64,192,152772,1,2,0:0:0:0:
448,192,152909,1,8,0:0:0:0:
320,192,153045,1,0,0:0:0:0:
192,192,153181,1,2,0:0:0:0:
64,192,153318,1,0,0:0:0:0:
192,192,153454,1,8,0:0:0:0:
320,192,153590,1,0,0:0:0:0:
448,192,153727,1,2,0:0:0:0:
64,192,153863,1,2,0:0:0:0:
448,192,154000,1,8,0:0:0:0:
64,192,154136,1,2,0:0:0:0:
320,192,154272,1,2,0:0:0:0:
448,192,154272,1,4,0:0:0:0:
192,192,154409,1,0,0:0:0:0:
64,192,154545,1,8,0:0:0:0:
192,192,154681,1,0,0:0:0:0:
320,192,154818,1,2,0:0:0:0:
448,192,154954,1,2,0:0:0:0:
64,192,155090,1,8,0:0:0:0:
192,192,155227,1,0,0:0:0:0:
320,192,155363,1,2,0:0:0:0:
448,192,155500,1,0,0:0:0:0:
320,192,155636,1,8,0:0:0:0:
192,192,155772,1,0,0:0:0:0:
64,192,155909,1,2,0:0:0:0:
448,192,156045,1,2,0:0:0:0:
64,192,156181,128,8,156454:0:0:0:0:
320,192,156454,1,2,0:0:0:0:
448,192,156454,1,4,0:0:0:0:
192,192,156590,1,8,0:0:0:0:
64,192,156727,1,2,0:0:0:0:
448,192,156727,1,0,0:0:0:0:
320,192,156863,1,8,0:0:0:0:
64,192,157000,1,2,0:0:0:0:
192,192,157000,1,0,0:0:0:0:
320,192,157136,1,8,0:0:0:0:
64,192,157272,1,2,0:0:0:0:
448,192,157272,1,0,0:0:0:0:
192,192,157409,1,8,0:0:0:0:
320,192,157545,1,2,0:0:0:0:
448,192,157545,1,4,0:0:0:0:
192,192,157681,1,8,0:0:0:0:
64,192,157818,1,2,0:0:0:0:
448,192,157818,1,0,0:0:0:0:
320,192,157954,1,8,0:0:0:0:
64,192,158090,1,2,0:0:0:0:
192,192,158090,1,0,0:0:0:0:
320,192,158227,1,8,0:0:0:0:
64,192,158363,1,2,0:0:0:0:
448,192,158363,1,0,0:0:0:0:
192,192,158500,1,8,0:0:0:0:
320,192,158636,128,2,159181:0:0:0:0:
448,192,158636,128,4,159181:0:0:0:0:
64,192,159181,128,2,159727:0:0:0:0:
192,192,159181,128,4,159727:0:0:0:0:
320,192,159727,1,2,0:0:0:0:
448,192,159727,1,4,0:0:0:0:
64,192,160000,1,2,0:0:0:0:
192,192,160000,1,4,0:0:0:0:
320,192,160272,1,2,0:0:0:0:
448,192,160272,1,4,0:0:0:0:
64,192,160545,1,4,0:0:0:0:
192,192,160545,1,8,0:0:0:0:
320,192,160681,1,2,0:0:0:0:
448,192,160681,1,0,0:0:0:0:
64,192,160818,1,6,0:0:0:0:
192,192,160818,1,0,0:0:0:0:
320,192,160954,1,0,0:0:0:0:
64,192,161090,1,8,0:0:0:0:
192,192,161090,1,0,0:0:0:0:
448,192,161090,1,0,0:0:0:0:
320,192,161227,1,0,0:0:0:0:
192,192,161363,1,2,0:0:0:0:
64,192,161500,1,0,0:0:0:0:
192,192,161636,1,8,0:0:0:0:
320,192,161636,1,0,0:0:0:0:
448,192,161636,1,0,0:0:0:0:
64,192,161772,1,0,0:0:0:0:
320,192,161909,1,2,0:0:0:0:
192,192,162045,1,0,0:0:0:0:
64,192,162181,1,8,0:0:0:0:
320,192,162181,1,0,0:0:0:0:
448,192,162181,1,0,0:0:0:0:
192,192,162318,1,0,0:0:0:0:
448,192,162454,1,2,0:0:0:0:
320,192,162590,1,0,0:0:0:0:
64,192,162727,1,8,0:0:0:0:
192,192,162727,1,0,0:0:0:0:
448,192,162727,1,0,0:0:0:0:
320,192,162863,1,0,0:0:0:0:
192,192,163000,1,2,0:0:0:0:
448,192,163136,1,0,0:0:0:0:
64,192,163272,1,8,0:0:0:0:
192,192,163272,1,0,0:0:0:0:
320,192,163272,1,0,0:0:0:0:
448,192,163409,1,0,0:0:0:0:
64,192,163545,1,2,0:0:0:0:
192,192,163681,1,0,0:0:0:0:
64,192,163818,1,8,0:0:0:0:
320,192,163818,1,0,0:0:0:0:
448,192,163818,1,0,0:0:0:0:
192,192,163954,1,0,0:0:0:0:
320,192,164090,1,2,0:0:0:0:
448,192,164227,1,0,0:0:0:0:
64,192,164363,1,8,0:0:0:0:
192,192,164363,1,0,0:0:0:0:
320,192,164363,1,0,0:0:0:0:
448,192,164500,1,0,0:0:0:0:
192,192,164636,1,2,0:0:0:0:
64,192,164772,1,0,0:0:0:0:
320,192,164909,1,8,0:0:0:0:
448,192,164909,1,0,0:0:0:0:
64,192,165045,1,2,0:0:0:0:
192,192,165045,1,0,0:0:0:0:
320,192,165181,1,2,0:0:0:0:
448,192,165181,1,0,0:0:0:0:
192,192,165318,1,0,0:0:0:0:
64,192,165454,1,8,0:0:0:0:
320,192,165454,1,0,0:0:0:0:
448,192,165454,1,0,0:0:0:0:
192,192,165590,1,0,0:0:0:0:
448,192,165727,1,2,0:0:0:0:
320,192,165863,1,0,0:0:0:0:
64,192,166000,1,8,0:0:0:0:
192,192,166000,1,0,0:0:0:0:
448,192,166000,1,0,0:0:0:0:
320,192,166136,1,0,0:0:0:0:
192,192,166272,1,2,0:0:0:0:
64,192,166409,1,0,0:0:0:0:
192,192,166545,1,8,0:0:0:0:
320,192,166545,1,0,0:0:0:0:
448,192,166545,1,0,0:0:0:0:
64,192,166681,1,0,0:0:0:0:
192,192,166818,1,2,0:0:0:0:
448,192,166954,1,0,0:0:0:0:
64,192,167090,1,8,0:0:0:0:
192,192,167090,1,0,0:0:0:0:
320,192,167090,1,0,0:0:0:0:
448,192,167227,1,0,0:0:0:0:
64,192,167363,1,2,0:0:0:0:
320,192,167500,1,0,0:0:0:0:
64,192,167636,1,8,0:0:0:0:
192,192,167636,1,0,0:0:0:0:
448,192,167636,1,0,0:0:0:0:
320,192,167772,1,0,0:0:0:0:
192,192,167909,1,2,0:0:0:0:
448,192,168045,1,0,0:0:0:0:
64,192,168181,1,8,0:0:0:0:
192,192,168181,1,0,0:0:0:0:
320,192,168181,1,0,0:0:0:0:
448,192,168318,1,0,0:0:0:0:
64,192,168454,1,2,0:0:0:0:
192,192,168454,1,0,0:0:0:0:
320,192,168590,1,2,0:0:0:0:
448,192,168590,1,0,0:0:0:0:
64,192,168727,1,8,0:0:0:0:
192,192,168727,1,0,0:0:0:0:
320,192,169000,1,2,0:0:0:0:
448,192,169000,1,0,0:0:0:0:
64,192,169272,128,8,169545:0:0:0:0:
320,192,169545,1,4,0:0:0:0:
448,192,169545,1,2,0:0:0:0:
192,192,169681,1,0,0:0:0:0:
64,192,169818,1,8,0:0:0:0:
320,192,169818,1,0,0:0:0:0:
448,192,169818,1,0,0:0:0:0:
192,192,169954,1,0,0:0:0:0:
320,192,170090,1,2,0:0:0:0:
448,192,170227,1,0,0:0:0:0:
64,192,170363,1,8,0:0:0:0:
192,192,170363,1,0,0:0:0:0:
320,192,170363,1,0,0:0:0:0:
448,192,170500,1,0,0:0:0:0:
192,192,170636,1,2,0:0:0:0:
320,192,170772,1,0,0:0:0:0:
64,192,170909,1,8,0:0:0:0:
192,192,170909,1,0,0:0:0:0:
448,192,170909,1,0,0:0:0:0:
320,192,171045,1,0,0:0:0:0:
64,192,171181,1,2,0:0:0:0:
192,192,171318,1,0,0:0:0:0:
64,192,171454,1,8,0:0:0:0:
320,192,171454,1,0,0:0:0:0:
448,192,171454,1,0,0:0:0:0:
192,192,171590,1,0,0:0:0:0:
320,192,171727,1,2,0:0:0:0:
64,192,171863,1,0,0:0:0:0:
192,192,172000,1,8,0:0:0:0:
320,192,172000,1,0,0:0:0:0:
448,192,172000,1,0,0:0:0:0:
64,192,172136,1,0,0:0:0:0:
448,192,172272,1,2,0:0:0:0:
320,192,172409,1,0,0:0:0:0:
64,192,172545,1,8,0:0:0:0:
192,192,172545,1,0,0:0:0:0:
448,192,172545,1,0,0:0:0:0:
320,192,172681,1,0,0:0:0:0:
192,192,172818,1,2,0:0:0:0:
64,192,172954,1,0,0:0:0:0:
192,192,173090,1,8,0:0:0:0:
320,192,173090,1,0,0:0:0:0:
448,192,173090,1,0,0:0:0:0:
64,192,173227,1,0,0:0:0:0:
320,192,173363,1,2,0:0:0:0:
448,192,173500,1,0,0:0:0:0:
64,192,173636,1,8,0:0:0:0:
192,192,173636,1,0,0:0:0:0:
320,192,173772,1,2,0:0:0:0:
448,192,173772,1,0,0:0:0:0:
64,192,173909,1,2,0:0:0:0:
192,192,173909,1,0,0:0:0:0:
320,192,174045,1,0,0:0:0:0:
64,192,174181,1,8,0:0:0:0:
192,192,174181,1,0,0:0:0:0:
448,192,174181,1,0,0:0:0:0:
320,192,174318,1,0,0:0:0:0:
64,192,174454,1,2,0:0:0:0:
192,192,174590,1,0,0:0:0:0:
64,192,174727,1,8,0:0:0:0:
320,192,174727,1,0,0:0:0:0:
448,192,174727,1,0,0:0:0:0:
192,192,174863,1,0,0:0:0:0:
320,192,175000,1,2,0:0:0:0:
448,192,175136,1,0,0:0:0:0:
64,192,175272,1,8,0:0:0:0:
192,192,175272,1,0,0:0:0:0:
320,192,175272,1,0,0:0:0:0:
448,192,175409,1,0,0:0:0:0:
320,192,175545,1,2,0:0:0:0:
64,192,175681,1,0,0:0:0:0:
192,192,175818,1,8,0:0:0:0:
320,192,175818,1,0,0:0:0:0:
448,192,175818,1,0,0:0:0:0:
64,192,175954,1,0,0:0:0:0:
448,192,176090,1,2,0:0:0:0:
192,192,176227,1,0,0:0:0:0:
64,192,176363,1,8,0:0:0:0:
320,192,176363,1,0,0:0:0:0:
448,192,176363,1,0,0:0:0:0:
192,192,176500,1,0,0:0:0:0:
320,192,176636,1,2,0:0:0:0:
64,192,176772,1,0,0:0:0:0:
192,192,176909,1,8,0:0:0:0:
320,192,176909,1,0,0:0:0:0:
448,192,176909,1,0,0:0:0:0:
64,192,177045,1,0,0:0:0:0:
448,192,177181,1,2,0:0:0:0:
320,192,177250,1,2,0:0:0:0:
192,192,177318,1,2,0:0:0:0:
64,192,177386,1,2,0:0:0:0:
320,192,177454,1,8,0:0:0:0:
448,192,177454,1,0,0:0:0:0:
64,192,177727,1,2,0:0:0:0:
192,192,177727,1,0,0:0:0:0:
448,192,177863,128,8,178000:0:0:0:0:
64,192,178000,1,2,0:0:0:0:
192,192,178000,1,0,0:0:0:0:
448,192,178136,128,8,178272:0:0:0:0:
64,192,178272,1,4,0:0:0:0:
192,192,178272,1,2,0:0:0:0:
320,192,178409,1,0,0:0:0:0:
64,192,178545,1,8,0:0:0:0:
192,192,178545,1,0,0:0:0:0:
448,192,178545,1,0,0:0:0:0:
320,192,178681,1,0,0:0:0:0:
192,192,178818,1,2,0:0:0:0:
64,192,178954,1,0,0:0:0:0:
192,192,179090,1,8,0:0:0:0:
320,192,179090,1,0,0:0:0:0:
448,192,179090,1,0,0:0:0:0:
64,192,179227,1,0,0:0:0:0:
320,192,179363,1,2,0:0:0:0:
192,192,179500,1,0,0:0:0:0:
64,192,179636,1,8,0:0:0:0:
320,192,179636,1,0,0:0:0:0:
448,192,179636,1,0,0:0:0:0:
192,192,179772,1,0,0:0:0:0:
448,192,179909,1,2,0:0:0:0:
320,192,180045,1,0,0:0:0:0:
64,192,180181,1,8,0:0:0:0:
192,192,180181,1,0,0:0:0:0:
448,192,180181,1,0,0:0:0:0:
320,192,180318,1,0,0:0:0:0:
192,192,180454,1,2,0:0:0:0:
448,192,180590,1,0,0:0:0:0:
64,192,180727,1,8,0:0:0:0:
192,192,180727,1,0,0:0:0:0:
320,192,180727,1,0,0:0:0:0:
448,192,180863,1,0,0:0:0:0:
64,192,181000,1,2,0:0:0:0:
192,192,181136,1,0,0:0:0:0:
64,192,181272,1,8,0:0:0:0:
320,192,181272,1,0,0:0:0:0:
448,192,181272,1,0,0:0:0:0:
192,192,181409,1,0,0:0:0:0:
320,192,181545,1,2,0:0:0:0:
448,192,181681,1,0,0:0:0:0:
64,192,181818,1,8,0:0:0:0:
192,192,181818,1,0,0:0:0:0:
320,192,181818,1,0,0:0:0:0:
448,192,181954,1,0,0:0:0:0:
192,192,182090,1,2,0:0:0:0:
64,192,182227,1,0,0:0:0:0:
320,192,182363,1,8,0:0:0:0:
448,192,182363,1,0,0:0:0:0:
64,192,182500,1,2,0:0:0:0:
192,192,182500,1,0,0:0:0:0:
320,192,182636,1,2,0:0:0:0:
448,192,182636,1,0,0:0:0:0:
192,192,182772,1,0,0:0:0:0:
64,192,182909,1,8,0:0:0:0:
320,192,182909,1,0,0:0:0:0:
448,192,182909,1,0,0:0:0:0:
192,192,183045,1,0,0:0:0:0:
448,192,183181,1,2,0:0:0:0:
320,192,183318,1,0,0:0:0:0:
64,192,183454,1,8,0:0:0:0:
192,192,183454,1,0,0:0:0:0:
448,192,183454,1,0,0:0:0:0:
320,192,183590,1,0,0:0:0:0:
192,192,183727,1,2,0:0:0:0:
64,192,183863,1,0,0:0:0:0:
192,192,184000,1,8,0:0:0:0:
320,192,184000,1,0,0:0:0:0:
448,192,184000,1,0,0:0:0:0:
64,192,184136,1,0,0:0:0:0:
192,192,184272,1,2,0:0:0:0:
448,192,184409,1,0,0:0:0:0:
64,192,184545,1,8,0:0:0:0:
192,192,184545,1,0,0:0:0:0:
320,192,184545,1,0,0:0:0:0:
448,192,184681,1,0,0:0:0:0:
64,192,184818,1,2,0:0:0:0:
320,192,184954,1,0,0:0:0:0:
64,192,185090,1,8,0:0:0:0:
192,192,185090,1,0,0:0:0:0:
448,192,185090,1,0,0:0:0:0:
320,192,185227,1,0,0:0:0:0:
192,192,185363,1,2,0:0:0:0:
448,192,185500,1,0,0:0:0:0:
64,192,185636,1,8,0:0:0:0:
192,192,185636,1,0,0:0:0:0:
320,192,185636,1,0,0:0:0:0:
448,192,185772,1,0,0:0:0:0:
64,192,185909,1,2,0:0:0:0:
192,192,185909,1,0,0:0:0:0:
320,192,186045,1,2,0:0:0:0:
448,192,186045,1,0,0:0:0:0:
64,192,186181,1,8,0:0:0:0:
192,192,186181,1,0,0:0:0:0:
320,192,186454,1,2,0:0:0:0:
448,192,186454,1,0,0:0:0:0:
64,192,186727,128,8,187000:0:0:0:0:
320,192,187000,1,2,0:0:0:0:
448,192,187000,1,4,0:0:0:0:
192,192,187136,1,0,0:0:0:0:
64,192,187272,1,8,0:0:0:0:
320,192,187272,1,0,0:0:0:0:
448,192,187272,1,0,0:0:0:0:
192,192,187409,1,0,0:0:0:0:
320,192,187545,1,2,0:0:0:0:
448,192,187681,1,0,0:0:0:0:
64,192,187818,1,8,0:0:0:0:
192,192,187818,1,0,0:0:0:0:
320,192,187818,1,0,0:0:0:0:
448,192,187954,1,0,0:0:0:0:
192,192,188090,1,2,0:0:0:0:
320,192,188227,1,0,0:0:0:0:
64,192,188363,1,8,0:0:0:0:
192,192,188363,1,0,0:0:0:0:
448,192,188363,1,0,0:0:0:0:
320,192,188500,1,0,0:0:0:0:
64,192,188636,1,2,0:0:0:0:
192,192,188772,1,0,0:0:0:0:
64,192,188909,1,8,0:0:0:0:
320,192,188909,1,0,0:0:0:0:
448,192,188909,1,0,0:0:0:0:
192,192,189045,1,0,0:0:0:0:
320,192,189181,1,2,0:0:0:0:
64,192,189318,1,0,0:0:0:0:
192,192,189454,1,8,0:0:0:0:
320,192,189454,1,0,0:0:0:0:
448,192,189454,1,0,0:0:0:0:
64,192,189590,1,0,0:0:0:0:
448,192,189727,1,2,0:0:0:0:
320,192,189863,1,0,0:0:0:0:
64,192,190000,1,8,0:0:0:0:
192,192,190000,1,0,0:0:0:0:
448,192,190000,1,0,0:0:0:0:
320,192,190136,1,0,0:0:0:0:
192,192,190272,1,2,0:0:0:0:
64,192,190409,1,0,0:0:0:0:
192,192,190545,1,8,0:0:0:0:
320,192,190545,1,0,0:0:0:0:
448,192,190545,1,0,0:0:0:0:
64,192,190681,1,0,0:0:0:0:
320,192,190818,1,2,0:0:0:0:
448,192,190954,1,0,0:0:0:0:
64,192,191090,1,8,0:0:0:0:
192,192,191090,1,0,0:0:0:0:
320,192,191227,1,2,0:0:0:0:
448,192,191227,1,0,0:0:0:0:
64,192,191363,1,2,0:0:0:0:
192,192,191363,1,0,0:0:0:0:
320,192,191500,1,0,0:0:0:0:
64,192,191636,1,8,0:0:0:0:
192,192,191636,1,0,0:0:0:0:
448,192,191636,1,0,0:0:0:0:
320,192,191772,1,0,0:0:0:0:
64,192,191909,1,2,0:0:0:0:
192,192,192045,1,0,0:0:0:0:
64,192,192181,1,8,0:0:0:0:
320,192,192181,1,0,0:0:0:0:
448,192,192181,1,0,0:0:0:0:
192,192,192318,1,0,0:0:0:0:
320,192,192454,1,2,0:0:0:0:
448,192,192590,1,0,0:0:0:0:
64,192,192727,1,8,0:0:0:0:
192,192,192727,1,0,0:0:0:0:
320,192,192727,1,0,0:0:0:0:
448,192,192863,1,0,0:0:0:0:
320,192,193000,1,2,0:0:0:0:
64,192,193136,1,0,0:0:0:0:
192,192,193272,1,8,0:0:0:0:
320,192,193272,1,0,0:0:0:0:
448,192,193272,1,0,0:0:0:0:
64,192,193409,1,0,0:0:0:0:
448,192,193545,1,2,0:0:0:0:
192,192,193681,1,0,0:0:0:0:
64,192,193818,1,8,0:0:0:0:
320,192,193818,1,0,0:0:0:0:
448,192,193818,1,0,0:0:0:0:
192,192,193954,1,0,0:0:0:0:
320,192,194090,1,2,0:0:0:0:
64,192,194227,1,0,0:0:0:0:
192,192,194363,1,8,0:0:0:0:
320,192,194363,1,0,0:0:0:0:
448,192,194363,1,0,0:0:0:0:
64,192,194500,1,0,0:0:0:0:
320,192,194636,1,6,0:0:0:0:
448,192,194636,1,0,0:0:0:0:
64,192,194772,1,2,0:0:0:0:
192,192,194772,1,0,0:0:0:0:
320,192,194909,1,8,0:0:0:0:
448,192,194909,1,0,0:0:0:0:
64,192,195181,1,2,0:0:0:0:
192,192,195181,1,0,0:0:0:0:
448,192,195454,128,12,195727:0:0:0:0:
64,192,195727,1,2,0:0:0:0:
192,192,195727,1,4,0:0:0:0:
320,192,195863,1,0,0:0:0:0:
64,192,196000,1,8,0:0:0:0:
192,192,196000,1,0,0:0:0:0:
448,192,196000,1,0,0:0:0:0:
320,192,196136,1,0,0:0:0:0:
192,192,196272,1,2,0:0:0:0:
64,192,196409,1,0,0:0:0:0:
192,192,196545,1,8,0:0:0:0:
320,192,196545,1,0,0:0:0:0:
448,192,196545,1,0,0:0:0:0:
64,192,196681,1,0,0:0:0:0:
320,192,196818,1,2,0:0:0:0:
192,192,196954,1,0,0:0:0:0:
64,192,197090,1,8,0:0:0:0:
320,192,197090,1,0,0:0:0:0:
448,192,197090,1,0,0:0:0:0:
192,192,197227,1,0,0:0:0:0:
448,192,197363,1,2,0:0:0:0:
320,192,197500,1,0,0:0:0:0:
64,192,197636,1,8,0:0:0:0:
192,192,197636,1,0,0:0:0:0:
448,192,197636,1,0,0:0:0:0:
320,192,197772,1,0,0:0:0:0:
192,192,197909,1,2,0:0:0:0:
448,192,198045,1,0,0:0:0:0:
64,192,198181,1,8,0:0:0:0:
192,192,198181,1,0,0:0:0:0:
320,192,198181,1,0,0:0:0:0:
448,192,198318,1,0,0:0:0:0:
64,192,198454,1,2,0:0:0:0:
192,192,198590,1,0,0:0:0:0:
64,192,198727,1,8,0:0:0:0:
320,192,198727,1,0,0:0:0:0:
448,192,198727,1,0,0:0:0:0:
192,192,198863,1,0,0:0:0:0:
320,192,199000,1,2,0:0:0:0:
448,192,199136,1,0,0:0:0:0:
64,192,199272,1,8,0:0:0:0:
192,192,199272,1,0,0:0:0:0:
320,192,199272,1,0,0:0:0:0:
448,192,199409,1,0,0:0:0:0:
192,192,199545,1,2,0:0:0:0:
64,192,199681,1,0,0:0:0:0:
320,192,199818,1,8,0:0:0:0:
448,192,199818,1,0,0:0:0:0:
64,192,199954,1,2,0:0:0:0:
192,192,199954,1,0,0:0:0:0:
320,192,200090,1,2,0:0:0:0:
448,192,200090,1,0,0:0:0:0:
192,192,200227,1,0,0:0:0:0:
64,192,200363,1,8,0:0:0:0:
320,192,200363,1,0,0:0:0:0:
448,192,200363,1,0,0:0:0:0:
192,192,200500,1,0,0:0:0:0:
448,192,200636,1,2,0:0:0:0:
320,192,200772,1,0,0:0:0:0:
64,192,200909,1,8,0:0:0:0:
192,192,200909,1,0,0:0:0:0:
448,192,200909,1,0,0:0:0:0:
320,192,201045,1,0,0:0:0:0:
192,192,201181,1,2,0:0:0:0:
64,192,201318,1,0,0:0:0:0:
192,192,201454,1,8,0:0:0:0:
320,192,201454,1,0,0:0:0:0:
448,192,201454,1,0,0:0:0:0:
64,192,201590,1,0,0:0:0:0:
192,192,201727,1,2,0:0:0:0:
448,192,201863,1,0,0:0:0:0:
64,192,202000,1,8,0:0:0:0:
192,192,202000,1,0,0:0:0:0:
320,192,202000,1,0,0:0:0:0:
448,192,202136,1,0,0:0:0:0:
64,192,202272,1,2,0:0:0:0:
320,192,202409,1,0,0:0:0:0:
64,192,202545,1,8,0:0:0:0:
192,192,202545,1,0,0:0:0:0:
448,192,202545,1,0,0:0:0:0:
320,192,202681,1,0,0:0:0:0:
192,192,202818,1,2,0:0:0:0:
448,192,202954,1,0,0:0:0:0:
64,192,203090,1,8,0:0:0:0:
192,192,203090,1,0,0:0:0:0:
320,192,203090,1,0,0:0:0:0:
448,192,203227,1,0,0:0:0:0:
64,192,203363,1,2,0:0:0:0:
192,192,203363,1,0,0:0:0:0:
320,192,203500,1,2,0:0:0:0:
448,192,203500,1,0,0:0:0:0:
64,192,203636,1,8,0:0:0:0:
192,192,203636,1,0,0:0:0:0:
320,192,203909,1,2,0:0:0:0:
448,192,203909,1,0,0:0:0:0:
64,192,204181,128,8,204454:0:0:0:0:
320,192,204454,1,2,0:0:0:0:
448,192,204454,1,4,0:0:0:0:
192,192,204590,1,0,0:0:0:0:
64,192,204727,1,8,0:0:0:0:
320,192,204727,1,0,0:0:0:0:
448,192,204727,1,0,0:0:0:0:
192,192,204863,1,0,0:0:0:0:
320,192,205000,1,2,0:0:0:0:
448,192,205136,1,0,0:0:0:0:
64,192,205272,1,8,0:0:0:0:
192,192,205272,1,0,0:0:0:0:
320,192,205272,1,0,0:0:0:0:
448,192,205409,1,0,0:0:0:0:
192,192,205545,1,2,0:0:0:0:
320,192,205681,1,0,0:0:0:0:
64,192,205818,1,8,0:0:0:0:
192,192,205818,1,0,0:0:0:0:
448,192,205818,1,0,0:0:0:0:
320,192,205954,1,0,0:0:0:0:
64,192,206090,1,2,0:0:0:0:
192,192,206227,1,0,0:0:0:0:
64,192,206363,1,8,0:0:0:0:
320,192,206363,1,0,0:0:0:0:
448,192,206363,1,0,0:0:0:0:
192,192,206500,1,0,0:0:0:0:
320,192,206636,1,2,0:0:0:0:
64,192,206772,1,0,0:0:0:0:
192,192,206909,1,8,0:0:0:0:
320,192,206909,1,0,0:0:0:0:
448,192,206909,1,0,0:0:0:0:
64,192,207045,1,0,0:0:0:0:
448,192,207181,1,2,0:0:0:0:
320,192,207318,1,0,0:0:0:0:
64,192,207454,1,8,0:0:0:0:
192,192,207454,1,0,0:0:0:0:
448,192,207454,1,0,0:0:0:0:
320,192,207590,1,0,0:0:0:0:
192,192,207727,1,2,0:0:0:0:
64,192,207863,1,0,0:0:0:0:
192,192,208000,1,8,0:0:0:0:
320,192,208000,1,0,0:0:0:0:
448,192,208000,1,0,0:0:0:0:
64,192,208136,1,0,0:0:0:0:
320,192,208272,1,2,0:0:0:0:
448,192,208409,1,0,0:0:0:0:
64,192,208545,1,8,0:0:0:0:
192,192,208545,1,0,0:0:0:0:
320,192,208681,1,2,0:0:0:0:
448,192,208681,1,0,0:0:0:0:
64,192,208818,1,2,0:0:0:0:
192,192,208818,1,0,0:0:0:0:
320,192,208954,1,0,0:0:0:0:
64,192,209090,1,8,0:0:0:0:
192,192,209090,1,0,0:0:0:0:
448,192,209090,1,0,0:0:0:0:
320,192,209227,1,0,0:0:0:0:
64,192,209363,1,2,0:0:0:0:
192,192,209500,1,0,0:0:0:0:
64,192,209636,1,8,0:0:0:0:
320,192,209636,1,0,0:0:0:0:
448,192,209636,1,0,0:0:0:0:
192,192,209772,1,0,0:0:0:0:
320,192,209909,1,2,0:0:0:0:
448,192,210045,1,0,0:0:0:0:
64,192,210181,1,8,0:0:0:0:
192,192,210181,1,0,0:0:0:0:
320,192,210181,1,0,0:0:0:0:
448,192,210318,1,0,0:0:0:0:
320,192,210454,1,2,0:0:0:0:
64,192,210590,1,0,0:0:0:0:
192,192,210727,1,8,0:0:0:0:
320,192,210727,1,0,0:0:0:0:
448,192,210727,1,0,0:0:0:0:
64,192,210863,1,0,0:0:0:0:
448,192,211000,1,2,0:0:0:0:
192,192,211136,1,0,0:0:0:0:
64,192,211272,1,8,0:0:0:0:
320,192,211272,1,0,0:0:0:0:
448,192,211272,1,0,0:0:0:0:
192,192,211409,1,0,0:0:0:0:
320,192,211545,1,2,0:0:0:0:
64,192,211681,1,0,0:0:0:0:
192,192,211818,1,8,0:0:0:0:
320,192,211818,1,0,0:0:0:0:
448,192,211818,1,0,0:0:0:0:
64,192,211954,1,0,0:0:0:0:
448,192,212090,1,2,0:0:0:0:
320,192,212159,1,2,0:0:0:0:
192,192,212227,1,2,0:0:0:0:
64,192,212295,1,2,0:0:0:0:
320,192,212363,1,8,0:0:0:0:
448,192,212363,1,0,0:0:0:0:
64,192,212636,1,2,0:0:0:0:
192,192,212636,1,0,0:0:0:0:
448,192,212772,128,8,212909:0:0:0:0:
64,192,212909,1,2,0:0:0:0:
192,192,212909,1,0,0:0:0:0:
448,192,213045,128,8,213181:0:0:0:0:
64,192,213181,1,2,0:0:0:0:
192,192,213181,1,4,0:0:0:0:
320,192,214000,1,2,0:0:0:0:
448,192,214000,1,0,0:0:0:0:
64,192,214272,1,2,0:0:0:0:
192,192,214272,1,0,0:0:0:0:
192,192,215363,1,2,0:0:0:0:
320,192,215363,1,0,0:0:0:0:
64,192,216181,1,2,0:0:0:0:
192,192,216181,1,0,0:0:0:0:
320,192,216454,1,2,0:0:0:0:
448,192,216454,1,0,0:0:0:0:
64,192,217000,1,2,0:0:0:0:
448,192,217000,1,0,0:0:0:0:
192,192,217272,1,2,0:0:0:0:
320,192,217272,1,0,0:0:0:0:
64,192,217545,1,6,0:0:0:0:
448,192,217545,1,0,0:0:0:0:
64,192,218363,1,2,0:0:0:0:
320,192,218363,1,0,0:0:0:0:
192,192,218636,1,2,0:0:0:0:
448,192,218636,1,0,0:0:0:0:
320,192,219727,1,2,0:0:0:0:
448,192,219727,1,0,0:0:0:0:
192,192,220545,1,2,0:0:0:0:
320,192,220545,1,0,0:0:0:0:
64,192,220818,1,2,0:0:0:0:
448,192,220818,1,0,0:0:0:0:
192,192,221090,1,2,0:0:0:0:
320,192,221090,1,0,0:0:0:0:
64,192,221363,1,2,0:0:0:0:
448,192,221363,1,0,0:0:0:0:
192,192,221500,1,2,0:0:0:0:
320,192,221500,1,0,0:0:0:0:
64,192,221636,1,8,0:0:0:0:
448,192,221636,1,0,0:0:0:0:
64,192,221909,1,6,0:0:0:0:
192,192,221909,1,0,0:0:0:0:
320,192,222727,1,2,0:0:0:0:
448,192,222727,1,0,0:0:0:0:
64,192,223000,1,2,0:0:0:0:
192,192,223000,1,0,0:0:0:0:
64,192,223818,1,2,0:0:0:0:
448,192,223818,1,0,0:0:0:0:
192,192,224090,1,6,0:0:0:0:
320,192,224090,1,0,0:0:0:0:
64,192,224909,1,2,0:0:0:0:
192,192,224909,1,0,0:0:0:0:
320,192,225181,1,2,0:0:0:0:
448,192,225181,1,0,0:0:0:0:
64,192,225454,1,2,0:0:0:0:
192,192,225454,1,0,0:0:0:0:
320,192,225727,1,2,0:0:0:0:
448,192,225727,1,0,0:0:0:0:
64,192,225863,1,2,0:0:0:0:
192,192,225863,1,0,0:0:0:0:
320,192,226000,1,8,0:0:0:0:
448,192,226000,1,0,0:0:0:0:
64,192,226272,1,2,0:0:0:0:
192,192,226272,1,4,0:0:0:0:
320,192,226409,1,8,0:0:0:0:
64,192,226545,1,2,0:0:0:0:
448,192,226545,1,0,0:0:0:0:
192,192,226681,1,8,0:0:0:0:
320,192,226818,1,2,0:0:0:0:
448,192,226818,1,0,0:0:0:0:
192,192,226954,1,8,0:0:0:0:
64,192,227090,1,2,0:0:0:0:
448,192,227090,1,0,0:0:0:0:
320,192,227227,1,8,0:0:0:0:
64,192,227363,1,4,0:0:0:0:
192,192,227363,1,2,0:0:0:0:
320,192,227500,1,8,0:0:0:0:
64,192,227636,1,2,0:0:0:0:
448,192,227636,1,0,0:0:0:0:
192,192,227772,1,8,0:0:0:0:
320,192,227909,1,2,0:0:0:0:
448,192,227909,1,0,0:0:0:0:
192,192,228045,1,8,0:0:0:0:
64,192,228181,1,2,0:0:0:0:
448,192,228181,1,0,0:0:0:0:
320,192,228318,1,8,0:0:0:0:
64,192,228454,128,2,229000:0:0:0:0:
192,192,228454,128,4,229000:0:0:0:0:
320,192,229000,128,2,229545:0:0:0:0:
448,192,229000,128,4,229545:0:0:0:0:
64,192,229545,1,4,0:0:0:0:
192,192,229545,1,2,0:0:0:0:
320,192,229818,1,12,0:0:0:0:
448,192,229818,1,0,0:0:0:0:
64,192,230090,1,2,0:0:0:0:
192,192,230090,1,4,0:0:0:0:
320,192,230363,1,12,0:0:0:0:
448,192,230363,1,0,0:0:0:0:
64,192,230500,1,2,0:0:0:0:
192,192,230500,1,0,0:0:0:0:
320,192,230636,1,6,0:0:0:0:
448,192,230636,1,0,0:0:0:0:
