osu file format v14

[General]
AudioFilename: Unorthodox Red.mp3
AudioLeadIn: 0
PreviewTime: 125909
Countdown: 0
SampleSet: Soft
StackLeniency: 0.7
Mode: 3
LetterboxInBreaks: 0
SpecialStyle: 0
WidescreenStoryboard: 1

[Editor]
DistanceSpacing: 0.8
BeatDivisor: 4
GridSize: 8
TimelineZoom: 2

[Metadata]
Title:Unorthodox Red
TitleUnicode:Unorthodox Red
Artist:DJ Nanasaki
ArtistUnicode:DJ Nanasaki
Creator:ExNeko
Version:2307's 7K Normal
Source:東方紅魔郷 ~ the Embodiment of Scarlet Devil.
Tags:Video Game Hardcore Instrumental 紅楼 ~ Eastern Dream... Deram.. Just Push Play ExInyf Tofu1222 _Stan Ridho 2307 _VianK_ Shima Rin
BeatmapID:1426467
BeatmapSetID:650554

[Difficulty]
HPDrainRate:7
CircleSize:7
OverallDifficulty:6.5
ApproachRate:5
SliderMultiplier:1.4
SliderTickRate:1

[Events]
//Background and Video events
0,0,"2090172.jpg",0,0
//Break Periods
2,91200,107254
//Storyboard Layer 0 (Background)
//Storyboard Layer 1 (Fail)
//Storyboard Layer 2 (Pass)
//Storyboard Layer 3 (Foreground)
//Storyboard Layer 4 (Overlay)
//Storyboard Sound Samples

[TimingPoints]
90,272.727272727273,4,2,1,50,1,0
69908,272.727272727273,4,2,1,50,1,0
70180,273.972602739726,4,2,1,50,1,0
70453,275.229357798165,4,2,1,50,1,0
70453,-99.009900990099,4,2,1,50,0,0
70728,276.497695852535,4,2,1,50,1,0
70728,-99.009900990099,4,2,1,50,0,0
71004,277.777777777778,4,2,1,50,1,0
71004,-98.0392156862745,4,2,1,50,0,0
71281,279.06976744186,4,2,1,50,1,0
71281,-98.0392156862745,4,2,1,50,0,0
71560,280.373831775701,4,2,1,50,1,0
71560,-97.0873786407767,4,2,1,50,0,0
71840,281.69014084507,4,2,1,50,1,0
71840,-97.0873786407767,4,2,1,50,0,0
72121,283.018867924528,4,2,1,50,1,0
72121,-96.1538461538461,4,2,1,50,0,0
74385,300,4,2,1,50,1,0
74385,-90.9090909090909,4,2,1,50,0,0
76785,315.789473684211,4,2,1,50,1,0
76785,-86.2068965517241,4,2,1,50,0,0
79311,333.333333333333,4,2,1,50,1,0
79311,-81.9672131147541,4,2,1,50,0,0
81977,352.941176470588,4,2,1,50,1,0
81977,-77.5193798449612,4,2,1,50,0,0
84800,375,4,2,1,50,1,0
84800,-72.463768115942,4,2,1,50,0,0
87800,400,4,2,1,50,1,0
87800,-68.0272108843537,4,2,1,50,0,0
91000,272.727272727273,4,2,1,50,1,0
178272,-100,4,2,1,50,0,1
213181,-100,4,2,1,50,0,0

[HitObjects]
182,192,90,5,4,0:0:0:0:
475,192,90,1,2,0:0:0:0:
329,192,362,1,8,0:0:0:0:
182,192,635,1,2,0:0:0:0:
36,192,908,1,8,0:0:0:0:
256,192,1180,1,2,0:0:0:0:
475,192,1453,1,8,0:0:0:0:
329,192,1726,1,2,0:0:0:0:
182,192,1999,1,8,0:0:0:0:
36,192,2271,1,2,0:0:0:0:
256,192,2544,1,8,0:0:0:0:
475,192,2817,1,2,0:0:0:0:
109,192,3090,1,8,0:0:0:0:
402,192,3362,1,2,0:0:0:0:
182,192,3635,1,8,0:0:0:0:
329,192,3908,1,2,0:0:0:0:
109,192,4180,1,8,0:0:0:0:
256,192,4317,1,2,0:0:0:0:
402,192,4453,1,2,0:0:0:0:
36,192,4726,1,8,0:0:0:0:
182,192,4999,1,2,0:0:0:0:
329,192,5271,1,8,0:0:0:0:
475,192,5544,1,2,0:0:0:0:
109,192,5817,1,8,0:0:0:0:
256,192,6090,1,2,0:0:0:0:
402,192,6362,1,8,0:0:0:0:
109,192,6635,1,2,0:0:0:0:
182,192,6908,1,8,0:0:0:0:
256,192,7180,1,2,0:0:0:0:
402,192,7180,1,0,0:0:0:0:
36,192,7453,1,8,0:0:0:0:
109,192,7726,1,2,0:0:0:0:
402,192,7726,1,0,0:0:0:0:
256,192,7862,1,2,0:0:0:0:
182,192,7999,1,8,0:0:0:0:
329,192,7999,1,0,0:0:0:0:
256,192,8271,1,2,0:0:0:0:
256,192,8544,1,8,0:0:0:0:
109,192,8680,128,2,8817:0:0:0:0:
402,192,8817,1,0,0:0:0:0:
329,192,9090,1,8,0:0:0:0:
475,192,9090,1,0,0:0:0:0:
256,192,9362,1,2,0:0:0:0:
329,192,9635,1,8,0:0:0:0:
475,192,9635,1,0,0:0:0:0:
182,192,9908,1,2,0:0:0:0:
256,192,10180,1,8,0:0:0:0:
402,192,10180,1,0,0:0:0:0:
109,192,10453,1,2,0:0:0:0:
182,192,10726,1,8,0:0:0:0:
329,192,10726,1,0,0:0:0:0:
36,192,10999,1,2,0:0:0:0:
109,192,11271,1,8,0:0:0:0:
256,192,11271,1,0,0:0:0:0:
36,192,11544,1,2,0:0:0:0:
182,192,11817,1,8,0:0:0:0:
329,192,11817,1,0,0:0:0:0:
475,192,12090,1,2,0:0:0:0:
256,192,12362,1,8,0:0:0:0:
402,192,12362,1,0,0:0:0:0:
182,192,12635,1,2,0:0:0:0:
109,192,12908,1,8,0:0:0:0:
256,192,13044,1,2,0:0:0:0:
402,192,13180,1,2,0:0:0:0:
36,192,13453,1,8,0:0:0:0:
256,192,13453,1,0,0:0:0:0:
109,192,13726,1,2,0:0:0:0:
182,192,13999,1,8,0:0:0:0:
402,192,13999,1,0,0:0:0:0:
256,192,14271,1,2,0:0:0:0:
36,192,14544,1,8,0:0:0:0:
329,192,14544,1,0,0:0:0:0:
109,192,14817,1,2,0:0:0:0:
402,192,14817,1,0,0:0:0:0:
256,192,15090,1,8,0:0:0:0:
109,192,15362,1,2,0:0:0:0:
402,192,15362,1,0,0:0:0:0:
182,192,15635,1,8,0:0:0:0:
329,192,15635,1,0,0:0:0:0:
36,192,15908,1,2,0:0:0:0:
256,192,16180,1,8,0:0:0:0:
402,192,16180,1,0,0:0:0:0:
109,192,16453,1,2,0:0:0:0:
109,192,16590,1,2,0:0:0:0:
182,192,16726,1,8,0:0:0:0:
182,192,16999,1,2,0:0:0:0:
182,192,17271,128,8,17544:0:0:0:0:
36,192,17544,128,2,19726:0:0:0:0:
329,192,17544,1,4,0:0:0:0:
475,192,17544,1,0,0:0:0:0:
256,192,17817,1,8,0:0:0:0:
329,192,18090,1,2,0:0:0:0:
402,192,18362,1,8,0:0:0:0:
109,192,18635,1,2,0:0:0:0:
182,192,18908,1,8,0:0:0:0:
256,192,19180,1,2,0:0:0:0:
329,192,19453,1,8,0:0:0:0:
182,192,19590,1,0,0:0:0:0:
402,192,19726,1,2,0:0:0:0:
475,192,19726,128,0,20817:0:0:0:0:
256,192,19999,1,8,0:0:0:0:
109,192,20271,1,2,0:0:0:0:
256,192,20544,1,8,0:0:0:0:
109,192,20817,1,2,0:0:0:0:
329,192,20817,128,0,21908:0:0:0:0:
182,192,21090,1,8,0:0:0:0:
256,192,21362,1,2,0:0:0:0:
402,192,21635,1,8,0:0:0:0:
109,192,21771,1,2,0:0:0:0:
182,192,21908,128,2,22999:0:0:0:0:
475,192,21908,1,0,0:0:0:0:
256,192,22180,1,8,0:0:0:0:
402,192,22453,1,2,0:0:0:0:
256,192,22726,1,8,0:0:0:0:
36,192,22999,128,2,24090:0:0:0:0:
402,192,22999,1,0,0:0:0:0:
329,192,23271,1,8,0:0:0:0:
182,192,23544,1,2,0:0:0:0:
329,192,23817,1,8,0:0:0:0:
182,192,24090,1,2,0:0:0:0:
475,192,24090,128,0,25180:0:0:0:0:
402,192,24362,1,8,0:0:0:0:
109,192,24635,1,2,0:0:0:0:
402,192,24908,1,8,0:0:0:0:
109,192,25180,1,2,0:0:0:0:
109,192,25453,1,8,0:0:0:0:
256,192,25726,1,2,0:0:0:0:
256,192,25999,1,8,0:0:0:0:
36,192,26271,1,2,0:0:0:0:
182,192,26271,1,4,0:0:0:0:
475,192,26271,128,0,27362:0:0:0:0:
256,192,26544,1,8,0:0:0:0:
109,192,26817,1,2,0:0:0:0:
329,192,27090,1,8,0:0:0:0:
182,192,27362,1,2,0:0:0:0:
402,192,27362,128,0,28453:0:0:0:0:
36,192,27635,1,8,0:0:0:0:
256,192,27908,1,2,0:0:0:0:
109,192,28180,1,8,0:0:0:0:
182,192,28453,1,2,0:0:0:0:
329,192,28453,128,0,29544:0:0:0:0:
36,192,28726,1,8,0:0:0:0:
256,192,28999,1,2,0:0:0:0:
475,192,29271,1,8,0:0:0:0:
109,192,29544,1,2,0:0:0:0:
256,192,29544,128,0,30635:0:0:0:0:
182,192,29817,1,8,0:0:0:0:
329,192,30090,1,2,0:0:0:0:
402,192,30362,1,8,0:0:0:0:
109,192,30499,1,2,0:0:0:0:
182,192,30635,128,2,31726:0:0:0:0:
402,192,30635,1,4,0:0:0:0:
329,192,30908,1,8,0:0:0:0:
256,192,31180,1,2,0:0:0:0:
109,192,31453,1,8,0:0:0:0:
109,192,31726,128,2,32817:0:0:0:0:
329,192,31726,1,0,0:0:0:0:
475,192,31999,1,8,0:0:0:0:
256,192,32271,1,2,0:0:0:0:
402,192,32544,1,8,0:0:0:0:
36,192,32817,128,4,33908:0:0:0:0:
182,192,32817,1,2,0:0:0:0:
475,192,32817,1,0,0:0:0:0:
256,192,33090,1,8,0:0:0:0:
109,192,33362,1,2,0:0:0:0:
402,192,33362,1,4,0:0:0:0:
329,192,33635,1,8,0:0:0:0:
256,192,33908,1,6,0:0:0:0:
402,192,34044,1,2,0:0:0:0:
256,192,34180,1,12,0:0:0:0:
256,192,34453,1,6,0:0:0:0:
256,192,34726,128,12,34999:0:0:0:0:
475,192,34999,1,6,0:0:0:0:
109,192,35135,1,0,0:0:0:0:
182,192,35271,1,8,0:0:0:0:
329,192,35408,1,0,0:0:0:0:
402,192,35544,1,2,0:0:0:0:
109,192,35680,1,0,0:0:0:0:
256,192,35817,1,8,0:0:0:0:
36,192,35953,1,0,0:0:0:0:
182,192,36090,1,2,0:0:0:0:
475,192,36226,1,0,0:0:0:0:
329,192,36362,1,8,0:0:0:0:
36,192,36635,1,2,0:0:0:0:
256,192,36771,1,0,0:0:0:0:
402,192,36908,1,8,0:0:0:0:
182,192,37044,1,0,0:0:0:0:
329,192,37180,1,2,0:0:0:0:
36,192,37317,1,0,0:0:0:0:
182,192,37453,1,8,0:0:0:0:
475,192,37726,1,2,0:0:0:0:
109,192,37862,1,0,0:0:0:0:
329,192,37999,1,8,0:0:0:0:
475,192,38135,1,0,0:0:0:0:
36,192,38271,1,2,0:0:0:0:
182,192,38408,1,0,0:0:0:0:
329,192,38544,1,8,0:0:0:0:
109,192,38817,1,2,0:0:0:0:
256,192,38953,1,0,0:0:0:0:
475,192,39090,1,8,0:0:0:0:
256,192,39226,1,2,0:0:0:0:
36,192,39362,1,2,0:0:0:0:
475,192,39499,1,0,0:0:0:0:
402,192,39635,1,8,0:0:0:0:
109,192,39908,1,2,0:0:0:0:
256,192,40044,1,0,0:0:0:0:
402,192,40180,1,8,0:0:0:0:
109,192,40317,1,0,0:0:0:0:
402,192,40453,1,2,0:0:0:0:
182,192,40590,1,0,0:0:0:0:
256,192,40726,1,8,0:0:0:0:
329,192,40862,1,0,0:0:0:0:
36,192,41135,1,0,0:0:0:0:
256,192,41271,1,8,0:0:0:0:
402,192,41408,1,0,0:0:0:0:
36,192,41544,1,2,0:0:0:0:
182,192,41680,1,0,0:0:0:0:
256,192,41817,1,8,0:0:0:0:
329,192,41953,1,0,0:0:0:0:
402,192,42090,1,2,0:0:0:0:
256,192,42226,1,0,0:0:0:0:
329,192,42362,1,8,0:0:0:0:
109,192,42499,1,0,0:0:0:0:
182,192,42635,1,2,0:0:0:0:
329,192,42771,1,2,0:0:0:0:
182,192,42908,1,8,0:0:0:0:
182,192,43180,1,2,0:0:0:0:
182,192,43453,128,8,43726:0:0:0:0:
36,192,43726,1,2,0:0:0:0:
475,192,43726,1,4,0:0:0:0:
329,192,43862,1,0,0:0:0:0:
182,192,43999,1,8,0:0:0:0:
402,192,44135,1,0,0:0:0:0:
256,192,44271,1,2,0:0:0:0:
109,192,44408,1,0,0:0:0:0:
329,192,44544,1,8,0:0:0:0:
182,192,44680,1,0,0:0:0:0:
36,192,44817,1,2,0:0:0:0:
329,192,44953,1,0,0:0:0:0:
182,192,45090,1,8,0:0:0:0:
402,192,45226,1,0,0:0:0:0:
256,192,45362,1,2,0:0:0:0:
475,192,45499,1,0,0:0:0:0:
329,192,45635,1,8,0:0:0:0:
182,192,45771,1,0,0:0:0:0:
402,192,45908,1,2,0:0:0:0:
256,192,46044,1,0,0:0:0:0:
109,192,46180,1,8,0:0:0:0:
329,192,46317,1,0,0:0:0:0:
182,192,46453,1,2,0:0:0:0:
36,192,46590,1,0,0:0:0:0:
402,192,46726,1,8,0:0:0:0:
256,192,46862,1,0,0:0:0:0:
109,192,46999,1,2,0:0:0:0:
475,192,47135,1,0,0:0:0:0:
329,192,47271,1,8,0:0:0:0:
182,192,47408,1,0,0:0:0:0:
36,192,47544,1,2,0:0:0:0:
329,192,47680,1,0,0:0:0:0:
182,192,47817,1,8,0:0:0:0:
475,192,47953,1,2,0:0:0:0:
475,192,48090,1,2,0:0:0:0:
256,192,48226,1,0,0:0:0:0:
36,192,48362,1,8,0:0:0:0:
329,192,48499,1,0,0:0:0:0:
475,192,48635,1,2,0:0:0:0:
256,192,48771,1,0,0:0:0:0:
402,192,48908,1,8,0:0:0:0:
182,192,49044,1,0,0:0:0:0:
329,192,49180,1,2,0:0:0:0:
109,192,49317,1,0,0:0:0:0:
256,192,49453,1,8,0:0:0:0:
402,192,49590,1,0,0:0:0:0:
36,192,49726,1,2,0:0:0:0:
182,192,49862,1,0,0:0:0:0:
329,192,49999,1,8,0:0:0:0:
475,192,50135,1,0,0:0:0:0:
109,192,50271,1,2,0:0:0:0:
182,192,50408,1,0,0:0:0:0:
329,192,50544,1,8,0:0:0:0:
402,192,50680,1,0,0:0:0:0:
36,192,50817,1,2,0:0:0:0:
109,192,50953,1,0,0:0:0:0:
475,192,51090,1,8,0:0:0:0:
402,192,51226,1,0,0:0:0:0:
36,192,51362,128,2,51771:0:0:0:0:
402,192,51908,1,2,0:0:0:0:
36,192,52044,128,8,52180:0:0:0:0:
182,192,52317,128,8,52453:0:0:0:0:
329,192,52453,1,6,0:0:0:0:
475,192,52590,1,0,0:0:0:0:
256,192,52726,1,8,0:0:0:0:
402,192,52862,1,0,0:0:0:0:
182,192,52999,1,2,0:0:0:0:
329,192,53135,1,0,0:0:0:0:
109,192,53271,1,8,0:0:0:0:
256,192,53408,1,0,0:0:0:0:
36,192,53544,1,2,0:0:0:0:
475,192,53680,1,0,0:0:0:0:
402,192,53817,1,8,0:0:0:0:
329,192,53953,1,0,0:0:0:0:
182,192,54090,1,2,0:0:0:0:
36,192,54226,1,0,0:0:0:0:
256,192,54362,1,8,0:0:0:0:
109,192,54499,1,0,0:0:0:0:
329,192,54635,1,2,0:0:0:0:
182,192,54771,1,0,0:0:0:0:
109,192,54908,1,8,0:0:0:0:
36,192,55044,1,0,0:0:0:0:
475,192,55180,1,2,0:0:0:0:
329,192,55317,1,0,0:0:0:0:
36,192,55453,1,8,0:0:0:0:
182,192,55590,1,0,0:0:0:0:
329,192,55726,1,2,0:0:0:0:
182,192,55862,1,0,0:0:0:0:
329,192,55999,1,8,0:0:0:0:
475,192,56135,1,0,0:0:0:0:
109,192,56271,1,2,0:0:0:0:
256,192,56408,1,0,0:0:0:0:
36,192,56544,1,8,0:0:0:0:
182,192,56680,1,2,0:0:0:0:
329,192,56817,1,2,0:0:0:0:
109,192,56953,1,0,0:0:0:0:
256,192,57090,1,8,0:0:0:0:
402,192,57226,1,0,0:0:0:0:
182,192,57362,1,2,0:0:0:0:
329,192,57499,1,0,0:0:0:0:
475,192,57635,1,8,0:0:0:0:
256,192,57771,1,0,0:0:0:0:
36,192,57908,1,2,0:0:0:0:
329,192,58044,1,0,0:0:0:0:
256,192,58180,1,8,0:0:0:0:
182,192,58317,1,0,0:0:0:0:
475,192,58453,1,2,0:0:0:0:
402,192,58590,1,0,0:0:0:0:
329,192,58726,1,8,0:0:0:0:
36,192,58862,1,0,0:0:0:0:
109,192,58999,1,2,0:0:0:0:
182,192,59135,1,0,0:0:0:0:
256,192,59271,1,8,0:0:0:0:
402,192,59408,1,0,0:0:0:0:
109,192,59544,1,2,0:0:0:0:
329,192,59680,1,0,0:0:0:0:
182,192,59817,1,8,0:0:0:0:
256,192,59953,1,0,0:0:0:0:
329,192,60090,1,2,0:0:0:0:
182,192,60226,1,2,0:0:0:0:
329,192,60362,1,8,0:0:0:0:
329,192,60635,1,2,0:0:0:0:
329,192,60908,128,8,61180:0:0:0:0:
36,192,61180,1,6,0:0:0:0:
182,192,61317,1,0,0:0:0:0:
329,192,61453,1,8,0:0:0:0:
109,192,61590,1,0,0:0:0:0:
256,192,61726,1,2,0:0:0:0:
402,192,61862,1,0,0:0:0:0:
182,192,61999,1,8,0:0:0:0:
329,192,62135,1,0,0:0:0:0:
475,192,62271,1,2,0:0:0:0:
182,192,62408,1,0,0:0:0:0:
36,192,62544,1,8,0:0:0:0:
256,192,62680,1,0,0:0:0:0:
109,192,62817,1,2,0:0:0:0:
329,192,62953,1,0,0:0:0:0:
182,192,63090,1,8,0:0:0:0:
402,192,63226,1,0,0:0:0:0:
256,192,63362,1,2,0:0:0:0:
475,192,63499,1,0,0:0:0:0:
329,192,63635,1,8,0:0:0:0:
182,192,63771,1,0,0:0:0:0:
402,192,63908,1,2,0:0:0:0:
109,192,64044,1,0,0:0:0:0:
329,192,64180,1,8,0:0:0:0:
36,192,64317,1,0,0:0:0:0:
256,192,64453,1,2,0:0:0:0:
402,192,64590,1,0,0:0:0:0:
109,192,64726,1,8,0:0:0:0:
256,192,64862,1,0,0:0:0:0:
36,192,64999,1,2,0:0:0:0:
402,192,65135,1,0,0:0:0:0:
256,192,65271,1,8,0:0:0:0:
109,192,65408,1,2,0:0:0:0:
256,192,65544,1,4,0:0:0:0:
475,192,65544,1,2,0:0:0:0:
36,192,65817,1,8,0:0:0:0:
182,192,65953,1,0,0:0:0:0:
329,192,66090,1,2,0:0:0:0:
256,192,66226,1,0,0:0:0:0:
182,192,66362,1,8,0:0:0:0:
402,192,66499,1,0,0:0:0:0:
36,192,66635,1,4,0:0:0:0:
329,192,66635,1,2,0:0:0:0:
182,192,67180,1,2,0:0:0:0:
109,192,67317,1,0,0:0:0:0:
329,192,67453,1,8,0:0:0:0:
256,192,67590,1,0,0:0:0:0:
36,192,67726,1,4,0:0:0:0:
475,192,67726,1,2,0:0:0:0:
256,192,67999,1,8,0:0:0:0:
109,192,68271,1,4,0:0:0:0:
402,192,68271,1,2,0:0:0:0:
256,192,68544,1,8,0:0:0:0:
36,192,68817,1,4,0:0:0:0:
475,192,68817,1,2,0:0:0:0:
256,192,68953,1,2,0:0:0:0:
182,192,69090,1,8,0:0:0:0:
329,192,69090,1,4,0:0:0:0:
182,192,69362,1,4,0:0:0:0:
329,192,69362,1,2,0:0:0:0:
182,192,69635,128,12,69908:0:0:0:0:
329,192,69635,128,0,69908:0:0:0:0:
36,192,69908,1,6,0:0:0:0:
256,192,70180,1,8,0:0:0:0:
36,192,70453,1,2,0:0:0:0:
256,192,70728,1,8,0:0:0:0:
36,192,71004,1,2,0:0:0:0:
256,192,71281,1,8,0:0:0:0:
36,192,71560,1,2,0:0:0:0:
256,192,71840,1,8,0:0:0:0:
36,192,72121,1,2,0:0:0:0:
475,192,72404,1,8,0:0:0:0:
256,192,72687,1,2,0:0:0:0:
475,192,72970,1,8,0:0:0:0:
256,192,73253,1,2,0:0:0:0:
475,192,73536,1,8,0:0:0:0:
256,192,73819,1,2,0:0:0:0:
475,192,74102,1,8,0:0:0:0:
256,192,74243,1,2,0:0:0:0:
36,192,74385,1,6,0:0:0:0:
475,192,74385,1,0,0:0:0:0:
182,192,74685,1,8,0:0:0:0:
329,192,74985,1,2,0:0:0:0:
182,192,75285,1,8,0:0:0:0:
329,192,75585,1,2,0:0:0:0:
182,192,75885,1,8,0:0:0:0:
329,192,76185,1,2,0:0:0:0:
182,192,76485,1,8,0:0:0:0:
329,192,76785,1,2,0:0:0:0:
182,192,77100,1,8,0:0:0:0:
329,192,77416,1,2,0:0:0:0:
182,192,77732,1,8,0:0:0:0:
329,192,78048,1,2,0:0:0:0:
182,192,78363,1,8,0:0:0:0:
329,192,78679,1,2,0:0:0:0:
182,192,78995,1,8,0:0:0:0:
329,192,79153,1,2,0:0:0:0:
36,192,79311,1,6,0:0:0:0:
475,192,79311,1,0,0:0:0:0:
109,192,79644,1,8,0:0:0:0:
402,192,79977,1,2,0:0:0:0:
109,192,80311,1,8,0:0:0:0:
402,192,80644,1,2,0:0:0:0:
109,192,80977,1,8,0:0:0:0:
402,192,81311,1,2,0:0:0:0:
109,192,81644,1,8,0:0:0:0:
402,192,81977,1,2,0:0:0:0:
109,192,82329,1,8,0:0:0:0:
402,192,82682,1,2,0:0:0:0:
109,192,83035,1,8,0:0:0:0:
402,192,83388,1,2,0:0:0:0:
109,192,83741,1,8,0:0:0:0:
402,192,84094,1,2,0:0:0:0:
109,192,84447,1,8,0:0:0:0:
402,192,84624,1,2,0:0:0:0:
36,192,84800,1,6,0:0:0:0:
256,192,84800,1,0,0:0:0:0:
402,192,85175,1,8,0:0:0:0:
182,192,85550,1,2,0:0:0:0:
402,192,85925,1,8,0:0:0:0:
182,192,86300,1,2,0:0:0:0:
402,192,86675,1,8,0:0:0:0:
182,192,87050,1,2,0:0:0:0:
402,192,87425,1,8,0:0:0:0:
182,192,87800,1,2,0:0:0:0:
402,192,88200,1,8,0:0:0:0:
182,192,88600,1,2,0:0:0:0:
402,192,89000,1,8,0:0:0:0:
182,192,89400,1,2,0:0:0:0:
402,192,89600,1,2,0:0:0:0:
182,192,89800,1,2,0:0:0:0:
182,192,90200,1,2,0:0:0:0:
182,192,90600,128,8,91000:0:0:0:0:
329,192,91000,1,6,0:0:0:0:
36,192,108454,5,0,0:0:0:0:
182,192,108454,1,0,0:0:0:0:
475,192,108727,1,0,0:0:0:0:
256,192,108863,1,0,0:0:0:0:
402,192,109272,1,0,0:0:0:0:
475,192,109272,1,0,0:0:0:0:
36,192,109545,1,0,0:0:0:0:
182,192,109545,1,0,0:0:0:0:
475,192,109818,1,0,0:0:0:0:
402,192,110363,1,0,0:0:0:0:
475,192,110363,1,0,0:0:0:0:
109,192,110636,1,0,0:0:0:0:
256,192,110636,1,0,0:0:0:0:
475,192,110909,1,0,0:0:0:0:
329,192,111045,1,0,0:0:0:0:
36,192,111454,1,0,0:0:0:0:
182,192,111454,1,0,0:0:0:0:
109,192,111727,1,0,0:0:0:0:
256,192,111727,1,0,0:0:0:0:
475,192,112000,1,0,0:0:0:0:
329,192,112136,1,0,0:0:0:0:
36,192,112545,1,0,0:0:0:0:
182,192,112545,1,0,0:0:0:0:
329,192,112818,1,0,0:0:0:0:
475,192,112818,1,0,0:0:0:0:
36,192,113090,1,0,0:0:0:0:
256,192,113227,1,0,0:0:0:0:
36,192,113636,1,0,0:0:0:0:
109,192,113636,1,0,0:0:0:0:
329,192,113909,1,0,0:0:0:0:
475,192,113909,1,0,0:0:0:0:
36,192,114181,1,0,0:0:0:0:
256,192,114318,1,0,0:0:0:0:
36,192,114727,1,0,0:0:0:0:
109,192,114727,1,0,0:0:0:0:
329,192,115000,1,0,0:0:0:0:
475,192,115000,1,0,0:0:0:0:
182,192,115272,1,0,0:0:0:0:
36,192,115409,1,0,0:0:0:0:
256,192,115818,1,0,0:0:0:0:
402,192,115818,1,0,0:0:0:0:
329,192,116090,1,0,0:0:0:0:
475,192,116090,1,0,0:0:0:0:
182,192,116363,1,0,0:0:0:0:
36,192,116500,1,0,0:0:0:0:
256,192,116909,1,0,0:0:0:0:
402,192,116909,1,0,0:0:0:0:
182,192,117181,1,0,0:0:0:0:
329,192,117181,1,0,0:0:0:0:
475,192,117454,1,0,0:0:0:0:
402,192,117590,1,0,0:0:0:0:
109,192,118000,1,0,0:0:0:0:
256,192,118000,1,0,0:0:0:0:
182,192,118272,1,0,0:0:0:0:
329,192,118272,1,0,0:0:0:0:
475,192,118545,1,0,0:0:0:0:
402,192,118681,1,0,0:0:0:0:
109,192,119090,1,0,0:0:0:0:
256,192,119090,1,0,0:0:0:0:
182,192,119363,1,0,0:0:0:0:
329,192,119363,1,0,0:0:0:0:
36,192,119636,1,0,0:0:0:0:
109,192,119772,1,0,0:0:0:0:
256,192,120181,1,0,0:0:0:0:
402,192,120181,1,0,0:0:0:0:
182,192,120454,128,0,125909:0:0:0:0:
329,192,125909,1,4,0:0:0:0:
475,192,125909,1,0,0:0:0:0:
109,192,126454,1,0,0:0:0:0:
182,192,126727,1,0,0:0:0:0:
256,192,127000,1,0,0:0:0:0:
182,192,127272,1,0,0:0:0:0:
256,192,127545,1,0,0:0:0:0:
329,192,127818,1,0,0:0:0:0:
36,192,128090,1,0,0:0:0:0:
402,192,128090,1,0,0:0:0:0:
256,192,128636,1,0,0:0:0:0:
329,192,128909,1,0,0:0:0:0:
109,192,129181,1,0,0:0:0:0:
402,192,129454,1,0,0:0:0:0:
329,192,129727,1,0,0:0:0:0:
256,192,130000,1,0,0:0:0:0:
182,192,130272,1,0,0:0:0:0:
475,192,130272,1,0,0:0:0:0:
256,192,130818,1,0,0:0:0:0:
329,192,131090,1,0,0:0:0:0:
182,192,131363,1,0,0:0:0:0:
329,192,131636,1,0,0:0:0:0:
182,192,131909,1,0,0:0:0:0:
256,192,132181,1,0,0:0:0:0:
36,192,132454,1,0,0:0:0:0:
329,192,132454,1,0,0:0:0:0:
182,192,133000,1,0,0:0:0:0:
256,192,133272,1,0,0:0:0:0:
36,192,133545,1,0,0:0:0:0:
329,192,133545,1,0,0:0:0:0:
182,192,133818,1,0,0:0:0:0:
256,192,134090,1,0,0:0:0:0:
329,192,134363,1,0,0:0:0:0:
402,192,134636,1,0,0:0:0:0:
475,192,134636,1,0,0:0:0:0:
182,192,135181,1,0,0:0:0:0:
329,192,135454,1,0,0:0:0:0:
256,192,135727,1,0,0:0:0:0:
475,192,135727,1,0,0:0:0:0:
109,192,136000,1,0,0:0:0:0:
402,192,136272,1,0,0:0:0:0:
256,192,136545,1,0,0:0:0:0:
109,192,136818,1,0,0:0:0:0:
475,192,136818,1,0,0:0:0:0:
256,192,137363,1,0,0:0:0:0:
182,192,137636,1,0,0:0:0:0:
36,192,137909,1,0,0:0:0:0:
402,192,137909,1,0,0:0:0:0:
329,192,138181,1,0,0:0:0:0:
109,192,138454,1,0,0:0:0:0:
182,192,138727,1,0,0:0:0:0:
329,192,139000,1,0,0:0:0:0:
475,192,139000,1,0,0:0:0:0:
109,192,139545,1,0,0:0:0:0:
256,192,139818,1,0,0:0:0:0:
36,192,140090,1,0,0:0:0:0:
402,192,140090,1,0,0:0:0:0:
182,192,140363,1,0,0:0:0:0:
329,192,140636,1,0,0:0:0:0:
475,192,140909,1,0,0:0:0:0:
36,192,141181,1,0,0:0:0:0:
182,192,141181,1,0,0:0:0:0:
475,192,141727,1,0,0:0:0:0:
329,192,142000,1,0,0:0:0:0:
36,192,142272,1,0,0:0:0:0:
182,192,142272,1,0,0:0:0:0:
256,192,142545,1,0,0:0:0:0:
329,192,142818,1,0,0:0:0:0:
402,192,143090,1,0,0:0:0:0:
36,192,143363,1,2,0:0:0:0:
475,192,143363,1,4,0:0:0:0:
402,192,143500,1,0,0:0:0:0:
329,192,143636,1,8,0:0:0:0:
182,192,143772,1,0,0:0:0:0:
109,192,143909,1,0,0:0:0:0:
402,192,144045,1,2,0:0:0:0:
256,192,144181,1,8,0:0:0:0:
475,192,144318,1,0,0:0:0:0:
329,192,144454,1,2,0:0:0:0:
36,192,144590,1,0,0:0:0:0:
182,192,144727,1,8,0:0:0:0:
329,192,144863,1,0,0:0:0:0:
475,192,145000,1,0,0:0:0:0:
256,192,145136,1,2,0:0:0:0:
109,192,145272,1,8,0:0:0:0:
329,192,145409,1,0,0:0:0:0:
182,192,145545,1,2,0:0:0:0:
475,192,145681,1,0,0:0:0:0:
329,192,145818,1,8,0:0:0:0:
182,192,145954,1,0,0:0:0:0:
36,192,146090,1,0,0:0:0:0:
402,192,146227,1,2,0:0:0:0:
182,192,146363,1,8,0:0:0:0:
36,192,146500,1,0,0:0:0:0:
402,192,146636,1,2,0:0:0:0:
109,192,146772,1,0,0:0:0:0:
182,192,146909,1,8,0:0:0:0:
329,192,147045,1,0,0:0:0:0:
402,192,147181,1,0,0:0:0:0:
256,192,147318,1,2,0:0:0:0:
36,192,147454,1,8,0:0:0:0:
256,192,147590,1,0,0:0:0:0:
475,192,147727,1,2,0:0:0:0:
36,192,147863,1,0,0:0:0:0:
109,192,148000,1,8,0:0:0:0:
182,192,148136,1,0,0:0:0:0:
256,192,148272,1,2,0:0:0:0:
402,192,148409,1,2,0:0:0:0:
109,192,148545,1,8,0:0:0:0:
402,192,148681,1,0,0:0:0:0:
109,192,148818,1,2,0:0:0:0:
329,192,148954,1,0,0:0:0:0:
256,192,149090,1,8,0:0:0:0:
182,192,149227,1,0,0:0:0:0:
109,192,149363,1,2,0:0:0:0:
475,192,149500,1,2,0:0:0:0:
256,192,149636,1,8,0:0:0:0:
36,192,149772,1,0,0:0:0:0:
182,192,149909,1,0,0:0:0:0:
475,192,149909,1,0,0:0:0:0:
329,192,150045,1,0,0:0:0:0:
475,192,150181,1,0,0:0:0:0:
182,192,150318,1,0,0:0:0:0:
109,192,150454,1,2,0:0:0:0:
256,192,150590,1,2,0:0:0:0:
182,192,150727,1,8,0:0:0:0:
402,192,150863,1,0,0:0:0:0:
329,192,151000,1,2,0:0:0:0:
182,192,151136,1,0,0:0:0:0:
329,192,151272,1,8,0:0:0:0:
109,192,151409,1,0,0:0:0:0:
402,192,151545,1,2,0:0:0:0:
109,192,151681,1,2,0:0:0:0:
402,192,151818,1,8,0:0:0:0:
256,192,151954,1,2,0:0:0:0:
36,192,152090,1,4,0:0:0:0:
475,192,152090,1,2,0:0:0:0:
182,192,152227,1,0,0:0:0:0:
329,192,152363,1,8,0:0:0:0:
109,192,152500,1,0,0:0:0:0:
256,192,152636,1,2,0:0:0:0:
402,192,152772,1,2,0:0:0:0:
182,192,152909,1,8,0:0:0:0:
329,192,153045,1,0,0:0:0:0:
475,192,153181,1,2,0:0:0:0:
182,192,153318,1,0,0:0:0:0:
329,192,153454,1,8,0:0:0:0:
109,192,153590,1,0,0:0:0:0:
256,192,153727,1,2,0:0:0:0:
36,192,153863,1,2,0:0:0:0:
182,192,154000,1,8,0:0:0:0:
329,192,154136,1,2,0:0:0:0:
109,192,154272,1,2,0:0:0:0:
475,192,154272,1,4,0:0:0:0:
256,192,154409,1,0,0:0:0:0:
402,192,154545,1,8,0:0:0:0:
182,192,154681,1,0,0:0:0:0:
329,192,154818,1,2,0:0:0:0:
475,192,154954,1,2,0:0:0:0:
109,192,155090,1,8,0:0:0:0:
256,192,155227,1,0,0:0:0:0:
402,192,155363,1,2,0:0:0:0:
36,192,155500,1,0,0:0:0:0:
182,192,155636,1,8,0:0:0:0:
329,192,155772,1,0,0:0:0:0:
475,192,155909,1,2,0:0:0:0:
182,192,156045,1,2,0:0:0:0:
329,192,156181,1,8,0:0:0:0:
182,192,156318,1,2,0:0:0:0:
36,192,156454,1,2,0:0:0:0:
475,192,156454,1,4,0:0:0:0:
256,192,156590,1,8,0:0:0:0:
475,192,156727,1,2,0:0:0:0:
182,192,156863,1,8,0:0:0:0:
36,192,157000,1,2,0:0:0:0:
256,192,157136,1,8,0:0:0:0:
109,192,157272,1,2,0:0:0:0:
329,192,157409,1,8,0:0:0:0:
36,192,157545,1,2,0:0:0:0:
475,192,157545,1,4,0:0:0:0:
402,192,157681,1,8,0:0:0:0:
256,192,157818,1,2,0:0:0:0:
109,192,157954,1,8,0:0:0:0:
475,192,158090,1,2,0:0:0:0:
329,192,158227,1,8,0:0:0:0:
182,192,158363,1,2,0:0:0:0:
36,192,158500,1,8,0:0:0:0:
256,192,158636,1,2,0:0:0:0:
475,192,158636,128,4,159727:0:0:0:0:
329,192,159727,1,6,0:0:0:0:
256,192,160000,1,6,0:0:0:0:
182,192,160272,1,6,0:0:0:0:
109,192,160545,1,12,0:0:0:0:
402,192,160681,1,2,0:0:0:0:
36,192,160818,1,6,0:0:0:0:
109,192,161090,1,8,0:0:0:0:
329,192,161090,1,0,0:0:0:0:
182,192,161363,1,2,0:0:0:0:
36,192,161636,1,8,0:0:0:0:
256,192,161636,1,0,0:0:0:0:
329,192,161909,1,2,0:0:0:0:
109,192,162181,1,8,0:0:0:0:
475,192,162181,1,0,0:0:0:0:
256,192,162454,1,2,0:0:0:0:
36,192,162727,1,8,0:0:0:0:
402,192,162727,1,0,0:0:0:0:
109,192,163000,1,2,0:0:0:0:
256,192,163272,1,8,0:0:0:0:
475,192,163272,1,0,0:0:0:0:
182,192,163545,1,2,0:0:0:0:
36,192,163818,1,8,0:0:0:0:
329,192,163818,1,0,0:0:0:0:
256,192,164090,1,2,0:0:0:0:
36,192,164363,1,8,0:0:0:0:
402,192,164363,1,0,0:0:0:0:
109,192,164636,1,2,0:0:0:0:
182,192,164909,1,8,0:0:0:0:
475,192,164909,1,0,0:0:0:0:
329,192,165045,1,2,0:0:0:0:
182,192,165181,1,2,0:0:0:0:
36,192,165454,1,8,0:0:0:0:
402,192,165454,1,0,0:0:0:0:
256,192,165727,1,2,0:0:0:0:
182,192,166000,1,8,0:0:0:0:
475,192,166000,1,0,0:0:0:0:
329,192,166272,1,2,0:0:0:0:
36,192,166545,1,8,0:0:0:0:
182,192,166545,1,0,0:0:0:0:
402,192,166818,1,2,0:0:0:0:
109,192,167090,1,8,0:0:0:0:
256,192,167090,1,0,0:0:0:0:
475,192,167363,1,2,0:0:0:0:
182,192,167636,1,8,0:0:0:0:
329,192,167636,1,0,0:0:0:0:
109,192,167909,1,2,0:0:0:0:
256,192,168181,1,8,0:0:0:0:
402,192,168181,1,0,0:0:0:0:
329,192,168454,1,2,0:0:0:0:
109,192,168590,1,2,0:0:0:0:
329,192,168727,1,8,0:0:0:0:
329,192,169000,1,2,0:0:0:0:
329,192,169272,128,8,169545:0:0:0:0:
36,192,169545,1,6,0:0:0:0:
182,192,169681,1,0,0:0:0:0:
329,192,169818,1,8,0:0:0:0:
109,192,169954,1,0,0:0:0:0:
256,192,170090,1,2,0:0:0:0:
402,192,170227,1,0,0:0:0:0:
182,192,170363,1,8,0:0:0:0:
329,192,170500,1,0,0:0:0:0:
475,192,170636,1,2,0:0:0:0:
182,192,170772,1,0,0:0:0:0:
36,192,170909,1,8,0:0:0:0:
256,192,171045,1,0,0:0:0:0:
109,192,171181,1,2,0:0:0:0:
329,192,171318,1,0,0:0:0:0:
182,192,171454,1,8,0:0:0:0:
402,192,171590,1,0,0:0:0:0:
256,192,171727,1,2,0:0:0:0:
475,192,171863,1,0,0:0:0:0:
329,192,172000,1,8,0:0:0:0:
182,192,172136,1,0,0:0:0:0:
402,192,172272,1,2,0:0:0:0:
109,192,172409,1,0,0:0:0:0:
329,192,172545,1,8,0:0:0:0:
36,192,172681,1,0,0:0:0:0:
256,192,172818,1,2,0:0:0:0:
402,192,172954,1,0,0:0:0:0:
109,192,173090,1,8,0:0:0:0:
256,192,173227,1,0,0:0:0:0:
36,192,173363,1,2,0:0:0:0:
402,192,173500,1,0,0:0:0:0:
182,192,173636,1,8,0:0:0:0:
109,192,173772,1,2,0:0:0:0:
256,192,173909,1,2,0:0:0:0:
475,192,173909,1,0,0:0:0:0:
36,192,174181,1,8,0:0:0:0:
182,192,174318,1,0,0:0:0:0:
329,192,174454,1,2,0:0:0:0:
256,192,174590,1,0,0:0:0:0:
182,192,174727,1,8,0:0:0:0:
402,192,174863,1,0,0:0:0:0:
36,192,175000,1,2,0:0:0:0:
329,192,175000,1,0,0:0:0:0:
182,192,175136,1,0,0:0:0:0:
329,192,175272,1,8,0:0:0:0:
475,192,175409,1,0,0:0:0:0:
182,192,175545,1,2,0:0:0:0:
109,192,175681,1,0,0:0:0:0:
329,192,175818,1,8,0:0:0:0:
256,192,175954,1,0,0:0:0:0:
475,192,176090,1,2,0:0:0:0:
182,192,176227,1,0,0:0:0:0:
256,192,176363,1,8,0:0:0:0:
329,192,176500,1,0,0:0:0:0:
109,192,176636,1,2,0:0:0:0:
402,192,176636,1,0,0:0:0:0:
182,192,176772,1,0,0:0:0:0:
256,192,176909,1,8,0:0:0:0:
329,192,177045,1,0,0:0:0:0:
36,192,177181,1,2,0:0:0:0:
182,192,177318,1,2,0:0:0:0:
329,192,177454,1,8,0:0:0:0:
182,192,177727,128,0,177863:0:0:0:0:
329,192,178000,128,0,178136:0:0:0:0:
36,192,178272,1,4,0:0:0:0:
475,192,178272,1,2,0:0:0:0:
182,192,178409,1,0,0:0:0:0:
329,192,178545,1,8,0:0:0:0:
109,192,178681,1,0,0:0:0:0:
402,192,178818,1,2,0:0:0:0:
256,192,178954,1,0,0:0:0:0:
109,192,179090,1,8,0:0:0:0:
475,192,179090,1,0,0:0:0:0:
329,192,179227,1,0,0:0:0:0:
182,192,179363,1,2,0:0:0:0:
256,192,179500,1,0,0:0:0:0:
402,192,179636,1,8,0:0:0:0:
36,192,179909,1,2,0:0:0:0:
182,192,180045,1,0,0:0:0:0:
475,192,180181,1,8,0:0:0:0:
329,192,180318,1,0,0:0:0:0:
109,192,180454,1,2,0:0:0:0:
402,192,180590,1,0,0:0:0:0:
182,192,180727,1,8,0:0:0:0:
329,192,181000,1,2,0:0:0:0:
182,192,181136,1,0,0:0:0:0:
402,192,181272,1,8,0:0:0:0:
109,192,181409,1,0,0:0:0:0:
475,192,181545,1,2,0:0:0:0:
36,192,181681,1,0,0:0:0:0:
256,192,181818,1,8,0:0:0:0:
402,192,182090,1,2,0:0:0:0:
182,192,182227,1,0,0:0:0:0:
329,192,182363,1,8,0:0:0:0:
109,192,182500,1,2,0:0:0:0:
256,192,182636,1,2,0:0:0:0:
402,192,182772,1,0,0:0:0:0:
256,192,182909,1,8,0:0:0:0:
36,192,183181,1,2,0:0:0:0:
182,192,183318,1,0,0:0:0:0:
475,192,183454,1,8,0:0:0:0:
329,192,183590,1,0,0:0:0:0:
109,192,183727,1,2,0:0:0:0:
402,192,183863,1,0,0:0:0:0:
256,192,184000,1,8,0:0:0:0:
36,192,184272,1,2,0:0:0:0:
109,192,184409,1,0,0:0:0:0:
182,192,184545,1,8,0:0:0:0:
256,192,184681,1,0,0:0:0:0:
329,192,184818,1,2,0:0:0:0:
475,192,184954,1,0,0:0:0:0:
402,192,185090,1,8,0:0:0:0:
256,192,185363,1,2,0:0:0:0:
329,192,185500,1,0,0:0:0:0:
109,192,185636,1,8,0:0:0:0:
182,192,185772,1,0,0:0:0:0:
475,192,185909,1,2,0:0:0:0:
329,192,186045,1,2,0:0:0:0:
182,192,186181,1,8,0:0:0:0:
182,192,186454,1,2,0:0:0:0:
182,192,186727,128,8,187000:0:0:0:0:
402,192,187000,1,6,0:0:0:0:
256,192,187136,1,0,0:0:0:0:
475,192,187272,1,8,0:0:0:0:
109,192,187545,1,2,0:0:0:0:
329,192,187681,1,0,0:0:0:0:
182,192,187818,1,8,0:0:0:0:
402,192,187954,1,0,0:0:0:0:
256,192,188090,1,2,0:0:0:0:
109,192,188227,1,0,0:0:0:0:
475,192,188363,1,8,0:0:0:0:
109,192,188636,1,2,0:0:0:0:
329,192,188772,1,0,0:0:0:0:
182,192,188909,1,8,0:0:0:0:
36,192,189045,1,0,0:0:0:0:
402,192,189181,1,2,0:0:0:0:
256,192,189318,1,0,0:0:0:0:
109,192,189454,1,8,0:0:0:0:
329,192,189727,1,2,0:0:0:0:
182,192,189863,1,0,0:0:0:0:
402,192,190000,1,8,0:0:0:0:
109,192,190136,1,0,0:0:0:0:
329,192,190272,1,2,0:0:0:0:
256,192,190409,1,0,0:0:0:0:
109,192,190545,1,8,0:0:0:0:
475,192,190818,1,2,0:0:0:0:
182,192,190954,1,0,0:0:0:0:
329,192,191090,1,8,0:0:0:0:
182,192,191227,1,2,0:0:0:0:
329,192,191363,1,2,0:0:0:0:
182,192,191500,1,0,0:0:0:0:
36,192,191636,1,0,0:0:0:0:
475,192,191909,1,2,0:0:0:0:
182,192,192045,1,0,0:0:0:0:
329,192,192181,1,8,0:0:0:0:
109,192,192318,1,0,0:0:0:0:
256,192,192454,1,2,0:0:0:0:
402,192,192590,1,0,0:0:0:0:
182,192,192727,1,8,0:0:0:0:
329,192,193000,1,2,0:0:0:0:
182,192,193136,1,0,0:0:0:0:
109,192,193272,1,8,0:0:0:0:
256,192,193409,1,0,0:0:0:0:
182,192,193545,1,2,0:0:0:0:
329,192,193681,1,0,0:0:0:0:
256,192,193818,1,8,0:0:0:0:
329,192,194090,1,2,0:0:0:0:
402,192,194227,1,0,0:0:0:0:
256,192,194363,1,8,0:0:0:0:
329,192,194500,1,0,0:0:0:0:
36,192,194636,1,6,0:0:0:0:
475,192,194772,1,2,0:0:0:0:
36,192,194909,1,8,0:0:0:0:
36,192,195181,1,2,0:0:0:0:
36,192,195454,128,12,195727:0:0:0:0:
475,192,195727,1,6,0:0:0:0:
329,192,195863,1,0,0:0:0:0:
182,192,196000,1,8,0:0:0:0:
402,192,196136,1,0,0:0:0:0:
109,192,196272,1,2,0:0:0:0:
256,192,196409,1,0,0:0:0:0:
36,192,196545,1,8,0:0:0:0:
402,192,196545,1,0,0:0:0:0:
182,192,196681,1,0,0:0:0:0:
329,192,196818,1,2,0:0:0:0:
256,192,196954,1,0,0:0:0:0:
109,192,197090,1,8,0:0:0:0:
475,192,197363,1,2,0:0:0:0:
329,192,197500,1,0,0:0:0:0:
36,192,197636,1,8,0:0:0:0:
182,192,197772,1,0,0:0:0:0:
402,192,197909,1,2,0:0:0:0:
109,192,198045,1,0,0:0:0:0:
329,192,198181,1,8,0:0:0:0:
182,192,198454,1,2,0:0:0:0:
329,192,198590,1,0,0:0:0:0:
109,192,198727,1,8,0:0:0:0:
402,192,198863,1,0,0:0:0:0:
36,192,199000,1,2,0:0:0:0:
475,192,199136,1,0,0:0:0:0:
256,192,199272,1,8,0:0:0:0:
109,192,199545,1,2,0:0:0:0:
329,192,199681,1,0,0:0:0:0:
182,192,199818,1,8,0:0:0:0:
402,192,199954,1,2,0:0:0:0:
256,192,200090,1,2,0:0:0:0:
109,192,200227,1,0,0:0:0:0:
256,192,200363,1,8,0:0:0:0:
475,192,200636,1,2,0:0:0:0:
329,192,200772,1,0,0:0:0:0:
36,192,200909,1,8,0:0:0:0:
182,192,201045,1,0,0:0:0:0:
402,192,201181,1,2,0:0:0:0:
109,192,201318,1,0,0:0:0:0:
256,192,201454,1,8,0:0:0:0:
475,192,201727,1,2,0:0:0:0:
402,192,201863,1,0,0:0:0:0:
329,192,202000,1,8,0:0:0:0:
256,192,202136,1,0,0:0:0:0:
182,192,202272,1,2,0:0:0:0:
36,192,202409,1,0,0:0:0:0:
109,192,202545,1,8,0:0:0:0:
256,192,202818,1,2,0:0:0:0:
182,192,202954,1,0,0:0:0:0:
402,192,203090,1,8,0:0:0:0:
329,192,203227,1,0,0:0:0:0:
36,192,203363,1,2,0:0:0:0:
182,192,203500,1,2,0:0:0:0:
329,192,203636,1,8,0:0:0:0:
329,192,203909,1,2,0:0:0:0:
329,192,204181,128,8,204454:0:0:0:0:
109,192,204454,1,6,0:0:0:0:
475,192,204590,1,0,0:0:0:0:
182,192,204727,1,8,0:0:0:0:
402,192,205000,1,2,0:0:0:0:
182,192,205136,1,0,0:0:0:0:
329,192,205272,1,8,0:0:0:0:
109,192,205409,1,0,0:0:0:0:
256,192,205545,1,2,0:0:0:0:
402,192,205681,1,0,0:0:0:0:
36,192,205818,1,8,0:0:0:0:
402,192,206090,1,2,0:0:0:0:
182,192,206227,1,0,0:0:0:0:
329,192,206363,1,8,0:0:0:0:
475,192,206500,1,0,0:0:0:0:
109,192,206636,1,2,0:0:0:0:
256,192,206772,1,0,0:0:0:0:
36,192,206909,1,8,0:0:0:0:
402,192,206909,1,0,0:0:0:0:
182,192,207181,1,2,0:0:0:0:
329,192,207318,1,0,0:0:0:0:
109,192,207454,1,8,0:0:0:0:
402,192,207590,1,0,0:0:0:0:
182,192,207727,1,2,0:0:0:0:
256,192,207863,1,0,0:0:0:0:
402,192,208000,1,8,0:0:0:0:
475,192,208272,1,2,0:0:0:0:
329,192,208409,1,0,0:0:0:0:
182,192,208545,1,8,0:0:0:0:
329,192,208681,1,2,0:0:0:0:
182,192,208818,1,2,0:0:0:0:
329,192,208954,1,0,0:0:0:0:
109,192,209090,1,8,0:0:0:0:
36,192,209363,1,2,0:0:0:0:
256,192,209363,1,0,0:0:0:0:
329,192,209500,1,0,0:0:0:0:
182,192,209636,1,8,0:0:0:0:
402,192,209772,1,0,0:0:0:0:
256,192,209909,1,2,0:0:0:0:
109,192,210045,1,0,0:0:0:0:
329,192,210181,1,8,0:0:0:0:
182,192,210454,1,2,0:0:0:0:
329,192,210590,1,0,0:0:0:0:
402,192,210727,1,8,0:0:0:0:
256,192,210863,1,0,0:0:0:0:
329,192,211000,1,2,0:0:0:0:
182,192,211136,1,0,0:0:0:0:
256,192,211272,1,8,0:0:0:0:
182,192,211545,1,2,0:0:0:0:
109,192,211681,1,0,0:0:0:0:
256,192,211818,1,8,0:0:0:0:
182,192,211954,1,0,0:0:0:0:
36,192,212090,128,2,212363:0:0:0:0:
475,192,212090,128,0,212363:0:0:0:0:
256,192,212636,1,2,0:0:0:0:
36,192,212772,128,8,212909:0:0:0:0:
475,192,212772,128,0,212909:0:0:0:0:
36,192,213045,128,8,213181:0:0:0:0:
475,192,213045,128,0,213181:0:0:0:0:
256,192,213181,1,6,0:0:0:0:
109,192,214000,1,2,0:0:0:0:
256,192,214000,1,0,0:0:0:0:
182,192,214272,1,2,0:0:0:0:
329,192,214272,1,0,0:0:0:0:
109,192,215363,1,2,0:0:0:0:
402,192,215363,1,0,0:0:0:0:
256,192,216181,1,2,0:0:0:0:
402,192,216181,1,0,0:0:0:0:
182,192,216454,1,2,0:0:0:0:
329,192,216454,1,0,0:0:0:0:
36,192,217000,1,2,0:0:0:0:
182,192,217000,1,0,0:0:0:0:
329,192,217272,1,2,0:0:0:0:
475,192,217272,1,0,0:0:0:0:
36,192,217545,1,2,0:0:0:0:
182,192,217545,1,4,0:0:0:0:
402,192,217545,1,0,0:0:0:0:
109,192,218363,1,2,0:0:0:0:
329,192,218363,1,0,0:0:0:0:
182,192,218636,1,2,0:0:0:0:
402,192,218636,1,0,0:0:0:0:
36,192,219727,1,2,0:0:0:0:
475,192,219727,1,0,0:0:0:0:
109,192,220545,1,2,0:0:0:0:
402,192,220545,1,0,0:0:0:0:
182,192,220818,1,2,0:0:0:0:
329,192,220818,1,0,0:0:0:0:
182,192,221090,1,2,0:0:0:0:
329,192,221090,1,0,0:0:0:0:
109,192,221363,1,2,0:0:0:0:
402,192,221363,1,0,0:0:0:0:
256,192,221500,1,2,0:0:0:0:
182,192,221636,1,8,0:0:0:0:
329,192,221636,1,0,0:0:0:0:
109,192,221909,1,2,0:0:0:0:
256,192,221909,1,4,0:0:0:0:
402,192,221909,1,0,0:0:0:0:
36,192,222727,1,2,0:0:0:0:
182,192,222727,1,0,0:0:0:0:
329,192,223000,1,2,0:0:0:0:
475,192,223000,1,0,0:0:0:0:
182,192,223818,1,2,0:0:0:0:
402,192,223818,1,0,0:0:0:0:
36,192,224090,1,4,0:0:0:0:
256,192,224090,1,2,0:0:0:0:
475,192,224090,1,0,0:0:0:0:
109,192,224909,1,2,0:0:0:0:
329,192,224909,1,0,0:0:0:0:
182,192,225181,1,2,0:0:0:0:
475,192,225181,1,0,0:0:0:0:
329,192,225454,1,0,0:0:0:0:
36,192,225727,1,2,0:0:0:0:
475,192,225727,1,0,0:0:0:0:
182,192,225863,1,2,0:0:0:0:
329,192,226000,1,8,0:0:0:0:
475,192,226000,1,0,0:0:0:0:
36,192,226272,1,2,0:0:0:0:
256,192,226272,1,4,0:0:0:0:
475,192,226272,1,0,0:0:0:0:
109,192,226409,1,8,0:0:0:0:
182,192,226545,1,2,0:0:0:0:
256,192,226681,1,8,0:0:0:0:
475,192,226818,1,2,0:0:0:0:
329,192,226954,1,8,0:0:0:0:
182,192,227090,1,2,0:0:0:0:
36,192,227227,1,8,0:0:0:0:
329,192,227363,1,4,0:0:0:0:
475,192,227363,1,2,0:0:0:0:
109,192,227500,1,8,0:0:0:0:
256,192,227636,1,2,0:0:0:0:
402,192,227772,1,8,0:0:0:0:
36,192,227909,1,2,0:0:0:0:
182,192,228045,1,8,0:0:0:0:
329,192,228181,1,2,0:0:0:0:
475,192,228318,1,8,0:0:0:0:
36,192,228454,128,2,229545:0:0:0:0:
182,192,228454,1,4,0:0:0:0:
256,192,229000,1,6,0:0:0:0:
329,192,229545,1,6,0:0:0:0:
329,192,229818,1,12,0:0:0:0:
329,192,230090,1,6,0:0:0:0:
329,192,230363,1,12,0:0:0:0:
182,192,230500,1,0,0:0:0:0:
329,192,230636,1,6,0:0:0:0:
36,192,230636,1,0,0:0:0:0:
