osu file format v14

[General]
AudioFilename: audio.mp3
AudioLeadIn: 0
PreviewTime: 65898
Countdown: 1
SampleSet: Normal
StackLeniency: 0.7
Mode: 3
LetterboxInBreaks: 0
SpecialStyle: 0
WidescreenStoryboard: 0

[Editor]
DistanceSpacing: 1.4
BeatDivisor: 4
GridSize: 4
TimelineZoom: 1.9

[Metadata]
Title:Jungle Jungle
TitleUnicode:Jungle Jungle
Artist:DJ Nagai
ArtistUnicode:DJ Nagai
Creator:Zyph
Version:4K
Source:REFLEC BEAT VOLZZA
Tags:dj nagai jungle zyph 4K reflec beat volzza trap not so korean map
BeatmapID:1468904
BeatmapSetID:694294

[Difficulty]
HPDrainRate:8
CircleSize:4
OverallDifficulty:8
ApproachRate:5
SliderMultiplier:1.4
SliderTickRate:1

[Events]
//Background and Video events
0,0,"background.jpg",0,0
//Break Periods
//Storyboard Layer 0 (Background)
//Storyboard Layer 1 (Fail)
//Storyboard Layer 2 (Pass)
//Storyboard Layer 3 (Foreground)
//Storyboard Sound Samples

[TimingPoints]
-224,306.122448979592,4,1,0,100,1,0

[HitObjects]
320,192,1000,128,0,1612:0:0:0:0:
448,192,1612,128,0,1740:0:0:0:0:
448,192,1893,128,0,2020:0:0:0:0:
320,192,2224,1,0,0:0:0:0:
192,192,2301,1,0,0:0:0:0:
320,192,2378,1,0,0:0:0:0:
320,192,2531,1,0,0:0:0:0:
320,192,2684,1,0,0:0:0:0:
192,192,2760,1,0,0:0:0:0:
320,192,2837,1,0,0:0:0:0:
320,192,2990,1,0,0:0:0:0:
448,192,3143,1,0,0:0:0:0:
320,192,3194,1,0,0:0:0:0:
192,192,3245,1,0,0:0:0:0:
64,192,3296,1,0,0:0:0:0:
192,192,3449,1,0,0:0:0:0:
320,192,3449,1,0,0:0:0:0:
448,192,3449,1,0,0:0:0:0:
64,192,3449,128,0,3755:0:0:0:0:
192,192,3755,1,0,0:0:0:0:
320,192,3755,1,0,0:0:0:0:
448,192,3755,128,0,4061:0:0:0:0:
192,192,3908,1,0,0:0:0:0:
64,192,4061,1,0,0:0:0:0:
320,192,4061,1,0,0:0:0:0:
192,192,4138,1,0,0:0:0:0:
64,192,4214,1,0,0:0:0:0:
448,192,4214,1,0,0:0:0:0:
192,192,4291,1,0,0:0:0:0:
320,192,4367,1,0,0:0:0:0:
448,192,4367,1,0,0:0:0:0:
64,192,4444,1,0,0:0:0:0:
320,192,4520,1,0,0:0:0:0:
448,192,4520,1,0,0:0:0:0:
64,192,4673,1,0,0:0:0:0:
192,192,4673,1,0,0:0:0:0:
320,192,4827,1,0,0:0:0:0:
192,192,4903,1,0,0:0:0:0:
320,192,4980,1,0,0:0:0:0:
448,192,4980,1,0,0:0:0:0:
64,192,5133,1,0,0:0:0:0:
192,192,5133,1,0,0:0:0:0:
448,192,5286,1,0,0:0:0:0:
320,192,5286,1,0,0:0:0:0:
64,192,5286,1,0,0:0:0:0:
64,192,5439,1,0,0:0:0:0:
192,192,5477,1,0,0:0:0:0:
320,192,5515,1,0,0:0:0:0:
448,192,5554,1,0,0:0:0:0:
192,192,5592,1,0,0:0:0:0:
64,192,5592,1,0,0:0:0:0:
448,192,5745,1,0,0:0:0:0:
320,192,5783,1,0,0:0:0:0:
192,192,5821,1,0,0:0:0:0:
64,192,5860,1,0,0:0:0:0:
320,192,5898,1,0,0:0:0:0:
448,192,5898,1,0,0:0:0:0:
192,192,6051,1,0,0:0:0:0:
320,192,6204,1,0,0:0:0:0:
448,192,6204,1,0,0:0:0:0:
64,192,6357,1,0,0:0:0:0:
192,192,6357,1,0,0:0:0:0:
64,192,6510,1,0,0:0:0:0:
320,192,6510,1,0,0:0:0:0:
448,192,6510,1,0,0:0:0:0:
192,192,6587,1,0,0:0:0:0:
64,192,6663,1,0,0:0:0:0:
320,192,6663,1,0,0:0:0:0:
192,192,6740,1,0,0:0:0:0:
320,192,6816,1,0,0:0:0:0:
448,192,6816,1,0,0:0:0:0:
192,192,6893,1,0,0:0:0:0:
64,192,6969,1,0,0:0:0:0:
448,192,6969,1,0,0:0:0:0:
448,192,7122,1,0,0:0:0:0:
320,192,7122,1,0,0:0:0:0:
192,192,7199,1,0,0:0:0:0:
320,192,7276,1,0,0:0:0:0:
448,192,7276,1,0,0:0:0:0:
192,192,7327,1,0,0:0:0:0:
64,192,7378,1,0,0:0:0:0:
320,192,7429,1,0,0:0:0:0:
448,192,7429,1,0,0:0:0:0:
192,192,7505,1,0,0:0:0:0:
448,192,7582,1,0,0:0:0:0:
64,192,7582,1,0,0:0:0:0:
320,192,7658,1,0,0:0:0:0:
192,192,7735,1,0,0:0:0:0:
64,192,7735,1,0,0:0:0:0:
448,192,7735,1,0,0:0:0:0:
192,192,7888,1,0,0:0:0:0:
448,192,7926,1,0,0:0:0:0:
320,192,7964,1,0,0:0:0:0:
192,192,8003,1,0,0:0:0:0:
448,192,8041,1,0,0:0:0:0:
320,192,8041,1,0,0:0:0:0:
64,192,8041,1,0,0:0:0:0:
192,192,8347,1,0,0:0:0:0:
320,192,8347,1,0,0:0:0:0:
448,192,8347,1,0,0:0:0:0:
64,192,8347,128,0,8653:0:0:0:0:
192,192,8653,1,0,0:0:0:0:
320,192,8653,1,0,0:0:0:0:
448,192,8653,128,0,8959:0:0:0:0:
192,192,8806,1,0,0:0:0:0:
64,192,8959,1,0,0:0:0:0:
192,192,8959,1,0,0:0:0:0:
320,192,9036,1,0,0:0:0:0:
64,192,9112,1,0,0:0:0:0:
192,192,9112,1,0,0:0:0:0:
320,192,9189,1,0,0:0:0:0:
448,192,9265,1,0,0:0:0:0:
64,192,9265,1,0,0:0:0:0:
320,192,9342,1,0,0:0:0:0:
192,192,9418,1,0,0:0:0:0:
64,192,9418,1,0,0:0:0:0:
448,192,9571,1,0,0:0:0:0:
320,192,9571,1,0,0:0:0:0:
192,192,9724,1,0,0:0:0:0:
320,192,9801,1,0,0:0:0:0:
64,192,9878,1,0,0:0:0:0:
192,192,9878,1,0,0:0:0:0:
448,192,10031,1,0,0:0:0:0:
320,192,10031,1,0,0:0:0:0:
64,192,10184,1,0,0:0:0:0:
192,192,10184,1,0,0:0:0:0:
448,192,10184,1,0,0:0:0:0:
64,192,10337,1,0,0:0:0:0:
192,192,10375,1,0,0:0:0:0:
320,192,10413,1,0,0:0:0:0:
448,192,10452,1,0,0:0:0:0:
192,192,10490,1,0,0:0:0:0:
64,192,10490,1,0,0:0:0:0:
448,192,10643,1,0,0:0:0:0:
320,192,10681,1,0,0:0:0:0:
192,192,10719,1,0,0:0:0:0:
64,192,10758,1,0,0:0:0:0:
448,192,10796,1,0,0:0:0:0:
320,192,10796,1,0,0:0:0:0:
192,192,10949,1,0,0:0:0:0:
448,192,11102,1,0,0:0:0:0:
320,192,11102,1,0,0:0:0:0:
192,192,11255,1,0,0:0:0:0:
64,192,11255,1,0,0:0:0:0:
64,192,11408,1,0,0:0:0:0:
320,192,11408,1,0,0:0:0:0:
448,192,11408,1,0,0:0:0:0:
192,192,11485,1,0,0:0:0:0:
320,192,11561,1,0,0:0:0:0:
448,192,11561,1,0,0:0:0:0:
192,192,11638,1,0,0:0:0:0:
64,192,11714,1,0,0:0:0:0:
448,192,11714,1,0,0:0:0:0:
320,192,11791,1,0,0:0:0:0:
192,192,11867,1,0,0:0:0:0:
64,192,11867,1,0,0:0:0:0:
320,192,12020,1,0,0:0:0:0:
448,192,12020,1,0,0:0:0:0:
192,192,12097,1,0,0:0:0:0:
320,192,12173,1,0,0:0:0:0:
448,192,12173,1,0,0:0:0:0:
192,192,12224,1,0,0:0:0:0:
64,192,12276,1,0,0:0:0:0:
320,192,12327,1,0,0:0:0:0:
448,192,12327,1,0,0:0:0:0:
192,192,12403,1,0,0:0:0:0:
64,192,12480,1,0,0:0:0:0:
448,192,12480,1,0,0:0:0:0:
320,192,12556,1,0,0:0:0:0:
192,192,12633,1,0,0:0:0:0:
448,192,12633,1,0,0:0:0:0:
64,192,12633,1,0,0:0:0:0:
320,192,12786,1,0,0:0:0:0:
64,192,12824,1,0,0:0:0:0:
192,192,12862,1,0,0:0:0:0:
320,192,12901,1,0,0:0:0:0:
64,192,12939,1,0,0:0:0:0:
192,192,12939,1,0,0:0:0:0:
448,192,12939,1,0,0:0:0:0:
320,192,13245,1,0,0:0:0:0:
448,192,13245,1,0,0:0:0:0:
64,192,13245,128,0,13551:0:0:0:0:
192,192,13245,128,0,13398:0:0:0:0:
320,192,13551,1,0,0:0:0:0:
192,192,13551,128,0,13704:0:0:0:0:
448,192,13551,128,0,13857:0:0:0:0:
192,192,13857,128,0,14010:0:0:0:0:
192,192,14163,128,0,14316:0:0:0:0:
192,192,14469,128,0,14622:0:0:0:0:
64,192,14776,128,0,14929:0:0:0:0:
192,192,14929,128,0,15082:0:0:0:0:
64,192,15235,128,0,15388:0:0:0:0:
192,192,15388,128,0,15541:0:0:0:0:
448,192,15388,1,0,0:0:0:0:
448,192,15541,128,0,15694:0:0:0:0:
320,192,15541,1,0,0:0:0:0:
64,192,15617,1,0,0:0:0:0:
320,192,15694,128,0,15847:0:0:0:0:
192,192,15694,1,0,0:0:0:0:
320,192,16000,128,0,16153:0:0:0:0:
192,192,16000,1,0,0:0:0:0:
320,192,16306,128,0,16459:0:0:0:0:
320,192,16612,128,0,16765:0:0:0:0:
448,192,16765,128,0,16918:0:0:0:0:
192,192,16765,1,0,0:0:0:0:
64,192,16842,1,0,0:0:0:0:
192,192,16918,128,0,17071:0:0:0:0:
320,192,16918,1,0,0:0:0:0:
64,192,17071,1,0,0:0:0:0:
320,192,17224,128,0,17378:0:0:0:0:
448,192,17224,1,0,0:0:0:0:
192,192,17378,128,0,17531:0:0:0:0:
64,192,17378,1,0,0:0:0:0:
64,192,17684,128,0,17837:0:0:0:0:
448,192,17684,1,0,0:0:0:0:
320,192,17760,1,0,0:0:0:0:
448,192,17837,1,0,0:0:0:0:
192,192,17837,1,0,0:0:0:0:
192,192,17990,1,0,0:0:0:0:
448,192,17990,1,0,0:0:0:0:
448,192,18143,1,0,0:0:0:0:
320,192,18143,1,0,0:0:0:0:
64,192,18143,128,0,18449:0:0:0:0:
192,192,18143,128,0,18296:0:0:0:0:
448,192,18449,128,0,18755:0:0:0:0:
320,192,18449,1,0,0:0:0:0:
192,192,18449,128,0,18602:0:0:0:0:
192,192,18755,128,0,18908:0:0:0:0:
64,192,18755,1,0,0:0:0:0:
320,192,18908,1,0,0:0:0:0:
192,192,19061,128,0,19214:0:0:0:0:
64,192,19061,1,0,0:0:0:0:
448,192,19214,1,0,0:0:0:0:
192,192,19367,128,0,19520:0:0:0:0:
64,192,19367,1,0,0:0:0:0:
320,192,19520,1,0,0:0:0:0:
64,192,19673,128,0,19827:0:0:0:0:
448,192,19673,1,0,0:0:0:0:
192,192,19827,128,0,19980:0:0:0:0:
320,192,19827,1,0,0:0:0:0:
448,192,19980,1,0,0:0:0:0:
320,192,20133,128,0,20286:0:0:0:0:
64,192,20133,1,0,0:0:0:0:
448,192,20286,128,0,20439:0:0:0:0:
192,192,20286,1,0,0:0:0:0:
64,192,20439,1,0,0:0:0:0:
320,192,20592,128,0,20745:0:0:0:0:
448,192,20592,1,0,0:0:0:0:
192,192,20745,1,0,0:0:0:0:
448,192,20821,1,0,0:0:0:0:
192,192,20898,128,0,21051:0:0:0:0:
64,192,20898,1,0,0:0:0:0:
448,192,21051,1,0,0:0:0:0:
320,192,21128,1,0,0:0:0:0:
192,192,21204,128,0,21357:0:0:0:0:
64,192,21204,1,0,0:0:0:0:
320,192,21357,1,0,0:0:0:0:
448,192,21434,1,0,0:0:0:0:
64,192,21510,128,0,21663:0:0:0:0:
192,192,21510,1,0,0:0:0:0:
448,192,21663,1,0,0:0:0:0:
320,192,21740,1,0,0:0:0:0:
64,192,21816,1,0,0:0:0:0:
192,192,21816,1,0,0:0:0:0:
64,192,21918,1,0,0:0:0:0:
320,192,21918,1,0,0:0:0:0:
192,192,22020,1,0,0:0:0:0:
448,192,22020,1,0,0:0:0:0:
320,192,22122,1,0,0:0:0:0:
192,192,22122,1,0,0:0:0:0:
448,192,22224,1,0,0:0:0:0:
64,192,22224,1,0,0:0:0:0:
192,192,22327,1,0,0:0:0:0:
320,192,22327,1,0,0:0:0:0:
64,192,22429,1,0,0:0:0:0:
320,192,22429,1,0,0:0:0:0:
192,192,22531,1,0,0:0:0:0:
448,192,22531,1,0,0:0:0:0:
448,192,22633,1,0,0:0:0:0:
64,192,22633,1,0,0:0:0:0:
192,192,22735,1,0,0:0:0:0:
320,192,22735,1,0,0:0:0:0:
448,192,22837,1,0,0:0:0:0:
64,192,22837,1,0,0:0:0:0:
64,192,22939,1,0,0:0:0:0:
192,192,22939,1,0,0:0:0:0:
448,192,23041,1,0,0:0:0:0:
320,192,23041,1,0,0:0:0:0:
448,192,23143,1,0,0:0:0:0:
320,192,23143,1,0,0:0:0:0:
448,192,23245,1,0,0:0:0:0:
320,192,23245,1,0,0:0:0:0:
448,192,23347,1,0,0:0:0:0:
320,192,23347,1,0,0:0:0:0:
64,192,23653,1,0,0:0:0:0:
192,192,23653,1,0,0:0:0:0:
64,192,23755,1,0,0:0:0:0:
192,192,23755,1,0,0:0:0:0:
192,192,23857,1,0,0:0:0:0:
64,192,23857,1,0,0:0:0:0:
192,192,23959,1,0,0:0:0:0:
64,192,23959,1,0,0:0:0:0:
320,192,24265,1,0,0:0:0:0:
448,192,24265,1,0,0:0:0:0:
448,192,24367,1,0,0:0:0:0:
320,192,24367,1,0,0:0:0:0:
320,192,24469,1,0,0:0:0:0:
448,192,24469,1,0,0:0:0:0:
192,192,24571,1,0,0:0:0:0:
64,192,24571,1,0,0:0:0:0:
64,192,24673,1,0,0:0:0:0:
192,192,24673,1,0,0:0:0:0:
192,192,24776,1,0,0:0:0:0:
64,192,24776,1,0,0:0:0:0:
64,192,24878,1,0,0:0:0:0:
320,192,24878,1,0,0:0:0:0:
448,192,24878,1,0,0:0:0:0:
64,192,25184,1,0,0:0:0:0:
192,192,25184,1,0,0:0:0:0:
320,192,25184,1,0,0:0:0:0:
448,192,25184,1,0,0:0:0:0:
64,192,25490,1,0,0:0:0:0:
192,192,25490,1,0,0:0:0:0:
448,192,25490,1,0,0:0:0:0:
320,192,25490,1,0,0:0:0:0:
192,192,25566,1,0,0:0:0:0:
448,192,25643,1,0,0:0:0:0:
320,192,25643,1,0,0:0:0:0:
448,192,25796,1,0,0:0:0:0:
64,192,25796,1,0,0:0:0:0:
320,192,25796,1,0,0:0:0:0:
448,192,25949,1,0,0:0:0:0:
320,192,25949,1,0,0:0:0:0:
64,192,26102,1,0,0:0:0:0:
192,192,26102,1,0,0:0:0:0:
320,192,26255,1,0,0:0:0:0:
448,192,26255,1,0,0:0:0:0:
192,192,26332,1,0,0:0:0:0:
64,192,26408,1,0,0:0:0:0:
448,192,26408,1,0,0:0:0:0:
320,192,26408,1,0,0:0:0:0:
64,192,26561,1,0,0:0:0:0:
448,192,26561,1,0,0:0:0:0:
320,192,26638,1,0,0:0:0:0:
64,192,26714,1,0,0:0:0:0:
192,192,26714,1,0,0:0:0:0:
320,192,26791,1,0,0:0:0:0:
448,192,26791,1,0,0:0:0:0:
448,192,26867,1,0,0:0:0:0:
320,192,26867,1,0,0:0:0:0:
448,192,27020,1,0,0:0:0:0:
320,192,27020,1,0,0:0:0:0:
64,192,27020,1,0,0:0:0:0:
320,192,27173,1,0,0:0:0:0:
448,192,27173,1,0,0:0:0:0:
64,192,27327,1,0,0:0:0:0:
192,192,27327,1,0,0:0:0:0:
448,192,27480,1,0,0:0:0:0:
320,192,27480,1,0,0:0:0:0:
64,192,27633,1,0,0:0:0:0:
448,192,27633,1,0,0:0:0:0:
192,192,27633,1,0,0:0:0:0:
192,192,27709,1,0,0:0:0:0:
64,192,27709,1,0,0:0:0:0:
448,192,27786,1,0,0:0:0:0:
320,192,27786,1,0,0:0:0:0:
64,192,27939,1,0,0:0:0:0:
448,192,27939,1,0,0:0:0:0:
320,192,27939,1,0,0:0:0:0:
192,192,28015,1,0,0:0:0:0:
320,192,28092,1,0,0:0:0:0:
448,192,28092,1,0,0:0:0:0:
192,192,28168,1,0,0:0:0:0:
320,192,28245,1,0,0:0:0:0:
448,192,28245,1,0,0:0:0:0:
64,192,28245,1,0,0:0:0:0:
320,192,28398,1,0,0:0:0:0:
448,192,28398,1,0,0:0:0:0:
64,192,28551,1,0,0:0:0:0:
448,192,28551,1,0,0:0:0:0:
320,192,28628,1,0,0:0:0:0:
192,192,28704,1,0,0:0:0:0:
64,192,28704,1,0,0:0:0:0:
320,192,28781,1,0,0:0:0:0:
448,192,28857,1,0,0:0:0:0:
64,192,28857,1,0,0:0:0:0:
192,192,28857,1,0,0:0:0:0:
320,192,28934,1,0,0:0:0:0:
192,192,29010,1,0,0:0:0:0:
64,192,29010,1,0,0:0:0:0:
448,192,29163,1,0,0:0:0:0:
320,192,29163,1,0,0:0:0:0:
64,192,29163,1,0,0:0:0:0:
448,192,29469,1,0,0:0:0:0:
320,192,29469,1,0,0:0:0:0:
64,192,29469,1,0,0:0:0:0:
64,192,29622,1,0,0:0:0:0:
192,192,29622,1,0,0:0:0:0:
448,192,29622,1,0,0:0:0:0:
64,192,29929,1,0,0:0:0:0:
192,192,29929,1,0,0:0:0:0:
320,192,29929,1,0,0:0:0:0:
448,192,30082,1,0,0:0:0:0:
320,192,30082,1,0,0:0:0:0:
192,192,30082,1,0,0:0:0:0:
64,192,30082,1,0,0:0:0:0:
64,192,30388,1,0,0:0:0:0:
192,192,30388,1,0,0:0:0:0:
320,192,30388,1,0,0:0:0:0:
448,192,30388,1,0,0:0:0:0:
320,192,30464,1,0,0:0:0:0:
192,192,30541,1,0,0:0:0:0:
64,192,30541,1,0,0:0:0:0:
64,192,30694,1,0,0:0:0:0:
192,192,30694,1,0,0:0:0:0:
448,192,30694,1,0,0:0:0:0:
64,192,30847,1,0,0:0:0:0:
192,192,30847,1,0,0:0:0:0:
448,192,31000,1,0,0:0:0:0:
64,192,31000,1,0,0:0:0:0:
320,192,31077,1,0,0:0:0:0:
64,192,31153,1,0,0:0:0:0:
192,192,31153,1,0,0:0:0:0:
320,192,31230,1,0,0:0:0:0:
64,192,31306,1,0,0:0:0:0:
448,192,31306,1,0,0:0:0:0:
192,192,31306,1,0,0:0:0:0:
320,192,31383,1,0,0:0:0:0:
64,192,31459,1,0,0:0:0:0:
192,192,31536,1,0,0:0:0:0:
448,192,31612,1,0,0:0:0:0:
320,192,31612,1,0,0:0:0:0:
64,192,31689,1,0,0:0:0:0:
192,192,31689,1,0,0:0:0:0:
64,192,31765,1,0,0:0:0:0:
192,192,31765,1,0,0:0:0:0:
64,192,31918,1,0,0:0:0:0:
448,192,31918,1,0,0:0:0:0:
192,192,31918,1,0,0:0:0:0:
64,192,32071,1,0,0:0:0:0:
192,192,32071,1,0,0:0:0:0:
448,192,32224,1,0,0:0:0:0:
320,192,32224,1,0,0:0:0:0:
64,192,32378,1,0,0:0:0:0:
192,192,32378,1,0,0:0:0:0:
448,192,32531,1,0,0:0:0:0:
320,192,32531,1,0,0:0:0:0:
64,192,32531,1,0,0:0:0:0:
320,192,32607,1,0,0:0:0:0:
448,192,32607,1,0,0:0:0:0:
64,192,32684,1,0,0:0:0:0:
192,192,32684,1,0,0:0:0:0:
64,192,32837,1,0,0:0:0:0:
448,192,32837,1,0,0:0:0:0:
320,192,32837,1,0,0:0:0:0:
192,192,32913,1,0,0:0:0:0:
320,192,32990,1,0,0:0:0:0:
448,192,32990,1,0,0:0:0:0:
192,192,33066,1,0,0:0:0:0:
64,192,33143,1,0,0:0:0:0:
448,192,33143,1,0,0:0:0:0:
320,192,33143,1,0,0:0:0:0:
64,192,33296,1,0,0:0:0:0:
192,192,33296,1,0,0:0:0:0:
448,192,33449,1,0,0:0:0:0:
320,192,33449,1,0,0:0:0:0:
192,192,33526,1,0,0:0:0:0:
64,192,33526,1,0,0:0:0:0:
320,192,33602,1,0,0:0:0:0:
448,192,33602,1,0,0:0:0:0:
192,192,33679,1,0,0:0:0:0:
64,192,33679,1,0,0:0:0:0:
320,192,33755,1,0,0:0:0:0:
448,192,33755,1,0,0:0:0:0:
64,192,33832,1,0,0:0:0:0:
192,192,33832,1,0,0:0:0:0:
320,192,33908,1,0,0:0:0:0:
448,192,33908,1,0,0:0:0:0:
192,192,33985,1,0,0:0:0:0:
64,192,34061,1,0,0:0:0:0:
448,192,34061,1,0,0:0:0:0:
192,192,34214,1,0,0:0:0:0:
64,192,34214,1,0,0:0:0:0:
320,192,34291,1,0,0:0:0:0:
448,192,34367,1,0,0:0:0:0:
192,192,34367,1,0,0:0:0:0:
448,192,34520,1,0,0:0:0:0:
320,192,34520,1,0,0:0:0:0:
192,192,34597,1,0,0:0:0:0:
64,192,34673,1,0,0:0:0:0:
448,192,34673,1,0,0:0:0:0:
192,192,34827,1,0,0:0:0:0:
320,192,34827,1,0,0:0:0:0:
64,192,34980,1,0,0:0:0:0:
192,192,34980,1,0,0:0:0:0:
448,192,34980,1,0,0:0:0:0:
64,192,35286,1,0,0:0:0:0:
192,192,35286,1,0,0:0:0:0:
448,192,35286,1,0,0:0:0:0:
320,192,35286,1,0,0:0:0:0:
192,192,35362,1,0,0:0:0:0:
448,192,35439,1,0,0:0:0:0:
320,192,35439,1,0,0:0:0:0:
64,192,35592,1,0,0:0:0:0:
320,192,35592,1,0,0:0:0:0:
448,192,35592,1,0,0:0:0:0:
64,192,35745,1,0,0:0:0:0:
320,192,35745,1,0,0:0:0:0:
448,192,35745,1,0,0:0:0:0:
192,192,35898,1,0,0:0:0:0:
64,192,36051,1,0,0:0:0:0:
320,192,36051,1,0,0:0:0:0:
448,192,36051,1,0,0:0:0:0:
192,192,36128,1,0,0:0:0:0:
320,192,36204,1,0,0:0:0:0:
448,192,36204,1,0,0:0:0:0:
64,192,36204,1,0,0:0:0:0:
192,192,36281,1,0,0:0:0:0:
320,192,36357,1,0,0:0:0:0:
448,192,36434,1,0,0:0:0:0:
64,192,36510,1,0,0:0:0:0:
192,192,36510,1,0,0:0:0:0:
320,192,36587,1,0,0:0:0:0:
448,192,36587,1,0,0:0:0:0:
448,192,36663,1,0,0:0:0:0:
320,192,36663,1,0,0:0:0:0:
64,192,36816,1,0,0:0:0:0:
320,192,36816,1,0,0:0:0:0:
448,192,36816,1,0,0:0:0:0:
320,192,36969,1,0,0:0:0:0:
448,192,36969,1,0,0:0:0:0:
64,192,36969,1,0,0:0:0:0:
192,192,37122,1,0,0:0:0:0:
448,192,37276,1,0,0:0:0:0:
320,192,37276,1,0,0:0:0:0:
64,192,37276,1,0,0:0:0:0:
64,192,37429,1,0,0:0:0:0:
192,192,37429,1,0,0:0:0:0:
448,192,37429,1,0,0:0:0:0:
192,192,37505,1,0,0:0:0:0:
64,192,37505,1,0,0:0:0:0:
448,192,37582,1,0,0:0:0:0:
320,192,37582,1,0,0:0:0:0:
64,192,37735,1,0,0:0:0:0:
320,192,37735,1,0,0:0:0:0:
448,192,37735,1,0,0:0:0:0:
192,192,37811,1,0,0:0:0:0:
320,192,37888,1,0,0:0:0:0:
448,192,37888,1,0,0:0:0:0:
64,192,37964,1,0,0:0:0:0:
448,192,38041,1,0,0:0:0:0:
320,192,38041,1,0,0:0:0:0:
192,192,38041,1,0,0:0:0:0:
64,192,38194,1,0,0:0:0:0:
320,192,38194,1,0,0:0:0:0:
448,192,38194,1,0,0:0:0:0:
320,192,38347,1,0,0:0:0:0:
448,192,38347,1,0,0:0:0:0:
64,192,38500,1,0,0:0:0:0:
192,192,38500,1,0,0:0:0:0:
448,192,38500,1,0,0:0:0:0:
320,192,38577,1,0,0:0:0:0:
448,192,38653,1,0,0:0:0:0:
64,192,38653,1,0,0:0:0:0:
192,192,38653,1,0,0:0:0:0:
320,192,38806,1,0,0:0:0:0:
448,192,38806,1,0,0:0:0:0:
192,192,38883,1,0,0:0:0:0:
64,192,38959,1,0,0:0:0:0:
448,192,38959,1,0,0:0:0:0:
320,192,38959,1,0,0:0:0:0:
448,192,39265,1,0,0:0:0:0:
320,192,39265,1,0,0:0:0:0:
64,192,39265,1,0,0:0:0:0:
64,192,39418,1,0,0:0:0:0:
192,192,39418,1,0,0:0:0:0:
448,192,39418,1,0,0:0:0:0:
64,192,39724,1,0,0:0:0:0:
192,192,39724,1,0,0:0:0:0:
320,192,39724,1,0,0:0:0:0:
448,192,39878,1,0,0:0:0:0:
320,192,39878,1,0,0:0:0:0:
192,192,39878,1,0,0:0:0:0:
64,192,39878,1,0,0:0:0:0:
64,192,40184,1,0,0:0:0:0:
192,192,40184,1,0,0:0:0:0:
320,192,40184,1,0,0:0:0:0:
448,192,40184,1,0,0:0:0:0:
320,192,40260,1,0,0:0:0:0:
192,192,40337,1,0,0:0:0:0:
64,192,40337,1,0,0:0:0:0:
64,192,40490,1,0,0:0:0:0:
192,192,40490,1,0,0:0:0:0:
448,192,40490,1,0,0:0:0:0:
192,192,40643,1,0,0:0:0:0:
64,192,40643,1,0,0:0:0:0:
320,192,40796,1,0,0:0:0:0:
448,192,40796,1,0,0:0:0:0:
192,192,40872,1,0,0:0:0:0:
64,192,40872,1,0,0:0:0:0:
448,192,40949,1,0,0:0:0:0:
320,192,40949,1,0,0:0:0:0:
192,192,41026,1,0,0:0:0:0:
64,192,41102,1,0,0:0:0:0:
448,192,41102,1,0,0:0:0:0:
320,192,41102,1,0,0:0:0:0:
448,192,41255,1,0,0:0:0:0:
320,192,41255,1,0,0:0:0:0:
192,192,41332,1,0,0:0:0:0:
448,192,41408,1,0,0:0:0:0:
320,192,41408,1,0,0:0:0:0:
64,192,41485,1,0,0:0:0:0:
192,192,41485,1,0,0:0:0:0:
64,192,41561,1,0,0:0:0:0:
192,192,41561,1,0,0:0:0:0:
448,192,41714,1,0,0:0:0:0:
192,192,41714,1,0,0:0:0:0:
64,192,41714,1,0,0:0:0:0:
448,192,41867,1,0,0:0:0:0:
192,192,41867,1,0,0:0:0:0:
64,192,41867,1,0,0:0:0:0:
320,192,42020,1,0,0:0:0:0:
64,192,42173,1,0,0:0:0:0:
192,192,42173,1,0,0:0:0:0:
448,192,42173,1,0,0:0:0:0:
64,192,42327,1,0,0:0:0:0:
448,192,42327,1,0,0:0:0:0:
320,192,42327,1,0,0:0:0:0:
320,192,42403,1,0,0:0:0:0:
448,192,42403,1,0,0:0:0:0:
64,192,42480,1,0,0:0:0:0:
192,192,42480,1,0,0:0:0:0:
448,192,42633,1,0,0:0:0:0:
320,192,42633,1,0,0:0:0:0:
64,192,42633,1,0,0:0:0:0:
192,192,42709,1,0,0:0:0:0:
320,192,42786,1,0,0:0:0:0:
448,192,42786,1,0,0:0:0:0:
64,192,42862,1,0,0:0:0:0:
192,192,42939,1,0,0:0:0:0:
448,192,42939,1,0,0:0:0:0:
320,192,42939,1,0,0:0:0:0:
64,192,43092,1,0,0:0:0:0:
192,192,43092,1,0,0:0:0:0:
448,192,43245,1,0,0:0:0:0:
320,192,43245,1,0,0:0:0:0:
64,192,43321,1,0,0:0:0:0:
192,192,43321,1,0,0:0:0:0:
320,192,43398,1,0,0:0:0:0:
448,192,43398,1,0,0:0:0:0:
64,192,43474,1,0,0:0:0:0:
192,192,43474,1,0,0:0:0:0:
320,192,43551,1,0,0:0:0:0:
448,192,43551,1,0,0:0:0:0:
64,192,43628,1,0,0:0:0:0:
192,192,43628,1,0,0:0:0:0:
320,192,43704,1,0,0:0:0:0:
448,192,43704,1,0,0:0:0:0:
192,192,43781,1,0,0:0:0:0:
64,192,43781,1,0,0:0:0:0:
320,192,43857,1,0,0:0:0:0:
448,192,43857,1,0,0:0:0:0:
320,192,44010,1,0,0:0:0:0:
192,192,44087,1,0,0:0:0:0:
320,192,44163,1,0,0:0:0:0:
448,192,44163,1,0,0:0:0:0:
320,192,44316,1,0,0:0:0:0:
192,192,44393,1,0,0:0:0:0:
320,192,44469,1,0,0:0:0:0:
448,192,44469,1,0,0:0:0:0:
320,192,44622,1,0,0:0:0:0:
192,192,44699,1,0,0:0:0:0:
64,192,44776,1,0,0:0:0:0:
320,192,44776,1,0,0:0:0:0:
448,192,44776,1,0,0:0:0:0:
64,192,45082,1,0,0:0:0:0:
192,192,45082,1,0,0:0:0:0:
320,192,45082,1,0,0:0:0:0:
448,192,45235,128,0,46000:0:0:0:0:
64,192,45388,1,0,0:0:0:0:
192,192,45388,1,0,0:0:0:0:
192,192,45694,1,0,0:0:0:0:
320,192,46000,128,0,46153:0:0:0:0:
192,192,46000,1,0,0:0:0:0:
64,192,46153,128,0,46306:0:0:0:0:
320,192,46306,128,0,46612:0:0:0:0:
192,192,46612,1,0,0:0:0:0:
320,192,46765,128,0,47071:0:0:0:0:
64,192,46918,1,0,0:0:0:0:
448,192,47224,128,0,47531:0:0:0:0:
64,192,47224,1,0,0:0:0:0:
192,192,47301,1,0,0:0:0:0:
320,192,47378,1,0,0:0:0:0:
192,192,47454,1,0,0:0:0:0:
64,192,47531,1,0,0:0:0:0:
320,192,47684,1,0,0:0:0:0:
192,192,47837,1,0,0:0:0:0:
64,192,47837,1,0,0:0:0:0:
448,192,47913,1,0,0:0:0:0:
320,192,47990,1,0,0:0:0:0:
192,192,48066,1,0,0:0:0:0:
64,192,48143,1,0,0:0:0:0:
320,192,48296,1,0,0:0:0:0:
192,192,48372,1,0,0:0:0:0:
320,192,48449,1,0,0:0:0:0:
448,192,48449,1,0,0:0:0:0:
64,192,48526,1,0,0:0:0:0:
192,192,48602,1,0,0:0:0:0:
320,192,48679,1,0,0:0:0:0:
448,192,48755,1,0,0:0:0:0:
64,192,48832,1,0,0:0:0:0:
192,192,48908,1,0,0:0:0:0:
320,192,48985,1,0,0:0:0:0:
64,192,49214,1,0,0:0:0:0:
192,192,49291,1,0,0:0:0:0:
320,192,49520,1,0,0:0:0:0:
64,192,49673,1,0,0:0:0:0:
192,192,49750,1,0,0:0:0:0:
320,192,49827,1,0,0:0:0:0:
192,192,49903,1,0,0:0:0:0:
64,192,49980,1,0,0:0:0:0:
320,192,49980,1,0,0:0:0:0:
448,192,49980,1,0,0:0:0:0:
448,192,50133,128,0,50898:0:0:0:0:
64,192,50286,1,0,0:0:0:0:
192,192,50286,1,0,0:0:0:0:
192,192,50592,1,0,0:0:0:0:
320,192,50898,128,0,51051:0:0:0:0:
192,192,50898,1,0,0:0:0:0:
64,192,51051,128,0,51204:0:0:0:0:
320,192,51204,128,0,51510:0:0:0:0:
192,192,51510,1,0,0:0:0:0:
320,192,51663,128,0,51969:0:0:0:0:
64,192,51816,1,0,0:0:0:0:
448,192,52122,128,0,52429:0:0:0:0:
64,192,52122,1,0,0:0:0:0:
192,192,52199,1,0,0:0:0:0:
320,192,52276,1,0,0:0:0:0:
192,192,52352,1,0,0:0:0:0:
64,192,52429,1,0,0:0:0:0:
320,192,52582,1,0,0:0:0:0:
64,192,52735,1,0,0:0:0:0:
192,192,52735,1,0,0:0:0:0:
320,192,52888,1,0,0:0:0:0:
448,192,53041,1,0,0:0:0:0:
64,192,53041,1,0,0:0:0:0:
192,192,53194,1,0,0:0:0:0:
320,192,53347,1,0,0:0:0:0:
448,192,53347,1,0,0:0:0:0:
192,192,53500,1,0,0:0:0:0:
64,192,53653,1,0,0:0:0:0:
448,192,53653,1,0,0:0:0:0:
320,192,53730,1,0,0:0:0:0:
192,192,53806,1,0,0:0:0:0:
64,192,53806,1,0,0:0:0:0:
448,192,53883,1,0,0:0:0:0:
320,192,53883,1,0,0:0:0:0:
64,192,53959,1,0,0:0:0:0:
192,192,53959,1,0,0:0:0:0:
320,192,54036,1,0,0:0:0:0:
448,192,54112,1,0,0:0:0:0:
64,192,54112,1,0,0:0:0:0:
192,192,54189,1,0,0:0:0:0:
448,192,54265,1,0,0:0:0:0:
320,192,54265,1,0,0:0:0:0:
64,192,54342,1,0,0:0:0:0:
192,192,54342,1,0,0:0:0:0:
448,192,54418,1,0,0:0:0:0:
320,192,54418,1,0,0:0:0:0:
64,192,54495,1,0,0:0:0:0:
192,192,54495,1,0,0:0:0:0:
448,192,54571,1,0,0:0:0:0:
320,192,54571,1,0,0:0:0:0:
192,192,54622,1,0,0:0:0:0:
64,192,54673,1,0,0:0:0:0:
448,192,54724,1,0,0:0:0:0:
320,192,54724,1,0,0:0:0:0:
192,192,54801,1,0,0:0:0:0:
64,192,54878,1,0,0:0:0:0:
320,192,54878,1,0,0:0:0:0:
448,192,54878,128,0,55031:0:0:0:0:
192,192,55031,1,0,0:0:0:0:
448,192,55184,128,0,55337:0:0:0:0:
64,192,55184,1,0,0:0:0:0:
320,192,55337,1,0,0:0:0:0:
448,192,55490,128,0,55643:0:0:0:0:
64,192,55490,1,0,0:0:0:0:
192,192,55643,1,0,0:0:0:0:
448,192,55796,128,0,55949:0:0:0:0:
64,192,55796,1,0,0:0:0:0:
320,192,55949,1,0,0:0:0:0:
448,192,56102,128,0,56255:0:0:0:0:
64,192,56102,1,0,0:0:0:0:
192,192,56255,1,0,0:0:0:0:
64,192,56408,128,0,56561:0:0:0:0:
320,192,56408,1,0,0:0:0:0:
192,192,56561,128,0,56714:0:0:0:0:
448,192,56561,1,0,0:0:0:0:
320,192,56714,1,0,0:0:0:0:
64,192,56867,128,0,57020:0:0:0:0:
448,192,56867,1,0,0:0:0:0:
192,192,57020,128,0,57173:0:0:0:0:
320,192,57020,1,0,0:0:0:0:
448,192,57173,128,0,57327:0:0:0:0:
64,192,57173,1,0,0:0:0:0:
320,192,57327,128,0,57480:0:0:0:0:
192,192,57327,1,0,0:0:0:0:
64,192,57480,1,0,0:0:0:0:
320,192,57633,128,0,57786:0:0:0:0:
448,192,57633,1,0,0:0:0:0:
64,192,57786,1,0,0:0:0:0:
320,192,57939,128,0,58092:0:0:0:0:
192,192,57939,1,0,0:0:0:0:
448,192,58092,1,0,0:0:0:0:
320,192,58245,128,0,58398:0:0:0:0:
192,192,58245,1,0,0:0:0:0:
448,192,58398,128,0,58551:0:0:0:0:
64,192,58398,1,0,0:0:0:0:
192,192,58551,128,0,58704:0:0:0:0:
320,192,58551,1,0,0:0:0:0:
448,192,58704,1,0,0:0:0:0:
192,192,58857,128,0,59010:0:0:0:0:
64,192,58857,1,0,0:0:0:0:
320,192,59010,128,0,59163:0:0:0:0:
448,192,59010,1,0,0:0:0:0:
192,192,59163,1,0,0:0:0:0:
192,192,59316,128,0,59469:0:0:0:0:
64,192,59316,1,0,0:0:0:0:
448,192,59469,5,0,0:0:0:0:
320,192,59469,1,0,0:0:0:0:
64,192,59546,1,0,0:0:0:0:
192,192,59622,1,0,0:0:0:0:
320,192,59699,1,0,0:0:0:0:
64,192,59776,1,0,0:0:0:0:
192,192,59776,1,0,0:0:0:0:
448,192,59776,1,0,0:0:0:0:
320,192,59929,1,0,0:0:0:0:
192,192,60005,1,0,0:0:0:0:
64,192,60005,1,0,0:0:0:0:
320,192,60082,1,0,0:0:0:0:
448,192,60082,1,0,0:0:0:0:
192,192,60235,1,0,0:0:0:0:
64,192,60388,1,0,0:0:0:0:
448,192,60388,1,0,0:0:0:0:
320,192,60541,1,0,0:0:0:0:
64,192,60694,1,0,0:0:0:0:
192,192,60694,1,0,0:0:0:0:
448,192,60847,1,0,0:0:0:0:
320,192,60847,1,0,0:0:0:0:
64,192,60847,1,0,0:0:0:0:
64,192,61000,1,0,0:0:0:0:
192,192,61000,1,0,0:0:0:0:
448,192,61000,1,0,0:0:0:0:
192,192,61153,1,0,0:0:0:0:
448,192,61230,1,0,0:0:0:0:
320,192,61230,1,0,0:0:0:0:
64,192,61306,1,0,0:0:0:0:
192,192,61306,1,0,0:0:0:0:
448,192,61459,1,0,0:0:0:0:
320,192,61459,1,0,0:0:0:0:
64,192,61612,1,0,0:0:0:0:
192,192,61612,1,0,0:0:0:0:
64,192,61765,1,0,0:0:0:0:
448,192,61765,1,0,0:0:0:0:
448,192,61918,1,0,0:0:0:0:
320,192,61918,1,0,0:0:0:0:
192,192,61995,1,0,0:0:0:0:
320,192,62071,1,0,0:0:0:0:
448,192,62071,1,0,0:0:0:0:
64,192,62071,1,0,0:0:0:0:
192,192,62148,1,0,0:0:0:0:
64,192,62224,1,0,0:0:0:0:
320,192,62224,1,0,0:0:0:0:
448,192,62224,1,0,0:0:0:0:
320,192,62378,1,0,0:0:0:0:
192,192,62454,1,0,0:0:0:0:
64,192,62454,1,0,0:0:0:0:
448,192,62531,1,0,0:0:0:0:
320,192,62531,1,0,0:0:0:0:
192,192,62684,1,0,0:0:0:0:
64,192,62684,1,0,0:0:0:0:
320,192,62760,1,0,0:0:0:0:
64,192,62837,1,0,0:0:0:0:
448,192,62837,1,0,0:0:0:0:
192,192,62837,1,0,0:0:0:0:
320,192,62990,1,0,0:0:0:0:
64,192,63066,1,0,0:0:0:0:
192,192,63066,1,0,0:0:0:0:
320,192,63143,1,0,0:0:0:0:
448,192,63143,1,0,0:0:0:0:
64,192,63296,1,0,0:0:0:0:
192,192,63296,1,0,0:0:0:0:
320,192,63372,1,0,0:0:0:0:
64,192,63449,5,0,0:0:0:0:
192,192,63449,1,0,0:0:0:0:
448,192,63449,1,0,0:0:0:0:
320,192,63526,1,0,0:0:0:0:
192,192,63602,1,0,0:0:0:0:
64,192,63602,1,0,0:0:0:0:
320,192,63679,5,0,0:0:0:0:
448,192,63755,1,0,0:0:0:0:
64,192,63755,1,0,0:0:0:0:
192,192,63832,1,0,0:0:0:0:
320,192,63908,1,0,0:0:0:0:
448,192,63908,1,0,0:0:0:0:
192,192,63985,1,0,0:0:0:0:
64,192,64061,1,0,0:0:0:0:
448,192,64061,1,0,0:0:0:0:
320,192,64138,1,0,0:0:0:0:
192,192,64214,1,0,0:0:0:0:
64,192,64214,1,0,0:0:0:0:
448,192,64291,1,0,0:0:0:0:
64,192,64367,1,0,0:0:0:0:
192,192,64367,1,0,0:0:0:0:
320,192,64444,1,0,0:0:0:0:
448,192,64520,1,0,0:0:0:0:
192,192,64597,1,0,0:0:0:0:
192,192,64827,5,0,0:0:0:0:
64,192,64827,1,0,0:0:0:0:
320,192,64903,1,0,0:0:0:0:
448,192,64980,1,0,0:0:0:0:
64,192,64980,1,0,0:0:0:0:
320,192,65133,1,0,0:0:0:0:
448,192,65133,1,0,0:0:0:0:
448,192,65286,1,0,0:0:0:0:
64,192,65286,1,0,0:0:0:0:
192,192,65439,1,0,0:0:0:0:
64,192,65439,1,0,0:0:0:0:
448,192,65477,1,0,0:0:0:0:
320,192,65515,1,0,0:0:0:0:
192,192,65554,1,0,0:0:0:0:
64,192,65592,1,0,0:0:0:0:
320,192,65592,1,0,0:0:0:0:
448,192,65592,1,0,0:0:0:0:
64,192,65898,1,0,0:0:0:0:
192,192,65898,1,0,0:0:0:0:
320,192,65898,1,0,0:0:0:0:
448,192,65898,1,0,0:0:0:0:
320,192,66051,1,0,0:0:0:0:
448,192,66051,1,0,0:0:0:0:
64,192,66204,1,0,0:0:0:0:
192,192,66204,1,0,0:0:0:0:
448,192,66204,1,0,0:0:0:0:
192,192,66357,1,0,0:0:0:0:
448,192,66510,1,0,0:0:0:0:
320,192,66510,1,0,0:0:0:0:
64,192,66510,1,0,0:0:0:0:
320,192,66663,1,0,0:0:0:0:
64,192,66816,1,0,0:0:0:0:
192,192,66816,1,0,0:0:0:0:
448,192,66816,1,0,0:0:0:0:
192,192,66969,1,0,0:0:0:0:
320,192,66969,1,0,0:0:0:0:
64,192,67122,1,0,0:0:0:0:
320,192,67122,1,0,0:0:0:0:
448,192,67122,1,0,0:0:0:0:
448,192,67276,1,0,0:0:0:0:
64,192,67429,1,0,0:0:0:0:
192,192,67429,1,0,0:0:0:0:
320,192,67429,1,0,0:0:0:0:
320,192,67582,1,0,0:0:0:0:
448,192,67582,1,0,0:0:0:0:
64,192,67735,1,0,0:0:0:0:
192,192,67735,1,0,0:0:0:0:
448,192,67735,1,0,0:0:0:0:
64,192,67888,1,0,0:0:0:0:
320,192,67888,1,0,0:0:0:0:
192,192,68041,1,0,0:0:0:0:
320,192,68041,1,0,0:0:0:0:
448,192,68041,1,0,0:0:0:0:
448,192,68194,1,0,0:0:0:0:
192,192,68194,1,0,0:0:0:0:
64,192,68347,1,0,0:0:0:0:
320,192,68347,1,0,0:0:0:0:
448,192,68347,1,0,0:0:0:0:
192,192,68423,1,0,0:0:0:0:
320,192,68500,1,0,0:0:0:0:
192,192,68577,1,0,0:0:0:0:
64,192,68653,1,0,0:0:0:0:
448,192,68653,1,0,0:0:0:0:
320,192,68653,1,0,0:0:0:0:
320,192,68806,1,0,0:0:0:0:
192,192,68959,1,0,0:0:0:0:
64,192,68959,1,0,0:0:0:0:
448,192,68959,1,0,0:0:0:0:
192,192,69112,1,0,0:0:0:0:
448,192,69265,1,0,0:0:0:0:
64,192,69265,1,0,0:0:0:0:
320,192,69265,1,0,0:0:0:0:
192,192,69418,1,0,0:0:0:0:
320,192,69418,1,0,0:0:0:0:
64,192,69571,1,0,0:0:0:0:
448,192,69571,1,0,0:0:0:0:
320,192,69571,1,0,0:0:0:0:
448,192,69878,1,0,0:0:0:0:
64,192,69878,1,0,0:0:0:0:
320,192,69878,1,0,0:0:0:0:
64,192,70031,1,0,0:0:0:0:
192,192,70031,1,0,0:0:0:0:
448,192,70031,1,0,0:0:0:0:
64,192,70337,1,0,0:0:0:0:
192,192,70337,1,0,0:0:0:0:
320,192,70337,1,0,0:0:0:0:
448,192,70490,1,0,0:0:0:0:
320,192,70490,1,0,0:0:0:0:
64,192,70566,1,0,0:0:0:0:
192,192,70643,1,0,0:0:0:0:
320,192,70719,1,0,0:0:0:0:
64,192,70796,1,0,0:0:0:0:
192,192,70796,1,0,0:0:0:0:
448,192,70796,1,0,0:0:0:0:
320,192,70872,1,0,0:0:0:0:
192,192,70949,1,0,0:0:0:0:
320,192,71026,1,0,0:0:0:0:
64,192,71102,1,0,0:0:0:0:
192,192,71102,1,0,0:0:0:0:
448,192,71102,1,0,0:0:0:0:
320,192,71255,1,0,0:0:0:0:
64,192,71408,1,0,0:0:0:0:
192,192,71408,1,0,0:0:0:0:
448,192,71408,1,0,0:0:0:0:
64,192,71561,1,0,0:0:0:0:
448,192,71714,1,0,0:0:0:0:
192,192,71714,1,0,0:0:0:0:
320,192,71714,1,0,0:0:0:0:
448,192,71867,1,0,0:0:0:0:
64,192,72020,1,0,0:0:0:0:
192,192,72020,1,0,0:0:0:0:
320,192,72020,1,0,0:0:0:0:
192,192,72173,1,0,0:0:0:0:
448,192,72327,1,0,0:0:0:0:
320,192,72327,1,0,0:0:0:0:
64,192,72327,1,0,0:0:0:0:
192,192,72480,1,0,0:0:0:0:
320,192,72480,1,0,0:0:0:0:
448,192,72480,1,0,0:0:0:0:
192,192,72633,1,0,0:0:0:0:
64,192,72786,1,0,0:0:0:0:
320,192,72786,1,0,0:0:0:0:
448,192,72786,1,0,0:0:0:0:
448,192,72939,1,0,0:0:0:0:
64,192,72939,1,0,0:0:0:0:
192,192,72939,1,0,0:0:0:0:
320,192,73015,1,0,0:0:0:0:
192,192,73092,1,0,0:0:0:0:
320,192,73168,1,0,0:0:0:0:
448,192,73245,1,0,0:0:0:0:
64,192,73245,1,0,0:0:0:0:
192,192,73245,1,0,0:0:0:0:
320,192,73321,1,0,0:0:0:0:
192,192,73398,1,0,0:0:0:0:
64,192,73474,1,0,0:0:0:0:
448,192,73551,1,0,0:0:0:0:
320,192,73551,1,0,0:0:0:0:
192,192,73551,1,0,0:0:0:0:
320,192,73704,1,0,0:0:0:0:
64,192,73857,1,0,0:0:0:0:
192,192,73857,1,0,0:0:0:0:
448,192,73857,1,0,0:0:0:0:
192,192,74010,1,0,0:0:0:0:
64,192,74163,1,0,0:0:0:0:
320,192,74163,1,0,0:0:0:0:
448,192,74163,1,0,0:0:0:0:
64,192,74316,1,0,0:0:0:0:
192,192,74393,1,0,0:0:0:0:
320,192,74469,1,0,0:0:0:0:
448,192,74469,1,0,0:0:0:0:
64,192,74622,1,0,0:0:0:0:
64,192,74699,1,0,0:0:0:0:
448,192,74776,1,0,0:0:0:0:
320,192,74776,1,0,0:0:0:0:
448,192,74929,1,0,0:0:0:0:
192,192,74929,1,0,0:0:0:0:
320,192,75005,1,0,0:0:0:0:
64,192,75082,1,0,0:0:0:0:
192,192,75082,1,0,0:0:0:0:
64,192,75235,1,0,0:0:0:0:
192,192,75273,1,0,0:0:0:0:
320,192,75311,1,0,0:0:0:0:
448,192,75349,1,0,0:0:0:0:
64,192,75388,1,0,0:0:0:0:
192,192,75388,1,0,0:0:0:0:
320,192,75464,1,0,0:0:0:0:
448,192,75541,1,0,0:0:0:0:
192,192,75617,1,0,0:0:0:0:
64,192,75694,1,0,0:0:0:0:
320,192,75694,1,0,0:0:0:0:
448,192,75694,1,0,0:0:0:0:
320,192,75847,1,0,0:0:0:0:
192,192,75847,1,0,0:0:0:0:
64,192,76000,1,0,0:0:0:0:
192,192,76000,1,0,0:0:0:0:
448,192,76000,1,0,0:0:0:0:
448,192,76153,1,0,0:0:0:0:
64,192,76306,1,0,0:0:0:0:
192,192,76306,1,0,0:0:0:0:
320,192,76306,1,0,0:0:0:0:
192,192,76459,1,0,0:0:0:0:
448,192,76612,1,0,0:0:0:0:
320,192,76612,1,0,0:0:0:0:
64,192,76612,1,0,0:0:0:0:
320,192,76765,1,0,0:0:0:0:
192,192,76765,1,0,0:0:0:0:
64,192,76918,1,0,0:0:0:0:
192,192,76918,1,0,0:0:0:0:
448,192,76918,1,0,0:0:0:0:
64,192,77071,1,0,0:0:0:0:
448,192,77224,1,0,0:0:0:0:
320,192,77224,1,0,0:0:0:0:
192,192,77224,1,0,0:0:0:0:
448,192,77378,1,0,0:0:0:0:
64,192,77378,1,0,0:0:0:0:
64,192,77531,1,0,0:0:0:0:
192,192,77531,1,0,0:0:0:0:
320,192,77531,1,0,0:0:0:0:
448,192,77684,1,0,0:0:0:0:
320,192,77684,1,0,0:0:0:0:
64,192,77837,1,0,0:0:0:0:
192,192,77837,1,0,0:0:0:0:
448,192,77837,1,0,0:0:0:0:
320,192,77913,1,0,0:0:0:0:
64,192,77990,1,0,0:0:0:0:
192,192,77990,1,0,0:0:0:0:
320,192,78066,1,0,0:0:0:0:
448,192,78143,1,0,0:0:0:0:
64,192,78143,1,0,0:0:0:0:
192,192,78143,1,0,0:0:0:0:
320,192,78219,1,0,0:0:0:0:
192,192,78296,1,0,0:0:0:0:
64,192,78372,1,0,0:0:0:0:
448,192,78449,1,0,0:0:0:0:
320,192,78449,1,0,0:0:0:0:
192,192,78449,1,0,0:0:0:0:
448,192,78602,1,0,0:0:0:0:
64,192,78755,1,0,0:0:0:0:
192,192,78755,1,0,0:0:0:0:
320,192,78755,1,0,0:0:0:0:
320,192,78908,1,0,0:0:0:0:
448,192,79061,1,0,0:0:0:0:
192,192,79061,1,0,0:0:0:0:
64,192,79061,1,0,0:0:0:0:
192,192,79214,1,0,0:0:0:0:
320,192,79214,1,0,0:0:0:0:
64,192,79367,1,0,0:0:0:0:
448,192,79367,1,0,0:0:0:0:
320,192,79367,1,0,0:0:0:0:
448,192,79673,1,0,0:0:0:0:
320,192,79673,1,0,0:0:0:0:
64,192,79673,1,0,0:0:0:0:
64,192,79827,1,0,0:0:0:0:
448,192,79827,1,0,0:0:0:0:
192,192,79827,1,0,0:0:0:0:
64,192,80133,1,0,0:0:0:0:
192,192,80133,1,0,0:0:0:0:
320,192,80133,1,0,0:0:0:0:
448,192,80286,1,0,0:0:0:0:
320,192,80286,1,0,0:0:0:0:
64,192,80362,1,0,0:0:0:0:
192,192,80439,1,0,0:0:0:0:
320,192,80515,1,0,0:0:0:0:
192,192,80592,1,0,0:0:0:0:
448,192,80592,1,0,0:0:0:0:
64,192,80592,1,0,0:0:0:0:
64,192,80745,1,0,0:0:0:0:
192,192,80745,1,0,0:0:0:0:
448,192,80898,1,0,0:0:0:0:
320,192,80898,1,0,0:0:0:0:
64,192,80898,1,0,0:0:0:0:
448,192,81051,1,0,0:0:0:0:
320,192,81051,1,0,0:0:0:0:
64,192,81204,1,0,0:0:0:0:
192,192,81204,1,0,0:0:0:0:
448,192,81204,1,0,0:0:0:0:
320,192,81357,1,0,0:0:0:0:
192,192,81357,1,0,0:0:0:0:
64,192,81510,1,0,0:0:0:0:
192,192,81510,1,0,0:0:0:0:
448,192,81510,1,0,0:0:0:0:
320,192,81663,1,0,0:0:0:0:
448,192,81663,1,0,0:0:0:0:
192,192,81740,1,0,0:0:0:0:
64,192,81816,1,0,0:0:0:0:
320,192,81816,1,0,0:0:0:0:
448,192,81816,1,0,0:0:0:0:
192,192,81969,1,0,0:0:0:0:
320,192,81969,1,0,0:0:0:0:
448,192,82122,1,0,0:0:0:0:
64,192,82122,1,0,0:0:0:0:
192,192,82122,1,0,0:0:0:0:
320,192,82276,1,0,0:0:0:0:
64,192,82276,1,0,0:0:0:0:
448,192,82429,1,0,0:0:0:0:
320,192,82429,1,0,0:0:0:0:
192,192,82429,1,0,0:0:0:0:
64,192,82582,1,0,0:0:0:0:
192,192,82582,1,0,0:0:0:0:
448,192,82735,1,0,0:0:0:0:
320,192,82735,1,0,0:0:0:0:
64,192,82735,1,0,0:0:0:0:
192,192,82811,1,0,0:0:0:0:
448,192,82888,1,0,0:0:0:0:
320,192,82888,1,0,0:0:0:0:
192,192,82964,1,0,0:0:0:0:
64,192,83041,1,0,0:0:0:0:
320,192,83041,1,0,0:0:0:0:
448,192,83041,1,0,0:0:0:0:
192,192,83117,1,0,0:0:0:0:
320,192,83194,1,0,0:0:0:0:
448,192,83270,1,0,0:0:0:0:
64,192,83347,1,0,0:0:0:0:
192,192,83347,1,0,0:0:0:0:
320,192,83347,1,0,0:0:0:0:
64,192,83500,1,0,0:0:0:0:
448,192,83500,1,0,0:0:0:0:
192,192,83577,1,0,0:0:0:0:
448,192,83653,1,0,0:0:0:0:
64,192,83653,1,0,0:0:0:0:
320,192,83653,1,0,0:0:0:0:
64,192,83806,1,0,0:0:0:0:
192,192,83806,1,0,0:0:0:0:
320,192,83883,1,0,0:0:0:0:
64,192,83959,1,0,0:0:0:0:
448,192,83959,1,0,0:0:0:0:
192,192,83959,1,0,0:0:0:0:
448,192,84112,1,0,0:0:0:0:
320,192,84112,1,0,0:0:0:0:
192,192,84189,1,0,0:0:0:0:
448,192,84265,1,0,0:0:0:0:
64,192,84265,1,0,0:0:0:0:
320,192,84265,1,0,0:0:0:0:
192,192,84342,1,0,0:0:0:0:
448,192,84418,1,0,0:0:0:0:
320,192,84418,1,0,0:0:0:0:
64,192,84495,1,0,0:0:0:0:
192,192,84495,1,0,0:0:0:0:
320,192,84571,1,0,0:0:0:0:
448,192,84571,1,0,0:0:0:0:
192,192,84648,1,0,0:0:0:0:
64,192,84724,1,0,0:0:0:0:
448,192,84724,1,0,0:0:0:0:
320,192,84801,1,0,0:0:0:0:
192,192,84878,1,0,0:0:0:0:
64,192,84878,1,0,0:0:0:0:
320,192,84954,1,0,0:0:0:0:
448,192,84954,1,0,0:0:0:0:
64,192,85031,1,0,0:0:0:0:
192,192,85031,1,0,0:0:0:0:
320,192,85107,1,0,0:0:0:0:
448,192,85107,1,0,0:0:0:0:
64,192,85184,1,0,0:0:0:0:
192,192,85184,1,0,0:0:0:0:
320,192,85235,1,0,0:0:0:0:
448,192,85286,1,0,0:0:0:0:
192,192,85337,1,0,0:0:0:0:
64,192,85490,1,0,0:0:0:0:
320,192,85490,1,0,0:0:0:0:
448,192,85490,1,0,0:0:0:0:
192,192,85566,1,0,0:0:0:0:
320,192,85643,1,0,0:0:0:0:
192,192,85719,1,0,0:0:0:0:
448,192,85796,1,0,0:0:0:0:
64,192,85796,1,0,0:0:0:0:
192,192,85949,1,0,0:0:0:0:
320,192,86026,1,0,0:0:0:0:
448,192,86102,1,0,0:0:0:0:
64,192,86102,1,0,0:0:0:0:
192,192,86179,1,0,0:0:0:0:
320,192,86255,1,0,0:0:0:0:
448,192,86255,1,0,0:0:0:0:
192,192,86332,1,0,0:0:0:0:
64,192,86408,1,0,0:0:0:0:
448,192,86408,1,0,0:0:0:0:
320,192,86485,1,0,0:0:0:0:
64,192,86561,1,0,0:0:0:0:
448,192,86561,1,0,0:0:0:0:
320,192,86714,1,0,0:0:0:0:
192,192,86714,1,0,0:0:0:0:
320,192,86867,1,0,0:0:0:0:
64,192,86944,1,0,0:0:0:0:
448,192,87020,1,0,0:0:0:0:
320,192,87020,1,0,0:0:0:0:
192,192,87173,1,0,0:0:0:0:
320,192,87250,1,0,0:0:0:0:
64,192,87327,1,0,0:0:0:0:
192,192,87327,1,0,0:0:0:0:
320,192,87480,1,0,0:0:0:0:
64,192,87556,1,0,0:0:0:0:
448,192,87633,1,0,0:0:0:0:
320,192,87633,1,0,0:0:0:0:
192,192,87709,1,0,0:0:0:0:
64,192,87786,1,0,0:0:0:0:
448,192,87786,1,0,0:0:0:0:
320,192,87862,1,0,0:0:0:0:
64,192,87939,1,0,0:0:0:0:
192,192,87939,1,0,0:0:0:0:
320,192,88015,1,0,0:0:0:0:
448,192,88092,1,0,0:0:0:0:
320,192,88168,1,0,0:0:0:0:
64,192,88245,1,0,0:0:0:0:
192,192,88245,1,0,0:0:0:0:
320,192,88398,1,0,0:0:0:0:
64,192,88551,1,0,0:0:0:0:
448,192,88551,1,0,0:0:0:0:
320,192,88628,1,0,0:0:0:0:
192,192,88704,1,0,0:0:0:0:
64,192,88704,1,0,0:0:0:0:
448,192,88781,1,0,0:0:0:0:
64,192,88857,1,0,0:0:0:0:
320,192,88857,1,0,0:0:0:0:
192,192,88934,1,0,0:0:0:0:
448,192,89010,1,0,0:0:0:0:
64,192,89010,1,0,0:0:0:0:
192,192,89163,1,0,0:0:0:0:
320,192,89163,1,0,0:0:0:0:
448,192,89163,1,0,0:0:0:0:
320,192,89316,1,0,0:0:0:0:
64,192,89469,1,0,0:0:0:0:
192,192,89469,1,0,0:0:0:0:
448,192,89469,1,0,0:0:0:0:
64,192,89622,1,0,0:0:0:0:
448,192,89622,1,0,0:0:0:0:
192,192,89776,1,0,0:0:0:0:
320,192,89929,1,0,0:0:0:0:
448,192,89929,1,0,0:0:0:0:
64,192,90082,1,0,0:0:0:0:
448,192,90082,1,0,0:0:0:0:
320,192,90082,1,0,0:0:0:0:
192,192,90158,1,0,0:0:0:0:
320,192,90235,1,0,0:0:0:0:
192,192,90311,1,0,0:0:0:0:
64,192,90388,1,0,0:0:0:0:
320,192,90388,1,0,0:0:0:0:
448,192,90388,1,0,0:0:0:0:
192,192,90464,1,0,0:0:0:0:
448,192,90541,1,0,0:0:0:0:
320,192,90617,1,0,0:0:0:0:
64,192,90694,1,0,0:0:0:0:
192,192,90694,1,0,0:0:0:0:
448,192,90847,1,0,0:0:0:0:
64,192,91000,1,0,0:0:0:0:
192,192,91000,1,0,0:0:0:0:
320,192,91077,1,0,0:0:0:0:
448,192,91153,1,0,0:0:0:0:
64,192,91153,1,0,0:0:0:0:
192,192,91230,1,0,0:0:0:0:
320,192,91306,1,0,0:0:0:0:
448,192,91306,1,0,0:0:0:0:
192,192,91383,1,0,0:0:0:0:
64,192,91459,1,0,0:0:0:0:
320,192,91459,1,0,0:0:0:0:
448,192,91612,1,0,0:0:0:0:
192,192,91612,1,0,0:0:0:0:
448,192,91765,1,0,0:0:0:0:
320,192,91765,1,0,0:0:0:0:
192,192,91842,1,0,0:0:0:0:
64,192,91918,1,0,0:0:0:0:
448,192,91918,1,0,0:0:0:0:
64,192,92071,1,0,0:0:0:0:
192,192,92071,1,0,0:0:0:0:
320,192,92148,1,0,0:0:0:0:
448,192,92224,1,0,0:0:0:0:
64,192,92224,1,0,0:0:0:0:
192,192,92378,1,0,0:0:0:0:
320,192,92454,1,0,0:0:0:0:
64,192,92531,1,0,0:0:0:0:
448,192,92531,1,0,0:0:0:0:
192,192,92607,1,0,0:0:0:0:
320,192,92684,1,0,0:0:0:0:
192,192,92760,1,0,0:0:0:0:
64,192,92837,1,0,0:0:0:0:
448,192,92837,1,0,0:0:0:0:
320,192,92837,1,0,0:0:0:0:
448,192,92990,1,0,0:0:0:0:
320,192,92990,1,0,0:0:0:0:
192,192,93143,1,0,0:0:0:0:
64,192,93143,1,0,0:0:0:0:
448,192,93143,1,0,0:0:0:0:
192,192,93296,1,0,0:0:0:0:
64,192,93296,1,0,0:0:0:0:
320,192,93449,1,0,0:0:0:0:
448,192,93449,1,0,0:0:0:0:
192,192,93526,1,0,0:0:0:0:
64,192,93526,1,0,0:0:0:0:
448,192,93602,1,0,0:0:0:0:
320,192,93602,1,0,0:0:0:0:
64,192,93679,1,0,0:0:0:0:
192,192,93679,1,0,0:0:0:0:
448,192,93755,1,0,0:0:0:0:
320,192,93755,1,0,0:0:0:0:
192,192,93832,1,0,0:0:0:0:
64,192,93832,1,0,0:0:0:0:
320,192,93908,1,0,0:0:0:0:
448,192,93908,1,0,0:0:0:0:
64,192,93985,1,0,0:0:0:0:
320,192,94061,1,0,0:0:0:0:
448,192,94061,1,0,0:0:0:0:
320,192,94214,1,0,0:0:0:0:
192,192,94291,1,0,0:0:0:0:
320,192,94367,1,0,0:0:0:0:
448,192,94367,1,0,0:0:0:0:
320,192,94520,1,0,0:0:0:0:
192,192,94597,1,0,0:0:0:0:
320,192,94673,1,0,0:0:0:0:
448,192,94673,1,0,0:0:0:0:
320,192,94827,1,0,0:0:0:0:
192,192,94903,1,0,0:0:0:0:
320,192,94980,1,0,0:0:0:0:
448,192,94980,1,0,0:0:0:0:
64,192,94980,1,0,0:0:0:0:
64,192,95286,1,0,0:0:0:0:
192,192,95286,1,0,0:0:0:0:
320,192,95286,1,0,0:0:0:0:
448,192,95286,1,0,0:0:0:0:
192,192,95439,1,0,0:0:0:0:
448,192,95592,1,0,0:0:0:0:
320,192,95592,1,0,0:0:0:0:
64,192,95592,1,0,0:0:0:0:
320,192,95745,1,0,0:0:0:0:
64,192,95898,1,0,0:0:0:0:
192,192,95898,1,0,0:0:0:0:
448,192,95898,1,0,0:0:0:0:
64,192,96051,1,0,0:0:0:0:
448,192,96204,1,0,0:0:0:0:
320,192,96204,1,0,0:0:0:0:
192,192,96204,1,0,0:0:0:0:
320,192,96357,1,0,0:0:0:0:
64,192,96510,1,0,0:0:0:0:
448,192,96510,1,0,0:0:0:0:
320,192,96587,1,0,0:0:0:0:
192,192,96663,1,0,0:0:0:0:
64,192,96663,1,0,0:0:0:0:
448,192,96740,1,0,0:0:0:0:
64,192,96816,1,0,0:0:0:0:
320,192,96816,1,0,0:0:0:0:
192,192,96893,1,0,0:0:0:0:
320,192,96969,1,0,0:0:0:0:
448,192,96969,1,0,0:0:0:0:
192,192,97046,1,0,0:0:0:0:
64,192,97122,1,0,0:0:0:0:
448,192,97122,1,0,0:0:0:0:
320,192,97199,1,0,0:0:0:0:
192,192,97276,1,0,0:0:0:0:
64,192,97276,1,0,0:0:0:0:
320,192,97429,1,0,0:0:0:0:
64,192,97429,1,0,0:0:0:0:
192,192,97582,1,0,0:0:0:0:
448,192,97582,1,0,0:0:0:0:
448,192,97735,1,0,0:0:0:0:
320,192,97735,1,0,0:0:0:0:
64,192,97735,1,0,0:0:0:0:
192,192,97811,1,0,0:0:0:0:
320,192,97888,1,0,0:0:0:0:
192,192,97964,1,0,0:0:0:0:
64,192,98041,1,0,0:0:0:0:
320,192,98041,1,0,0:0:0:0:
448,192,98041,1,0,0:0:0:0:
64,192,98194,1,0,0:0:0:0:
448,192,98347,1,0,0:0:0:0:
320,192,98347,1,0,0:0:0:0:
192,192,98347,1,0,0:0:0:0:
320,192,98500,1,0,0:0:0:0:
64,192,98653,1,0,0:0:0:0:
192,192,98653,1,0,0:0:0:0:
448,192,98653,1,0,0:0:0:0:
192,192,98806,1,0,0:0:0:0:
320,192,98806,1,0,0:0:0:0:
448,192,98959,1,0,0:0:0:0:
64,192,98959,1,0,0:0:0:0:
192,192,98959,1,0,0:0:0:0:
320,192,99036,1,0,0:0:0:0:
64,192,99112,1,0,0:0:0:0:
192,192,99112,1,0,0:0:0:0:
448,192,99189,1,0,0:0:0:0:
192,192,99265,1,0,0:0:0:0:
320,192,99265,1,0,0:0:0:0:
64,192,99342,1,0,0:0:0:0:
448,192,99418,1,0,0:0:0:0:
320,192,99418,1,0,0:0:0:0:
192,192,99495,1,0,0:0:0:0:
64,192,99571,1,0,0:0:0:0:
448,192,99571,1,0,0:0:0:0:
448,192,99724,1,0,0:0:0:0:
320,192,99724,1,0,0:0:0:0:
192,192,99801,1,0,0:0:0:0:
64,192,99878,1,0,0:0:0:0:
320,192,99878,1,0,0:0:0:0:
192,192,100031,1,0,0:0:0:0:
64,192,100031,1,0,0:0:0:0:
448,192,100184,1,0,0:0:0:0:
320,192,100184,1,0,0:0:0:0:
64,192,100184,1,0,0:0:0:0:
320,192,100337,1,0,0:0:0:0:
192,192,100337,1,0,0:0:0:0:
64,192,100490,1,0,0:0:0:0:
192,192,100490,1,0,0:0:0:0:
448,192,100490,1,0,0:0:0:0:
64,192,100643,1,0,0:0:0:0:
320,192,100643,1,0,0:0:0:0:
448,192,100796,1,0,0:0:0:0:
320,192,100796,1,0,0:0:0:0:
192,192,100796,1,0,0:0:0:0:
64,192,100949,1,0,0:0:0:0:
192,192,100949,1,0,0:0:0:0:
320,192,101102,1,0,0:0:0:0:
448,192,101102,1,0,0:0:0:0:
64,192,101102,1,0,0:0:0:0:
448,192,101255,1,0,0:0:0:0:
192,192,101255,1,0,0:0:0:0:
320,192,101332,1,0,0:0:0:0:
64,192,101408,1,0,0:0:0:0:
192,192,101408,1,0,0:0:0:0:
448,192,101408,1,0,0:0:0:0:
192,192,101561,1,0,0:0:0:0:
320,192,101561,1,0,0:0:0:0:
64,192,101714,1,0,0:0:0:0:
192,192,101714,1,0,0:0:0:0:
448,192,101714,1,0,0:0:0:0:
320,192,101867,1,0,0:0:0:0:
448,192,101867,1,0,0:0:0:0:
64,192,102020,1,0,0:0:0:0:
192,192,102020,1,0,0:0:0:0:
448,192,102020,1,0,0:0:0:0:
192,192,102173,1,0,0:0:0:0:
320,192,102173,1,0,0:0:0:0:
64,192,102327,1,0,0:0:0:0:
192,192,102327,1,0,0:0:0:0:
448,192,102327,1,0,0:0:0:0:
320,192,102480,1,0,0:0:0:0:
448,192,102480,1,0,0:0:0:0:
192,192,102556,1,0,0:0:0:0:
64,192,102633,1,0,0:0:0:0:
448,192,102633,1,0,0:0:0:0:
320,192,102633,1,0,0:0:0:0:
192,192,102709,1,0,0:0:0:0:
448,192,102786,1,0,0:0:0:0:
320,192,102824,1,0,0:0:0:0:
192,192,102862,1,0,0:0:0:0:
64,192,102901,1,0,0:0:0:0:
448,192,102939,1,0,0:0:0:0:
320,192,102939,1,0,0:0:0:0:
64,192,103092,1,0,0:0:0:0:
192,192,103130,1,0,0:0:0:0:
320,192,103168,1,0,0:0:0:0:
448,192,103207,1,0,0:0:0:0:
192,192,103245,1,0,0:0:0:0:
64,192,103245,1,0,0:0:0:0:
448,192,103398,1,0,0:0:0:0:
320,192,103436,1,0,0:0:0:0:
192,192,103474,1,0,0:0:0:0:
64,192,103513,1,0,0:0:0:0:
320,192,103551,1,0,0:0:0:0:
448,192,103551,1,0,0:0:0:0:
64,192,103704,1,0,0:0:0:0:
192,192,103742,1,0,0:0:0:0:
320,192,103781,1,0,0:0:0:0:
448,192,103819,1,0,0:0:0:0:
64,192,103857,1,0,0:0:0:0:
192,192,103857,1,0,0:0:0:0:
320,192,103934,5,0,0:0:0:0:
448,192,103934,1,0,0:0:0:0:
64,192,104010,5,0,0:0:0:0:
192,192,104010,1,0,0:0:0:0:
320,192,104087,5,0,0:0:0:0:
448,192,104087,1,0,0:0:0:0:
192,192,104163,5,0,0:0:0:0:
64,192,104163,1,0,0:0:0:0:
320,192,104240,5,0,0:0:0:0:
448,192,104240,1,0,0:0:0:0:
64,192,104316,5,0,0:0:0:0:
192,192,104316,1,0,0:0:0:0:
320,192,104393,5,0,0:0:0:0:
448,192,104393,1,0,0:0:0:0:
64,192,104469,5,0,0:0:0:0:
192,192,104469,1,0,0:0:0:0:
448,192,104546,5,0,0:0:0:0:
320,192,104546,1,0,0:0:0:0:
64,192,104622,5,0,0:0:0:0:
192,192,104622,1,0,0:0:0:0:
320,192,104699,5,0,0:0:0:0:
192,192,104776,5,0,0:0:0:0:
64,192,104776,1,0,0:0:0:0:
448,192,104776,1,0,0:0:0:0:
320,192,104852,1,0,0:0:0:0:
192,192,104929,1,0,0:0:0:0:
320,192,105005,1,0,0:0:0:0:
64,192,105082,5,0,0:0:0:0:
192,192,105082,1,0,0:0:0:0:
448,192,105235,128,0,106000:0:0:0:0:
320,192,106000,128,0,106153:0:0:0:0:
64,192,106153,128,0,106306:0:0:0:0:
320,192,106306,128,0,106612:0:0:0:0:
320,192,106765,128,0,107071:0:0:0:0:
448,192,107224,128,0,107378:0:0:0:0:
320,192,107531,1,0,0:0:0:0:
448,192,107531,1,0,0:0:0:0:
320,192,107633,1,0,0:0:0:0:
448,192,107633,1,0,0:0:0:0:
448,192,107735,1,0,0:0:0:0:
320,192,107735,1,0,0:0:0:0:
320,192,107837,1,0,0:0:0:0:
448,192,107837,1,0,0:0:0:0:
64,192,108143,1,0,0:0:0:0:
192,192,108143,1,0,0:0:0:0:
192,192,108245,1,0,0:0:0:0:
64,192,108245,1,0,0:0:0:0:
64,192,108347,1,0,0:0:0:0:
192,192,108347,1,0,0:0:0:0:
192,192,108449,1,0,0:0:0:0:
64,192,108449,1,0,0:0:0:0:
320,192,108755,1,0,0:0:0:0:
448,192,108755,1,0,0:0:0:0:
448,192,108857,1,0,0:0:0:0:
320,192,108857,1,0,0:0:0:0:
320,192,108959,1,0,0:0:0:0:
448,192,108959,1,0,0:0:0:0:
64,192,109061,1,0,0:0:0:0:
192,192,109061,1,0,0:0:0:0:
64,192,109163,1,0,0:0:0:0:
192,192,109163,1,0,0:0:0:0:
192,192,109265,1,0,0:0:0:0:
64,192,109265,1,0,0:0:0:0:
64,192,109367,1,0,0:0:0:0:
320,192,109367,1,0,0:0:0:0:
448,192,109367,1,0,0:0:0:0:
64,192,109673,128,0,109980:0:0:0:0:
192,192,109673,128,0,109980:0:0:0:0:
320,192,109673,128,0,109980:0:0:0:0:
448,192,109673,128,0,109980:0:0:0:0:
