osu file format v14

[General]
AudioFilename: DJ NAGAI,aru - .mp3
AudioLeadIn: 0
PreviewTime: 38164
Countdown: 0
SampleSet: Soft
StackLeniency: 0.3
Mode: 0
LetterboxInBreaks: 0
WidescreenStoryboard: 0

[Editor]
DistanceSpacing: 1.7
BeatDivisor: 4
GridSize: 4
TimelineZoom: 1.7

[Metadata]
Title:Benibotan
TitleUnicode:紅牡丹
Artist:DJ NAGAI feat. a*ru
ArtistUnicode:DJ NAGAI feat. a☆ru
Creator:yf_bmp
Version:Advanced
Source:beatmania IIDX 22 PENDUAL
Tags:J-Core KONAMI BEMANI ORIGINAL SOUNDTRACK aru red peony fox ak74 TT Mouse z1085684963 Koiyuki mtbbsben Minakami Yuki
BeatmapID:1532201
BeatmapSetID:548679

[Difficulty]
HPDrainRate:4
CircleSize:3.5
OverallDifficulty:5
ApproachRate:6
SliderMultiplier:1
SliderTickRate:1

[Events]
//Background and Video events
0,0,"BG.jpg",0,0
//Break Periods
2,71596,75500
//Storyboard Layer 0 (Background)
//Storyboard Layer 1 (Fail)
//Storyboard Layer 2 (Pass)
//Storyboard Layer 3 (Foreground)
//Storyboard Sound Samples

[TimingPoints]
1120,331.491712707182,4,2,11,80,1,0
5097,-100,4,2,10,80,0,0
14379,-100,4,2,11,80,0,0
15705,-100,4,2,10,80,0,0
16865,-100,4,2,10,20,0,0
17031,-100,4,2,10,90,0,0
27639,-100,4,2,10,85,0,0
38247,-100,4,2,10,90,0,1
42390,-100,4,2,0,90,0,1
43219,-100,4,2,10,90,0,1
46202,-100,4,2,11,90,0,1
47528,-100,4,2,10,90,0,1
48854,-111.111111111111,4,2,11,75,0,0
49683,-111.111111111111,4,2,11,55,0,0
49849,-111.111111111111,4,2,11,75,0,0
52832,-111.111111111111,4,2,10,75,0,0
54158,-111.111111111111,4,2,11,75,0,0
54987,-111.111111111111,4,2,11,55,0,0
55153,-111.111111111111,4,2,11,75,0,0
55484,-111.111111111111,4,2,10,75,0,0
59462,-111.111111111111,4,2,11,75,0,0
60291,-111.111111111111,4,2,11,55,0,0
60457,-111.111111111111,4,2,11,75,0,0
63440,-111.111111111111,4,2,10,75,0,0
65595,-111.111111111111,4,2,10,55,0,0
65760,-111.111111111111,4,2,10,75,0,0
82003,-100,4,2,10,90,0,1
92611,-100,4,2,10,80,0,0
100567,-100,4,2,11,75,0,0
101893,-100,4,2,10,75,0,0
102887,-100,4,2,10,75,0,0
103053,-100,4,2,10,5,0,0

[Colours]
Combo1 : 160,66,255
Combo2 : 255,96,100
Combo3 : 157,255,157
Combo4 : 245,131,252

[HitObjects]
176,118,1120,6,0,P|101:119|28:101,2,150,4|0|2,0:1|0:0|3:2,0:0:0:0:
292,64,2445,2,0,P|363:41|437:37,2,150,0|0|0,0:0|0:0|0:0,0:0:0:0:
284,192,3771,6,0,L|304:304,1,100,0|0,0:0|0:0,0:0:0:0:
377,327,4269,2,0,P|321:373|250:355,1,150,0|0,3:0|3:0,0:0:0:0:
136,296,5097,6,0,L|126:241,1,50,4|4,1:2|1:2,0:0:0:0:
208,232,5429,2,0,L|220:300,2,50,4|4|4,1:2|1:2|1:0,0:0:0:0:
144,120,6092,1,4,3:3:0:0:
28,180,6423,6,0,L|40:80,1,100,4|8,1:1|1:0,0:0:0:0:
164,36,7086,2,0,P|211:47|258:31,1,100,0|8,1:0|1:0,0:0:0:0:
388,52,7749,1,0,1:0:0:0:
308,156,8081,2,0,L|324:268,1,100,8|0,1:0|1:0,0:0:0:0:
316,336,8578,2,0,P|340:337|363:326,1,50,2|8,0:1|1:0,0:0:0:0:
452,192,9075,6,0,L|440:292,1,100,0|8,1:0|1:0,0:0:0:0:
316,336,9738,2,0,P|268:324|221:340,1,100,0|8,1:0|1:0,0:0:0:0:
92,384,10401,1,0,1:0:0:0:
112,256,10733,2,0,L|96:144,1,100,8|0,1:0|1:0,0:0:0:0:
136,80,11230,2,0,P|110:69|85:72,2,50,2|8|0,3:1|1:0|1:0,0:0:0:0:
184,152,11727,6,0,P|228:152|272:120,1,100,0|8,1:0|1:0,0:0:0:0:
316,244,12390,2,0,P|272:244|228:276,1,100,0|8,1:0|1:0,0:0:0:0:
184,152,13053,1,0,1:0:0:0:
228,28,13385,2,0,L|334:34,1,100,8|0,1:0|1:0,0:0:0:0:
456,8,14048,1,8,1:0:0:0:
408,128,14379,6,0,B|345:135|345:135|329:210|329:210|400:202|400:202|384:276|384:276|321:284,1,350,4|8,1:0|3:2,0:0:0:0:
236,304,15705,2,0,L|249:359,2,50,4|0|0,1:0|1:0|1:0,0:0:0:0:
176,188,16368,1,0,1:0:0:0:
68,260,16700,2,0,P|56:239|59:215,1,50,4|0,3:0|0:0,0:0:0:0:
36,136,17031,6,0,P|106:150|176:88,1,150,4|8,0:1|0:0,0:0:0:0:
132,30,17694,2,0,P|73:-5|35:51,1,150,2|0,2:3|3:0,0:0:0:0:
36,136,18357,2,0,L|16:224,2,75,8|8|8,0:0|0:0|0:0,0:0:0:0:
112,172,19020,2,0,P|174:193|220:172,1,100,8|8,0:0|3:0,0:0:0:0:
308,104,19683,5,8,0:0:0:0:
432,140,20015,2,0,L|423:196,1,50,2|8,3:2|0:0,0:0:0:0:
340,196,20346,2,0,L|284:187,2,50,8|0|2,0:0|0:0|3:2,0:0:0:0:
388,264,20843,1,0,0:0:0:0:
388,264,21009,2,0,L|406:376,1,100,8|10,0:0|3:2,0:0:0:0:
280,328,21672,1,8,0:0:0:0:
476,136,22335,6,0,P|406:150|336:88,1,150,4|8,0:1|0:0,0:0:0:0:
380,30,22998,2,0,P|438:-5|476:51,1,150,2|0,0:3|0:0,0:0:0:0:
476,136,23661,2,0,L|496:224,2,75,8|8|8,0:0|3:2|0:0,0:0:0:0:
400,172,24324,2,0,P|338:193|292:172,1,100,8|8,0:0|3:0,0:0:0:0:
204,104,24987,5,8,0:0:0:0:
80,140,25319,2,0,L|89:196,1,50,2|8,3:2|0:0,0:0:0:0:
172,196,25650,2,0,L|228:187,2,50,8|0|2,0:0|3:0|3:2,0:0:0:0:
124,264,26147,1,8,0:0:0:0:
124,264,26313,6,0,L|105:376,1,100,4|8,0:1|0:0,0:0:0:0:
196,352,26810,1,8,0:0:0:0:
196,352,26976,2,0,P|239:336|264:344,1,50,12|4,0:2|3:0,0:0:0:0:
316,376,27307,1,4,3:0:0:0:
440,340,27639,6,0,P|464:296|456:240,1,100,4|0,1:2|1:0,0:0:0:0:
388,136,28302,2,0,P|315:144|257:99,1,150,2|0,1:3|3:2,0:0:0:0:
232,20,28965,2,0,L|124:16,2,100,0|0|0,1:0|1:0|1:0,0:0:0:0:
257,99,29794,2,0,P|259:121|244:152,1,50,8|12,3:0|1:3,0:0:0:0:
128,216,30291,6,0,P|112:192|116:116,1,100,0|0,1:0|1:0,0:0:0:0:
248,146,30954,2,0,P|264:170|260:246,1,100,0|0,1:0|1:0,0:0:0:0:
188,280,31451,1,4,1:0:0:0:
296,368,31782,2,0,L|291:318,3,50,0|0|0|4,3:0|3:0|3:0|1:1,0:0:0:0:
72,340,32943,6,0,P|48:296|56:240,1,100,4|0,1:1|1:1,0:0:0:0:
123,135,33606,2,0,P|195:143|253:98,1,150,2|0,1:3|3:2,0:0:0:0:
280,20,34269,2,0,L|388:16,2,100,0|0|0,1:0|1:0|1:0,0:0:0:0:
253,97,35098,2,0,P|250:119|266:150,1,50,8|12,3:0|1:3,0:0:0:0:
366,220,35595,6,0,B|369:320|284:366|284:366|198:336|176:241,1,350,4|0,1:0|1:0,0:0:0:0:
226,176,36921,2,0,L|306:168,2,75,4|4|4,1:2|1:0|0:2,0:0:0:0:
146,164,37584,1,4,1:0:0:0:
388,312,38247,6,0,L|448:320,1,50,4|2,1:0|0:1,0:0:0:0:
504,268,38578,2,0,L|512:208,1,50,8|2,1:0|0:1,0:0:0:0:
468,144,38910,2,0,P|416:128|372:156,1,100,0|8,1:0|1:0,0:0:0:0:
372,232,39407,1,2,3:1:0:0:
302,184,39573,6,0,L|242:192,1,50,0|2,1:0|0:1,0:0:0:0:
186,140,39904,2,0,L|178:80,1,50,8|2,1:0|0:1,0:0:0:0:
222,16,40236,2,0,P|274:0|318:28,1,100,0|8,1:0|1:0,0:0:0:0:
308,102,40733,1,2,3:1:0:0:
302,184,40899,6,0,L|295:288,2,100,0|8|0,1:0|1:0|1:0,0:0:0:0:
188,120,41893,2,0,L|191:175,1,50,8|4,1:0|1:2,0:0:0:0:
210,298,42390,5,0,3:0:0:0:
265,362,42556,1,0,3:0:0:0:
295,283,42722,2,0,P|316:294|341:299,1,50,0|0,3:0|3:0,0:0:0:0:
177,377,43219,1,0,3:0:0:0:
177,377,43385,1,0,3:0:0:0:
124,312,43550,6,0,L|64:320,1,50,4|2,1:0|0:1,0:0:0:0:
8,268,43882,2,0,L|0:208,1,50,8|2,1:0|0:1,0:0:0:0:
44,144,44213,2,0,P|96:128|140:156,1,100,0|8,1:0|1:0,0:0:0:0:
212,176,44710,1,2,3:1:0:0:
288,212,44876,6,0,L|348:220,1,50,0|2,1:0|0:1,0:0:0:0:
404,168,45208,2,0,L|412:108,1,50,8|2,1:0|0:1,0:0:0:0:
368,44,45539,2,0,P|316:28|272:56,1,100,0|8,1:0|1:0,0:0:0:0:
282,130,46036,1,0,1:0:0:0:
288,212,46202,6,2,L|300:368,2,150,4|8|4,3:1|3:2|3:1,0:2:0:0:
208,92,47528,2,0,P|184:92|152:112,1,50,4|0,1:1|1:0,0:0:0:0:
88,140,47860,2,0,L|24:132,2,50,0|0|0,1:0|1:0|1:0,0:0:0:0:
156,260,48523,1,4,3:0:0:0:
288,212,48854,6,0,P|296:269|284:316,1,89.9999972534181,4|0,1:1|1:3,0:0:0:0:
380,208,49517,2,0,P|385:186|402:171,1,44.999998626709,2|0,1:3|0:3,0:0:0:0:
351,103,49849,2,0,P|345:81|329:65,1,44.999998626709,0|0,1:3|3:0,0:0:0:0:
269,127,50180,2,0,L|180:109,1,89.9999972534181,0|0,1:3|1:3,0:0:0:0:
52,108,50843,2,0,P|74:123|82:145,1,44.999998626709,0|0,1:3|0:0,0:0:0:0:
149,187,51175,2,0,P|135:205|115:215,1,44.999998626709,0|0,1:0|3:0,0:0:0:0:
33,207,51506,6,0,L|37:300,1,89.9999972534181,0|0,1:3|1:3,0:0:0:0:
136,376,52169,2,0,P|159:362|168:341,1,44.999998626709,0|0,1:3|3:0,0:0:0:0:
251,350,52501,2,0,P|253:328|244:308,1,44.999998626709,0|0,1:0|3:0,0:0:0:0:
297,245,52832,2,0,P|272:229|233:225,2,67.4999979400635,4|4|4,1:2|1:1|1:2,0:0:0:0:
332,320,53495,2,0,P|373:334|424:328,1,89.9999972534181,0|0,1:0|1:0,0:0:0:0:
488,224,54158,6,0,L|512:137,1,89.9999972534181,4|0,1:0|1:3,0:0:0:0:
432,44,54821,2,0,P|407:51|386:78,1,44.999998626709,2|0,1:3|0:3,0:0:0:0:
340,124,55153,2,0,P|306:118|285:102,1,44.999998626709,0|0,1:3|3:0,0:0:0:0:
304,32,55484,5,4,1:2:0:0:
192,76,55733,1,0,1:0:0:0:
88,16,55981,1,0,1:0:0:0:
112,92,56147,2,0,P|88:96|52:84,2,44.999998626709,0|0|0,3:0|1:0|1:0,0:0:0:0:
104,172,56644,1,0,1:0:0:0:
176,204,56810,6,0,P|168:264|232:324,1,134.999995880127,4|4,1:0|1:2,0:0:0:0:
256,132,57805,2,0,L|256:177,1,44.999998626709,4|0,1:3|1:0,0:0:0:0:
336,204,58136,6,0,P|344:264|280:324,1,134.999995880127,4|4,1:0|1:2,0:0:0:0:
256,132,59131,1,4,3:0:0:0:
208,248,59462,6,0,L|152:264,1,44.999998626709,4|8,1:0|0:3,0:0:0:0:
208,332,59794,2,0,L|215:397,1,44.999998626709,0|2,1:3|0:3,0:0:0:0:
299,376,60125,2,0,L|304:332,1,44.999998626709,0|2,1:0|0:3,0:0:0:0:
304,248,60457,2,0,L|347:260,1,44.999998626709,8|0,1:3|3:0,0:0:0:0:
352,176,60788,5,0,1:2:0:0:
340,148,60954,1,8,0:3:0:0:
356,24,61285,1,8,0:3:0:0:
256,100,61617,1,8,3:3:0:0:
256,132,61782,2,0,L|256:188,1,44.999998626709,8|0,1:3|3:0,0:0:0:0:
304,248,62114,6,0,L|360:264,1,44.999998626709,0|8,1:2|3:3,0:0:0:0:
304,332,62446,2,0,L|297:397,1,44.999998626709,2|8,1:3|3:3,0:0:0:0:
213,376,62777,2,0,L|208:332,1,44.999998626709,0|8,1:0|3:3,0:0:0:0:
208,248,63109,2,0,L|165:260,1,44.999998626709,8|0,1:3|3:0,0:0:0:0:
160,176,63440,5,4,1:0:0:0:
172,148,63606,1,8,0:3:0:0:
156,24,63937,1,8,1:3:0:0:
256,100,64269,1,8,1:3:0:0:
256,132,64434,2,0,L|256:188,1,44.999998626709,8|0,1:3|1:0,0:0:0:0:
208,248,64766,6,0,L|152:264,1,44.999998626709,4|0,1:0|1:0,0:0:0:0:
172,344,65097,2,0,L|228:328,1,44.999998626709,0|0,1:0|1:0,0:0:0:0:
296,331,65429,2,0,L|340:344,1,44.999998626709,2|2,1:3|1:3,0:0:0:0:
347,260,65760,2,0,L|304:248,1,44.999998626709,0|0,1:3|1:0,0:0:0:0:
256,177,66092,6,0,L|256:95,2,67.4999979400635,4|4|0,1:2|1:1|1:0,0:0:0:0:
340,172,66755,2,0,L|340:126,1,44.999998626709,0|0,1:2|1:2,0:0:0:0:
256,109,67086,1,0,1:0:0:0:
176,204,67418,6,0,P|168:264|232:324,1,134.999995880127,4|4,1:0|1:2,0:0:0:0:
256,132,68413,2,0,L|256:177,1,44.999998626709,0|0,1:0|1:0,0:0:0:0:
336,204,68744,6,0,P|344:264|280:324,1,134.999995880127,4|4,1:0|1:2,0:0:0:0:
256,132,69739,1,4,3:0:0:0:
256,192,69904,12,0,71396,0:0:0:0:
212,348,76700,6,0,L|112:359,1,89.9999972534181,4|0,1:2|1:0,0:0:0:0:
208,264,77363,2,0,P|196:232|192:156,1,89.9999972534181,2|0,1:3|1:3,0:0:0:0:
322,176,78026,2,0,P|318:221|304:264,1,89.9999972534181,2|0,1:2|1:0,0:0:0:0:
389,357,78689,2,0,L|300:348,1,89.9999972534181,2|2,1:2|1:2,0:0:0:0:
213,348,79186,1,0,1:0:0:0:
208,264,79352,5,4,1:0:0:0:
256,192,79517,12,4,80678,1:0:0:0:
204,44,81672,6,0,B|176:32|168:60|138:50,1,67.4999979400635,2|0,3:2|0:0,0:0:0:0:
124,72,82003,6,0,L|64:64,1,50,4|2,1:0|0:1,0:0:0:0:
8,116,82335,2,0,L|0:176,1,50,8|2,1:0|0:1,0:0:0:0:
44,240,82666,2,0,P|96:256|140:228,1,100,0|8,1:0|1:0,0:0:0:0:
140,152,83163,1,2,3:1:0:0:
210,200,83329,6,0,L|270:192,1,50,0|2,1:2|0:1,0:0:0:0:
326,244,83661,2,0,L|334:304,1,50,8|2,1:0|0:1,0:0:0:0:
290,368,83992,2,0,P|238:384|194:356,1,100,0|8,1:0|1:0,0:0:0:0:
204,282,84489,1,0,3:0:0:0:
210,200,84655,6,0,L|217:96,2,100,0|8|0,1:0|1:0|1:0,0:0:0:0:
60,144,85650,2,0,L|57:89,1,50,8|4,1:0|0:2,0:0:0:0:
140,72,85981,2,0,P|147:48|165:30,1,50,0|2,1:0|0:1,0:0:0:0:
248,20,86312,5,8,1:0:0:0:
328,4,86478,1,2,0:1:0:0:
304,84,86644,2,0,P|312:112|336:144,3,50,0|2|8|0,1:0|0:1|1:0|0:0,0:0:0:0:
388,72,87307,6,0,L|448:64,1,50,4|2,1:1|0:1,0:0:0:0:
504,116,87639,2,0,L|512:176,1,50,8|2,1:0|0:1,0:0:0:0:
468,240,87970,2,0,P|416:256|372:228,1,100,0|8,1:0|1:0,0:0:0:0:
300,208,88468,1,2,3:1:0:0:
224,172,88633,6,0,L|164:164,1,50,0|2,1:0|0:1,0:0:0:0:
108,216,88965,2,0,L|100:276,1,50,8|2,1:0|0:1,0:0:0:0:
144,340,89296,2,0,P|196:356|240:328,1,100,0|8,1:0|1:0,0:0:0:0:
230,254,89794,1,0,1:0:0:0:
224,172,89959,6,0,L|212:16,2,150,4|8|4,1:0|3:2|3:1,0:0:0:0:
304,292,91285,2,0,P|328:292|360:272,1,50,4|0,1:0|1:0,0:0:0:0:
400,212,91617,2,0,L|408:148,2,50,0|0|0,1:2|1:0|1:0,0:0:0:0:
428,76,92279,1,4,3:0:0:0:
484,204,92611,6,0,L|472:304,1,100,4|8,1:1|1:0,0:0:0:0:
348,348,93274,2,0,P|301:337|254:353,1,100,0|8,1:0|1:0,0:0:0:0:
124,332,93937,1,0,1:0:0:0:
204,228,94269,2,0,L|188:116,1,100,8|0,1:0|1:0,0:0:0:0:
196,48,94766,2,0,P|172:47|149:58,1,50,2|8,3:1|1:0,0:0:0:0:
60,192,95263,6,0,L|72:92,1,100,0|8,1:0|1:0,0:0:0:0:
196,48,95926,2,0,P|244:60|291:44,1,100,0|8,1:0|1:0,0:0:0:0:
420,0,96589,1,0,1:0:0:0:
400,128,96921,2,0,L|416:240,1,100,8|0,1:0|1:0,0:0:0:0:
376,304,97418,2,0,P|402:315|427:312,2,50,2|8|0,1:1|1:0|1:0,0:0:0:0:
328,232,97915,6,0,P|284:232|240:264,1,100,0|8,1:0|1:0,0:0:0:0:
196,140,98578,2,0,P|240:140|284:108,1,100,0|8,1:0|1:0,0:0:0:0:
328,232,99241,1,0,1:0:0:0:
284,356,99573,2,0,L|178:350,1,100,8|0,1:0|1:0,0:0:0:0:
56,376,100236,1,8,1:0:0:0:
88,252,100567,6,0,B|95:189|95:189|170:173|170:173|162:244|162:244|236:228|236:228|244:165,1,350,4|8,1:0|3:2,0:0:0:0:
256,80,101893,2,0,L|243:25,2,50,4|0|0,1:0|1:0|1:0,0:0:0:0:
324,132,102390,2,0,L|392:136,1,50,0|0,1:0|1:0,0:0:0:0:
444,244,102888,6,0,P|447:268|435:289,1,50,4|0,3:0|0:0,0:0:0:0:
