osu file format v14

[General]
AudioFilename: audio.mp3
AudioLeadIn: 0
PreviewTime: 38171
Countdown: 1
SampleSet: Normal
StackLeniency: 0.7
Mode: 1
LetterboxInBreaks: 0
WidescreenStoryboard: 0

[Editor]
DistanceSpacing: 0.8
BeatDivisor: 4
GridSize: 8
TimelineZoom: 1

[Metadata]
Title:Benibotan
TitleUnicode:紅牡丹
Artist:DJ NAGAI feat. a*ru
ArtistUnicode:DJ NAGAI feat.a☆ru
Creator:a2805146
Version:Oni
Source:beatmania IIDX
Tags:DJ NAGAI feat. a*ru Benibotan 22 pendual redalice alice's emotion yoshikazu nagai bemani konami
BeatmapID:1501156
BeatmapSetID:710153

[Difficulty]
HPDrainRate:6
CircleSize:5
OverallDifficulty:5.5
ApproachRate:5
SliderMultiplier:1.4
SliderTickRate:1

[Events]
//Background and Video events
0,0,"BG.jpg",0,0
//Break Periods
//Storyboard Layer 0 (Background)
//Storyboard Layer 1 (Fail)
//Storyboard Layer 2 (Pass)
//Storyboard Layer 3 (Foreground)
//Storyboard Sound Samples

[TimingPoints]
1044,331.491712707182,4,1,0,55,1,0
1044,-133.333333333333,4,1,0,55,0,0
5021,-100,4,1,0,55,0,0
6016,-66.6666666666667,4,1,0,55,0,0
6347,-100,4,1,0,60,0,0
14469,-95.2380952380952,4,1,0,61,0,0
14800,-90.9090909090909,4,1,0,62,0,0
15132,-86.9565217391304,4,1,0,63,0,0
15463,-83.3333333333333,4,1,0,64,0,0
15629,-76.9230769230769,4,1,0,65,0,0
16624,-66.6666666666667,4,1,0,65,0,0
16955,-133.333333333333,4,2,0,65,0,0
26237,-100,4,1,0,60,0,0
27066,-76.9230769230769,4,1,0,45,0,0
27563,-100,4,1,0,60,0,0
35519,-83.3333333333333,4,1,0,60,0,0
36845,-100,4,1,0,60,0,0
38171,-100,4,1,0,60,0,1
47452,-83.3333333333333,4,1,0,60,0,1
48447,-66.6666666666667,4,1,0,60,0,0
48778,-100,4,2,0,65,0,0
55408,-100,4,1,0,60,0,0
59055,-66.6666666666667,4,1,0,60,0,0
59386,-100,4,1,0,60,0,0
71320,-133.333333333333,4,2,0,60,0,0
76624,-117.647058823529,4,1,0,60,0,0
79276,-100,4,1,0,60,0,0
80602,-83.3333333333333,4,1,0,60,0,0
81927,-100,4,1,0,60,0,1
91209,-83.3333333333333,4,1,0,60,0,1
92204,-66.6666666666667,4,1,0,60,0,0
92535,-83.3333333333333,4,1,0,60,0,1
102811,-66.6666666666667,4,1,0,60,0,0

[HitObjects]
256,192,1044,5,4,0:0:0:0:
256,192,1209,1,0,0:0:0:0:
256,192,1375,1,8,0:0:0:0:
256,192,1541,1,8,0:0:0:0:
256,192,1706,1,0,0:0:0:0:
256,192,2038,1,8,0:0:0:0:
256,192,2204,1,0,0:0:0:0:
256,192,2535,1,0,0:0:0:0:
256,192,2701,1,8,0:0:0:0:
256,192,2867,1,8,0:0:0:0:
256,192,3032,1,0,0:0:0:0:
256,192,3364,1,0,0:0:0:0:
256,192,3530,1,0,0:0:0:0:
256,192,3613,1,0,0:0:0:0:
256,192,3695,1,8,0:0:0:0:
256,192,4027,1,8,0:0:0:0:
256,192,4193,1,0,0:0:0:0:
256,192,4276,1,0,0:0:0:0:
256,192,4358,1,0,0:0:0:0:
256,192,4524,1,0,0:0:0:0:
256,192,4690,1,0,0:0:0:0:
256,192,5021,1,4,0:0:0:0:
256,192,5187,1,4,0:0:0:0:
256,192,5353,1,12,0:0:0:0:
256,192,5519,1,4,0:0:0:0:
256,192,5684,1,4,0:0:0:0:
256,192,6016,1,8,0:0:0:0:
256,192,6347,1,4,0:0:0:0:
256,192,6513,1,0,0:0:0:0:
256,192,6596,1,0,0:0:0:0:
256,192,6679,1,8,0:0:0:0:
256,192,6845,1,8,0:0:0:0:
256,192,6927,1,8,0:0:0:0:
256,192,7010,1,0,0:0:0:0:
256,192,7176,1,0,0:0:0:0:
256,192,7342,1,8,0:0:0:0:
256,192,7508,1,0,0:0:0:0:
256,192,7839,1,0,0:0:0:0:
256,192,7922,1,0,0:0:0:0:
256,192,8005,1,8,0:0:0:0:
256,192,8171,1,8,0:0:0:0:
256,192,8253,1,0,0:0:0:0:
256,192,8502,1,8,0:0:0:0:
256,192,8668,1,8,0:0:0:0:
256,192,8999,1,0,0:0:0:0:
256,192,9165,1,0,0:0:0:0:
256,192,9248,1,8,0:0:0:0:
256,192,9331,1,0,0:0:0:0:
256,192,9497,1,8,0:0:0:0:
256,192,9579,1,0,0:0:0:0:
256,192,9662,1,0,0:0:0:0:
256,192,9828,1,0,0:0:0:0:
256,192,9994,1,8,0:0:0:0:
256,192,10160,1,0,0:0:0:0:
256,192,10491,1,0,0:0:0:0:
256,192,10574,1,0,0:0:0:0:
256,192,10657,1,8,0:0:0:0:
256,192,10823,1,8,0:0:0:0:
256,192,10988,1,0,0:0:0:0:
256,192,11154,1,8,0:0:0:0:
256,192,11320,1,8,0:0:0:0:
256,192,11485,1,0,0:0:0:0:
256,192,11568,1,0,0:0:0:0:
256,192,11651,1,0,0:0:0:0:
256,192,11817,1,0,0:0:0:0:
256,192,11900,1,8,0:0:0:0:
256,192,11983,1,8,0:0:0:0:
256,192,12148,1,8,0:0:0:0:
256,192,12231,1,0,0:0:0:0:
256,192,12314,1,0,0:0:0:0:
256,192,12480,1,0,0:0:0:0:
256,192,12646,1,8,0:0:0:0:
256,192,12811,1,0,0:0:0:0:
256,192,13143,1,0,0:0:0:0:
256,192,13226,1,8,0:0:0:0:
256,192,13309,1,8,0:0:0:0:
256,192,13474,1,8,0:0:0:0:
256,192,13557,1,0,0:0:0:0:
256,192,13806,1,8,0:0:0:0:
256,192,13972,1,8,0:0:0:0:
256,192,14303,1,4,0:0:0:0:
256,192,14469,1,0,0:0:0:0:
256,192,14552,1,0,0:0:0:0:
256,192,14635,1,8,0:0:0:0:
256,192,14718,1,8,0:0:0:0:
256,192,14800,1,0,0:0:0:0:
256,192,14883,1,0,0:0:0:0:
256,192,14966,1,8,0:0:0:0:
256,192,15049,1,8,0:0:0:0:
256,192,15132,1,0,0:0:0:0:
256,192,15215,1,0,0:0:0:0:
256,192,15298,1,8,0:0:0:0:
256,192,15463,1,8,0:0:0:0:
256,192,15629,1,4,0:0:0:0:
256,192,15795,1,4,0:0:0:0:
256,192,15961,1,12,0:0:0:0:
256,192,16126,1,4,0:0:0:0:
256,192,16292,1,12,0:0:0:0:
256,192,16624,1,8,0:0:0:0:
256,192,16955,1,4,0:0:0:0:
256,192,17287,1,8,0:0:0:0:
256,192,17452,1,0,0:0:0:0:
256,192,17618,1,8,0:0:0:0:
256,192,17784,1,8,0:0:0:0:
256,192,17867,1,8,0:0:0:0:
256,192,17950,1,8,0:0:0:0:
256,192,18115,1,0,0:0:0:0:
256,192,18281,1,0,0:0:0:0:
256,192,18447,1,8,0:0:0:0:
256,192,18530,1,0,0:0:0:0:
256,192,18613,1,8,0:0:0:0:
256,192,18778,1,0,0:0:0:0:
256,192,18944,1,0,0:0:0:0:
256,192,19027,1,0,0:0:0:0:
256,192,19110,1,0,0:0:0:0:
256,192,19193,1,0,0:0:0:0:
256,192,19276,1,8,0:0:0:0:
256,192,19441,1,0,0:0:0:0:
256,192,19607,1,8,0:0:0:0:
256,192,19939,1,8,0:0:0:0:
256,192,20104,1,8,0:0:0:0:
256,192,20187,1,8,0:0:0:0:
256,192,20270,1,0,0:0:0:0:
256,192,20436,1,0,0:0:0:0:
256,192,20602,1,8,0:0:0:0:
256,192,20767,1,8,0:0:0:0:
256,192,20933,1,0,0:0:0:0:
256,192,21099,1,0,0:0:0:0:
256,192,21182,1,0,0:0:0:0:
256,192,21264,1,8,0:0:0:0:
256,192,21430,1,0,0:0:0:0:
256,192,21513,1,0,0:0:0:0:
256,192,21596,1,0,0:0:0:0:
256,192,21762,1,0,0:0:0:0:
256,192,21845,1,0,0:0:0:0:
256,192,21927,1,8,0:0:0:0:
256,192,22010,1,8,0:0:0:0:
256,192,22093,1,0,0:0:0:0:
256,192,22259,1,4,0:0:0:0:
256,192,22508,1,0,0:0:0:0:
256,192,22590,1,0,0:0:0:0:
256,192,22756,1,0,0:0:0:0:
256,192,22922,1,8,0:0:0:0:
256,192,23005,1,8,0:0:0:0:
256,192,23088,1,8,0:0:0:0:
256,192,23171,1,8,0:0:0:0:
256,192,23253,1,0,0:0:0:0:
256,192,23419,1,0,0:0:0:0:
256,192,23585,1,0,0:0:0:0:
256,192,23751,1,0,0:0:0:0:
256,192,23834,1,0,0:0:0:0:
256,192,23916,1,8,0:0:0:0:
256,192,24082,1,0,0:0:0:0:
256,192,24165,1,0,0:0:0:0:
256,192,24248,1,0,0:0:0:0:
256,192,24496,1,0,0:0:0:0:
256,192,24579,1,8,0:0:0:0:
256,192,24745,1,8,0:0:0:0:
256,192,24911,1,4,0:0:0:0:
256,192,25077,1,0,0:0:0:0:
256,192,25242,1,8,0:0:0:0:
256,192,25408,1,8,0:0:0:0:
256,192,25491,1,8,0:0:0:0:
256,192,25574,1,0,0:0:0:0:
256,192,25740,1,0,0:0:0:0:
256,192,25823,1,8,0:0:0:0:
256,192,25905,1,0,0:0:0:0:
256,192,26071,1,0,0:0:0:0:
256,192,26237,1,4,0:0:0:0:
256,192,26403,1,0,0:0:0:0:
256,192,26568,1,4,0:0:0:0:
256,192,26734,1,8,0:0:0:0:
256,192,26900,1,4,0:0:0:0:
256,192,27066,1,8,0:0:0:0:
256,192,27148,1,8,0:0:0:0:
256,192,27231,1,8,0:0:0:0:
256,192,27563,1,4,0:0:0:0:
256,192,27729,1,0,0:0:0:0:
256,192,27811,1,8,0:0:0:0:
256,192,27894,1,0,0:0:0:0:
256,192,28060,1,8,0:0:0:0:
256,192,28226,1,4,0:0:0:0:
256,192,28392,1,8,0:0:0:0:
256,192,28474,1,8,0:0:0:0:
256,192,28557,1,8,0:0:0:0:
256,192,28723,1,8,0:0:0:0:
256,192,28806,1,8,0:0:0:0:
256,192,28889,1,0,0:0:0:0:
256,192,29055,1,0,0:0:0:0:
256,192,29220,1,8,0:0:0:0:
256,192,29386,1,0,0:0:0:0:
256,192,29469,1,0,0:0:0:0:
256,192,29552,1,0,0:0:0:0:
256,192,29718,1,8,0:0:0:0:
256,192,29883,1,8,0:0:0:0:
256,192,30215,1,0,0:0:0:0:
256,192,30381,1,8,0:0:0:0:
256,192,30463,1,8,0:0:0:0:
256,192,30546,1,0,0:0:0:0:
256,192,30712,1,0,0:0:0:0:
256,192,30795,1,8,0:0:0:0:
256,192,30878,1,0,0:0:0:0:
256,192,31043,1,0,0:0:0:0:
256,192,31209,1,8,0:0:0:0:
256,192,31375,1,4,0:0:0:0:
256,192,31706,1,0,0:0:0:0:
256,192,31789,1,0,0:0:0:0:
256,192,31872,1,8,0:0:0:0:
256,192,32038,1,8,0:0:0:0:
256,192,32204,1,0,0:0:0:0:
256,192,32535,1,8,0:0:0:0:
256,192,32618,1,8,0:0:0:0:
256,192,32701,1,8,0:0:0:0:
256,192,32784,1,8,0:0:0:0:
256,192,32867,1,0,0:0:0:0:
256,192,33032,1,0,0:0:0:0:
256,192,33198,1,8,0:0:0:0:
256,192,33364,1,0,0:0:0:0:
256,192,33447,1,8,0:0:0:0:
256,192,33530,1,0,0:0:0:0:
256,192,33695,1,8,0:0:0:0:
256,192,33778,1,8,0:0:0:0:
256,192,33861,1,8,0:0:0:0:
256,192,34027,1,8,0:0:0:0:
256,192,34193,1,0,0:0:0:0:
256,192,34276,1,0,0:0:0:0:
256,192,34358,1,8,0:0:0:0:
256,192,34441,1,8,0:0:0:0:
256,192,34524,1,0,0:0:0:0:
256,192,34690,1,8,0:0:0:0:
256,192,34856,1,0,0:0:0:0:
256,192,35021,1,8,0:0:0:0:
256,192,35187,1,8,0:0:0:0:
256,192,35353,1,0,0:0:0:0:
256,192,35519,1,0,0:0:0:0:
256,192,35602,1,0,0:0:0:0:
256,192,35684,1,8,0:0:0:0:
256,192,35767,1,8,0:0:0:0:
256,192,35850,1,0,0:0:0:0:
256,192,35933,1,0,0:0:0:0:
256,192,36016,1,0,0:0:0:0:
256,192,36099,1,0,0:0:0:0:
256,192,36182,1,8,0:0:0:0:
256,192,36264,1,8,0:0:0:0:
256,192,36347,1,0,0:0:0:0:
256,192,36430,1,0,0:0:0:0:
256,192,36513,1,8,0:0:0:0:
256,192,36679,1,0,0:0:0:0:
256,192,36845,1,4,0:0:0:0:
256,192,37093,1,4,0:0:0:0:
256,192,37342,1,4,0:0:0:0:
256,192,37508,1,4,0:0:0:0:
256,192,38171,1,4,0:0:0:0:
256,192,38336,1,0,0:0:0:0:
256,192,38419,1,8,0:0:0:0:
256,192,38502,1,0,0:0:0:0:
256,192,38668,1,8,0:0:0:0:
256,192,38751,1,8,0:0:0:0:
256,192,38834,1,0,0:0:0:0:
256,192,38916,1,0,0:0:0:0:
256,192,38999,1,8,0:0:0:0:
256,192,39165,1,0,0:0:0:0:
256,192,39331,1,8,0:0:0:0:
256,192,39497,1,0,0:0:0:0:
256,192,39662,1,0,0:0:0:0:
256,192,39745,1,0,0:0:0:0:
256,192,39828,1,0,0:0:0:0:
256,192,39994,1,8,0:0:0:0:
256,192,40160,1,0,0:0:0:0:
256,192,40242,1,0,0:0:0:0:
256,192,40325,1,8,0:0:0:0:
256,192,40408,1,8,0:0:0:0:
256,192,40491,1,0,0:0:0:0:
256,192,40657,1,8,0:0:0:0:
256,192,40740,1,8,0:0:0:0:
256,192,40823,1,0,0:0:0:0:
256,192,40988,1,8,0:0:0:0:
256,192,41071,1,0,0:0:0:0:
256,192,41154,1,0,0:0:0:0:
256,192,41320,1,0,0:0:0:0:
256,192,41403,1,0,0:0:0:0:
256,192,41485,1,0,0:0:0:0:
256,192,41651,1,0,0:0:0:0:
256,192,41817,1,8,0:0:0:0:
256,192,41983,1,4,0:0:0:0:
256,192,42314,1,0,0:0:0:0:
256,192,42397,1,0,0:0:0:0:
256,192,42480,1,0,0:0:0:0:
256,192,42646,1,0,0:0:0:0:
256,192,42811,1,0,0:0:0:0:
256,192,42977,1,0,0:0:0:0:
256,192,43143,1,8,0:0:0:0:
256,192,43309,1,8,0:0:0:0:
256,192,43474,1,4,0:0:0:0:
256,192,43640,1,8,0:0:0:0:
256,192,43723,1,8,0:0:0:0:
256,192,43806,1,0,0:0:0:0:
256,192,43972,1,0,0:0:0:0:
256,192,44055,1,8,0:0:0:0:
256,192,44137,1,0,0:0:0:0:
256,192,44220,1,0,0:0:0:0:
256,192,44303,1,8,0:0:0:0:
256,192,44386,1,8,0:0:0:0:
256,192,44469,1,0,0:0:0:0:
256,192,44635,1,8,0:0:0:0:
256,192,44800,1,0,0:0:0:0:
256,192,44883,1,0,0:0:0:0:
256,192,44966,1,0,0:0:0:0:
256,192,45049,1,0,0:0:0:0:
256,192,45132,1,8,0:0:0:0:
256,192,45298,1,8,0:0:0:0:
256,192,45463,1,0,0:0:0:0:
256,192,45629,1,0,0:0:0:0:
256,192,45712,1,0,0:0:0:0:
256,192,45795,1,8,0:0:0:0:
256,192,45961,1,8,0:0:0:0:
256,192,46043,1,8,0:0:0:0:
256,192,46126,1,0,0:0:0:0:
256,192,46292,1,0,0:0:0:0:
256,192,46375,1,0,0:0:0:0:
256,192,46458,1,0,0:0:0:0:
256,192,46624,1,0,0:0:0:0:
256,192,46789,1,0,0:0:0:0:
256,192,46872,1,0,0:0:0:0:
256,192,46955,1,0,0:0:0:0:
256,192,47038,1,0,0:0:0:0:
256,192,47121,1,0,0:0:0:0:
256,192,47287,1,0,0:0:0:0:
256,192,47452,1,4,0:0:0:0:
256,192,47618,1,0,0:0:0:0:
256,192,47701,1,0,0:0:0:0:
256,192,47784,1,0,0:0:0:0:
256,192,47950,1,0,0:0:0:0:
256,192,48115,1,4,0:0:0:0:
256,192,48447,1,8,0:0:0:0:
256,192,48778,1,4,0:0:0:0:
256,192,48944,1,0,0:0:0:0:
256,192,49027,1,0,0:0:0:0:
256,192,49110,1,0,0:0:0:0:
256,192,49276,1,0,0:0:0:0:
256,192,49441,1,8,0:0:0:0:
256,192,49524,1,8,0:0:0:0:
256,192,49607,1,0,0:0:0:0:
256,192,49690,1,0,0:0:0:0:
256,192,49773,1,0,0:0:0:0:
256,192,49856,1,0,0:0:0:0:
256,192,49939,1,8,0:0:0:0:
256,192,50021,1,8,0:0:0:0:
256,192,50104,1,0,0:0:0:0:
256,192,50270,1,0,0:0:0:0:
256,192,50353,1,0,0:0:0:0:
256,192,50436,1,0,0:0:0:0:
256,192,50602,1,0,0:0:0:0:
256,192,50767,1,8,0:0:0:0:
256,192,50850,1,8,0:0:0:0:
256,192,50933,1,0,0:0:0:0:
256,192,51016,1,0,0:0:0:0:
256,192,51099,1,8,0:0:0:0:
256,192,51182,1,8,0:0:0:0:
256,192,51264,1,0,0:0:0:0:
256,192,51347,1,0,0:0:0:0:
256,192,51430,1,0,0:0:0:0:
256,192,51596,1,0,0:0:0:0:
256,192,51679,1,0,0:0:0:0:
256,192,51762,1,0,0:0:0:0:
256,192,51927,1,0,0:0:0:0:
256,192,52093,1,8,0:0:0:0:
256,192,52176,1,8,0:0:0:0:
256,192,52259,1,0,0:0:0:0:
256,192,52342,1,8,0:0:0:0:
256,192,52425,1,0,0:0:0:0:
256,192,52508,1,0,0:0:0:0:
256,192,52590,1,0,0:0:0:0:
256,192,52756,1,4,0:0:0:0:
256,192,53005,1,4,0:0:0:0:
256,192,53253,1,4,0:0:0:0:
256,192,53419,1,8,0:0:0:0:
256,192,53751,1,0,0:0:0:0:
256,192,53916,1,0,0:0:0:0:
256,192,53999,1,0,0:0:0:0:
256,192,54082,1,0,0:0:0:0:
256,192,54248,1,0,0:0:0:0:
256,192,54331,1,0,0:0:0:0:
256,192,54414,1,8,0:0:0:0:
256,192,54497,1,8,0:0:0:0:
256,192,54579,1,0,0:0:0:0:
256,192,54745,1,0,0:0:0:0:
256,192,54828,1,0,0:0:0:0:
256,192,54911,1,8,0:0:0:0:
256,192,54994,1,8,0:0:0:0:
256,192,55077,1,0,0:0:0:0:
256,192,55160,1,0,0:0:0:0:
256,192,55242,1,8,0:0:0:0:
256,192,55325,1,0,0:0:0:0:
256,192,55408,1,0,0:0:0:0:
256,192,55491,1,0,0:0:0:0:
256,192,55574,1,0,0:0:0:0:
256,192,55657,1,0,0:0:0:0:
256,192,55740,1,0,0:0:0:0:
256,192,55905,1,0,0:0:0:0:
256,192,55988,1,0,0:0:0:0:
256,192,56071,1,8,0:0:0:0:
256,192,56154,1,0,0:0:0:0:
256,192,56237,1,0,0:0:0:0:
256,192,56320,1,0,0:0:0:0:
256,192,56403,1,8,0:0:0:0:
256,192,56485,1,0,0:0:0:0:
256,192,56568,1,0,0:0:0:0:
256,192,56734,1,4,0:0:0:0:
256,192,57231,1,4,0:0:0:0:
256,192,57563,1,8,0:0:0:0:
256,192,57646,1,8,0:0:0:0:
256,192,57729,1,0,0:0:0:0:
256,192,57894,1,0,0:0:0:0:
256,192,58060,1,4,0:0:0:0:
256,192,58557,1,4,0:0:0:0:
256,192,59055,1,8,0:0:0:0:
256,192,59386,1,0,0:0:0:0:
256,192,59469,1,8,0:0:0:0:
256,192,59552,1,8,0:0:0:0:
256,192,59635,1,8,0:0:0:0:
256,192,59718,1,0,0:0:0:0:
256,192,59883,1,8,0:0:0:0:
256,192,59966,1,8,0:0:0:0:
256,192,60049,1,0,0:0:0:0:
256,192,60215,1,8,0:0:0:0:
256,192,60298,1,8,0:0:0:0:
256,192,60381,1,0,0:0:0:0:
256,192,60546,1,0,0:0:0:0:
256,192,60629,1,8,0:0:0:0:
256,192,60712,1,0,0:0:0:0:
256,192,60795,1,0,0:0:0:0:
256,192,60878,1,0,0:0:0:0:
256,192,60961,1,8,0:0:0:0:
256,192,61043,1,0,0:0:0:0:
256,192,61209,1,8,0:0:0:0:
256,192,61292,1,0,0:0:0:0:
256,192,61375,1,0,0:0:0:0:
256,192,61541,1,8,0:0:0:0:
256,192,61624,1,0,0:0:0:0:
256,192,61706,1,0,0:0:0:0:
256,192,61872,1,0,0:0:0:0:
256,192,61955,1,0,0:0:0:0:
256,192,62038,1,0,0:0:0:0:
256,192,62121,1,0,0:0:0:0:
256,192,62204,1,8,0:0:0:0:
256,192,62287,1,8,0:0:0:0:
256,192,62369,1,0,0:0:0:0:
256,192,62535,1,0,0:0:0:0:
256,192,62618,1,8,0:0:0:0:
256,192,62701,1,0,0:0:0:0:
256,192,62784,1,0,0:0:0:0:
256,192,62867,1,8,0:0:0:0:
256,192,62950,1,8,0:0:0:0:
256,192,63032,1,0,0:0:0:0:
256,192,63198,1,8,0:0:0:0:
256,192,63364,1,4,0:0:0:0:
256,192,63530,1,8,0:0:0:0:
256,192,63613,1,0,0:0:0:0:
256,192,63695,1,8,0:0:0:0:
256,192,63861,1,4,0:0:0:0:
256,192,64027,1,8,0:0:0:0:
256,192,64110,1,8,0:0:0:0:
256,192,64193,1,0,0:0:0:0:
256,192,64276,1,0,0:0:0:0:
256,192,64358,1,8,0:0:0:0:
256,192,64524,1,0,0:0:0:0:
256,192,64607,1,0,0:0:0:0:
256,192,64690,1,0,0:0:0:0:
256,192,64856,1,0,0:0:0:0:
256,192,65021,1,0,0:0:0:0:
256,192,65187,1,0,0:0:0:0:
256,192,65353,1,8,0:0:0:0:
256,192,65519,1,0,0:0:0:0:
256,192,65684,1,0,0:0:0:0:
256,192,65850,1,0,0:0:0:0:
256,192,65933,1,0,0:0:0:0:
256,192,66016,1,0,0:0:0:0:
256,192,66182,1,8,0:0:0:0:
256,192,66264,1,0,0:0:0:0:
256,192,66513,1,0,0:0:0:0:
256,192,66596,1,0,0:0:0:0:
256,192,66679,1,0,0:0:0:0:
256,192,66762,1,0,0:0:0:0:
256,192,66845,1,0,0:0:0:0:
256,192,66927,1,0,0:0:0:0:
256,192,67010,1,0,0:0:0:0:
256,192,67093,1,0,0:0:0:0:
256,192,67176,1,0,0:0:0:0:
256,192,67342,1,4,0:0:0:0:
256,192,67673,1,4,0:0:0:0:
256,192,67839,1,4,0:0:0:0:
256,192,68171,1,4,0:0:0:0:
256,192,68336,1,4,0:0:0:0:
256,192,68502,1,0,0:0:0:0:
256,192,68585,1,0,0:0:0:0:
256,192,68668,1,0,0:0:0:0:
256,192,69165,1,4,0:0:0:0:
256,192,69662,1,8,0:0:0:0:
307,243,69994,2,0,P|203:139|323:219,1,420
256,192,71320,1,12,0:0:0:0:
256,192,71485,1,8,0:0:0:0:
256,192,71651,1,0,0:0:0:0:
256,192,71817,1,0,0:0:0:0:
256,192,71983,1,8,0:0:0:0:
256,192,72480,1,0,0:0:0:0:
256,192,72811,1,0,0:0:0:0:
256,192,72977,1,8,0:0:0:0:
256,192,73143,1,8,0:0:0:0:
256,192,73309,1,0,0:0:0:0:
256,192,73806,1,0,0:0:0:0:
256,192,73889,1,0,0:0:0:0:
256,192,73972,1,8,0:0:0:0:
256,192,74303,1,8,0:0:0:0:
256,192,74635,1,0,0:0:0:0:
256,192,74966,1,8,0:0:0:0:
256,192,75132,1,0,0:0:0:0:
256,192,75463,1,0,0:0:0:0:
256,192,75629,1,8,0:0:0:0:
256,192,75795,1,8,0:0:0:0:
256,192,75961,1,0,0:0:0:0:
256,192,76292,1,0,0:0:0:0:
256,192,76624,1,4,0:0:0:0:
256,192,76955,1,0,0:0:0:0:
256,192,77287,1,8,0:0:0:0:
256,192,77618,1,0,0:0:0:0:
256,192,77950,1,0,0:0:0:0:
256,192,78281,1,0,0:0:0:0:
256,192,78613,1,8,0:0:0:0:
256,192,78944,1,0,0:0:0:0:
256,192,79110,1,0,0:0:0:0:
256,192,79276,1,8,0:0:0:0:
256,192,79358,1,0,0:0:0:0:
256,192,79441,1,0,0:0:0:0:
256,192,79524,1,0,0:0:0:0:
256,192,79607,1,0,0:0:0:0:
256,192,79690,1,0,0:0:0:0:
256,192,79773,1,8,0:0:0:0:
256,192,79856,1,0,0:0:0:0:
256,192,79939,1,0,0:0:0:0:
256,192,80021,1,0,0:0:0:0:
256,192,80104,1,0,0:0:0:0:
256,192,80187,1,0,0:0:0:0:
256,192,80270,1,0,0:0:0:0:
256,192,80602,1,4,0:0:0:0:
256,192,80767,1,4,0:0:0:0:
256,192,80933,1,4,0:0:0:0:
256,192,81099,1,4,0:0:0:0:
256,192,81264,1,4,0:0:0:0:
256,192,81596,1,8,0:0:0:0:
256,192,81679,1,8,0:0:0:0:
256,192,81762,1,8,0:0:0:0:
256,192,81927,5,4,0:0:0:0:
256,192,82093,1,0,0:0:0:0:
256,192,82176,1,0,0:0:0:0:
256,192,82259,1,8,0:0:0:0:
256,192,82425,1,0,0:0:0:0:
256,192,82508,1,0,0:0:0:0:
256,192,82590,1,0,0:0:0:0:
256,192,82673,1,0,0:0:0:0:
256,192,82756,1,0,0:0:0:0:
256,192,82839,1,0,0:0:0:0:
256,192,82922,1,8,0:0:0:0:
256,192,83088,1,0,0:0:0:0:
256,192,83253,1,0,0:0:0:0:
256,192,83419,1,0,0:0:0:0:
256,192,83502,1,0,0:0:0:0:
256,192,83585,1,0,0:0:0:0:
256,192,83751,1,8,0:0:0:0:
256,192,83834,1,0,0:0:0:0:
256,192,83916,1,0,0:0:0:0:
256,192,84082,1,0,0:0:0:0:
256,192,84248,1,8,0:0:0:0:
256,192,84414,1,0,0:0:0:0:
256,192,84497,1,0,0:0:0:0:
256,192,84579,1,0,0:0:0:0:
256,192,84745,1,0,0:0:0:0:
256,192,84828,1,0,0:0:0:0:
256,192,84911,1,8,0:0:0:0:
256,192,85077,1,8,0:0:0:0:
256,192,85160,1,8,0:0:0:0:
256,192,85242,1,0,0:0:0:0:
256,192,85408,1,0,0:0:0:0:
256,192,85574,1,8,0:0:0:0:
256,192,85740,1,0,0:0:0:0:
256,192,85905,1,4,0:0:0:0:
256,192,86071,1,0,0:0:0:0:
256,192,86237,1,8,0:0:0:0:
256,192,86403,1,8,0:0:0:0:
256,192,86568,1,0,0:0:0:0:
256,192,86900,1,8,0:0:0:0:
256,192,87231,1,4,0:0:0:0:
256,192,87397,1,0,0:0:0:0:
256,192,87563,1,8,0:0:0:0:
256,192,87729,1,8,0:0:0:0:
256,192,87894,1,0,0:0:0:0:
256,192,88060,1,0,0:0:0:0:
256,192,88143,1,0,0:0:0:0:
256,192,88226,1,8,0:0:0:0:
256,192,88392,1,8,0:0:0:0:
256,192,88474,1,8,0:0:0:0:
256,192,88557,1,0,0:0:0:0:
256,192,88723,1,0,0:0:0:0:
256,192,88889,1,8,0:0:0:0:
256,192,89055,1,0,0:0:0:0:
256,192,89137,1,8,0:0:0:0:
256,192,89220,1,0,0:0:0:0:
256,192,89386,1,0,0:0:0:0:
256,192,89552,1,8,0:0:0:0:
256,192,89718,1,8,0:0:0:0:
256,192,89800,1,8,0:0:0:0:
256,192,89883,1,0,0:0:0:0:
256,192,90215,1,8,0:0:0:0:
256,192,90381,1,0,0:0:0:0:
256,192,90878,1,8,0:0:0:0:
256,192,91209,1,4,0:0:0:0:
256,192,91375,1,4,0:0:0:0:
256,192,91541,1,4,0:0:0:0:
256,192,91706,1,4,0:0:0:0:
256,192,91872,1,4,0:0:0:0:
256,192,92204,1,8,0:0:0:0:
256,192,92535,1,4,0:0:0:0:
256,192,92701,1,8,0:0:0:0:
256,192,92784,1,8,0:0:0:0:
256,192,92867,1,0,0:0:0:0:
256,192,93032,1,0,0:0:0:0:
256,192,93115,1,8,0:0:0:0:
256,192,93198,1,0,0:0:0:0:
256,192,93364,1,0,0:0:0:0:
256,192,93530,1,8,0:0:0:0:
256,192,93695,1,0,0:0:0:0:
256,192,94027,1,8,0:0:0:0:
256,192,94110,1,8,0:0:0:0:
256,192,94193,1,0,0:0:0:0:
256,192,94358,1,8,0:0:0:0:
256,192,94524,1,0,0:0:0:0:
256,192,94690,1,8,0:0:0:0:
256,192,94856,1,8,0:0:0:0:
256,192,95021,1,0,0:0:0:0:
256,192,95187,1,0,0:0:0:0:
256,192,95270,1,0,0:0:0:0:
256,192,95353,1,8,0:0:0:0:
256,192,95519,1,8,0:0:0:0:
256,192,95602,1,8,0:0:0:0:
256,192,95684,1,0,0:0:0:0:
256,192,95850,1,8,0:0:0:0:
256,192,95933,1,0,0:0:0:0:
256,192,96016,1,0,0:0:0:0:
256,192,96099,1,0,0:0:0:0:
256,192,96182,1,8,0:0:0:0:
256,192,96347,1,0,0:0:0:0:
256,192,96679,1,0,0:0:0:0:
256,192,96762,1,8,0:0:0:0:
256,192,96845,1,0,0:0:0:0:
256,192,97010,1,8,0:0:0:0:
256,192,97176,1,0,0:0:0:0:
256,192,97342,1,8,0:0:0:0:
256,192,97508,1,8,0:0:0:0:
256,192,97839,1,0,0:0:0:0:
256,192,97922,1,0,0:0:0:0:
256,192,98005,1,0,0:0:0:0:
256,192,98171,1,8,0:0:0:0:
256,192,98253,1,8,0:0:0:0:
256,192,98336,1,8,0:0:0:0:
256,192,98502,1,0,0:0:0:0:
256,192,98585,1,0,0:0:0:0:
256,192,98668,1,8,0:0:0:0:
256,192,98834,1,8,0:0:0:0:
256,192,98916,1,8,0:0:0:0:
256,192,98999,1,0,0:0:0:0:
256,192,99165,1,0,0:0:0:0:
256,192,99331,1,8,0:0:0:0:
256,192,99414,1,0,0:0:0:0:
256,192,99497,1,8,0:0:0:0:
256,192,99662,1,0,0:0:0:0:
256,192,99745,1,8,0:0:0:0:
256,192,99828,1,0,0:0:0:0:
256,192,99994,1,8,0:0:0:0:
256,192,100160,1,8,0:0:0:0:
256,192,100325,1,8,0:0:0:0:
256,192,100408,1,8,0:0:0:0:
256,192,100491,1,0,0:0:0:0:
256,192,100574,1,0,0:0:0:0:
256,192,100657,1,8,0:0:0:0:
256,192,100740,1,8,0:0:0:0:
256,192,100823,1,0,0:0:0:0:
256,192,100905,1,0,0:0:0:0:
256,192,100988,1,8,0:0:0:0:
256,192,101071,1,8,0:0:0:0:
256,192,101154,1,0,0:0:0:0:
256,192,101237,1,0,0:0:0:0:
256,192,101320,1,8,0:0:0:0:
256,192,101403,1,8,0:0:0:0:
256,192,101485,1,0,0:0:0:0:
256,192,101651,1,0,0:0:0:0:
256,192,101817,1,4,0:0:0:0:
256,192,101983,1,4,0:0:0:0:
256,192,102148,1,4,0:0:0:0:
256,192,102314,1,4,0:0:0:0:
256,192,102480,1,4,0:0:0:0:
256,192,102811,1,8,0:0:0:0:
