osu file format v14

[General]
AudioFilename: audio.mp3
AudioLeadIn: 0
PreviewTime: 38068
Countdown: 0
SampleSet: None
StackLeniency: 0.5
Mode: 1
LetterboxInBreaks: 0
WidescreenStoryboard: 0

[Editor]
Bookmarks: 1024,6327,16935,27543,38151,42791,43454,48758,59366,71300,81907,92515,102791
DistanceSpacing: 1.4
BeatDivisor: 4
GridSize: 32
TimelineZoom: 2.1

[Metadata]
Title:Benibotan
TitleUnicode:紅牡丹
Artist:DJ NAGAI feat. a*ru
ArtistUnicode:DJ NAGAI feat. a☆ru
Creator:Uberzolik
Version:Ayyri's Inner Oni
Source:beatmania IIDX 22 PENDUAL
Tags:Ayyri eiri- xilver arutsuki celektus J-Core KONAMI BEMANI ORIGINAL SOUNDTRACK aru red peony
BeatmapID:1713113
BeatmapSetID:761999

[Difficulty]
HPDrainRate:6
CircleSize:2
OverallDifficulty:6
ApproachRate:10
SliderMultiplier:1.4
SliderTickRate:1

[Events]
//Background and Video events
0,0,"54943223_p0.jpg",0,65
//Break Periods
//Storyboard Layer 0 (Background)
//Storyboard Layer 1 (Fail)
//Storyboard Layer 2 (Pass)
//Storyboard Layer 3 (Foreground)
//Storyboard Sound Samples

[TimingPoints]
1024,331.491712707182,4,1,0,100,1,0
38151,-100,4,1,0,100,0,1
42791,-100,4,1,0,100,0,0
43454,-100,4,1,0,100,0,1
48758,-100,4,1,0,100,0,0
69974,-100,4,1,0,25,0,0
71300,-100,4,1,0,50,0,0
76604,-100,4,1,0,75,0,0
81907,-100,4,1,0,100,0,1
92515,-100,4,1,0,100,0,0

[Colours]
Combo1 : 218,255,195
Combo2 : 255,238,175
Combo3 : 236,179,170
Combo4 : 255,197,247
Combo5 : 181,196,232

[HitObjects]
256,192,1024,5,12,0:0:0:0:
256,192,1189,1,0,0:0:0:0:
256,192,1355,1,8,0:0:0:0:
256,192,1521,1,0,0:0:0:0:
256,192,1686,1,8,0:0:0:0:
256,192,1852,1,0,0:0:0:0:
256,192,2018,1,0,0:0:0:0:
256,192,2184,1,8,0:0:0:0:
256,192,2349,1,0,0:0:0:0:
256,192,2515,1,8,0:0:0:0:
256,192,2598,1,0,0:0:0:0:
256,192,2681,1,8,0:0:0:0:
256,192,2847,1,0,0:0:0:0:
256,192,3012,1,8,0:0:0:0:
256,192,3178,1,0,0:0:0:0:
256,192,3344,1,0,0:0:0:0:
256,192,3510,1,0,0:0:0:0:
256,192,3593,1,0,0:0:0:0:
256,192,3675,1,8,0:0:0:0:
256,192,3841,1,0,0:0:0:0:
256,192,4007,1,8,0:0:0:0:
256,192,4173,1,8,0:0:0:0:
256,192,4256,1,0,0:0:0:0:
256,192,4338,1,8,0:0:0:0:
256,192,4504,1,0,0:0:0:0:
256,192,4670,1,8,0:0:0:0:
256,192,4836,1,0,0:0:0:0:
256,192,5001,1,12,0:0:0:0:
256,192,5167,1,12,0:0:0:0:
256,192,5333,1,4,0:0:0:0:
256,192,5499,1,12,0:0:0:0:
256,192,5664,1,12,0:0:0:0:
256,192,5996,1,4,0:0:0:0:
256,192,6327,1,12,0:0:0:0:
256,192,6493,1,0,0:0:0:0:
256,192,6659,1,8,0:0:0:0:
256,192,6825,1,0,0:0:0:0:
256,192,6907,1,8,0:0:0:0:
256,192,6990,1,8,0:0:0:0:
256,192,7156,1,0,0:0:0:0:
256,192,7322,1,8,0:0:0:0:
256,192,7488,1,8,0:0:0:0:
256,192,7653,1,0,0:0:0:0:
256,192,7819,1,8,0:0:0:0:
256,192,7902,1,8,0:0:0:0:
256,192,7985,1,0,0:0:0:0:
256,192,8151,1,8,0:0:0:0:
256,192,8316,1,0,0:0:0:0:
256,192,8482,1,8,0:0:0:0:
256,192,8565,1,0,0:0:0:0:
256,192,8648,1,8,0:0:0:0:
256,192,8814,1,0,0:0:0:0:
256,192,8896,1,0,0:0:0:0:
256,192,8979,1,8,0:0:0:0:
256,192,9145,1,0,0:0:0:0:
256,192,9311,1,8,0:0:0:0:
256,192,9477,1,0,0:0:0:0:
256,192,9559,1,8,0:0:0:0:
256,192,9642,1,8,0:0:0:0:
256,192,9808,1,0,0:0:0:0:
256,192,9974,1,8,0:0:0:0:
256,192,10140,1,8,0:0:0:0:
256,192,10305,1,0,0:0:0:0:
256,192,10471,1,8,0:0:0:0:
256,192,10554,1,8,0:0:0:0:
256,192,10637,1,0,0:0:0:0:
256,192,10803,1,8,0:0:0:0:
256,192,10968,1,0,0:0:0:0:
256,192,11134,1,8,0:0:0:0:
256,192,11217,1,0,0:0:0:0:
256,192,11300,1,8,0:0:0:0:
256,192,11465,1,0,0:0:0:0:
256,192,11631,1,8,0:0:0:0:
256,192,11797,1,0,0:0:0:0:
256,192,11963,1,8,0:0:0:0:
256,192,12128,1,0,0:0:0:0:
256,192,12211,1,8,0:0:0:0:
256,192,12294,1,8,0:0:0:0:
256,192,12460,1,0,0:0:0:0:
256,192,12626,1,8,0:0:0:0:
256,192,12791,1,8,0:0:0:0:
256,192,12957,1,0,0:0:0:0:
256,192,13123,1,8,0:0:0:0:
256,192,13206,1,8,0:0:0:0:
256,192,13289,1,0,0:0:0:0:
256,192,13454,1,8,0:0:0:0:
256,192,13620,1,0,0:0:0:0:
256,192,13786,1,8,0:0:0:0:
256,192,13869,1,0,0:0:0:0:
256,192,13952,1,8,0:0:0:0:
256,192,14283,1,12,0:0:0:0:
256,192,14449,1,0,0:0:0:0:
256,192,14615,1,8,0:0:0:0:
256,192,14698,1,0,0:0:0:0:
256,192,14780,1,8,0:0:0:0:
256,192,14863,1,0,0:0:0:0:
256,192,14946,1,8,0:0:0:0:
256,192,15029,1,0,0:0:0:0:
256,192,15112,1,8,0:0:0:0:
256,192,15195,1,0,0:0:0:0:
256,192,15278,1,8,0:0:0:0:
256,192,15361,1,8,0:0:0:0:
256,192,15443,1,0,0:0:0:0:
256,192,15526,1,0,0:0:0:0:
256,192,15609,1,12,0:0:0:0:
256,192,15775,1,0,0:0:0:0:
256,192,15941,1,8,0:0:0:0:
256,192,16106,1,0,0:0:0:0:
256,192,16272,1,8,0:0:0:0:
256,192,16604,1,4,0:0:0:0:
256,192,16935,1,12,0:0:0:0:
256,192,17101,1,0,0:0:0:0:
256,192,17184,1,0,0:0:0:0:
256,192,17267,1,8,0:0:0:0:
256,192,17432,1,0,0:0:0:0:
256,192,17598,1,8,0:0:0:0:
256,192,17764,1,8,0:0:0:0:
256,192,17847,1,8,0:0:0:0:
256,192,17930,1,0,0:0:0:0:
256,192,18095,1,0,0:0:0:0:
256,192,18261,1,8,0:0:0:0:
256,192,18427,1,8,0:0:0:0:
256,192,18510,1,0,0:0:0:0:
256,192,18593,1,8,0:0:0:0:
256,192,18758,1,0,0:0:0:0:
256,192,18924,1,8,0:0:0:0:
256,192,19090,1,0,0:0:0:0:
256,192,19173,1,0,0:0:0:0:
256,192,19256,1,8,0:0:0:0:
256,192,19421,1,0,0:0:0:0:
256,192,19587,1,8,0:0:0:0:
256,192,19753,1,0,0:0:0:0:
256,192,19919,1,8,0:0:0:0:
256,192,20001,1,0,0:0:0:0:
256,192,20084,1,8,0:0:0:0:
256,192,20250,1,0,0:0:0:0:
256,192,20416,1,8,0:0:0:0:
256,192,20582,1,0,0:0:0:0:
256,192,20747,1,0,0:0:0:0:
256,192,20830,1,0,0:0:0:0:
256,192,20913,1,8,0:0:0:0:
256,192,21079,1,0,0:0:0:0:
256,192,21162,1,0,0:0:0:0:
256,192,21244,1,8,0:0:0:0:
256,192,21327,1,0,0:0:0:0:
256,192,21410,1,8,0:0:0:0:
256,192,21576,1,8,0:0:0:0:
256,192,21742,1,0,0:0:0:0:
256,192,21825,1,0,0:0:0:0:
256,192,21907,1,8,0:0:0:0:
256,192,22073,1,0,0:0:0:0:
256,192,22239,1,12,0:0:0:0:
256,192,22405,1,0,0:0:0:0:
256,192,22488,1,0,0:0:0:0:
256,192,22570,1,8,0:0:0:0:
256,192,22736,1,0,0:0:0:0:
256,192,22902,1,8,0:0:0:0:
256,192,23068,1,8,0:0:0:0:
256,192,23151,1,8,0:0:0:0:
256,192,23233,1,0,0:0:0:0:
256,192,23399,1,0,0:0:0:0:
256,192,23565,1,8,0:0:0:0:
256,192,23731,1,8,0:0:0:0:
256,192,23814,1,0,0:0:0:0:
256,192,23896,1,8,0:0:0:0:
256,192,24062,1,0,0:0:0:0:
256,192,24228,1,8,0:0:0:0:
256,192,24394,1,0,0:0:0:0:
256,192,24477,1,0,0:0:0:0:
256,192,24559,1,8,0:0:0:0:
256,192,24642,1,8,0:0:0:0:
256,192,24725,1,0,0:0:0:0:
256,192,24891,1,8,0:0:0:0:
256,192,25057,1,8,0:0:0:0:
256,192,25140,1,8,0:0:0:0:
256,192,25222,1,0,0:0:0:0:
256,192,25388,1,8,0:0:0:0:
256,192,25554,1,0,0:0:0:0:
256,192,25720,1,8,0:0:0:0:
256,192,25803,1,0,0:0:0:0:
256,192,25885,1,8,0:0:0:0:
256,192,26051,1,0,0:0:0:0:
256,192,26217,1,12,0:0:0:0:
256,192,26383,1,0,0:0:0:0:
256,192,26465,1,8,0:0:0:0:
256,192,26548,1,0,0:0:0:0:
256,192,26714,1,0,0:0:0:0:
256,192,26880,1,12,0:0:0:0:
256,192,27046,1,8,0:0:0:0:
256,192,27128,1,0,0:0:0:0:
256,192,27211,1,8,0:0:0:0:
256,192,27543,1,12,0:0:0:0:
256,192,27709,1,0,0:0:0:0:
256,192,27874,1,8,0:0:0:0:
256,192,27957,1,0,0:0:0:0:
256,192,28040,1,8,0:0:0:0:
256,192,28206,1,8,0:0:0:0:
256,192,28289,1,0,0:0:0:0:
256,192,28372,1,8,0:0:0:0:
256,192,28454,1,8,0:0:0:0:
256,192,28537,1,0,0:0:0:0:
256,192,28703,1,0,0:0:0:0:
256,192,28786,1,0,0:0:0:0:
256,192,28869,1,8,0:0:0:0:
256,192,29035,1,0,0:0:0:0:
256,192,29200,1,8,0:0:0:0:
256,192,29283,1,0,0:0:0:0:
256,192,29366,1,8,0:0:0:0:
256,192,29532,1,8,0:0:0:0:
256,192,29615,1,0,0:0:0:0:
256,192,29698,1,0,0:0:0:0:
256,192,29780,1,0,0:0:0:0:
256,192,29863,1,8,0:0:0:0:
256,192,30029,1,0,0:0:0:0:
256,192,30195,1,8,0:0:0:0:
256,192,30361,1,0,0:0:0:0:
256,192,30526,1,8,0:0:0:0:
256,192,30692,1,0,0:0:0:0:
256,192,30775,1,0,0:0:0:0:
256,192,30858,1,8,0:0:0:0:
256,192,31023,1,0,0:0:0:0:
256,192,31189,1,8,0:0:0:0:
256,192,31355,1,12,0:0:0:0:
256,192,31686,1,0,0:0:0:0:
256,192,31852,1,8,0:0:0:0:
256,192,32018,1,0,0:0:0:0:
256,192,32184,1,8,0:0:0:0:
256,192,32267,1,0,0:0:0:0:
256,192,32349,1,8,0:0:0:0:
256,192,32515,1,0,0:0:0:0:
256,192,32598,1,0,0:0:0:0:
256,192,32681,1,0,0:0:0:0:
256,192,32764,1,0,0:0:0:0:
256,192,32847,1,12,0:0:0:0:
256,192,33012,1,0,0:0:0:0:
256,192,33178,1,8,0:0:0:0:
256,192,33261,1,0,0:0:0:0:
256,192,33344,1,8,0:0:0:0:
256,192,33510,1,8,0:0:0:0:
256,192,33593,1,0,0:0:0:0:
256,192,33675,1,8,0:0:0:0:
256,192,33758,1,8,0:0:0:0:
256,192,33841,1,0,0:0:0:0:
256,192,34007,1,0,0:0:0:0:
256,192,34090,1,0,0:0:0:0:
256,192,34173,1,8,0:0:0:0:
256,192,34338,1,0,0:0:0:0:
256,192,34504,1,8,0:0:0:0:
256,192,34670,1,0,0:0:0:0:
256,192,34753,1,0,0:0:0:0:
256,192,34836,1,8,0:0:0:0:
256,192,34919,1,8,0:0:0:0:
256,192,35001,1,0,0:0:0:0:
256,192,35167,1,8,0:0:0:0:
256,192,35250,1,0,0:0:0:0:
256,192,35333,1,8,0:0:0:0:
256,192,35499,1,12,0:0:0:0:
256,192,35664,1,0,0:0:0:0:
256,192,35747,1,8,0:0:0:0:
256,192,35830,1,0,0:0:0:0:
256,192,35996,1,0,0:0:0:0:
256,192,36079,1,0,0:0:0:0:
256,192,36162,1,8,0:0:0:0:
256,192,36244,1,8,0:0:0:0:
256,192,36327,1,0,0:0:0:0:
256,192,36410,1,0,0:0:0:0:
256,192,36493,1,8,0:0:0:0:
256,192,36576,1,0,0:0:0:0:
256,192,36659,1,8,0:0:0:0:
256,192,36825,1,12,0:0:0:0:
256,192,37073,1,12,0:0:0:0:
256,192,37322,1,4,0:0:0:0:
256,192,37488,1,12,0:0:0:0:
256,192,38151,1,12,0:0:0:0:
256,192,38316,1,0,0:0:0:0:
256,192,38482,1,8,0:0:0:0:
256,192,38565,1,0,0:0:0:0:
256,192,38648,1,8,0:0:0:0:
256,192,38814,1,0,0:0:0:0:
256,192,38896,1,0,0:0:0:0:
256,192,38979,1,8,0:0:0:0:
256,192,39062,1,8,0:0:0:0:
256,192,39145,1,0,0:0:0:0:
256,192,39311,1,8,0:0:0:0:
256,192,39394,1,0,0:0:0:0:
256,192,39477,1,0,0:0:0:0:
256,192,39559,1,0,0:0:0:0:
256,192,39642,1,8,0:0:0:0:
256,192,39808,1,8,0:0:0:0:
256,192,39891,1,0,0:0:0:0:
256,192,39974,1,8,0:0:0:0:
256,192,40140,1,0,0:0:0:0:
256,192,40222,1,0,0:0:0:0:
256,192,40305,1,8,0:0:0:0:
256,192,40388,1,0,0:0:0:0:
256,192,40471,1,8,0:0:0:0:
256,192,40637,1,0,0:0:0:0:
256,192,40720,1,8,0:0:0:0:
256,192,40803,1,0,0:0:0:0:
256,192,40968,1,0,0:0:0:0:
256,192,41051,1,0,0:0:0:0:
256,192,41134,1,8,0:0:0:0:
256,192,41300,1,0,0:0:0:0:
256,192,41465,1,8,0:0:0:0:
256,192,41548,1,8,0:0:0:0:
256,192,41631,1,0,0:0:0:0:
256,192,41714,1,0,0:0:0:0:
256,192,41797,1,8,0:0:0:0:
256,192,41963,1,12,0:0:0:0:
256,192,42128,1,0,0:0:0:0:
256,192,42211,1,8,0:0:0:0:
256,192,42294,1,0,0:0:0:0:
256,192,42460,1,12,0:0:0:0:
256,192,42626,1,12,0:0:0:0:
256,192,42791,1,0,0:0:0:0:
256,192,42957,1,8,0:0:0:0:
256,192,43123,1,0,0:0:0:0:
256,192,43289,1,0,0:0:0:0:
256,192,43454,1,12,0:0:0:0:
256,192,43620,1,0,0:0:0:0:
256,192,43786,1,8,0:0:0:0:
256,192,43869,1,0,0:0:0:0:
256,192,43952,1,8,0:0:0:0:
256,192,44117,1,8,0:0:0:0:
256,192,44200,1,8,0:0:0:0:
256,192,44283,1,0,0:0:0:0:
256,192,44366,1,0,0:0:0:0:
256,192,44449,1,8,0:0:0:0:
256,192,44615,1,0,0:0:0:0:
256,192,44698,1,0,0:0:0:0:
256,192,44780,1,8,0:0:0:0:
256,192,44863,1,8,0:0:0:0:
256,192,44946,1,0,0:0:0:0:
256,192,45112,1,8,0:0:0:0:
256,192,45195,1,0,0:0:0:0:
256,192,45278,1,8,0:0:0:0:
256,192,45443,1,0,0:0:0:0:
256,192,45526,1,0,0:0:0:0:
256,192,45609,1,8,0:0:0:0:
256,192,45692,1,0,0:0:0:0:
256,192,45775,1,8,0:0:0:0:
256,192,45941,1,0,0:0:0:0:
256,192,46106,1,12,0:0:0:0:
256,192,46272,1,0,0:0:0:0:
256,192,46355,1,0,0:0:0:0:
256,192,46438,1,8,0:0:0:0:
256,192,46604,1,8,0:0:0:0:
256,192,46769,1,8,0:0:0:0:
256,192,46852,1,8,0:0:0:0:
256,192,46935,1,0,0:0:0:0:
256,192,47018,1,0,0:0:0:0:
256,192,47101,1,8,0:0:0:0:
256,192,47184,1,0,0:0:0:0:
256,192,47267,1,8,0:0:0:0:
256,192,47432,1,12,0:0:0:0:
256,192,47598,1,12,0:0:0:0:
256,192,47764,1,4,0:0:0:0:
256,192,47930,1,12,0:0:0:0:
256,192,48095,1,12,0:0:0:0:
256,192,48427,1,4,0:0:0:0:
256,192,48758,1,12,0:0:0:0:
256,192,48924,1,0,0:0:0:0:
256,192,49090,1,8,0:0:0:0:
256,192,49173,1,0,0:0:0:0:
256,192,49256,1,8,0:0:0:0:
256,192,49421,1,8,0:0:0:0:
256,192,49504,1,0,0:0:0:0:
256,192,49587,1,8,0:0:0:0:
256,192,49670,1,8,0:0:0:0:
256,192,49753,1,0,0:0:0:0:
256,192,49919,1,0,0:0:0:0:
256,192,50001,1,0,0:0:0:0:
256,192,50084,1,8,0:0:0:0:
256,192,50250,1,8,0:0:0:0:
256,192,50333,1,0,0:0:0:0:
256,192,50416,1,8,0:0:0:0:
256,192,50582,1,8,0:0:0:0:
256,192,50664,1,8,0:0:0:0:
256,192,50747,1,0,0:0:0:0:
256,192,50830,1,0,0:0:0:0:
256,192,50913,1,8,0:0:0:0:
256,192,51079,1,8,0:0:0:0:
256,192,51244,1,0,0:0:0:0:
256,192,51327,1,0,0:0:0:0:
256,192,51410,1,8,0:0:0:0:
256,192,51576,1,0,0:0:0:0:
256,192,51742,1,8,0:0:0:0:
256,192,51907,1,8,0:0:0:0:
256,192,51990,1,8,0:0:0:0:
256,192,52073,1,0,0:0:0:0:
256,192,52156,1,0,0:0:0:0:
256,192,52239,1,8,0:0:0:0:
256,192,52405,1,0,0:0:0:0:
256,192,52570,1,0,0:0:0:0:
256,192,52736,1,12,0:0:0:0:
256,192,52985,1,12,0:0:0:0:
256,192,53233,1,12,0:0:0:0:
256,192,53399,1,0,0:0:0:0:
256,192,53565,1,8,0:0:0:0:
256,192,53731,1,0,0:0:0:0:
256,192,53896,1,0,0:0:0:0:
256,192,54062,1,12,0:0:0:0:
256,192,54228,1,0,0:0:0:0:
256,192,54394,1,8,0:0:0:0:
256,192,54477,1,8,0:0:0:0:
256,192,54559,1,0,0:0:0:0:
256,192,54642,1,0,0:0:0:0:
256,192,54725,1,8,0:0:0:0:
256,192,54891,1,0,0:0:0:0:
256,192,55057,1,8,0:0:0:0:
256,192,55140,1,0,0:0:0:0:
256,192,55222,1,8,0:0:0:0:
256,192,55388,1,12,0:0:0:0:
256,192,55637,1,0,0:0:0:0:
256,192,55720,1,8,0:0:0:0:
256,192,55885,1,0,0:0:0:0:
256,192,55968,1,0,0:0:0:0:
256,192,56051,1,8,0:0:0:0:
256,192,56217,1,0,0:0:0:0:
256,192,56383,1,8,0:0:0:0:
256,192,56465,1,8,0:0:0:0:
256,192,56548,1,0,0:0:0:0:
256,192,56714,1,12,0:0:0:0:
256,192,57211,1,12,0:0:0:0:
256,192,57709,1,8,0:0:0:0:
256,192,57874,1,0,0:0:0:0:
256,192,58040,1,12,0:0:0:0:
256,192,58537,1,12,0:0:0:0:
256,192,59035,1,4,0:0:0:0:
256,192,59366,1,12,0:0:0:0:
256,192,59532,1,0,0:0:0:0:
256,192,59698,1,8,0:0:0:0:
256,192,59863,1,8,0:0:0:0:
256,192,59946,1,0,0:0:0:0:
256,192,60029,1,8,0:0:0:0:
256,192,60195,1,0,0:0:0:0:
256,192,60278,1,8,0:0:0:0:
256,192,60361,1,0,0:0:0:0:
256,192,60526,1,0,0:0:0:0:
256,192,60609,1,0,0:0:0:0:
256,192,60692,1,8,0:0:0:0:
256,192,60858,1,8,0:0:0:0:
256,192,60941,1,8,0:0:0:0:
256,192,61023,1,0,0:0:0:0:
256,192,61189,1,8,0:0:0:0:
256,192,61272,1,8,0:0:0:0:
256,192,61355,1,0,0:0:0:0:
256,192,61521,1,8,0:0:0:0:
256,192,61686,1,8,0:0:0:0:
256,192,61852,1,0,0:0:0:0:
256,192,61935,1,0,0:0:0:0:
256,192,62018,1,8,0:0:0:0:
256,192,62184,1,0,0:0:0:0:
256,192,62349,1,8,0:0:0:0:
256,192,62515,1,8,0:0:0:0:
256,192,62598,1,0,0:0:0:0:
256,192,62681,1,8,0:0:0:0:
256,192,62847,1,0,0:0:0:0:
256,192,63012,1,8,0:0:0:0:
256,192,63178,1,0,0:0:0:0:
256,192,63344,1,12,0:0:0:0:
256,192,63593,1,12,0:0:0:0:
256,192,63841,1,12,0:0:0:0:
256,192,64007,1,0,0:0:0:0:
256,192,64173,1,8,0:0:0:0:
256,192,64338,1,0,0:0:0:0:
256,192,64504,1,0,0:0:0:0:
256,192,64670,1,12,0:0:0:0:
256,192,64836,1,0,0:0:0:0:
256,192,65001,1,8,0:0:0:0:
256,192,65167,1,0,0:0:0:0:
256,192,65250,1,0,0:0:0:0:
256,192,65333,1,8,0:0:0:0:
256,192,65499,1,0,0:0:0:0:
256,192,65664,1,8,0:0:0:0:
256,192,65747,1,0,0:0:0:0:
256,192,65830,1,8,0:0:0:0:
256,192,65996,1,12,0:0:0:0:
256,192,66162,1,0,0:0:0:0:
256,192,66244,1,8,0:0:0:0:
256,192,66327,1,0,0:0:0:0:
256,192,66493,1,0,0:0:0:0:
256,192,66576,1,0,0:0:0:0:
256,192,66659,1,8,0:0:0:0:
256,192,66742,1,8,0:0:0:0:
256,192,66825,1,0,0:0:0:0:
256,192,66907,1,0,0:0:0:0:
256,192,66990,1,8,0:0:0:0:
256,192,67073,1,0,0:0:0:0:
256,192,67156,1,8,0:0:0:0:
256,192,67322,1,12,0:0:0:0:
256,192,67653,1,12,0:0:0:0:
256,192,67819,1,12,0:0:0:0:
256,192,68151,1,0,0:0:0:0:
256,192,68316,1,0,0:0:0:0:
256,192,68482,1,0,0:0:0:0:
256,192,68648,1,12,0:0:0:0:
256,192,69145,1,12,0:0:0:0:
256,192,69642,1,4,0:0:0:0:
256,192,69974,8,0,71134,0:0:0:0:
256,192,71300,5,12,0:0:0:0:
256,192,71631,1,0,0:0:0:0:
256,192,71797,1,0,0:0:0:0:
256,192,71963,1,8,0:0:0:0:
256,192,72128,1,8,0:0:0:0:
256,192,72211,1,8,0:0:0:0:
256,192,72294,1,0,0:0:0:0:
256,192,72460,1,0,0:0:0:0:
256,192,72626,1,8,0:0:0:0:
256,192,72791,1,0,0:0:0:0:
256,192,72957,1,8,0:0:0:0:
256,192,73123,1,0,0:0:0:0:
256,192,73289,1,8,0:0:0:0:
256,192,73454,1,8,0:0:0:0:
256,192,73620,1,0,0:0:0:0:
256,192,73786,1,0,0:0:0:0:
256,192,73869,1,0,0:0:0:0:
256,192,73952,1,8,0:0:0:0:
256,192,74283,1,8,0:0:0:0:
256,192,74449,1,0,0:0:0:0:
256,192,74615,1,8,0:0:0:0:
256,192,74780,1,8,0:0:0:0:
256,192,74863,1,8,0:0:0:0:
256,192,74946,1,0,0:0:0:0:
256,192,75112,1,8,0:0:0:0:
256,192,75443,1,0,0:0:0:0:
256,192,75609,1,8,0:0:0:0:
256,192,75775,1,0,0:0:0:0:
256,192,75941,1,8,0:0:0:0:
256,192,76106,1,8,0:0:0:0:
256,192,76272,1,0,0:0:0:0:
256,192,76438,1,0,0:0:0:0:
256,192,76604,1,12,0:0:0:0:
256,192,76769,1,0,0:0:0:0:
256,192,76935,1,8,0:0:0:0:
256,192,77101,1,0,0:0:0:0:
256,192,77267,1,8,0:0:0:0:
256,192,77432,1,8,0:0:0:0:
256,192,77515,1,8,0:0:0:0:
256,192,77598,1,0,0:0:0:0:
256,192,77764,1,0,0:0:0:0:
256,192,77930,1,8,0:0:0:0:
256,192,78095,1,0,0:0:0:0:
256,192,78261,1,8,0:0:0:0:
256,192,78427,1,8,0:0:0:0:
256,192,78593,1,0,0:0:0:0:
256,192,78758,1,0,0:0:0:0:
256,192,78924,1,8,0:0:0:0:
256,192,79090,1,0,0:0:0:0:
256,192,79256,1,12,0:0:0:0:
256,192,79421,1,0,0:0:0:0:
256,192,79587,1,0,0:0:0:0:
256,192,79670,1,0,0:0:0:0:
256,192,79753,1,8,0:0:0:0:
256,192,79919,1,8,0:0:0:0:
256,192,80001,1,0,0:0:0:0:
256,192,80084,1,8,0:0:0:0:
256,192,80167,1,0,0:0:0:0:
256,192,80250,1,8,0:0:0:0:
256,192,80333,1,8,0:0:0:0:
256,192,80416,1,0,0:0:0:0:
256,192,80582,1,12,0:0:0:0:
256,192,80747,1,12,0:0:0:0:
256,192,80913,1,4,0:0:0:0:
256,192,81079,1,12,0:0:0:0:
256,192,81244,1,12,0:0:0:0:
256,192,81576,1,0,0:0:0:0:
256,192,81631,1,0,0:0:0:0:
256,192,81686,1,0,0:0:0:0:
256,192,81742,1,0,0:0:0:0:
256,192,81907,1,12,0:0:0:0:
256,192,82073,1,0,0:0:0:0:
256,192,82239,1,8,0:0:0:0:
256,192,82322,1,0,0:0:0:0:
256,192,82405,1,8,0:0:0:0:
256,192,82570,1,0,0:0:0:0:
256,192,82653,1,0,0:0:0:0:
256,192,82736,1,8,0:0:0:0:
256,192,82819,1,8,0:0:0:0:
256,192,82902,1,0,0:0:0:0:
256,192,83068,1,8,0:0:0:0:
256,192,83151,1,0,0:0:0:0:
256,192,83233,1,0,0:0:0:0:
256,192,83316,1,0,0:0:0:0:
256,192,83399,1,8,0:0:0:0:
256,192,83565,1,8,0:0:0:0:
256,192,83648,1,0,0:0:0:0:
256,192,83731,1,8,0:0:0:0:
256,192,83896,1,0,0:0:0:0:
256,192,83979,1,0,0:0:0:0:
256,192,84062,1,8,0:0:0:0:
256,192,84145,1,0,0:0:0:0:
256,192,84228,1,8,0:0:0:0:
256,192,84394,1,0,0:0:0:0:
256,192,84477,1,8,0:0:0:0:
256,192,84559,1,0,0:0:0:0:
256,192,84725,1,0,0:0:0:0:
256,192,84808,1,0,0:0:0:0:
256,192,84891,1,8,0:0:0:0:
256,192,85057,1,0,0:0:0:0:
256,192,85222,1,8,0:0:0:0:
256,192,85305,1,8,0:0:0:0:
256,192,85388,1,0,0:0:0:0:
256,192,85471,1,0,0:0:0:0:
256,192,85554,1,8,0:0:0:0:
256,192,85720,1,8,0:0:0:0:
256,192,85803,1,8,0:0:0:0:
256,192,85885,1,0,0:0:0:0:
256,192,86051,1,0,0:0:0:0:
256,192,86134,1,0,0:0:0:0:
256,192,86217,1,8,0:0:0:0:
256,192,86300,1,0,0:0:0:0:
256,192,86383,1,8,0:0:0:0:
256,192,86548,1,0,0:0:0:0:
256,192,86631,1,8,0:0:0:0:
256,192,86714,1,0,0:0:0:0:
256,192,86880,1,8,0:0:0:0:
256,192,87046,1,0,0:0:0:0:
256,192,87211,1,8,0:0:0:0:
256,192,87377,1,0,0:0:0:0:
256,192,87543,1,8,0:0:0:0:
256,192,87626,1,0,0:0:0:0:
256,192,87709,1,8,0:0:0:0:
256,192,87874,1,8,0:0:0:0:
256,192,87957,1,8,0:0:0:0:
256,192,88040,1,0,0:0:0:0:
256,192,88123,1,0,0:0:0:0:
256,192,88206,1,8,0:0:0:0:
256,192,88372,1,0,0:0:0:0:
256,192,88454,1,0,0:0:0:0:
256,192,88537,1,8,0:0:0:0:
256,192,88620,1,8,0:0:0:0:
256,192,88703,1,0,0:0:0:0:
256,192,88869,1,8,0:0:0:0:
256,192,88952,1,0,0:0:0:0:
256,192,89035,1,8,0:0:0:0:
256,192,89200,1,0,0:0:0:0:
256,192,89283,1,0,0:0:0:0:
256,192,89366,1,8,0:0:0:0:
256,192,89449,1,0,0:0:0:0:
256,192,89532,1,8,0:0:0:0:
256,192,89698,1,0,0:0:0:0:
256,192,89863,1,12,0:0:0:0:
256,192,90029,1,0,0:0:0:0:
256,192,90112,1,0,0:0:0:0:
256,192,90195,1,8,0:0:0:0:
256,192,90361,1,8,0:0:0:0:
256,192,90526,1,8,0:0:0:0:
256,192,90609,1,8,0:0:0:0:
256,192,90692,1,0,0:0:0:0:
256,192,90775,1,0,0:0:0:0:
256,192,90858,1,8,0:0:0:0:
256,192,91023,1,0,0:0:0:0:
256,192,91189,1,12,0:0:0:0:
256,192,91355,1,12,0:0:0:0:
256,192,91521,1,4,0:0:0:0:
256,192,91686,1,12,0:0:0:0:
256,192,91852,1,12,0:0:0:0:
256,192,92184,1,4,0:0:0:0:
256,192,92515,1,12,0:0:0:0:
256,192,92681,1,0,0:0:0:0:
256,192,92847,1,8,0:0:0:0:
256,192,93012,1,0,0:0:0:0:
256,192,93095,1,8,0:0:0:0:
256,192,93178,1,8,0:0:0:0:
256,192,93344,1,0,0:0:0:0:
256,192,93510,1,8,0:0:0:0:
256,192,93593,1,0,0:0:0:0:
256,192,93675,1,8,0:0:0:0:
256,192,93841,1,0,0:0:0:0:
256,192,94007,1,8,0:0:0:0:
256,192,94090,1,8,0:0:0:0:
256,192,94173,1,0,0:0:0:0:
256,192,94338,1,8,0:0:0:0:
256,192,94504,1,0,0:0:0:0:
256,192,94670,1,8,0:0:0:0:
256,192,94753,1,0,0:0:0:0:
256,192,94836,1,8,0:0:0:0:
256,192,95001,1,0,0:0:0:0:
256,192,95167,1,8,0:0:0:0:
256,192,95333,1,0,0:0:0:0:
256,192,95499,1,8,0:0:0:0:
256,192,95664,1,0,0:0:0:0:
256,192,95747,1,8,0:0:0:0:
256,192,95830,1,8,0:0:0:0:
256,192,95996,1,0,0:0:0:0:
256,192,96162,1,8,0:0:0:0:
256,192,96244,1,0,0:0:0:0:
256,192,96327,1,8,0:0:0:0:
256,192,96493,1,0,0:0:0:0:
256,192,96659,1,0,0:0:0:0:
256,192,96742,1,0,0:0:0:0:
256,192,96825,1,8,0:0:0:0:
256,192,96990,1,8,0:0:0:0:
256,192,97156,1,0,0:0:0:0:
256,192,97322,1,8,0:0:0:0:
256,192,97405,1,0,0:0:0:0:
256,192,97488,1,8,0:0:0:0:
256,192,97653,1,0,0:0:0:0:
256,192,97819,1,8,0:0:0:0:
256,192,97985,1,0,0:0:0:0:
256,192,98151,1,8,0:0:0:0:
256,192,98316,1,0,0:0:0:0:
256,192,98399,1,8,0:0:0:0:
256,192,98482,1,8,0:0:0:0:
256,192,98648,1,0,0:0:0:0:
256,192,98814,1,8,0:0:0:0:
256,192,98979,1,8,0:0:0:0:
256,192,99062,1,0,0:0:0:0:
256,192,99145,1,8,0:0:0:0:
256,192,99311,1,8,0:0:0:0:
256,192,99394,1,8,0:0:0:0:
256,192,99477,1,0,0:0:0:0:
256,192,99642,1,8,0:0:0:0:
256,192,99725,1,8,0:0:0:0:
256,192,99808,1,0,0:0:0:0:
256,192,99974,1,8,0:0:0:0:
256,192,100057,1,0,0:0:0:0:
256,192,100140,1,8,0:0:0:0:
256,192,100222,1,8,0:0:0:0:
256,192,100305,1,0,0:0:0:0:
256,192,100471,1,12,0:0:0:0:
256,192,100637,1,0,0:0:0:0:
256,192,100803,1,8,0:0:0:0:
256,192,100885,1,8,0:0:0:0:
256,192,100968,1,0,0:0:0:0:
256,192,101134,1,8,0:0:0:0:
256,192,101217,1,0,0:0:0:0:
256,192,101300,1,8,0:0:0:0:
256,192,101383,1,0,0:0:0:0:
256,192,101465,1,8,0:0:0:0:
256,192,101548,1,8,0:0:0:0:
256,192,101631,1,0,0:0:0:0:
256,192,101797,1,12,0:0:0:0:
256,192,101963,1,0,0:0:0:0:
256,192,102128,1,8,0:0:0:0:
256,192,102294,1,0,0:0:0:0:
256,192,102460,1,8,0:0:0:0:
256,192,102791,1,4,0:0:0:0:
