osu file format v14

[General]
AudioFilename: audio.mp3
AudioLeadIn: 0
PreviewTime: 34229
Countdown: 0
SampleSet: Soft
StackLeniency: 0.4
Mode: 0
LetterboxInBreaks: 0
WidescreenStoryboard: 1

[Editor]
DistanceSpacing: 1.6
BeatDivisor: 4
GridSize: 4
TimelineZoom: 2.499999

[Metadata]
Title:Mono Logic
TitleUnicode:Mono Logic
Artist:DJ NAGAI feat. Ayumi Nomiya
ArtistUnicode:DJ NAGAI feat. Ayumi Nomiya
Creator:Narcissu
Version:vickcentry's Insane
Source:jubeat saucer fulfill
Tags:ALiCE'S EMOTION HARDCORE TANO*C yoshikazu akai hito redalice Lavender Vick Kibbleru Koiyuki Gaia chucentry Minakami Yuki Garden
BeatmapID:1215127
BeatmapSetID:549745

[Difficulty]
HPDrainRate:6
CircleSize:4
OverallDifficulty:7
ApproachRate:9
SliderMultiplier:1.6
SliderTickRate:1

[Events]
//Background and Video events
0,0,"BG.jpg",0,0
//Break Periods
2,56768,67258
//Storyboard Layer 0 (Background)
//Storyboard Layer 1 (Fail)
//Storyboard Layer 2 (Pass)
//Storyboard Layer 3 (Foreground)
//Storyboard Sound Samples

[TimingPoints]
762,322.58064516129,4,2,1,60,1,0
762,-100,4,2,1,60,0,0
3020,-133.333333333333,4,2,1,75,0,0
3342,-100,4,2,1,60,0,0
11084,-100,4,2,1,50,0,0
12052,-100,4,2,1,60,0,0
12858,-100,4,2,1,75,0,0
13181,-100,4,2,1,50,0,0
13665,-125,4,2,1,60,0,0
17858,-100,4,2,1,75,0,0
18181,-100,4,2,1,60,0,0
18342,-125,4,2,1,60,0,0
23987,-125,4,2,1,50,0,0
28826,-100,4,2,1,50,0,0
29149,-100,4,2,1,60,0,0
33020,-100,4,2,1,75,0,0
34310,-100,4,2,1,75,0,1
44149,-100,4,2,1,60,0,0
44632,-100,4,2,1,75,0,1
54794,-133.333333333333,4,2,1,60,0,0
55923,-133.333333333333,4,2,1,75,0,0
57052,-133.333333333333,4,2,1,40,0,0
57536,-133.333333333333,4,2,1,50,0,0
67858,-133.333333333333,4,2,1,50,0,0
73020,-100,4,2,1,60,0,0
76891,-100,4,2,1,75,0,0
78181,-100,4,2,1,50,0,0
80439,-100,4,2,1,75,0,0
80761,-100,4,2,1,75,0,1
88020,-100,4,2,1,60,0,0
88503,-100,4,2,1,75,0,1
98665,-133.333333333333,4,2,1,60,0,0
99794,-133.333333333333,4,2,1,75,0,0
101084,-133.333333333333,4,2,1,50,0,0
101407,-100,4,2,1,60,0,0
109149,-100,4,2,1,50,0,0
110116,-100,4,2,1,60,0,0
110923,-100,4,2,1,75,0,0
111245,-100,4,2,1,50,0,0
111729,-133.333333333333,4,2,1,40,0,0
113020,-133.333333333333,4,2,1,40,0,0
113503,-133.333333333333,4,2,1,40,0,0
113987,-142.857142857143,4,2,1,40,0,0
115600,-142.857142857143,4,2,1,40,0,0
115842,-142.857142857143,4,2,1,40,0,0
116891,-142.857142857143,4,2,1,30,0,0
117536,-142.857142857143,4,2,1,20,0,0
118181,-142.857142857143,4,2,1,5,0,0

[Colours]
Combo1 : 255,128,255
Combo2 : 128,255,255
Combo3 : 255,255,128
Combo4 : 128,128,255

[HitObjects]
69,151,762,6,0,L|168:146,1,80,6|2,1:2|0:0,0:0:0:0:
238,112,1084,1,10,0:0:0:0:
238,112,1245,1,2,0:0:0:0:
200,252,1407,1,6,1:2:0:0:
362,198,1568,2,0,L|280:194,1,80,2|10,0:0|0:0,0:0:0:0:
200,252,1891,5,6,0:0:0:0:
238,112,2213,1,6,0:0:0:0:
200,252,2374,1,0,3:2:0:0:
148,146,2536,1,0,3:2:0:0:
148,146,2616,1,0,3:2:0:0:
148,146,2697,1,0,3:2:0:0:
331,285,3020,6,0,L|422:283,1,90.0000034332277,8|0,0:0|0:0,0:0:0:0:
464,262,3342,6,0,P|468:217|452:177,1,80,2|2,1:2|0:0,0:0:0:0:
377,129,3665,2,0,L|287:131,1,80,10|2,1:2|0:0,0:0:0:0:
213,186,3987,1,2,1:2:0:0:
249,44,4149,1,2,0:0:0:0:
99,99,4310,2,0,L|189:101,1,80,10|2,1:2|0:0,0:0:0:0:
483,162,4794,5,2,0:0:0:0:
342,180,4955,1,10,1:2:0:0:
446,83,5116,1,2,0:0:0:0:
419,223,5278,1,2,1:2:0:0:
358,93,5439,1,2,0:0:0:0:
483,162,5600,1,10,1:2:0:0:
342,180,5761,2,0,L|255:177,1,80,2|0,0:0|1:0,0:0:0:0:
173,139,6084,5,2,0:0:0:0:
173,139,6245,2,0,L|93:141,1,80,10|2,1:2|0:0,0:0:0:0:
249,82,6568,2,0,L|357:85,1,80,2|2,1:2|0:0,0:0:0:0:
424,127,6891,1,10,1:2:0:0:
343,192,7052,2,0,P|338:234|351:277,1,80,2|0,0:0|1:0,0:0:0:0:
421,343,7374,5,2,0:0:0:0:
454,243,7536,1,10,1:2:0:0:
316,357,7697,1,2,0:0:0:0:
373,268,7859,1,2,1:2:0:0:
510,319,8020,1,2,0:0:0:0:
289,277,8181,1,10,1:2:0:0:
454,243,8342,1,2,0:0:0:0:
288,178,8503,6,0,P|271:142|270:102,1,80,4|2,1:2|1:2,0:0:0:0:
341,37,8826,1,10,1:2:0:0:
341,37,8987,1,2,1:2:0:0:
394,116,9149,2,0,L|479:113,2,80,10|2|10,1:2|1:2|1:2,0:0:0:0:
288,178,9632,1,2,1:2:0:0:
377,251,9794,6,0,P|385:302|375:336,1,80,8|2,1:2|1:2,0:0:0:0:
277,367,10116,1,10,1:2:0:0:
209,224,10278,1,2,1:2:0:0:
192,318,10439,1,10,1:2:0:0:
288,178,10600,1,2,1:2:0:0:
92,261,10761,1,2,3:2:0:0:
192,318,10923,1,2,3:2:0:0:
129,163,11084,6,0,P|123:121|140:80,1,80,2|2,1:2|0:0,0:0:0:0:
225,33,11407,1,2,0:0:0:0:
311,91,11568,2,0,L|396:88,1,80,2|2,1:2|0:0,0:0:0:0:
494,159,11891,1,2,0:0:0:0:
356,220,12052,1,2,3:2:0:0:
316,217,12132,1,2,3:2:0:0:
275,213,12213,1,2,3:2:0:0:
234,210,12294,1,0,0:0:0:0:
194,207,12374,1,4,1:2:0:0:
379,307,12697,5,4,1:2:0:0:
310,110,12858,1,4,1:2:0:0:
310,110,13181,2,0,B|237:105|194:145|194:145|135:124|167:59,1,200,4|0,1:2|0:0,0:0:0:0:
77,27,13665,6,0,P|84:62|76:96,1,64,6|0,0:0|0:0,0:0:0:0:
21,140,13987,2,0,P|15:171|22:202,1,64,10|2,0:0|0:0,0:0:0:0:
85,247,14310,1,0,0:0:0:0:
85,247,14471,1,2,0:0:0:0:
153,211,14632,2,0,L|241:209,1,64,8|2,0:0|0:0,0:0:0:0:
284,246,14955,6,0,L|347:247,2,64,0|2|10,0:0|0:0|0:0,0:0:0:0:
209,267,15439,1,0,0:0:0:0:
153,211,15600,2,0,P|145:176|150:142,1,64,2|0,0:0|0:0,0:0:0:0:
225,142,15923,2,0,P|233:107|228:73,1,64,10|0,0:0|0:0,0:0:0:0:
165,32,16245,6,0,L|89:33,2,64,2|0|10,0:0|0:0|0:0,0:0:0:0:
238,7,16729,1,2,0:0:0:0:
292,61,16891,2,0,L|289:132,1,64,0|2,0:0|0:0,0:0:0:0:
220,157,17213,2,0,L|223:228,1,64,8|2,0:0|0:0,0:0:0:0:
320,339,17697,5,0,1:0:0:0:
320,339,17778,1,0,1:0:0:0:
320,339,17858,2,0,B|312:282|312:282|329:234|329:234|319:180,1,160,4|2,1:2|0:0,0:0:0:0:
274,120,18342,1,0,1:0:0:0:
339,79,18503,2,0,L|404:77,1,64,0|8,1:0|1:2,0:0:0:0:
274,120,18826,6,0,L|209:118,1,64,6|0,0:0|0:0,0:0:0:0:
146,161,19149,2,0,L|82:162,2,64,8|0|2,0:0|0:0|0:0,0:0:0:0:
213,197,19632,1,2,0:0:0:0:
166,258,19794,2,0,P|162:292|170:325,1,64,8|2,0:0|0:0,0:0:0:0:
236,356,20116,6,0,L|308:354,1,64,2|0,0:0|0:0,0:0:0:0:
435,298,20439,2,0,L|363:296,1,64,0|0,0:0|0:0,0:0:0:0:
304,258,20761,1,2,0:0:0:0:
304,258,20923,1,0,0:0:0:0:
359,204,21084,2,0,P|366:169|357:133,1,64,10|0,0:0|0:0,0:0:0:0:
299,85,21407,5,0,1:0:0:0:
441,135,21568,1,0,1:0:0:0:
253,168,21729,2,0,L|182:166,1,64,0|0,1:0|0:0,0:0:0:0:
46,242,22052,2,0,L|117:240,1,64,8|0,0:0|0:0,0:0:0:0:
250,306,22374,2,0,L|179:304,1,64,0|8,1:0|0:0,0:0:0:0:
334,352,22697,5,4,0:0:0:0:
410,318,22858,1,0,0:0:0:0:
434,237,23020,1,0,0:0:0:0:
381,172,23181,1,0,0:0:0:0:
298,162,23342,1,0,0:0:0:0:
225,203,23503,1,0,0:0:0:0:
145,177,23665,1,0,0:0:0:0:
111,100,23826,1,0,0:0:0:0:
162,34,23987,6,0,P|201:29|233:31,1,64,4|0,0:0|0:0,0:0:0:0:
434,237,24632,2,0,L|502:236,2,64,0|0|0,3:0|1:0|1:0,0:0:0:0:
359,275,25116,6,0,L|279:271,1,64,4|0,0:0|0:0,0:0:0:0:
40,172,25761,1,0,0:0:0:0:
77,97,25923,2,0,P|113:132|102:228,1,128,0|0,3:0|1:0,0:0:0:0:
63,271,26407,1,0,0:0:0:0:
128,322,26568,6,0,L|208:320,1,64,4|0,0:0|0:0,0:0:0:0:
267,285,26891,1,0,0:0:0:0:
204,230,27052,2,0,P|182:165|212:103,1,128,0|0,0:0|0:0,0:0:0:0:
358,51,27697,5,4,0:0:0:0:
280,170,27858,1,4,0:0:0:0:
461,133,28181,2,0,L|392:130,1,64,0|0,0:0|0:0,0:0:0:0:
131,46,28826,6,0,P|189:59|201:118,1,120,0|0,0:0|0:0,0:0:0:0:
157,168,29149,6,0,L|153:255,1,80,12|0,0:0|0:0,0:0:0:0:
266,358,29471,2,0,L|262:278,1,80,8|0,0:0|0:0,0:0:0:0:
279,175,29794,2,0,P|321:163|364:167,1,80,8|0,0:0|0:0,0:0:0:0:
452,204,30116,1,8,0:0:0:0:
406,297,30278,1,8,0:0:0:0:
359,131,30439,6,0,B|399:95|399:95|516:107,2,160,12|8|12,0:0|0:0|0:0,0:0:0:0:
385,231,31245,1,0,0:0:0:0:
310,303,31407,1,0,3:0:0:0:
277,280,31487,1,0,3:0:0:0:
256,245,31568,1,0,3:0:0:0:
251,205,31649,1,0,3:0:0:0:
258,166,31729,5,0,1:0:0:0:
335,37,31971,1,0,1:0:0:0:
413,166,32213,1,0,1:0:0:0:
234,63,32374,5,8,1:2:0:0:
437,60,32616,1,0,1:0:0:0:
335,237,32858,1,0,1:0:0:0:
333,0,33020,5,4,0:0:0:0:
458,138,33342,5,4,0:0:0:0:
186,74,33503,1,4,0:0:0:0:
186,74,34310,6,0,L|182:156,1,80,6|0,1:2|0:0,0:0:0:0:
222,249,34632,1,10,1:2:0:0:
302,182,34794,2,0,P|346:173|405:191,1,80,2|2,0:0|1:2,0:0:0:0:
458,247,35116,1,2,0:0:0:0:
458,247,35197,1,0,0:0:0:0:
458,247,35278,1,10,1:2:0:0:
410,99,35439,1,0,0:0:0:0:
347,270,35600,6,0,L|356:356,1,80,2|0,1:2|0:0,0:0:0:0:
216,251,35923,2,0,L|224:171,1,80,10|0,1:2|0:0,0:0:0:0:
229,37,36245,1,2,1:2:0:0:
302,182,36407,1,2,0:0:0:0:
150,97,36568,1,10,1:2:0:0:
348,106,36729,1,2,0:0:0:0:
348,106,36810,1,0,0:0:0:0:
348,106,36891,6,0,L|436:101,1,80,2|0,1:2|0:0,0:0:0:0:
512,216,37213,2,0,L|424:211,1,80,10|0,1:2|0:0,0:0:0:0:
302,182,37536,1,2,1:2:0:0:
302,325,37697,1,2,0:2:0:0:
218,209,37858,1,10,1:2:0:0:
353,253,38020,1,2,0:2:0:0:
218,297,38181,6,0,P|171:303|116:290,1,80,2|0,1:2|0:0,0:0:0:0:
55,236,38503,1,10,1:2:0:0:
112,148,38665,2,0,L|106:58,2,80,2|2|2,0:2|1:2|0:2,0:0:0:0:
55,236,39149,1,10,1:2:0:0:
221,181,39310,1,2,0:0:0:0:
156,262,39471,6,0,P|152:306|171:348,1,80,4|0,1:2|0:0,0:0:0:0:
265,366,39794,2,0,L|351:362,1,80,10|2,1:2|0:0,0:0:0:0:
430,303,40116,1,2,1:2:0:0:
347,175,40278,1,2,0:0:0:0:
307,271,40439,1,10,1:2:0:0:
454,189,40600,1,2,0:0:0:0:
307,271,40761,6,0,L|203:266,1,80,2|0,1:2|0:0,0:0:0:0:
114,206,41084,1,10,1:2:0:0:
178,360,41245,1,2,0:0:0:0:
18,307,41407,2,0,L|122:302,1,80,2|2,1:2|0:0,0:0:0:0:
210,247,41729,1,2,3:2:0:0:
178,360,41891,1,2,3:2:0:0:
114,206,42052,6,0,P|137:166|175:146,1,80,4|0,0:0|0:0,0:0:0:0:
320,208,42374,2,0,P|280:185|260:147,1,80,4|0,0:0|0:0,0:0:0:0:
294,16,42697,2,0,P|271:56|233:76,1,80,4|0,0:0|0:0,0:0:0:0:
120,44,43020,1,4,0:0:0:0:
81,54,43100,1,0,0:0:0:0:
52,80,43181,1,0,0:0:0:0:
37,117,43261,1,0,0:0:0:0:
42,157,43342,5,4,0:0:0:0:
216,270,43665,1,4,0:0:0:0:
199,167,43826,1,4,0:0:0:0:
148,338,44149,6,0,P|232:367|298:319,1,160,4|0,0:0|0:0,0:0:0:0:
358,182,44632,6,0,P|348:222|366:273,1,80,6|0,1:2|0:0,0:0:0:0:
446,221,44955,1,10,1:2:0:0:
378,97,45116,2,0,L|294:99,1,80,0|2,0:0|1:2,0:0:0:0:
194,159,45439,1,2,0:2:0:0:
194,159,45520,1,0,0:0:0:0:
194,159,45600,1,10,1:2:0:0:
235,11,45761,1,2,0:0:0:0:
45,80,45923,6,0,L|136:83,1,80,2|0,1:2|0:0,0:0:0:0:
273,156,46245,2,0,L|182:159,1,80,10|0,1:2|0:0,0:0:0:0:
110,207,46568,1,2,1:2:0:0:
201,83,46729,1,2,0:2:0:0:
216,296,46891,1,10,1:2:0:0:
273,156,47052,1,2,0:2:0:0:
273,156,47132,1,0,0:0:0:0:
273,156,47213,6,0,P|228:152|187:161,1,80,2|0,1:2|0:0,0:0:0:0:
327,232,47536,2,0,P|372:236|413:227,1,80,10|0,1:2|0:0,0:0:0:0:
484,112,47858,1,2,1:2:0:0:
351,158,48019,1,2,0:2:0:0:
487,200,48181,1,10,1:2:0:0:
401,85,48342,1,2,0:2:0:0:
405,229,48503,6,0,P|401:277|415:313,1,80,2|0,1:2|0:0,0:0:0:0:
340,371,48826,1,10,1:2:0:0:
251,333,48987,2,0,L|166:337,2,80,2|2|2,0:2|1:2|0:2,0:0:0:0:
340,371,49471,1,2,3:2:0:0:
287,242,49632,1,2,3:2:0:0:
287,242,49713,1,0,0:0:0:0:
287,242,49794,6,0,P|276:198|286:156,1,80,6|0,1:2|0:0,0:0:0:0:
368,123,50116,2,0,P|374:83|363:45,1,80,10|0,1:2|0:0,0:0:0:0:
237,0,50439,1,2,1:2:0:0:
285,90,50600,1,2,0:2:0:0:
99,92,50761,1,10,0:0:0:0:
147,2,50922,1,10,0:0:0:0:
193,170,51084,6,0,P|196:213|179:249,1,80,2|2,1:2|0:2,0:0:0:0:
11,197,51407,2,0,P|54:194|90:211,1,80,10|2,2:2|0:0,0:0:0:0:
89,375,51729,2,0,P|86:332|103:296,1,80,2|2,2:0|0:0,0:0:0:0:
181,245,52052,2,0,L|291:242,1,80,10|10,0:0|0:0,0:0:0:0:
366,188,52374,5,8,0:0:0:0:
326,323,52536,1,8,0:0:0:0:
292,112,52697,1,8,0:0:0:0:
429,279,52858,1,8,0:0:0:0:
429,279,52939,1,0,0:0:0:0:
429,279,53020,1,8,0:0:0:0:
260,242,53181,1,8,0:0:0:0:
451,160,53342,1,8,0:0:0:0:
260,242,53503,1,8,0:0:0:0:
429,279,53665,5,0,0:0:0:0:
326,167,53826,1,8,0:0:0:0:
197,326,53987,1,0,0:0:0:0:
331,288,54149,1,8,0:0:0:0:
187,191,54310,1,0,0:0:0:0:
280,363,54471,1,8,0:0:0:0:
383,213,54632,1,0,0:0:0:0:
116,259,54794,6,0,B|75:215|97:147|97:147|132:86|101:18,1,240.000009155274,4|0,0:0|0:0,0:0:0:0:
187,191,55923,5,4,0:0:0:0:
4,91,56084,1,4,0:0:0:0:
218,81,56407,5,4,0:0:0:0:
118,264,56568,1,4,0:0:0:0:
118,264,67858,6,0,L|200:258,1,60.0000022888184,4|0,0:0|0:0,0:0:0:0:
232,211,68181,1,0,0:0:0:0:
232,211,68342,2,0,L|363:215,2,120.000004577637,0|0|0,0:0|0:0|0:0,0:0:0:0:
166,179,69149,6,0,P|159:150|164:116,1,60.0000022888184,2|0,0:0|0:0,0:0:0:0:
210,67,69471,1,0,0:0:0:0:
210,67,69794,2,0,L|356:62,1,120.000004577637,2|0,0:0|0:0,0:0:0:0:
452,140,70278,1,0,0:0:0:0:
452,140,70439,6,0,L|365:137,1,60.0000022888184,2|0,0:0|0:0,0:0:0:0:
334,181,70761,1,0,0:0:0:0:
334,181,70923,2,0,L|207:184,1,120.000004577637,2|0,0:0|0:0,0:0:0:0:
97,268,71568,5,2,0:0:0:0:
97,268,71649,1,2,0:0:0:0:
97,268,71729,2,0,P|161:247|222:267,1,120.000004577637,2|0,0:0|0:0,0:0:0:0:
247,322,72213,2,0,L|257:188,1,120.000004577637,2|0,0:0|0:0,0:0:0:0:
336,127,72697,2,0,L|340:196,1,60.0000022888184,8|0,0:0|0:0,0:0:0:0:
333,282,73020,5,12,0:0:0:0:
461,187,73342,1,8,0:0:0:0:
424,344,73665,1,8,0:0:0:0:
364,194,73987,5,8,0:0:0:0:
288,133,74149,1,8,0:0:0:0:
214,194,74310,1,12,0:0:0:0:
56,77,74632,5,8,0:0:0:0:
93,267,74955,1,8,0:0:0:0:
164,136,75278,1,0,3:0:0:0:
203,138,75358,1,0,3:0:0:0:
243,140,75439,1,0,3:0:0:0:
283,142,75519,1,0,0:0:0:0:
323,144,75600,6,0,L|450:132,2,120,0|0|0,1:0|1:0|1:0,0:0:0:0:
261,218,76245,2,0,L|134:205,2,120,8|0|0,1:2|1:0|1:0,0:0:0:0:
328,287,76891,1,4,0:0:0:0:
323,144,77213,5,4,0:0:0:0:
328,287,77374,1,4,0:0:0:0:
328,287,78181,5,4,0:0:0:0:
101,108,78665,1,8,0:0:0:0:
472,203,79310,1,0,1:0:0:0:
472,203,79391,1,0,1:0:0:0:
472,203,79471,1,4,0:0:0:0:
262,200,79794,1,0,0:0:0:0:
351,119,79955,1,0,0:0:0:0:
304,297,80278,1,0,0:0:0:0:
304,297,80439,6,0,P|256:288|181:276,1,120,2|0,0:0|0:0,0:0:0:0:
134,211,80761,6,0,L|138:119,1,80,6|0,1:2|0:0,0:0:0:0:
255,16,81084,2,0,L|258:95,1,80,10|0,1:2|0:0,0:0:0:0:
234,213,81407,1,2,1:2:0:0:
378,83,81568,1,2,0:2:0:0:
337,273,81729,1,10,1:2:0:0:
258,95,81891,1,2,0:2:0:0:
427,192,82052,6,0,L|508:188,1,80,2|0,1:2|0:0,0:0:0:0:
337,273,82374,1,10,0:0:0:0:
378,83,82536,1,2,0:2:0:0:
293,156,82697,2,0,L|212:160,1,80,2|2,1:2|0:2,0:0:0:0:
63,236,83020,2,0,L|144:240,1,80,10|2,1:2|0:0,0:0:0:0:
248,276,83342,6,0,P|260:315|250:361,1,80,4|0,1:2|0:0,0:0:0:0:
376,384,83665,2,0,P|370:343|388:299,1,80,10|2,1:2|0:0,0:0:0:0:
489,232,83987,1,2,1:2:0:0:
455,354,84149,1,2,0:0:0:0:
385,181,84310,1,10,1:2:0:0:
383,307,84472,1,2,0:0:0:0:
271,158,84632,6,0,P|224:149|181:156,1,80,2|0,1:2|0:0,0:0:0:0:
21,78,84955,2,0,P|68:87|111:80,1,80,10|2,1:2|0:0,0:0:0:0:
180,18,85278,1,2,1:2:0:0:
117,161,85439,1,2,0:0:0:0:
233,115,85600,1,2,3:2:0:0:
209,269,85761,1,2,3:2:0:0:
279,181,85923,6,0,P|321:175|370:186,1,80,4|0,0:0|0:0,0:0:0:0:
209,269,86245,2,0,P|162:278|118:264,1,80,4|0,0:0|0:0,0:0:0:0:
317,264,86568,2,0,P|326:311|312:355,1,80,4|0,0:0|0:0,0:0:0:0:
171,186,86891,1,8,0:0:0:0:
188,150,86971,1,8,0:0:0:0:
219,126,87052,1,8,0:0:0:0:
258,119,87132,1,8,0:0:0:0:
296,130,87213,5,4,0:0:0:0:
387,371,87536,1,4,0:0:0:0:
413,262,87697,1,4,0:0:0:0:
195,318,88020,2,0,B|141:322|141:322|92:300|92:300|38:303,1,160,4|0,0:0|0:0,0:0:0:0:
0,200,88503,6,0,P|45:207|96:194,1,80,6|0,1:2|0:0,0:0:0:0:
112,93,88826,1,10,1:2:0:0:
207,158,88987,2,0,L|199:264,1,80,0|2,0:0|1:2,0:0:0:0:
245,340,89310,1,2,0:2:0:0:
245,340,89391,1,0,0:0:0:0:
245,340,89471,1,10,1:2:0:0:
120,258,89632,1,2,0:0:0:0:
308,238,89794,6,0,L|393:243,1,80,2|0,1:2|0:0,0:0:0:0:
512,145,90116,2,0,L|427:150,1,80,10|0,1:2|0:0,0:0:0:0:
315,90,90439,1,2,1:2:0:0:
391,30,90600,1,2,0:2:0:0:
236,20,90761,1,10,1:2:0:0:
243,140,90923,1,2,0:2:0:0:
243,140,91003,1,0,0:0:0:0:
243,140,91084,6,0,P|251:187|232:230,1,80,2|0,1:2|0:0,0:0:0:0:
311,338,91407,2,0,P|311:290|337:251,1,80,10|0,1:2|0:0,0:0:0:0:
441,228,91729,1,2,3:2:0:0:
332,67,91891,1,2,3:2:0:0:
326,262,92052,1,10,3:2:0:0:
445,108,92213,1,2,3:2:0:0:
258,162,92374,6,0,L|169:159,1,80,2|0,1:2|0:0,0:0:0:0:
23,91,92697,2,0,L|112:88,1,80,10|2,1:2|0:2,0:0:0:0:
206,43,93020,1,2,1:2:0:0:
99,179,93181,1,2,0:2:0:0:
258,162,93342,1,2,3:2:0:0:
189,321,93503,1,2,3:2:0:0:
189,321,93584,1,0,0:0:0:0:
189,321,93665,6,0,P|145:330|97:318,1,80,6|0,1:2|0:0,0:0:0:0:
252,245,93987,2,0,P|296:236|344:248,1,80,10|0,1:2|0:0,0:0:0:0:
399,330,94310,1,2,1:2:0:0:
446,228,94471,1,2,0:2:0:0:
503,323,94632,1,10,0:0:0:0:
445,185,94794,1,10,0:0:0:0:
399,330,94955,6,0,L|312:327,1,80,2|2,1:2|0:0,0:0:0:0:
252,245,95278,1,2,1:2:0:0:
262,384,95439,1,2,0:0:0:0:
110,312,95600,2,0,L|197:309,1,80,2|2,1:2|0:0,0:0:0:0:
331,247,95923,2,0,L|244:244,1,80,10|10,0:0|0:0,0:0:0:0:
445,185,96245,5,8,0:0:0:0:
399,330,96407,1,8,0:0:0:0:
358,118,96568,1,8,0:0:0:0:
486,273,96729,1,8,0:0:0:0:
486,273,96810,1,0,0:0:0:0:
486,273,96891,1,8,0:0:0:0:
251,244,97052,1,8,0:0:0:0:
445,185,97213,1,8,0:0:0:0:
399,330,97374,1,8,0:0:0:0:
358,118,97536,5,8,0:0:0:0:
323,97,97616,1,8,0:0:0:0:
285,85,97697,1,8,0:0:0:0:
245,82,97777,1,8,0:0:0:0:
206,90,97858,1,8,0:0:0:0:
170,106,97939,1,8,0:0:0:0:
138,130,98020,2,8,P|126:154|124:167,3,40,8|8|8|8,0:0|0:0|0:0|0:0,0:0:0:0:
141,220,98342,2,8,P|136:239|127:256,3,40,8|8|8|8,0:0|0:0|0:0|0:0,0:0:0:0:
36,292,98665,6,0,B|79:377|176:345|176:345|214:291|308:308,1,300.000011444092,4|0,0:0|0:0,0:0:0:0:
296,306,99794,5,4,0:0:0:0:
273,100,99955,1,4,0:0:0:0:
387,32,100278,5,4,0:0:0:0:
365,237,100439,1,4,0:0:0:0:
365,237,101407,6,0,L|279:242,1,80,2|2,1:2|0:0,0:0:0:0:
189,231,101729,2,0,P|174:193|187:136,1,80,10|2,1:2|0:0,0:0:0:0:
204,62,102052,1,2,1:2:0:0:
264,136,102213,1,2,0:0:0:0:
405,70,102374,2,0,L|325:68,1,80,10|2,1:2|0:0,0:0:0:0:
13,115,102858,5,2,0:0:0:0:
181,189,103020,1,10,1:2:0:0:
22,206,103181,1,2,0:0:0:0:
171,98,103342,1,2,1:2:0:0:
107,244,103504,1,2,0:0:0:0:
87,61,103665,1,10,1:2:0:0:
181,189,103826,2,0,P|226:196|266:187,1,80,2|0,0:0|1:0,0:0:0:0:
333,128,104149,5,2,1:2:0:0:
333,128,104310,2,0,L|433:130,1,80,10|2,1:2|0:0,0:0:0:0:
253,73,104632,2,0,L|153:75,1,80,2|2,1:2|0:0,0:0:0:0:
96,133,104955,1,10,1:2:0:0:
163,201,105116,2,0,P|172:236|160:282,1,80,2|0,0:0|1:0,0:0:0:0:
96,133,105439,5,2,0:0:0:0:
278,181,105600,1,10,1:2:0:0:
161,77,105761,1,2,0:0:0:0:
349,76,105922,1,2,1:2:0:0:
163,201,106084,1,2,0:0:0:0:
246,19,106245,1,10,1:2:0:0:
278,181,106407,1,2,0:0:0:0:
161,77,106568,6,0,P|121:81|88:103,1,80,4|2,1:2|1:2,0:0:0:0:
57,194,106891,1,10,1:2:0:0:
57,194,107052,1,2,1:2:0:0:
121,265,107213,2,0,L|124:351,2,80,10|2|10,1:2|1:2|1:2,0:0:0:0:
162,159,107697,1,2,1:2:0:0:
162,159,107778,1,2,1:2:0:0:
162,159,107858,6,0,P|209:151|258:158,1,80,10|2,1:2|1:2,0:0:0:0:
332,225,108181,1,10,1:2:0:0:
272,80,108342,1,2,1:2:0:0:
236,279,108503,1,10,1:2:0:0:
383,133,108665,1,2,1:2:0:0:
225,163,108826,1,2,3:2:0:0:
371,320,108987,1,2,3:2:0:0:
371,320,109068,1,0,0:0:0:0:
371,320,109149,6,0,L|454:316,1,80,2|2,1:2|0:0,0:0:0:0:
510,241,109471,1,2,0:0:0:0:
430,187,109632,2,0,P|419:145|433:104,1,80,2|2,1:2|0:0,0:0:0:0:
500,46,109955,1,2,0:0:0:0:
306,0,110116,1,2,3:2:0:0:
309,39,110196,1,0,0:0:0:0:
312,79,110277,1,0,0:0:0:0:
315,119,110357,1,0,0:0:0:0:
318,159,110438,1,4,1:2:0:0:
180,278,110761,5,4,1:2:0:0:
197,177,110923,1,4,1:2:0:0:
268,322,111245,6,0,P|237:358|94:326,1,200,4|0,1:2|0:0,0:0:0:0:
73,262,111729,6,0,L|83:131,1,120.000004577637,4|2,0:0|0:0,0:0:0:0:
82,142,112213,1,2,0:0:0:0:
190,57,112536,2,0,L|199:176,1,120.000004577637,2|2,0:0|0:0,0:0:0:0:
258,237,113020,6,0,L|252:303,2,60.0000022888184,2|2|2,0:0|0:0|0:0,0:0:0:0:
308,169,113503,2,0,L|302:109,2,60.0000022888184,2|2|2,0:0|0:0|0:0,0:0:0:0:
351,234,113987,2,0,P|383:240|410:235,1,55.9999982910157,2|2,0:0|0:0,0:0:0:0:
460,179,114310,6,0,L|443:313,1,111.999996582031,2|2,0:0|0:0,0:0:0:0:
365,122,114794,2,0,L|348:256,1,111.999996582031,2|0,0:0|0:0,0:0:0:0:
276,63,115278,1,2,0:0:0:0:
208,172,115654,2,0,L|177:170,2,18.6666660970052,2|0|0,0:0|0:0|0:0,0:0:0:0:
256,192,115842,12,0,118181,0:0:0:0:
