osu file format v14

[General]
AudioFilename: audio.mp3
AudioLeadIn: 0
PreviewTime: 34229
Countdown: 0
SampleSet: Soft
StackLeniency: 0.2
Mode: 0
LetterboxInBreaks: 0
WidescreenStoryboard: 1

[Editor]
DistanceSpacing: 1.1
BeatDivisor: 4
GridSize: 4
TimelineZoom: 2.2

[Metadata]
Title:Mono Logic
TitleUnicode:Mono Logic
Artist:DJ NAGAI feat. Ayumi Nomiya
ArtistUnicode:DJ NAGAI feat. Ayumi Nomiya
Creator:Narcissu
Version:Kibb's Extra
Source:jubeat saucer fulfill
Tags:ALiCE'S EMOTION HARDCORE TANO*C yoshikazu akai hito redalice Lavender Vick Kibbleru Koiyuki Gaia chucentry Minakami Yuki Garden
BeatmapID:1186445
BeatmapSetID:549745

[Difficulty]
HPDrainRate:6
CircleSize:4
OverallDifficulty:8
ApproachRate:9.3
SliderMultiplier:1.8
SliderTickRate:1

[Events]
//Background and Video events
0,0,"BG.jpg",0,0
//Break Periods
2,68058,72466
//Storyboard Layer 0 (Background)
//Storyboard Layer 1 (Fail)
//Storyboard Layer 2 (Pass)
//Storyboard Layer 3 (Foreground)
//Storyboard Sound Samples

[TimingPoints]
762,322.58064516129,4,2,1,60,1,0
762,-166.666666666667,4,2,1,60,0,0
3020,-71.4285714285714,4,2,1,60,0,0
3342,-100,4,2,1,60,0,0
11084,-142.857142857143,4,2,1,60,0,0
12858,-100,4,2,1,60,0,0
13342,-100,4,2,1,60,0,0
13665,-142.857142857143,4,2,1,60,0,0
17697,-83.3333333333333,4,2,1,60,0,0
18826,-142.857142857143,4,2,1,60,0,0
23342,-100,4,2,1,60,0,0
23987,-400,4,2,1,60,0,0
25116,-400,4,2,1,60,0,0
26568,-400,4,2,1,60,0,0
28826,-100,4,2,1,60,0,0
29149,-111.111111111111,4,2,1,60,0,0
31407,-71.4285714285714,4,2,1,60,0,0
32374,-62.5,4,2,1,60,0,0
34310,-71.4285714285714,4,2,1,60,0,1
35116,-83.3333333333333,4,2,1,60,0,1
35600,-71.4285714285714,4,2,1,60,0,1
36407,-83.3333333333333,4,2,1,60,0,1
36891,-71.4285714285714,4,2,1,60,0,1
37697,-83.3333333333333,4,2,1,60,0,1
38181,-71.4285714285714,4,2,1,60,0,1
38987,-83.3333333333333,4,2,1,60,0,1
41568,-71.4285714285714,4,2,1,60,0,1
42052,-125,4,2,1,60,0,1
43342,-71.4285714285714,4,2,1,60,0,0
43826,-100,4,2,1,60,0,0
44632,-71.4285714285714,4,2,1,60,0,1
45439,-83.3333333333333,4,2,1,60,0,1
45923,-71.4285714285714,4,2,1,60,0,1
46729,-83.3333333333333,4,2,1,60,0,1
47213,-71.4285714285714,4,2,1,60,0,1
48020,-83.3333333333333,4,2,1,60,0,1
48503,-71.4285714285714,4,2,1,60,0,1
54794,-400.428571428571,4,2,1,60,0,0
55923,-71.4285714285714,4,2,1,60,0,1
56568,-100,4,2,1,60,0,1
56891,-100,4,2,1,60,0,0
57052,-142.857142857143,4,2,1,40,0,0
73020,-111.111111111111,4,2,1,60,0,0
75278,-71.4285714285715,4,2,1,60,0,0
76245,-62.5,4,2,1,60,0,0
78181,-400,4,2,1,60,0,0
80439,-83.3333333333333,4,2,1,60,0,0
80761,-71.4285714285714,4,2,1,60,0,1
81568,-83.3333333333333,4,2,1,60,0,1
82052,-71.4285714285714,4,2,1,60,0,1
82858,-83.3333333333333,4,2,1,60,0,1
85439,-71.4285714285714,4,2,1,60,0,1
85923,-125,4,2,1,60,0,1
87213,-71.4285714285714,4,2,1,60,0,0
87697,-100,4,2,1,60,0,0
88503,-71.4285714285714,4,2,1,60,0,1
89310,-83.3333333333333,4,2,1,60,0,1
89794,-71.4285714285714,4,2,1,60,0,1
90600,-83.3333333333333,4,2,1,60,0,1
91084,-71.4285714285714,4,2,1,60,0,1
91891,-83.3333333333333,4,2,1,60,0,1
92374,-71.4285714285714,4,2,1,60,0,1
98665,-400,4,2,1,60,0,0
99794,-71.4285714285714,4,2,1,60,0,1
100439,-100,4,2,1,60,0,1
100761,-100,4,2,1,60,0,0
101407,-100,4,2,1,60,0,0
110439,-83.3333333333333,4,2,1,60,0,0
111245,-200,4,2,1,60,0,0
111729,-200,4,2,1,40,0,0
116891,-200,4,2,1,30,0,0
117536,-200,4,2,1,20,0,0
118181,-200,4,2,1,10,0,0

[Colours]
Combo1 : 255,128,255
Combo2 : 128,255,255
Combo3 : 255,255,128
Combo4 : 128,128,255

[HitObjects]
173,69,762,5,6,1:2:0:0:
141,149,923,1,2,0:0:0:0:
226,137,1084,2,0,L|320:128,1,80.9999975280763,10|0,0:0|0:0,0:0:0:0:
325,128,1407,5,6,1:2:0:0:
305,309,1568,1,2,0:0:0:0:
477,243,1729,1,10,0:0:0:0:
399,189,1891,6,0,P|384:226|385:266,1,80.9999975280763,6|0,0:0|0:0,0:0:0:0:
393,283,2213,1,6,0:0:0:0:
451,108,2374,5,0,3:2:0:0:
424,134,2454,1,0,3:2:0:0:
390,150,2536,1,0,3:2:0:0:
353,154,2615,1,0,3:2:0:0:
316,145,2697,1,0,3:2:0:0:
298,52,3020,6,0,B|339:14|339:14|314:148,1,188.999994232178,8|0,0:0|0:0,0:0:0:0:
295,235,3342,5,2,1:2:0:0:
86,127,3503,1,2,0:0:0:0:
186,88,3665,2,0,P|191:132|194:177,1,90,10|2,1:2|0:0,0:0:0:0:
125,275,3987,1,2,1:2:0:0:
302,129,4149,1,2,0:0:0:0:
125,275,4310,1,10,1:2:0:0:
406,320,4471,6,0,B|321:340|327:267|234:289,1,180,2|2,0:0|0:0,0:0:0:0:
383,221,4955,1,10,1:2:0:0:
262,384,5116,1,2,0:0:0:0:
156,181,5278,5,2,1:2:0:0:
199,190,5358,1,0,0:0:0:0:
242,178,5439,1,2,0:0:0:0:
274,147,5520,1,0,0:0:0:0:
287,105,5600,2,0,P|283:83|279:60,1,45,10|0,1:2|0:0,0:0:0:0:
381,210,5761,2,0,P|384:232|388:254,1,45,2|0,0:0|0:0,0:0:0:0:
442,122,5923,5,0,1:0:0:0:
320,342,6084,1,2,0:0:0:0:
388,254,6245,2,0,P|343:245|299:238,1,90,10|2,1:2|0:0,0:0:0:0:
452,345,6568,1,2,1:2:0:0:
352,149,6729,1,2,0:0:0:0:
452,345,6891,1,10,1:2:0:0:
246,315,7052,6,0,P|333:321|387:253,1,180,2|2,0:0|0:0,0:0:0:0:
310,91,7536,2,0,P|300:134|297:179,1,90,10|2,1:2|0:0,0:0:0:0:
402,149,7858,1,2,1:2:0:0:
219,22,8020,1,2,0:0:0:0:
402,149,8181,1,10,1:2:0:0:
137,232,8342,1,2,0:0:0:0:
257,175,8503,6,0,P|254:219|251:264,1,90,4|2,1:2|1:2,0:0:0:0:
27,293,8826,2,0,P|24:248|20:203,1,90,10|2,1:2|1:2,0:0:0:0:
137,232,9149,1,10,1:2:0:0:
0,84,9310,1,2,1:2:0:0:
187,37,9471,1,10,1:2:0:0:
101,136,9632,6,0,L|190:124,1,90,2|8,1:2|1:2,0:0:0:0:
141,267,9955,1,0,1:0:0:0:
252,232,10116,1,10,1:2:0:0:
225,342,10278,1,2,1:2:0:0:
123,262,10439,5,10,1:2:0:0:
368,305,10600,1,2,1:2:0:0:
272,94,10761,1,2,3:2:0:0:
272,94,10842,1,2,3:2:0:0:
272,94,10923,2,0,P|294:92|316:89,1,45,2|0,3:2|0:0,0:0:0:0:
459,166,11084,6,0,P|427:160|397:154,2,62.9999980773926,2|2|2,1:2|0:0|0:0,0:0:0:0:
349,235,11568,2,0,P|379:241|410:246,2,62.9999980773926,2|2|2,1:2|0:0|0:0,0:0:0:0:
422,379,12052,1,2,3:2:0:0:
397,350,12132,1,2,3:2:0:0:
364,332,12213,1,2,3:2:0:0:
326,327,12294,1,0,0:0:0:0:
290,336,12374,5,4,1:2:0:0:
177,123,12697,1,4,1:2:0:0:
251,187,12858,6,0,P|200:222|130:212,1,135,4|0,1:2|0:0,0:0:0:0:
73,71,13181,2,0,P|71:93|68:115,5,45,4|0|0|0|0|0,1:2|0:0|0:0|0:0|0:0|0:0,0:0:0:0:
51,144,13665,6,0,P|113:132|176:122,1,125.999996154785,6|10,0:0|0:0,0:0:0:0:
294,82,14149,2,0,P|288:114|284:145,1,62.9999980773926,2|0,0:0|0:0,0:0:0:0:
469,284,14471,2,0,P|474:252|478:221,1,62.9999980773926,2|8,0:0|0:0,0:0:0:0:
397,90,14794,6,0,P|386:152|377:214,1,125.999996154785,2|2,0:0|0:0,0:0:0:0:
376,322,15278,1,10,0:0:0:0:
376,322,15600,2,0,P|345:313|315:305,1,62.9999980773926,2|0,0:0|0:0,0:0:0:0:
174,111,15923,2,0,P|204:119|234:127,1,62.9999980773926,10|0,0:0|0:0,0:0:0:0:
337,210,16245,6,0,P|274:213|224:249,1,125.999996154785,2|10,0:0|0:0,0:0:0:0:
76,315,16729,2,0,P|87:285|92:254,1,62.9999980773926,2|0,0:0|0:0,0:0:0:0:
157,71,17052,2,0,P|162:102|172:131,1,62.9999980773926,2|8,0:0|0:0,0:0:0:0:
288,168,17374,1,2,0:0:0:0:
299,179,17697,5,0,1:0:0:0:
299,179,17778,1,0,1:0:0:0:
299,179,17858,2,0,B|411:146|411:146|391:205,1,161.999995056153,4|0,1:2|0:0,0:0:0:0:
341,325,18181,1,2,0:0:0:0:
341,325,18261,1,0,0:0:0:0:
341,325,18342,2,0,L|350:258,1,53.9999983520508,0|0,1:0|0:0,0:0:0:0:
213,57,18503,6,0,L|205:110,1,53.9999983520508,0|0,1:0|0:0,0:0:0:0:
188,221,18665,2,0,L|180:274,1,53.9999983520508,8|0,1:2|0:0,0:0:0:0:
223,349,18826,6,0,P|170:315|107:317,1,125.999996154785,6|8,0:0|0:0,0:0:0:0:
27,376,19310,1,0,0:0:0:0:
126,133,19471,1,2,0:0:0:0:
10,225,19632,2,0,P|41:222|72:216,1,62.9999980773926,2|8,0:0|0:0,0:0:0:0:
160,20,19955,6,0,P|124:72|126:135,1,125.999996154785,2|0,0:0|0:0,0:0:0:0:
209,199,20439,1,0,0:0:0:0:
209,199,20761,2,0,L|286:209,1,62.9999980773926,2|0,0:0|0:0,0:0:0:0:
256,89,21084,2,0,L|318:97,1,62.9999980773926,10|0,0:0|0:0,0:0:0:0:
367,184,21407,5,0,1:0:0:0:
153,105,21568,1,0,1:0:0:0:
216,261,21729,2,0,P|213:229|208:198,1,62.9999980773926,0|0,1:0|0:0,0:0:0:0:
299,351,22052,5,8,0:0:0:0:
374,121,22213,2,0,P|369:152|366:183,1,62.9999980773926,0|0,0:0|1:0,0:0:0:0:
433,265,22536,1,8,0:0:0:0:
252,106,22697,5,4,0:0:0:0:
223,95,22777,1,0,0:0:0:0:
192,95,22858,1,0,0:0:0:0:
162,105,22938,1,0,0:0:0:0:
138,125,23020,1,0,0:0:0:0:
113,144,23101,1,0,0:0:0:0:
84,154,23181,1,0,0:0:0:0:
52,154,23261,1,0,0:0:0:0:
23,143,23342,6,0,P|28:164|30:187,1,45,0|0,0:0|0:0,0:0:0:0:
99,315,23503,2,0,P|100:292|106:270,1,45,0|0,0:0|0:0,0:0:0:0:
185,209,23665,2,0,L|250:199,1,45,0|0,0:0|0:0,0:0:0:0:
337,234,23826,2,0,L|402:224,1,45,0|0,0:0|0:0,0:0:0:0:
435,105,23987,6,0,L|355:115,1,78.75,4|0,0:0|0:0,0:0:0:0:
265,121,24632,1,0,3:0:0:0:
505,172,24794,1,0,1:0:0:0:
505,172,24955,1,0,1:0:0:0:
219,222,25116,6,0,L|299:232,1,78.75,4|0,1:2|0:0,0:0:0:0:
385,239,25761,1,0,1:0:0:0:
144,283,25923,1,0,3:0:0:0:
219,54,26245,5,0,1:2:0:0:
242,143,26407,1,0,1:2:0:0:
265,231,26568,2,0,P|261:264|256:297,1,67.5,4|0,0:0|1:2,0:0:0:0:
373,273,27213,2,0,P|376:239|381:206,1,67.5,8|4,0:0|0:0,0:0:0:0:
447,133,27858,5,4,0:0:0:0:
447,133,28181,1,0,0:0:0:0:
309,140,28342,1,0,0:0:0:0:
373,3,28826,6,0,P|370:25|369:47,3,45,0|0|0|0,0:0|0:0|0:0|0:0,0:0:0:0:
377,70,29149,6,0,P|337:64|298:56,1,80.9999975280763,12|0,0:0|0:0,0:0:0:0:
315,218,29471,2,0,P|275:228|237:240,1,80.9999975280763,8|0,0:0|0:0,0:0:0:0:
158,75,29794,2,0,P|120:63|77:48,1,80.9999975280763,8|0,0:0|0:0,0:0:0:0:
215,333,30116,1,8,0:0:0:0:
395,151,30278,1,8,0:0:0:0:
420,367,30439,6,0,P|422:287|486:232,1,161.999995056153,12|8,0:0|0:0,0:0:0:0:
323,56,30923,1,0,0:0:0:0:
219,43,31084,2,0,P|229:103|270:146,1,121.499996292114,12|0,0:0|0:0,0:0:0:0:
280,177,31407,6,0,P|248:175|217:170,1,62.9999980773926,0|0,3:0|3:0,0:0:0:0:
180,343,31568,2,0,P|148:345|117:350,1,62.9999980773926,0|0,3:0|3:0,0:0:0:0:
15,238,31729,6,0,B|76:222|82:259|139:241,1,125.999996154785,0|0,1:0|0:0,0:0:0:0:
403,174,31971,2,0,B|342:158|336:195|278:177,1,125.999996154785,0|0,1:0|0:0,0:0:0:0:
142,126,32213,2,0,P|131:93|132:58,1,62.9999980773926,0|0,1:0|0:0,0:0:0:0:
3,262,32374,6,0,B|68:241|81:284|144:264,1,144,8|0,1:2|0:0,0:0:0:0:
414,197,32616,2,0,B|349:176|336:219|272:199,1,144,0|0,1:0|0:0,0:0:0:0:
250,5,32858,2,0,L|237:75,1,72,0|0,1:0|0:0,0:0:0:0:
109,363,33020,6,0,B|91:219|91:219|106:249|143:263,1,216,4|0,0:0|0:0,0:0:0:0:
384,197,33342,2,0,P|348:188|307:182,1,72,4|0,0:0|0:0,0:0:0:0:
187,157,33503,1,4,0:0:0:0:
74,38,34310,6,0,B|57:165|57:165|96:117,1,188.999994232178,6|2,1:2|0:0,0:0:0:0:
186,53,34632,2,0,P|215:41|255:42,1,62.9999980773926,10|0,1:2|0:0,0:0:0:0:
360,176,34794,1,2,0:0:0:0:
329,169,34874,1,0,0:0:0:0:
298,163,34955,1,2,1:2:0:0:
267,157,35036,1,2,0:2:0:0:
236,151,35116,6,0,P|244:176|250:202,1,53.9999983520508,2|0,0:0|0:0,0:0:0:0:
47,238,35278,2,0,P|38:212|32:186,1,53.9999983520508,10|2,1:2|0:0,0:0:0:0:
140,102,35439,1,0,0:0:0:0:
140,102,35520,1,0,0:0:0:0:
140,102,35600,6,0,B|113:179|174:203|141:286,1,188.999994232178,2|2,1:2|0:0,0:0:0:0:
122,383,35923,2,0,P|152:374|182:367,1,62.9999980773926,10|0,1:2|0:0,0:0:0:0:
371,270,36084,1,0,0:0:0:0:
340,278,36165,1,0,0:0:0:0:
309,276,36245,1,2,1:2:0:0:
281,263,36326,1,2,0:2:0:0:
258,241,36407,6,0,P|262:267|264:294,1,53.9999983520508,2|0,0:0|0:0,0:0:0:0:
144,265,36568,2,0,L|156:156,1,107.999996704102,10|2,1:2|0:0,0:0:0:0:
249,93,36810,1,0,0:0:0:0:
249,93,36891,6,0,B|160:75|169:150|69:129,1,188.999994232178,2|2,1:2|0:0,0:0:0:0:
35,14,37213,2,0,P|66:18|96:28,1,62.9999980773926,10|0,1:2|0:0,0:0:0:0:
226,191,37374,1,0,0:0:0:0:
256,198,37455,1,0,0:0:0:0:
287,195,37536,1,2,1:2:0:0:
315,180,37616,1,2,0:2:0:0:
336,157,37697,6,0,P|328:183|323:209,1,53.9999983520508,2|2,0:2|0:2,0:0:0:0:
134,85,37858,2,0,P|128:58|121:32,1,53.9999983520508,10|2,1:2|0:2,0:0:0:0:
255,67,38020,1,2,0:2:0:0:
255,67,38100,1,2,0:2:0:0:
255,67,38181,6,0,B|236:126|229:198|229:198|220:168|203:146,1,188.999994232178,2|0,1:2|0:0,0:0:0:0:
58,143,38503,2,0,P|39:168|29:198,1,62.9999980773926,10|0,1:2|0:0,0:0:0:0:
139,353,38665,1,2,0:2:0:0:
137,321,38745,1,0,0:0:0:0:
135,290,38826,1,2,1:2:0:0:
133,258,38906,1,0,0:0:0:0:
131,227,38987,6,0,P|156:239|186:248,1,53.9999983520508,2|0,0:2|0:0,0:0:0:0:
419,289,39149,2,0,P|365:295|311:300,1,107.999996704102,10|2,1:2|0:0,0:0:0:0:
228,351,39391,1,0,0:0:0:0:
228,351,39471,6,0,P|285:297|286:218,1,161.999995056153,4|2,1:2|0:0,0:0:0:0:
196,72,39794,2,0,P|195:98|200:125,1,53.9999983520508,10|0,1:2|0:0,0:0:0:0:
396,231,39955,2,0,P|396:204|391:177,3,53.9999983520508,2|0|2|2,0:0|0:0|1:2|0:2,0:0:0:0:
305,109,40278,5,2,0:0:0:0:
73,224,40439,1,10,1:2:0:0:
321,322,40600,1,2,0:0:0:0:
285,217,40761,6,0,L|177:203,1,107.999996704102,2|0,1:2|0:0,0:0:0:0:
73,224,41003,1,2,0:0:0:0:
73,224,41084,2,0,P|69:197|64:170,1,53.9999983520508,10|0,1:2|0:0,0:0:0:0:
125,31,41245,2,0,B|169:5|169:5|149:114,1,161.999995056153,2|0,0:0|0:0,0:0:0:0:
73,224,41568,6,0,P|104:216|135:212,1,62.9999980773926,2|0,0:0|0:0,0:0:0:0:
259,234,41729,1,2,3:2:0:0:
128,309,41891,1,2,3:2:0:0:
305,43,42052,6,0,P|285:73|268:105,1,72,4|0,0:0|0:0,0:0:0:0:
415,341,42374,2,0,P|398:308|379:278,1,72,4|0,0:0|0:0,0:0:0:0:
66,286,42697,2,0,P|101:287|137:286,1,72,4|0,0:0|0:0,0:0:0:0:
381,102,43020,1,4,0:0:0:0:
348,90,43100,1,0,0:0:0:0:
312,92,43181,1,0,0:0:0:0:
281,109,43261,1,0,0:0:0:0:
259,137,43342,6,0,B|273:9|273:9|229:50,1,188.999994232178,4|0,0:0|0:0,0:0:0:0:
139,111,43665,2,0,P|145:141|150:172,1,62.9999980773926,4|0,0:0|0:0,0:0:0:0:
399,225,43826,6,0,B|318:193|309:271|226:240,1,180,4|4,0:0|0:0,0:0:0:0:
316,320,44310,2,0,P|312:297|310:275,3,45
259,137,44632,6,0,B|196:145|136:112|136:112|153:143|154:169,1,188.999994232178,6|2,1:2|0:0,0:0:0:0:
135,294,44955,2,0,P|164:284|195:277,1,62.9999980773926,10|0,1:2|0:0,0:0:0:0:
417,252,45116,1,0,0:0:0:0:
387,262,45197,1,0,0:0:0:0:
356,263,45278,1,2,1:2:0:0:
326,253,45358,1,2,0:2:0:0:
300,235,45439,6,0,P|306:261|309:288,1,53.9999983520508,2|0,0:2|0:0,0:0:0:0:
175,66,45600,2,0,P|178:39|184:12,1,53.9999983520508,10|2,1:2|0:2,0:0:0:0:
317,131,45761,1,2,0:0:0:0:
317,131,45842,1,0,0:0:0:0:
317,131,45923,6,0,B|228:109|230:185|137:163,1,188.999994232178,2|2,1:2|0:0,0:0:0:0:
25,142,46245,2,0,P|31:172|36:203,1,62.9999980773926,10|0,1:2|0:0,0:0:0:0:
96,384,46407,1,0,0:0:0:0:
101,352,46487,1,0,0:0:0:0:
106,321,46568,1,2,1:2:0:0:
111,290,46648,1,2,0:2:0:0:
116,259,46729,6,0,P|142:254|169:250,1,53.9999983520508,2|0,0:2|0:0,0:0:0:0:
397,158,46891,2,0,L|290:138,1,107.999996704102,10|2,1:2|0:2,0:0:0:0:
237,66,47132,1,0,0:0:0:0:
237,66,47213,6,0,B|249:200|249:200|209:162,1,188.999994232178,2|2,1:2|0:0,0:0:0:0:
249,310,47536,2,0,P|276:294|306:285,1,62.9999980773926,10|0,1:2|0:0,0:0:0:0:
475,208,47697,1,0,0:0:0:0:
445,218,47778,1,0,0:0:0:0:
414,218,47858,1,2,1:2:0:0:
385,206,47939,1,2,0:2:0:0:
362,184,48020,6,0,P|365:157|370:130,1,53.9999983520508,2|0,0:2|0:0,0:0:0:0:
169,284,48181,2,0,P|165:310|161:337,1,53.9999983520508,10|2,1:2|0:2,0:0:0:0:
268,326,48342,1,2,0:2:0:0:
268,326,48423,1,2,0:2:0:0:
268,326,48503,6,0,B|280:259|280:259|253:215|253:215|263:144,1,188.999994232178,2|0,1:2|0:0,0:0:0:0:
217,60,48826,2,0,P|247:52|278:44,1,62.9999980773926,10|0,1:2|0:0,0:0:0:0:
454,161,48987,6,0,B|493:202|493:202|361:183,1,188.999994232178,2|0,0:2|0:0,0:0:0:0:
262,145,49310,2,0,P|265:177|268:208,1,62.9999980773926,2|0,0:2|0:0,0:0:0:0:
209,308,49471,1,2,3:2:0:0:
165,313,49551,1,2,3:2:0:0:
123,301,49632,1,2,3:2:0:0:
90,272,49712,1,0,0:0:0:0:
73,232,49794,5,6,1:2:0:0:
228,118,49955,1,0,0:0:0:0:
99,124,50116,1,10,1:2:0:0:
260,219,50278,1,0,0:0:0:0:
260,219,50358,1,0,0:0:0:0:
260,219,50439,5,2,1:2:0:0:
162,292,50600,1,2,0:2:0:0:
241,56,50761,2,0,P|233:86|227:117,1,62.9999980773926,10|0,0:0|0:0,0:0:0:0:
59,293,50923,2,0,P|66:262|72:231,1,62.9999980773926,10|0,0:0|0:0,0:0:0:0:
99,124,51084,5,2,1:2:0:0:
260,219,51245,1,2,0:2:0:0:
350,97,51407,1,10,2:2:0:0:
175,173,51568,1,2,0:0:0:0:
175,173,51649,1,0,0:0:0:0:
175,173,51729,5,2,2:0:0:0:
335,307,51891,1,2,0:0:0:0:
372,208,52052,2,0,P|340:204|309:198,1,62.9999980773926,10|0,0:0|0:0,0:0:0:0:
214,282,52213,2,0,P|182:285|151:291,1,62.9999980773926,10|8,0:0|0:0,0:0:0:0:
92,369,52374,5,8,0:0:0:0:
335,307,52535,1,8,0:0:0:0:
161,186,52696,5,8,0:0:0:0:
335,307,52858,1,8,0:0:0:0:
131,279,53019,5,8,0:0:0:0:
333,180,53180,1,8,0:0:0:0:
101,106,53341,5,8,0:0:0:0:
333,180,53503,1,8,0:0:0:0:
261,376,53665,5,2,0:0:0:0:
244,349,53745,1,2,0:0:0:0:
235,319,53826,1,2,0:0:0:0:
236,287,53907,1,2,0:0:0:0:
246,257,53987,1,2,0:0:0:0:
263,232,54068,1,2,0:0:0:0:
280,206,54149,1,2,0:0:0:0:
290,176,54229,1,2,0:0:0:0:
290,144,54310,1,0,3:0:0:0:
282,114,54391,1,0,3:0:0:0:
264,88,54471,6,0,P|295:84|326:79,1,62.9999980773926,0|0,3:0|3:0,0:0:0:0:
171,157,54632,2,0,P|139:153|108:148,1,62.9999980773926,0|0,3:0|3:0,0:0:0:0:
353,303,54794,6,0,B|443:285|443:285|418:328,1,134.855516356187,4|0,0:0|0:0,0:0:0:0:
241,349,55923,6,0,P|237:317|232:286,1,62.9999980773926,4|0,0:0|0:0,0:0:0:0:
205,172,56084,2,0,B|293:150|290:231|383:207,1,188.999994232178,4|0,0:0|0:0,0:0:0:0:
486,247,56407,6,0,P|490:215|495:184,1,62.9999980773926,4|0,0:0|0:0,0:0:0:0:
388,29,56568,2,0,B|339:-9|339:-9|350:108,1,180,4|0,0:0|0:0,0:0:0:0:
321,219,57052,2,0,L|399:203,2,62.9999980773926,2|2|2,0:0|0:0|0:0,0:0:0:0:
240,165,57536,6,0,L|178:153,1,62.9999980773926,2|2,0:0|0:0,0:0:0:0:
80,127,57858,1,2,0:0:0:0:
166,140,58020,2,0,P|173:202|179:265,1,125.999996154785,2|2,0:0|0:0,0:0:0:0:
240,326,58503,2,0,P|270:338|301:344,1,62.9999980773926,2|2,0:0|0:0,0:0:0:0:
408,312,58826,6,0,P|423:284|430:253,1,62.9999980773926,2|0,0:0|0:0,0:0:0:0:
394,90,59149,1,2,0:0:0:0:
319,133,59310,2,0,P|309:194|326:254,1,125.999996154785,2|2,0:0|0:0,0:0:0:0:
208,338,59794,2,0,P|218:308|224:277,1,62.9999980773926,2|2,0:0|0:0,0:0:0:0:
199,61,60116,6,0,P|208:91|221:119,1,62.9999980773926,2|0,0:0|0:0,0:0:0:0:
379,288,60439,2,0,P|353:269|326:253,1,62.9999980773926,2|0,0:0|0:0,0:0:0:0:
86,201,60761,6,0,P|117:201|148:197,1,62.9999980773926,2|0,0:0|0:0,0:0:0:0:
366,114,61084,2,0,P|340:132|317:153,1,62.9999980773926,2|0,0:0|0:0,0:0:0:0:
275,324,61407,5,2,0:0:0:0:
347,251,61568,1,0,0:0:0:0:
245,227,61729,1,2,0:0:0:0:
381,347,61891,2,0,P|433:348|507:309,1,125.999996154785,2|2,0:0|0:0,0:0:0:0:
491,229,62374,2,0,L|504:167,1,62.9999980773926,0|0,0:0|0:0,0:0:0:0:
401,49,62697,6,0,L|387:110,1,62.9999980773926,2|0,0:0|0:0,0:0:0:0:
363,208,63020,1,2,0:0:0:0:
392,125,63181,2,0,P|353:99|265:80,1,125.999996154785,2|2,0:0|0:0,0:0:0:0:
198,149,63665,2,0,P|185:177|177:208,1,62.9999980773926,2|0,0:0|0:0,0:0:0:0:
184,56,63987,6,0,P|165:30|143:8,1,62.9999980773926,2|0,0:0|0:0,0:0:0:0:
109,118,64310,1,2,0:0:0:0:
198,149,64471,2,0,P|266:150|323:114,1,125.999996154785,2|2,0:0|0:0,0:0:0:0:
408,102,64955,2,0,L|393:186,1,62.9999980773926,2|2,0:0|0:0,0:0:0:0:
318,294,65278,5,2,0:0:0:0:
318,294,65439,2,0,L|329:231,1,62.9999980773926,2|0,0:0|0:0,0:0:0:0:
262,170,65761,2,0,B|216:187|190:167|136:184,1,125.999996154785,2|2,0:0|0:0,0:0:0:0:
50,188,66245,1,2,0:0:0:0:
154,271,66407,1,2,0:0:0:0:
189,93,66568,5,2,0:0:0:0:
189,93,66891,5,0,0:0:0:0:
57,280,67052,1,2,0:0:0:0:
57,280,67374,5,0,0:0:0:0:
282,290,67536,1,2,0:0:0:0:
174,210,67858,5,4,0:0:0:0:
75,73,73020,6,0,P|115:68|155:60,1,80.9999975280763,12|0,0:0|0:0,0:0:0:0:
266,263,73342,2,0,P|227:250|188:238,1,80.9999975280763,8|0,0:0|0:0,0:0:0:0:
285,78,73665,2,0,P|321:60|357:41,1,80.9999975280763,8|0,0:0|0:0,0:0:0:0:
368,211,73987,1,8,0:0:0:0:
100,285,74149,1,8,0:0:0:0:
317,347,74310,6,0,P|313:268|368:211,1,161.999995056153,12|8,0:0|0:0,0:0:0:0:
414,311,74794,1,0,0:0:0:0:
207,41,74955,2,0,P|236:92|226:152,1,121.499996292114,8|0,0:0|0:0,0:0:0:0:
164,160,75278,6,0,L|226:150,1,62.9999980773926,0|0,3:0|3:0,0:0:0:0:
251,334,75439,2,0,L|313:324,1,62.9999980773926,0|0,3:0|0:0,0:0:0:0:
441,258,75600,6,0,B|395:251|395:251|374:227|374:227|326:220,1,125.999996154785,0|0,1:0|0:0,0:0:0:0:
49,197,75842,2,0,B|94:190|94:190|115:166|115:166|163:159,1,125.999996154785,0|0,1:0|0:0,0:0:0:0:
277,13,76084,2,0,B|273:45|273:45|279:75,1,62.9999980773926,0|0,1:0|0:0,0:0:0:0:
455,240,76245,6,0,B|401:231|401:231|367:243|367:243|314:234,1,144,8|0,1:2|0:2,0:0:0:0:
37,183,76487,2,0,B|91:174|91:174|125:186|125:186|177:177,1,144,0|0,1:0|0:0,0:0:0:0:
216,360,76729,2,0,B|229:326|229:326|223:289,1,72,0|0,1:0|0:0,0:0:0:0:
277,13,76891,6,0,B|264:150|264:150|286:113|325:96,1,216,4|0,0:0|0:0,0:0:0:0:
446,227,77213,2,0,L|365:203,1,72,4|0,0:0|0:0,0:0:0:0:
154,193,77374,1,4,0:0:0:0:
154,193,78181,6,0,L|148:240,1,45,4|0,0:0|0:0,0:0:0:0:
216,132,78665,1,8,0:0:0:0:
342,254,79310,5,0,1:0:0:0:
340,237,79391,1,0,1:0:0:0:
338,220,79471,1,4,0:0:0:0:
417,303,79794,1,0,0:0:0:0:
401,160,79955,1,0,0:0:0:0:
254,248,80278,1,0,0:0:0:0:
338,233,80439,6,0,B|232:201|232:201|253:247,1,161.999995056153,8|0,0:0|0:0,0:0:0:0:
281,336,80761,6,0,B|188:356|199:281|100:301,1,188.999994232178,6|2,1:2|0:0,0:0:0:0:
27,345,81084,2,0,P|15:315|9:284,1,62.9999980773926,10|0,1:2|0:0,0:0:0:0:
98,84,81245,1,0,0:0:0:0:
112,111,81326,1,0,0:0:0:0:
116,142,81406,1,2,1:2:0:0:
108,173,81487,1,2,0:2:0:0:
88,198,81568,6,0,P|115:193|142:189,1,53.9999983520508,2|2,0:2|0:2,0:0:0:0:
216,106,81729,2,0,P|242:110|269:114,1,53.9999983520508,10|2,1:2|0:2,0:0:0:0:
350,187,81891,2,0,P|376:182|403:178,1,53.9999983520508,2|2,0:2|0:2,0:0:0:0:
461,107,82052,6,0,B|432:230|432:230|483:193,1,188.999994232178,2|2,1:2|0:0,0:0:0:0:
440,332,82374,2,0,P|409:323|379:314,1,62.9999980773926,10|0,0:0|0:0,0:0:0:0:
199,244,82536,1,2,0:2:0:0:
230,239,82616,1,0,0:0:0:0:
261,234,82697,1,2,1:2:0:0:
292,229,82777,1,0,0:0:0:0:
323,224,82858,6,0,P|325:197|329:171,1,53.9999983520508,2|0,0:2|0:0,0:0:0:0:
211,38,83020,2,0,P|213:91|215:145,1,107.999996704102,10|2,1:2|0:0,0:0:0:0:
232,325,83261,1,0,0:0:0:0:
231,324,83342,6,0,P|179:266|98:262,1,161.999995056153,4|2,1:2|0:0,0:0:0:0:
14,312,83665,2,0,P|4:286|-1:260,1,53.9999983520508,10|0,1:2|0:0,0:0:0:0:
109,106,83826,2,0,P|118:131|124:157,3,53.9999983520508,2|0|2|2,0:0|0:0|1:2|0:2,0:0:0:0:
99,261,84149,5,2,0:0:0:0:
283,129,84310,1,10,1:2:0:0:
30,52,84471,1,2,0:0:0:0:
189,69,84632,6,0,B|165:120|165:120|182:168,1,107.999996704102,2|0,1:2|0:0,0:0:0:0:
270,233,84874,1,2,0:0:0:0:
270,233,84955,2,0,L|330:220,1,53.9999983520508,10|0,1:2|0:0,0:0:0:0:
405,313,85116,2,0,B|335:295|330:356|248:338,1,161.999995056153,2|0,0:0|0:0,0:0:0:0:
126,349,85439,6,0,P|136:319|140:288,1,62.9999980773926,2|0,0:0|0:0,0:0:0:0:
87,178,85600,1,2,3:2:0:0:
270,233,85761,1,2,3:2:0:0:
166,38,85923,6,0,P|186:67|209:95,1,72,4|0,0:0|0:0,0:0:0:0:
428,193,86245,2,0,P|392:196|356:201,1,72,4|0,0:0|0:0,0:0:0:0:
170,355,86568,2,0,P|185:322|197:288,1,72,4|0,0:0|0:0,0:0:0:0:
132,47,86891,1,4,0:0:0:0:
117,79,86971,1,0,0:0:0:0:
116,115,87052,1,0,0:0:0:0:
130,148,87132,1,0,0:0:0:0:
155,173,87213,6,0,B|222:156|222:156|274:178|274:178|335:163,1,188.999994232178,4|0,0:0|0:0,0:0:0:0:
292,18,87536,2,0,P|287:49|285:80,1,62.9999980773926,4|0,0:0|0:0,0:0:0:0:
234,378,87697,2,0,B|214:256|214:256|196:309,1,180,4|4,0:0|0:0,0:0:0:0:
435,90,88181,2,0,P|431:112|427:134,3,45,0|0|0|0,0:0|0:0|0:0|0:0,0:0:0:0:
355,207,88503,6,0,B|265:222|276:148|176:170,1,188.999994232178,6|2,1:2|0:0,0:0:0:0:
145,275,88826,2,0,P|176:271|205:260,1,62.9999980773926,10|0,1:2|0:0,0:0:0:0:
340,118,88987,1,0,0:0:0:0:
349,88,89068,1,0,0:0:0:0:
346,56,89149,1,2,1:2:0:0:
331,29,89229,1,2,0:2:0:0:
308,8,89310,6,0,P|279:4|246:3,1,53.9999983520508,2|0,0:2|0:0,0:0:0:0:
130,82,89471,2,0,L|142:159,1,53.9999983520508,10|2,1:2|0:2,0:0:0:0:
240,263,89632,2,0,L|231:209,1,53.9999983520508,2|0,0:0|0:0,0:0:0:0:
185,354,89794,6,0,P|261:294|352:317,1,188.999994232178,2|2,1:2|0:0,0:0:0:0:
453,283,90116,2,0,P|474:259|484:229,1,62.9999980773926,10|0,1:2|0:0,0:0:0:0:
369,81,90278,1,0,0:0:0:0:
355,109,90358,1,0,0:0:0:0:
350,140,90439,1,2,1:2:0:0:
357,170,90520,1,2,0:0:0:0:
373,197,90600,6,0,L|321:183,1,53.9999983520508,2|0,0:2|0:0,0:0:0:0:
236,88,90761,2,0,L|183:101,1,53.9999983520508,10|2,1:2|0:0,0:0:0:0:
108,178,90923,2,0,L|55:164,1,53.9999983520508,2|0,0:2|0:0,0:0:0:0:
185,335,91084,6,0,B|202:200|202:200|229:245,1,188.999994232178,2|2,1:2|0:0,0:0:0:0:
290,332,91407,2,0,P|317:347|348:351,1,62.9999980773926,10|0,1:2|0:0,0:0:0:0:
474,233,91568,1,0,0:0:0:0:
442,236,91649,1,0,0:0:0:0:
411,239,91729,1,2,3:2:0:0:
379,242,91810,1,2,3:2:0:0:
347,245,91891,6,0,P|355:218|360:192,1,53.9999983520508,2|0,3:2|0:0,0:0:0:0:
292,37,92052,2,0,P|284:63|279:89,1,53.9999983520508,10|2,3:2|3:2,0:0:0:0:
183,168,92213,2,0,P|156:173|129:176,1,53.9999983520508,2|2,3:2|3:2,0:0:0:0:
62,298,92374,6,0,B|159:276|152:354|242:330,1,188.999994232178,2|0,1:2|0:0,0:0:0:0:
351,347,92697,2,0,P|344:316|338:285,1,62.9999980773926,10|0,1:2|0:0,0:0:0:0:
229,140,92858,6,0,B|179:103|179:103|209:226,1,188.999994232178,2|0,0:2|0:0,0:0:0:0:
336,270,93181,2,0,P|371:266|397:254,1,62.9999980773926,2|0,0:2|0:0,0:0:0:0:
495,116,93342,1,2,3:2:0:0:
456,96,93423,1,2,3:2:0:0:
412,96,93503,1,2,3:2:0:0:
373,116,93583,1,0,0:0:0:0:
348,151,93665,5,6,1:2:0:0:
467,305,93826,1,0,0:0:0:0:
259,328,93987,1,10,1:2:0:0:
442,206,94149,1,0,0:0:0:0:
442,206,94229,1,0,0:0:0:0:
442,206,94310,5,2,1:2:0:0:
370,364,94471,1,2,0:2:0:0:
252,141,94632,2,0,L|262:203,1,62.9999980773926,10|0,0:0|0:0,0:0:0:0:
168,355,94794,2,0,L|157:292,1,62.9999980773926,10|0,0:0|0:0,0:0:0:0:
100,208,94955,5,2,1:2:0:0:
294,315,95116,1,2,0:0:0:0:
58,297,95278,1,2,1:2:0:0:
257,184,95439,1,2,0:0:0:0:
257,184,95520,1,0,0:0:0:0:
257,184,95600,5,2,1:2:0:0:
157,292,95761,1,2,0:0:0:0:
85,66,95923,2,0,P|92:96|97:127,1,62.9999980773926,10|0,0:0|0:0,0:0:0:0:
266,352,96084,2,0,P|270:320|278:290,1,62.9999980773926,10|0,0:0|0:0,0:0:0:0:
354,160,96245,5,8,0:0:0:0:
157,292,96407,1,8,0:0:0:0:
387,343,96568,5,8,0:0:0:0:
157,292,96729,1,8,0:0:0:0:
369,253,96891,5,8,0:0:0:0:
151,162,97052,1,8,0:0:0:0:
401,75,97213,5,8,0:0:0:0:
151,162,97374,1,8,0:0:0:0:
280,7,97536,5,2,0:0:0:0:
263,34,97616,1,2,0:0:0:0:
254,64,97697,1,2,0:0:0:0:
255,96,97778,1,2,0:0:0:0:
265,126,97858,1,2,0:0:0:0:
282,151,97939,1,2,0:0:0:0:
299,177,98020,1,2,0:0:0:0:
309,207,98100,1,2,0:0:0:0:
309,239,98181,1,0,3:0:0:0:
301,269,98262,1,0,3:0:0:0:
283,295,98342,6,0,P|314:299|345:304,1,62.9999980773926,0|0,3:0|3:0,0:0:0:0:
190,226,98503,2,0,P|158:230|127:235,1,62.9999980773926,0|0,3:0|3:0,0:0:0:0:
372,80,98665,6,0,B|416:87|462:98|462:98|447:74|437:55,1,135,4|0,0:0|0:0,0:0:0:0:
248,65,99794,6,0,P|256:95|263:126,1,62.9999980773926,4|0,0:0|0:0,0:0:0:0:
411,206,99955,2,0,B|326:180|325:258|229:230,1,188.999994232178,4|0,0:0|0:0,0:0:0:0:
45,360,100278,6,0,L|33:277,1,62.9999980773926,4|0,0:0|0:0,0:0:0:0:
86,207,100439,2,0,B|122:166|122:166|131:292,1,180,4|0,0:0|0:0,0:0:0:0:
231,352,101084,2,0,L|238:299,3,45,0|0|0|0,3:0|3:0|3:0|3:0,0:0:0:0:
226,374,101407,5,2,1:2:0:0:
49,235,101568,1,2,0:0:0:0:
169,148,101729,2,0,P|173:201|168:240,1,90,10|2,1:2|0:0,0:0:0:0:
82,330,102052,1,2,1:2:0:0:
285,196,102213,1,2,0:0:0:0:
82,330,102374,1,10,1:2:0:0:
318,314,102536,6,0,P|231:317|175:251,1,180,2|2,0:0|0:0,0:0:0:0:
284,109,102939,1,0,0:0:0:0:
284,109,103020,2,0,B|297:154|297:154|284:195,1,90,10|2,1:2|0:0,0:0:0:0:
37,198,103342,5,2,1:2:0:0:
60,160,103423,1,0,0:0:0:0:
99,137,103503,1,2,0:0:0:0:
143,133,103584,1,0,0:0:0:0:
184,150,103665,2,0,L|181:96,1,45,10|0,1:2|0:0,0:0:0:0:
238,292,103826,2,0,L|234:336,1,45,2|0,0:0|0:0,0:0:0:0:
142,246,103987,5,0,1:0:0:0:
404,154,104149,1,2,1:2:0:0:
304,125,104310,2,0,P|309:169|317:216,1,90,10|2,1:2|0:0,0:0:0:0:
306,331,104632,1,2,1:2:0:0:
181,166,104794,1,2,0:0:0:0:
306,331,104955,1,10,1:2:0:0:
328,233,105116,6,0,B|245:212|246:286|156:265,1,180,2|2,0:0|0:0,0:0:0:0:
75,196,105520,1,0,0:0:0:0:
75,196,105600,2,0,L|84:105,1,90,10|2,1:2|0:0,0:0:0:0:
275,129,105923,5,2,1:2:0:0:
57,294,106084,1,2,0:0:0:0:
325,351,106245,5,10,1:2:0:0:
75,196,106407,1,2,0:0:0:0:
352,67,106568,5,4,1:2:0:0:
184,252,106729,2,0,L|190:162,1,90,2|10,1:2|1:2,0:0:0:0:
95,58,107052,5,2,1:2:0:0:
308,306,107213,2,0,L|301:216,1,90,10|2,1:2|1:2,0:0:0:0:
209,367,107536,1,10,1:2:0:0:
99,175,107697,1,2,1:2:0:0:
126,174,107778,1,2,1:2:0:0:
150,162,107858,5,10,1:2:0:0:
380,89,108020,1,2,1:2:0:0:
273,111,108181,2,0,P|270:67|291:25,1,90,10|2,1:2|1:2,0:0:0:0:
169,279,108503,1,10,1:2:0:0:
249,216,108665,2,0,P|268:256|264:300,1,90,2|2,1:2|3:2,0:0:0:0:
349,190,108987,1,2,3:2:0:0:
153,126,109149,5,2,1:2:0:0:
370,187,109310,1,2,0:0:0:0:
159,270,109471,1,2,0:0:0:0:
396,45,109632,5,2,1:2:0:0:
132,124,109794,1,2,0:0:0:0:
419,269,109955,1,2,0:0:0:0:
221,39,110116,5,2,3:2:0:0:
252,70,110197,1,2,3:2:0:0:
266,113,110277,1,0,0:0:0:0:
261,157,110358,1,0,0:0:0:0:
237,195,110439,6,0,B|220:286|220:286|248:260|283:259,1,161.999995056153,4|0,1:2|0:0,0:0:0:0:
407,161,110761,2,0,P|380:166|354:172,1,53.9999983520508,4|0,1:2|0:0,0:0:0:0:
150,122,110923,1,4,1:2:0:0:
150,122,111245,6,0,P|172:172|172:231,1,112.5,4|0,1:2|0:0,0:0:0:0:
119,288,111729,1,4,0:0:0:0:
341,250,112052,1,2,0:0:0:0:
266,362,112213,2,0,P|268:339|272:317,1,45,2|0,0:0|0:0,0:0:0:0:
429,236,112536,2,0,L|323:252,1,90,2|2,0:0|0:0,0:0:0:0:
221,134,113020,5,2,0:0:0:0:
245,227,113181,1,2,0:0:0:0:
315,162,113342,1,2,0:0:0:0:
146,199,113503,5,2,0:0:0:0:
170,292,113664,1,2,0:0:0:0:
76,264,113825,1,2,0:0:0:0:
245,227,113987,5,2,0:0:0:0:
52,164,114149,1,2,0:0:0:0:
98,360,114310,6,0,L|163:343,1,67.5,2|0,0:0|0:0,0:0:0:0:
261,344,114632,2,0,L|255:384,2,22.5,2|0|2,0:0|0:0|0:0,0:0:0:0:
192,246,115278,5,2,0:0:0:0:
192,246,115654,2,0,L|188:224,2,15,2|0|0,0:0|0:0|0:0,0:0:0:0:
256,192,115842,12,0,118181,0:0:0:0:
