osu file format v14

[General]
AudioFilename: audio.mp3
AudioLeadIn: 0
PreviewTime: 34229
Countdown: 0
SampleSet: Soft
StackLeniency: 0.2
Mode: 0
LetterboxInBreaks: 0
WidescreenStoryboard: 0

[Editor]
DistanceSpacing: 1.2
BeatDivisor: 4
GridSize: 4
TimelineZoom: 2.2

[Metadata]
Title:Mono Logic
TitleUnicode:Mono Logic
Artist:DJ NAGAI feat. Ayumi Nomiya
ArtistUnicode:DJ NAGAI feat. Ayumi Nomiya
Creator:Narcissu
Version:Extra
Source:jubeat saucer fulfill
Tags:ALiCE'S EMOTION HARDCORE TANO*C yoshikazu akai hito redalice Lavender Vick Kibbleru Koiyuki Gaia chucentry Minakami Yuki Garden
BeatmapID:1164100
BeatmapSetID:549745

[Difficulty]
HPDrainRate:6
CircleSize:4
OverallDifficulty:8
ApproachRate:9.3
SliderMultiplier:2
SliderTickRate:1

[Events]
//Background and Video events
0,0,"BG.jpg",0,0
//Break Periods
2,68058,72466
//Storyboard Layer 0 (Background)
//Storyboard Layer 1 (Fail)
//Storyboard Layer 2 (Pass)
//Storyboard Layer 3 (Foreground)
//Storyboard Sound Samples

[TimingPoints]
762,322.58064516129,4,2,1,60,1,0
13665,-111.111111111111,4,2,1,60,0,0
34310,-76.9230769230769,4,2,1,60,0,1
44149,-100,4,2,1,60,0,0
44632,-76.9230769230769,4,2,1,60,0,1
54794,-100,4,2,1,60,0,0
57052,-125,4,2,1,40,0,0
73020,-100,4,2,1,60,0,0
80761,-76.9230769230769,4,2,1,60,0,1
88020,-100,4,2,1,60,0,0
88503,-76.9230769230769,4,2,1,60,0,1
98665,-100,4,2,1,60,0,0
111729,-100,4,2,1,40,0,0
113020,-111.111111111111,4,2,1,40,0,0
113503,-125,4,2,1,40,0,0
113987,-142.857142857143,4,2,1,40,0,0
116891,-142.857142857143,4,2,1,30,0,0
117536,-142.857142857143,4,2,1,20,0,0
118181,-142.857142857143,4,2,1,10,0,0

[Colours]
Combo1 : 255,128,255
Combo2 : 128,255,255
Combo3 : 255,255,128
Combo4 : 128,128,255

[HitObjects]
80,196,762,5,6,1:2:0:0:
180,184,923,1,2,0:0:0:0:
80,196,1084,1,10,0:0:0:0:
180,184,1245,1,2,0:0:0:0:
184,84,1407,1,6,1:2:0:0:
292,236,1568,1,2,0:0:0:0:
180,184,1729,1,10,0:0:0:0:
368,96,1891,1,6,0:0:0:0:
368,96,2213,5,6,0:0:0:0:
396,192,2374,1,0,3:2:0:0:
408,196,2455,1,0,3:2:0:0:
420,200,2536,1,0,3:2:0:0:
432,204,2616,1,0,3:2:0:0:
444,208,2697,1,0,3:2:0:0:
496,148,3020,6,0,P|524:214|484:276,1,133.333333333333,8|0,0:0|0:0,0:0:0:0:
216,256,3342,5,2,1:2:0:0:
444,208,3503,1,2,0:0:0:0:
216,256,3665,1,10,1:2:0:0:
444,208,3826,1,2,0:0:0:0:
232,76,3987,1,2,1:2:0:0:
432,108,4149,1,2,0:0:0:0:
332,92,4310,1,10,1:2:0:0:
432,108,4471,2,0,P|468:68|480:12,1,100,2|0,0:0|1:0,0:0:0:0:
132,60,4794,5,2,0:0:0:0:
88,252,4955,1,10,1:2:0:0:
132,60,5116,1,2,0:0:0:0:
204,208,5278,1,2,1:2:0:0:
32,160,5439,1,2,0:0:0:0:
132,60,5600,1,10,1:2:0:0:
204,208,5761,2,0,B|268:204|268:204|304:180,1,100,2|0,0:0|1:0,0:0:0:0:
439,71,6084,5,2,0:0:0:0:
239,125,6245,1,10,1:2:0:0:
386,272,6407,1,2,0:0:0:0:
323,40,6568,1,2,1:2:0:0:
386,272,6729,1,2,0:0:0:0:
270,240,6890,1,10,1:2:0:0:
471,187,7052,2,0,P|498:228|506:277,1,100,2|0,0:0|1:0,0:0:0:0:
284,336,7374,5,2,0:0:0:0:
239,125,7536,1,10,1:2:0:0:
386,272,7697,1,2,0:0:0:0:
164,240,7858,1,2,1:2:0:0:
239,125,8020,1,2,0:0:0:0:
284,336,8181,1,10,1:2:0:0:
64,243,8342,2,0,L|176:239,1,100,2|4,0:0|1:2,0:0:0:0:
404,160,8665,5,2,1:2:0:0:
284,336,8826,1,10,1:2:0:0:
216,160,8987,1,2,1:2:0:0:
404,196,9149,1,10,1:2:0:0:
328,56,9310,1,2,1:2:0:0:
296,240,9471,1,10,1:2:0:0:
488,164,9632,2,0,P|508:120|504:60,1,100,2|8,1:2|1:2,0:0:0:0:
200,28,9955,5,2,1:2:0:0:
296,240,10116,1,10,1:2:0:0:
404,92,10278,1,2,1:2:0:0:
136,188,10439,1,10,1:2:0:0:
304,344,10600,1,2,1:2:0:0:
412,100,10761,1,2,3:2:0:0:
412,100,10842,1,2,3:2:0:0:
412,100,10923,2,0,L|416:164,1,50,2|0,3:2|0:0,0:0:0:0:
299,34,11084,6,0,L|179:26,2,100,2|2|2,1:2|0:0|0:0,0:0:0:0:
271,130,11568,2,0,L|151:122,2,100,2|2|2,1:2|0:0|0:0,0:0:0:0:
436,76,12052,1,2,3:2:0:0:
436,76,12133,1,2,3:2:0:0:
436,76,12214,2,0,L|440:12,1,50,2|0,3:2|0:0,0:0:0:0:
500,180,12374,5,4,1:2:0:0:
356,320,12697,1,4,1:2:0:0:
500,180,12858,1,4,1:2:0:0:
455,315,13181,6,0,P|376:224|268:272,1,250,4|0,1:2|0:0,0:0:0:0:
356,320,13665,6,0,L|348:136,1,179.999994506836,6|10,0:0|0:0,0:0:0:0:
276,84,14149,2,0,L|172:76,1,89.9999972534181,2|0,0:0|0:0,0:0:0:0:
428,95,14471,2,0,P|448:56|448:4,1,89.9999972534181,2|8,0:0|0:0,0:0:0:0:
276,84,14794,6,0,L|80:68,1,179.999994506836,2|2,0:0|0:0,0:0:0:0:
96,244,15278,1,10,0:0:0:0:
96,244,15439,1,0,0:0:0:0:
177,209,15600,2,0,P|187:169|175:110,1,89.9999972534181,2|0,0:0|0:0,0:0:0:0:
6,251,15923,2,0,P|21:292|52:325,1,89.9999972534181,10|0,0:0|0:0,0:0:0:0:
244,264,16245,6,0,P|332:256|420:296,1,179.999994506836,2|10,0:0|0:0,0:0:0:0:
300,152,16729,2,0,L|296:56,1,89.9999972534181,2|0,0:0|0:0,0:0:0:0:
472,108,17052,2,0,L|468:197,1,89.9999972534181,2|8,0:0|0:0,0:0:0:0:
396,32,17374,1,2,0:0:0:0:
472,108,17697,6,0,L|468:176,1,44.999998626709,2|2,1:2|1:2,0:0:0:0:
396,32,17858,2,0,P|328:76|212:52,1,179.999994506836,4|2,1:2|0:0,0:0:0:0:
164,8,18342,1,0,1:0:0:0:
10,75,18503,1,0,1:0:0:0:
164,8,18665,1,8,1:2:0:0:
100,72,18826,6,0,P|90:114|96:172,1,89.9999972534181,6|0,0:0|0:0,0:0:0:0:
228,351,19149,2,0,P|231:306|222:263,1,89.9999972534181,8|0,0:0|0:0,0:0:0:0:
96,164,19471,1,2,0:0:0:0:
314,271,19632,2,0,P|301:228|277:189,1,89.9999972534181,2|8,0:0|0:0,0:0:0:0:
108,176,19955,1,2,0:0:0:0:
108,176,20036,1,2,0:0:0:0:
108,176,20116,6,0,P|192:153|226:73,1,179.999994506836,2|0,0:0|0:0,0:0:0:0:
135,88,20600,1,0,0:0:0:0:
278,190,20761,2,0,L|374:186,1,89.9999972534181,2|0,0:0|0:0,0:0:0:0:
512,16,21084,2,0,L|416:12,1,89.9999972534181,10|0,0:0|0:0,0:0:0:0:
456,268,21407,5,0,1:0:0:0:
460,180,21568,1,0,1:0:0:0:
464,92,21729,1,0,1:0:0:0:
456,268,22052,6,0,P|436:308|384:348,1,89.9999972534181,8|0,0:0|0:0,0:0:0:0:
460,180,22374,1,0,1:0:0:0:
464,92,22536,1,8,0:0:0:0:
364,252,22697,5,6,0:0:0:0:
364,252,22858,2,0,P|272:260|188:188,1,179.999994506836,2|2,0:0|0:0,0:0:0:0:
16,172,23342,2,0,P|60:170|121:195,1,89.9999972534181,2|2,0:0|0:0,0:0:0:0:
50,258,23665,2,0,P|92:271|141:316,1,89.9999972534181,2|2,0:0|0:0,0:0:0:0:
52,344,23987,1,4,0:0:0:0:
64,64,24632,5,0,3:0:0:0:
152,76,24794,1,0,1:0:0:0:
64,64,24955,1,0,1:0:0:0:
240,88,25116,1,4,0:0:0:0:
240,88,25761,5,0,0:0:0:0:
328,100,25923,2,0,L|452:120,1,89.9999972534181,0|0,3:0|0:0,0:0:0:0:
240,88,26245,1,0,1:0:0:0:
296,16,26407,1,0,0:0:0:0:
360,184,26568,1,4,0:0:0:0:
360,184,27052,5,0,0:0:0:0:
448,196,27213,2,0,B|480:128|456:60|456:60|452:84|432:116,1,179.999994506836,8|0,0:0|0:0,0:0:0:0:
360,184,27697,1,4,0:0:0:0:
476,280,27858,1,4,0:0:0:0:
476,280,28181,5,0,0:0:0:0:
360,184,28342,1,0,0:0:0:0:
476,280,28826,6,0,L|368:272,1,89.9999972534181
92,260,29149,5,12,0:0:0:0:
88,224,29471,1,8,0:0:0:0:
84,188,29794,1,8,0:0:0:0:
80,152,30116,1,8,0:0:0:0:
272,92,30278,1,8,0:0:0:0:
192,160,30439,5,12,0:0:0:0:
188,188,30761,1,8,0:0:0:0:
184,216,31084,1,12,0:0:0:0:
180,244,31407,2,0,L|120:248,1,44.999998626709,0|0,3:0|3:0,0:0:0:0:
244,312,31568,2,0,L|304:316,1,44.999998626709,0|0,3:0|3:0,0:0:0:0:
180,244,31729,6,0,L|8:252,2,134.999995880127,0|0|0,1:0|1:0|1:0,0:0:0:0:
244,312,32374,2,0,L|416:320,2,134.999995880127,8|0|0,1:2|1:0|1:0,0:0:0:0:
45,250,33020,5,4,0:0:0:0:
378,318,33342,1,4,0:0:0:0:
378,318,33503,1,4,0:0:0:0:
440,36,34310,6,0,B|436:96|436:96|464:188|464:188|452:172|432:156,1,194.999991073609,6|2,1:2|0:0,0:0:0:0:
437,160,34633,2,0,P|473:212|453:292,1,129.999994049073,10|2,1:2|0:0,0:0:0:0:
120,288,34956,5,2,1:2:0:0:
120,288,35036,1,2,0:2:0:0:
120,288,35117,2,0,L|184:284,1,64.9999970245363,2|0,0:0|0:0,0:0:0:0:
380,232,35278,1,10,1:2:0:0:
380,232,35358,1,2,0:0:0:0:
380,232,35439,2,0,L|316:228,1,64.9999970245363,2|0,0:0|0:0,0:0:0:0:
52,132,35601,6,0,B|100:144|144:116|144:116|160:124|188:124,1,129.999994049073,2|0,1:2|0:0,0:0:0:0:
252,88,35843,1,2,0:0:0:0:
252,88,35923,2,0,P|257:56|248:8,1,64.9999970245363,10|0,1:2|0:0,0:0:0:0:
148,204,36084,1,0,0:0:0:0:
336,104,36245,5,2,1:2:0:0:
336,104,36326,1,2,0:2:0:0:
336,104,36407,2,0,P|352:76|360:28,1,64.9999970245363,2|0,0:0|0:0,0:0:0:0:
408,152,36568,1,10,1:2:0:0:
408,152,36649,1,2,0:0:0:0:
408,152,36730,2,0,P|432:131|456:88,1,64.9999970245363,2|0,0:0|0:0,0:0:0:0:
464,296,36891,6,0,B|452:264|464:228|464:228|396:268|328:212,1,194.999991073609,2|2,1:2|0:0,0:0:0:0:
345,224,37213,2,0,B|368:240|384:244|384:244|372:296|400:344,1,129.999994049073,10|0,1:2|0:0,0:0:0:0:
64,300,37536,1,2,1:2:0:0:
48,279,37616,1,2,0:2:0:0:
36,256,37697,1,2,0:2:0:0:
28,231,37777,1,2,0:2:0:0:
24,205,37858,1,10,1:2:0:0:
24,179,37939,1,2,0:2:0:0:
29,154,38019,1,2,0:2:0:0:
37,129,38100,1,2,0:2:0:0:
49,106,38181,6,0,L|116:100,1,64.9999970245363,2|0,1:2|0:0,0:0:0:0:
188,212,38342,2,0,L|121:206,1,64.9999970245363,2|0,0:0|0:0,0:0:0:0:
200,36,38503,5,10,1:2:0:0:
296,224,38665,1,2,0:2:0:0:
28,231,38826,1,2,1:2:0:0:
200,176,38987,1,2,0:2:0:0:
136,328,39149,1,10,1:2:0:0:
136,328,39229,1,2,0:2:0:0:
136,328,39310,2,0,L|60:324,1,64.9999970245363,2|0,0:0|0:0,0:0:0:0:
200,176,39471,6,0,B|292:180|292:180|320:168|320:168|408:168,1,194.999991073609,4|2,1:2|0:0,0:0:0:0:
392,168,39794,1,10,1:2:0:0:
264,88,39955,6,0,L|260:8,1,64.9999970245363,2|0,0:0|0:0,0:0:0:0:
348,260,40116,1,2,1:2:0:0:
348,260,40197,1,2,0:2:0:0:
348,260,40278,2,0,L|344:340,1,64.9999970245363,2|0,0:0|0:0,0:0:0:0:
356,148,40439,1,10,1:2:0:0:
356,148,40520,1,2,0:2:0:0:
356,148,40601,2,0,L|436:144,1,64.9999970245363,2|0,0:0|0:0,0:0:0:0:
212,208,40761,6,0,B|164:220|120:196|120:196|76:208|76:208|56:196|8:196,1,194.999991073609,2|2,1:2|0:0,0:0:0:0:
176,128,41084,2,0,P|176:92|164:64,1,64.9999970245363,10|0,1:2|0:0,0:0:0:0:
28,280,41245,2,0,P|28:316|40:344,1,64.9999970245363,2|0,0:0|0:0,0:0:0:0:
84,116,41407,2,0,P|66:84|41:66,1,64.9999970245363,2|0,1:2|0:0,0:0:0:0:
116,296,41568,2,0,P|134:327|158:345,1,64.9999970245363,2|0,0:0|0:0,0:0:0:0:
256,316,41729,2,0,L|260:260,4,32.4999985122681,2|2|2|2|2,3:2|3:2|3:2|3:2|3:2,0:2:0:0:
420,328,42052,5,4,0:0:0:0:
420,328,42213,2,0,L|348:324,1,64.9999970245363
96,264,42374,1,4,0:0:0:0:
96,264,42535,2,0,L|168:260,1,64.9999970245363
432,228,42697,1,4,0:0:0:0:
432,228,42858,2,0,L|360:224,1,64.9999970245363
80,172,43019,1,4,0:0:0:0:
80,172,43180,2,0,L|152:168,1,64.9999970245363
444,128,43342,6,0,L|372:124,1,64.9999970245363,4|0,0:0|0:0,0:0:0:0:
64,80,43665,2,0,L|136:76,1,64.9999970245363,4|0,0:0|0:0,0:0:0:0:
456,28,43826,2,0,L|384:24,1,64.9999970245363,4|0,0:0|0:0,0:0:0:0:
275,25,44149,6,0,B|244:108|300:192|300:192|264:168|212:184,1,250,4|0,0:0|0:0,0:0:0:0:
252,260,44632,6,0,P|352:256|376:164,1,194.999991073609,6|2,1:2|0:0,0:0:0:0:
379,177,44955,2,0,B|384:202|376:224|376:224|424:228|472:204,1,129.999994049073,10|0,1:2|0:0,0:0:0:0:
488,40,45278,5,2,1:2:0:0:
488,40,45358,1,2,0:2:0:0:
488,40,45439,2,0,L|480:108,1,64.9999970245363,2|0,0:2|0:0,0:0:0:0:
400,328,45600,1,10,1:2:0:0:
400,328,45680,1,2,0:2:0:0:
400,328,45761,2,0,L|392:260,1,64.9999970245363,2|0,0:0|0:0,0:0:0:0:
248,160,45923,6,0,B|336:164|336:164|380:140,1,129.999994049073,2|0,1:2|0:0,0:0:0:0:
304,72,46165,1,2,0:0:0:0:
304,72,46245,2,0,L|300:8,1,64.9999970245363,10|0,1:2|0:0,0:0:0:0:
152,156,46406,1,0,0:0:0:0:
208,68,46567,5,2,1:2:0:0:
208,68,46648,1,2,0:2:0:0:
208,68,46729,2,0,L|204:4,1,64.9999970245363,2|0,0:2|0:0,0:0:0:0:
112,64,46891,1,10,1:2:0:0:
112,64,46972,1,2,0:0:0:0:
112,64,47053,2,0,L|108:0,1,64.9999970245363,2|0,0:2|0:0,0:0:0:0:
0,224,47213,6,0,B|4:166|68:150|68:150|104:162|104:162|160:154,1,194.999991073609,2|2,1:2|0:0,0:0:0:0:
151,155,47535,2,0,B|120:160|120:160|144:216|144:216|136:264,1,129.999994049073,10|0,1:2|0:0,0:0:0:0:
432,336,47858,5,2,1:2:0:0:
430,310,47938,1,2,0:2:0:0:
428,284,48019,1,2,0:2:0:0:
426,258,48099,1,2,0:2:0:0:
424,232,48180,1,10,1:2:0:0:
422,206,48261,1,2,0:2:0:0:
420,180,48341,1,2,0:2:0:0:
418,154,48422,1,2,0:2:0:0:
416,128,48503,6,0,P|384:116|352:112,1,64.9999970245363,2|0,1:2|0:0,0:0:0:0:
137,253,48665,2,0,P|169:248|199:237,1,64.9999970245363,2|0,0:2|0:0,0:0:0:0:
256,48,48826,1,10,1:2:0:0:
364,208,48987,1,2,0:2:0:0:
256,48,49148,1,2,1:2:0:0:
151,155,49309,1,2,0:2:0:0:
256,48,49471,2,0,L|256:4,4,32.4999985122681,2|2|2|2|2,3:2|3:2|3:2|3:2|3:2,0:0:0:0:
272,292,49794,6,0,B|288:244|288:244|272:140|272:140|304:168,1,194.999991073609,6|2,1:2|0:0,0:0:0:0:
301,165,50116,2,0,B|272:140|272:140|231:167|159:147,1,129.999994049073,10|0,1:2|0:0,0:0:0:0:
408,140,50439,5,2,1:2:0:0:
92,124,50600,1,2,0:2:0:0:
408,140,50761,2,0,L|416:216,1,64.9999970245363,10|0,0:0|0:0,0:0:0:0:
92,124,50923,2,0,L|84:200,1,64.9999970245363,10|0,0:0|0:0,0:0:0:0:
236,360,51084,5,2,1:2:0:0:
236,360,51165,1,2,0:0:0:0:
236,360,51245,2,0,P|262:341|278:313,1,64.9999970245363,2|0,0:2|0:0,0:0:0:0:
354,304,51407,1,10,2:2:0:0:
354,304,51487,1,2,2:0:0:0:
354,304,51568,2,0,P|344:273|322:249,1,64.9999970245363,2|0,0:0|0:0,0:0:0:0:
339,174,51729,1,2,2:0:0:0:
339,174,51810,1,2,2:0:0:0:
339,174,51891,2,0,P|306:173|277:186,1,64.9999970245363,2|0,0:0|0:0,0:0:0:0:
210,148,52053,6,0,P|199:178|203:210,1,64.9999970245363,10|0,0:0|0:0,0:0:0:0:
146,263,52214,2,8,P|171:282|203:288,1,64.9999970245363,10|8,0:0|0:0,0:0:0:0:
396,232,52374,5,8,0:0:0:0:
112,84,52536,1,8,0:0:0:0:
392,104,52697,1,8,0:0:0:0:
152,168,52858,1,8,0:0:0:0:
408,276,53020,1,8,0:0:0:0:
104,256,53181,1,8,0:0:0:0:
392,104,53342,1,8,0:0:0:0:
128,52,53503,1,8,0:0:0:0:
296,32,53665,5,2,0:0:0:0:
278,51,53745,1,2,0:0:0:0:
265,73,53826,1,2,0:0:0:0:
254,97,53906,1,2,0:0:0:0:
248,122,53987,1,2,0:0:0:0:
246,148,54068,1,2,0:0:0:0:
248,174,54148,1,2,0:0:0:0:
255,199,54229,1,2,0:0:0:0:
265,223,54310,5,0,3:0:0:0:
302,232,54390,1,0,3:0:0:0:
327,261,54471,1,0,3:0:0:0:
333,299,54551,1,0,3:0:0:0:
316,333,54632,1,0,3:0:0:0:
283,353,54713,1,0,3:0:0:0:
245,350,54793,1,4,3:2:0:0:
104,200,55923,5,4,0:0:0:0:
412,156,56084,1,4,0:0:0:0:
412,156,56407,5,4,0:0:0:0:
104,200,56568,1,4,0:0:0:0:
235,40,57052,6,0,P|235:79|249:117,2,80,2|2|2,0:0|0:0|0:0,0:0:0:0:
316,188,57536,6,0,P|316:227|302:265,1,80,2|2,0:0|0:0,0:0:0:0:
228,324,57858,1,2,0:0:0:0:
302,265,58020,2,0,P|380:256|476:304,1,160,2|2,0:0|0:0,0:0:0:0:
228,324,58503,2,0,P|208:288|216:224,1,80,2|2,0:0|0:0,0:0:0:0:
388,208,58826,6,0,B|392:104|392:104|372:52,1,160,2|2,0:0|0:0,0:0:0:0:
276,44,59310,1,2,0:0:0:0:
264,72,59632,1,2,0:0:0:0:
168,64,59794,1,2,0:0:0:0:
72,52,59955,1,2,0:0:0:0:
252,100,60116,6,0,L|260:200,1,80,2|0,0:0|0:0,0:0:0:0:
20,232,60439,2,0,L|28:132,1,80,2|0,0:0|0:0,0:0:0:0:
364,132,60761,2,0,L|372:232,1,80,2|0,0:0|0:0,0:0:0:0:
132,264,61084,2,0,L|140:164,1,80,2|0,0:0|0:0,0:0:0:0:
320,304,61407,6,0,P|406:309|466:261,1,160,2|2,0:0|0:0,0:0:0:0:
384,56,61891,2,0,B|364:100|364:100|370:211,2,160,2|2|0,0:0|0:0|0:0,0:0:0:0:
272,164,62697,6,0,L|92:152,1,160,2|2,0:0|0:0,0:0:0:0:
16,144,63181,2,0,P|1:106|1:67,1,80,2|0,0:0|0:0,0:0:0:0:
188,204,63503,1,2,0:0:0:0:
188,204,63665,2,0,P|187:243|173:280,1,80,2|0,0:0|0:0,0:0:0:0:
112,153,63987,6,0,P|176:116|264:156,1,160,2|2,0:0|0:0,0:0:0:0:
320,72,64471,2,0,L|404:68,1,80,2|0,0:0|0:0,0:0:0:0:
476,128,64794,1,2,0:0:0:0:
385,161,64955,1,2,0:0:0:0:
459,223,65116,1,2,0:0:0:0:
476,128,65278,5,2,0:0:0:0:
368,256,65439,2,0,L|364:360,1,80,2|0,0:0|0:0,0:0:0:0:
476,128,65761,2,0,L|472:24,1,80,2|0,0:0|0:0,0:0:0:0:
236,136,66084,1,2,0:0:0:0:
385,161,66245,1,2,0:0:0:0:
264,32,66407,1,2,0:0:0:0:
252,172,66568,6,0,B|200:224|104:212|104:212|120:172|100:128,2,240,2|2|2,0:0|0:0|0:0,0:0:0:0:
24,176,67858,1,4,0:0:0:0:
172,336,73020,6,0,P|217:292|236:225,1,100,12|0,0:0|0:0,0:0:0:0:
172,47,73342,2,0,P|187:108|236:158,1,100,8|0,0:0|0:0,0:0:0:0:
422,192,73665,2,0,P|362:174|294:191,1,100,8|0,0:0|0:0,0:0:0:0:
232,258,73987,5,8,0:0:0:0:
325,179,74149,1,8,0:0:0:0:
209,138,74310,2,0,P|182:96|172:47,1,100,12|0,0:0|0:0,0:0:0:0:
232,258,74632,2,0,P|210:303|172:336,1,100,8|0,0:0|0:0,0:0:0:0:
325,179,74955,2,0,P|375:175|422:192,1,100,8|0,0:0|0:0,0:0:0:0:
128,240,75278,2,0,L|124:200,4,25,0|0|0|0|0,3:0|3:0|3:0|3:0|3:0,0:0:0:0:
356,364,75600,6,0,L|364:256,1,100,0|0,1:0|0:0,0:0:0:0:
363,264,75842,2,0,L|371:156,1,100,0|0,1:0|0:0,0:0:0:0:
370,164,76084,1,0,1:0:0:0:
132,314,76245,2,0,L|124:206,1,100,8|0,1:2|0:2,0:2:0:0:
125,214,76487,2,0,L|117:106,1,100,0|0,1:0|0:0,0:0:0:0:
118,114,76729,1,0,1:0:0:0:
384,48,76891,5,4,0:0:0:0:
125,214,77213,1,4,0:0:0:0:
125,214,77374,1,4,0:0:0:0:
370,164,78181,5,4,0:0:0:0:
118,114,78665,1,8,0:0:0:0:
388,268,79310,5,0,1:0:0:0:
388,268,79391,1,0,1:0:0:0:
388,268,79471,1,4,0:0:0:0:
144,212,79794,5,0,0:0:0:0:
80,288,79955,1,0,0:0:0:0:
80,288,80278,5,0,0:0:0:0:
144,212,80439,2,0,L|136:64,1,133.333333333333,8|0,0:0|0:0,0:0:0:0:
432,84,80761,6,0,B|392:96|392:96|356:124|356:124|280:120|280:120|320:140,1,194.999991073609,6|2,1:2|0:0,0:0:0:0:
308,134,81084,2,0,B|280:120|280:120|236:152|160:136,1,129.999994049073,10|0,1:2|0:0,0:0:0:0:
440,176,81407,5,2,1:2:0:0:
456,197,81487,1,2,0:2:0:0:
468,220,81568,1,2,0:2:0:0:
476,245,81648,1,2,0:2:0:0:
480,271,81729,1,10,1:2:0:0:
480,297,81810,1,2,0:2:0:0:
475,322,81890,1,2,0:2:0:0:
467,347,81971,1,2,0:2:0:0:
455,370,82052,6,0,L|388:376,1,64.9999970245363,2|0,1:2|0:0,0:0:0:0:
320,224,82213,1,2,0:0:0:0:
320,224,82294,1,2,0:0:0:0:
320,224,82374,6,0,L|248:228,1,64.9999970245363,10|0,0:0|0:0,0:0:0:0:
120,296,82536,1,2,0:2:0:0:
288,328,82697,1,2,1:2:0:0:
200,40,82858,1,2,0:2:0:0:
120,296,83020,1,10,1:2:0:0:
120,296,83100,1,2,0:2:0:0:
120,296,83181,2,0,L|116:224,1,64.9999970245363,2|0,0:0|0:0,0:0:0:0:
8,112,83342,6,0,B|60:144|132:124|132:124|164:140|164:140|212:136,1,194.999991073609,4|2,1:2|0:0,0:0:0:0:
194,137,83665,1,10,1:2:0:0:
348,88,83826,6,0,P|316:76|284:76,1,64.9999970245363,2|0,0:0|0:0,0:0:0:0:
440,144,83987,1,2,1:2:0:0:
440,144,84068,1,2,0:2:0:0:
440,144,84149,2,0,P|472:132|508:104,1,64.9999970245363,2|0,0:0|0:0,0:0:0:0:
352,200,84310,1,10,1:2:0:0:
352,200,84391,1,2,0:2:0:0:
352,200,84472,2,0,L|352:268,1,64.9999970245363,2|0,0:0|0:0,0:0:0:0:
348,88,84632,6,0,B|304:80|304:80|280:56|280:56|220:88|152:44,1,194.999991073609,2|2,1:2|0:0,0:0:0:0:
28,132,84955,2,0,L|32:196,1,64.9999970245363,10|0,1:2|0:0,0:0:0:0:
180,117,85116,2,0,L|168:53,1,64.9999970245363,2|0,0:0|0:0,0:0:0:0:
92,264,85278,2,0,L|99:328,1,64.9999970245363,2|0,1:2|0:0,0:0:0:0:
276,224,85439,2,0,L|258:161,1,64.9999970245363,2|0,0:0|0:0,0:0:0:0:
56,92,85600,2,0,L|0:88,4,32.4999985122681,2|2|2|2|2,3:2|3:2|3:2|3:2|3:2,0:2:0:0:
348,84,85923,5,4,0:0:0:0:
348,84,86003,1,0,0:0:0:0:
348,84,86084,2,0,L|352:12,1,64.9999970245363
496,204,86245,1,4,0:0:0:0:
496,204,86326,1,0,0:0:0:0:
496,204,86406,2,0,L|500:276,1,64.9999970245363
248,104,86568,1,4,0:0:0:0:
248,104,86649,1,0,0:0:0:0:
248,104,86729,2,0,L|252:32,1,64.9999970245363
404,236,86890,1,4,0:0:0:0:
404,236,86971,1,0,0:0:0:0:
404,236,87051,2,0,L|408:308,1,64.9999970245363
148,124,87213,6,0,L|152:52,1,64.9999970245363,4|0,0:0|0:0,0:0:0:0:
308,268,87536,2,0,L|312:340,1,64.9999970245363,4|0,0:0|0:0,0:0:0:0:
48,144,87697,2,0,L|52:72,1,64.9999970245363,4|0,0:0|0:0,0:0:0:0:
5,240,88020,6,0,B|73:260|133:232|133:232|121:256|121:256|177:236|229:268,1,250,4|0,0:0|0:0,0:0:0:0:
165,328,88503,6,0,P|265:324|289:232,1,194.999991073609,6|2,1:2|0:0,0:0:0:0:
292,245,88826,2,0,B|297:268|289:292|289:292|333:284|381:316,1,129.999994049073,10|0,1:2|0:0,0:0:0:0:
512,208,89149,5,2,1:2:0:0:
512,208,89229,1,2,0:2:0:0:
512,208,89310,2,0,L|504:140,1,64.9999970245363,2|0,0:2|0:0,0:0:0:0:
308,0,89471,1,10,1:2:0:0:
308,0,89551,1,2,0:2:0:0:
308,0,89632,2,0,L|300:68,1,64.9999970245363,2|0,0:0|0:0,0:0:0:0:
368,308,89794,6,0,B|393:268|393:268|397:176,1,129.999994049073,2|0,1:2|0:0,0:0:0:0:
325,145,90036,1,2,0:0:0:0:
325,145,90116,2,0,P|285:145|253:133,1,64.9999970245363,10|0,1:2|0:0,0:0:0:0:
404,48,90277,1,0,0:0:0:0:
252,216,90439,5,2,1:2:0:0:
252,216,90520,1,2,0:0:0:0:
252,216,90600,2,0,P|214:202|188:180,1,64.9999970245363,2|0,0:2|0:0,0:0:0:0:
164,260,90761,1,10,1:2:0:0:
164,260,90842,1,2,0:0:0:0:
164,260,90922,2,0,P|133:234|116:204,1,64.9999970245363,2|0,0:2|0:0,0:0:0:0:
36,64,91084,6,0,B|59:117|125:110|125:110|154:86|154:86|210:75,1,194.999991073609,2|2,1:2|0:0,0:0:0:0:
202,76,91406,2,0,B|176:84|176:84|240:92|272:156,1,129.999994049073,10|0,1:2|0:0,0:0:0:0:
51,247,91729,5,2,3:2:0:0:
83,225,91809,1,2,3:2:0:0:
120,213,91890,1,2,3:2:0:0:
159,210,91970,1,2,3:2:0:0:
197,216,92051,1,10,3:2:0:0:
233,231,92132,1,2,3:2:0:0:
264,255,92212,1,2,3:2:0:0:
288,285,92293,1,2,3:2:0:0:
305,320,92374,6,0,P|332:336|384:336,1,64.9999970245363,2|0,1:2|0:0,0:0:0:0:
164,320,92536,2,0,P|163:351|189:396,1,64.9999970245363,2|0,0:2|0:0,0:0:0:0:
364,256,92697,2,0,P|395:256|440:230,1,64.9999970245363,10|0,1:2|0:0,0:0:0:0:
96,264,92859,2,0,P|80:291|79:343,1,64.9999970245363,2|0,0:2|0:0,0:0:0:0:
380,172,93020,1,2,1:2:0:0:
112,132,93181,1,2,0:2:0:0:
256,88,93342,2,0,L|260:44,4,32.4999985122681,2|2|2|2|2,3:2|3:2|3:2|3:2|3:2,0:0:0:0:
248,336,93665,6,0,B|284:268|264:188|264:188|240:244,1,194.999991073609,6|2,1:2|0:0,0:0:0:0:
247,227,93987,2,0,B|264:188|264:188|248:136|216:116,1,129.999994049073,10|0,1:2|0:0,0:0:0:0:
96,260,94310,5,2,1:2:0:0:
400,184,94471,1,2,0:2:0:0:
96,260,94632,2,0,L|24:256,1,64.9999970245363,10|0,0:0|0:0,0:0:0:0:
400,184,94794,2,0,L|480:180,1,64.9999970245363,10|0,0:0|0:0,0:0:0:0:
272,272,94955,5,2,1:2:0:0:
272,272,95036,1,2,0:0:0:0:
272,272,95117,2,0,P|266:241|251:210,1,64.9999970245363,2|0,0:0|0:0,0:0:0:0:
123,67,95278,1,2,1:2:0:0:
123,67,95358,1,2,0:0:0:0:
123,67,95439,2,0,P|144:88|175:104,1,64.9999970245363,2|0,0:0|0:0,0:0:0:0:
363,145,95600,1,2,1:2:0:0:
363,145,95681,1,2,0:0:0:0:
363,145,95761,2,0,P|332:140|298:145,1,64.9999970245363,2|0,0:0|0:0,0:0:0:0:
123,223,95923,6,0,P|150:208|175:184,1,64.9999970245363,10|0,0:0|0:0,0:0:0:0:
272,19,96084,2,0,P|258:46|252:81,1,64.9999970245363,10|0,0:0|0:0,0:0:0:0:
436,320,96245,5,8,0:0:0:0:
356,56,96407,1,8,0:0:0:0:
320,300,96568,1,8,0:0:0:0:
252,79,96729,1,8,0:0:0:0:
208,312,96891,1,8,0:0:0:0:
140,80,97052,1,8,0:0:0:0:
104,352,97213,1,8,0:0:0:0:
36,52,97374,1,8,0:0:0:0:
28,228,97536,5,2,0:0:0:0:
47,210,97616,1,2,0:0:0:0:
69,197,97697,1,2,0:0:0:0:
93,186,97777,1,2,0:0:0:0:
118,180,97858,1,2,0:0:0:0:
144,178,97939,1,2,0:0:0:0:
170,180,98019,1,2,0:0:0:0:
195,187,98100,1,2,0:0:0:0:
219,197,98181,5,0,3:0:0:0:
228,234,98261,1,0,3:0:0:0:
257,259,98342,1,0,3:0:0:0:
295,265,98422,1,0,3:0:0:0:
329,248,98503,1,0,3:0:0:0:
349,215,98584,1,0,3:0:0:0:
346,177,98664,1,4,3:2:0:0:
227,33,99794,5,4,0:0:0:0:
295,265,99955,1,4,0:0:0:0:
295,265,100278,5,4,0:0:0:0:
227,33,100439,1,4,0:0:0:0:
440,232,101084,6,0,L|500:236,3,50
392,112,101407,5,2,1:2:0:0:
440,232,101568,1,2,0:0:0:0:
264,168,101730,1,10,1:2:0:0:
400,72,101891,1,2,0:0:0:0:
220,68,102052,1,2,1:2:0:0:
448,200,102214,1,2,0:0:0:0:
256,204,102375,1,10,1:2:0:0:
408,32,102536,2,0,L|304:24,1,100,2|0,0:0|1:0,0:0:0:0:
144,156,102859,5,2,0:0:0:0:
132,56,103020,1,10,1:2:0:0:
60,208,103181,1,2,0:0:0:0:
260,168,103343,1,2,1:2:0:0:
144,156,103504,1,2,0:0:0:0:
304,260,103665,1,10,1:2:0:0:
260,168,103826,2,0,P|276:116|312:76,1,100,2|0,0:0|1:0,0:0:0:0:
500,76,104149,5,2,1:2:0:0:
356,168,104310,1,10,1:2:0:0:
360,0,104472,1,2,0:0:0:0:
384,180,104633,1,2,1:2:0:0:
500,76,104794,1,2,0:0:0:0:
304,81,104955,1,10,1:2:0:0:
412,192,105117,2,0,L|512:184,1,100,2|0,0:0|1:0,0:0:0:0:
300,316,105439,5,2,0:0:0:0:
292,216,105601,1,10,1:2:0:0:
284,116,105762,1,2,0:0:0:0:
172,240,105923,1,2,1:2:0:0:
412,192,106085,1,2,0:0:0:0:
284,116,106246,1,10,1:2:0:0:
172,240,106407,2,0,P|124:240|72:216,1,100,2|4,0:0|1:2,0:0:0:0:
164,60,106730,5,2,1:2:0:0:
292,216,106891,1,10,1:2:0:0:
56,324,107052,1,2,1:2:0:0:
288,184,107214,1,10,1:2:0:0:
20,128,107375,1,2,1:2:0:0:
284,152,107536,1,10,1:2:0:0:
76,219,107697,1,2,1:2:0:0:
76,219,107778,1,2,1:2:0:0:
76,219,107858,1,10,1:2:0:0:
164,60,108020,5,2,1:2:0:0:
296,248,108181,1,10,1:2:0:0:
412,100,108343,1,2,1:2:0:0:
180,184,108504,1,10,1:2:0:0:
304,352,108665,1,2,1:2:0:0:
460,192,108826,1,2,3:2:0:0:
460,192,108907,1,2,3:2:0:0:
460,192,108988,2,0,L|463:241,1,50,2|0,3:2|0:0,0:0:0:0:
412,100,109149,6,0,L|420:-20,2,100,2|2|2,1:2|0:0|0:0,0:0:0:0:
312,104,109633,2,0,L|320:-16,2,100,2|2|2,1:2|0:0|0:0,0:0:0:0:
460,192,110117,1,2,3:2:0:0:
460,192,110198,1,2,3:2:0:0:
460,192,110279,2,0,L|524:196,1,50,2|0,3:2|0:0,0:0:0:0:
224,184,110439,5,4,1:2:0:0:
412,100,110762,1,4,1:2:0:0:
224,184,110923,1,4,1:2:0:0:
320,215,111246,6,0,P|287:102|170:96,1,250,4|0,1:2|0:0,0:0:0:0:
224,184,111729,5,4,0:0:0:0:
16,136,112052,1,2,0:0:0:0:
16,136,112213,1,2,0:0:0:0:
112,312,112536,6,0,L|108:212,1,100,2|0,0:0|0:0,0:0:0:0:
220,273,112858,1,2,0:0:0:0:
220,273,113020,6,0,L|224:173,2,89.9999972534181,2|2|2,0:0|0:0|0:0,0:0:0:0:
328,248,113503,2,0,L|344:148,2,80,2|2|2,0:0|0:0|0:0,0:0:0:0:
436,240,113987,2,0,L|460:172,1,69.9999978637696,2|2,0:0|0:0,0:0:0:0:
492,88,114310,5,2,0:0:0:0:
492,88,114632,2,0,L|432:84,2,34.9999989318848,2|2|0,0:0|0:0|0:0,0:0:0:0:
348,76,115278,1,2,0:0:0:0:
236,64,115654,5,2,0:0:0:0:
256,192,115761,12,0,118181,0:0:0:0:
