osu file format v14

[General]
AudioFilename: audio.mp3
AudioLeadIn: 0
PreviewTime: 34229
Countdown: 0
SampleSet: Soft
StackLeniency: 0.6
Mode: 0
LetterboxInBreaks: 0
WidescreenStoryboard: 1

[Editor]
DistanceSpacing: 1.2
BeatDivisor: 4
GridSize: 4
TimelineZoom: 1.5

[Metadata]
Title:Mono Logic
TitleUnicode:Mono Logic
Artist:DJ NAGAI feat. Ayumi Nomiya
ArtistUnicode:DJ NAGAI feat. Ayumi Nomiya
Creator:Narcissu
Version:Easy
Source:jubeat saucer fulfill
Tags:ALiCE'S EMOTION HARDCORE TANO*C yoshikazu akai hito redalice Lavender Vick Kibbleru Koiyuki Gaia chucentry Minakami Yuki Garden
BeatmapID:1168370
BeatmapSetID:549745

[Difficulty]
HPDrainRate:2
CircleSize:3
OverallDifficulty:3
ApproachRate:4
SliderMultiplier:0.699999999999999
SliderTickRate:1

[Events]
//Background and Video events
0,0,"BG.jpg",0,0
//Break Periods
2,68058,71700
//Storyboard Layer 0 (Background)
//Storyboard Layer 1 (Fail)
//Storyboard Layer 2 (Pass)
//Storyboard Layer 3 (Foreground)
//Storyboard Sound Samples

[TimingPoints]
762,322.58064516129,4,2,1,60,1,0
34310,-100,4,2,1,60,0,1
44149,-100,4,2,1,60,0,0
44632,-100,4,2,1,60,0,1
54794,-100,4,2,1,60,0,0
57052,-100,4,2,1,40,0,0
80761,-100,4,2,1,60,0,1
88020,-100,4,2,1,60,0,0
88503,-100,4,2,1,60,0,1
98665,-100,4,2,1,60,0,0
111729,-100,4,2,1,40,0,0
113020,-100,4,2,1,40,0,0
116891,-100,4,2,1,30,0,0
117536,-100,4,2,1,20,0,0
118181,-100,4,2,1,10,0,0

[Colours]
Combo1 : 255,128,255
Combo2 : 128,255,255
Combo3 : 255,255,128
Combo4 : 128,128,255

[HitObjects]
124,184,762,6,0,L|128:268,1,69.9999999999999,6|10,1:2|0:0,0:0:0:0:
204,284,1407,2,0,P|256:264|312:272,1,105,6|6,1:2|0:0,0:0:0:0:
352,336,2213,2,0,B|424:328|424:328|460:296,1,105,6|0,0:0|3:2,0:0:0:0:
388,248,3020,1,8,0:0:0:0:
440,184,3342,6,0,L|444:28,1,140,2|2,1:2|1:2,0:0:0:0:
364,12,4310,1,10,1:2:0:0:
288,44,4632,2,0,L|295:131,1,69.9999999999999,0|10,1:0|1:2,0:0:0:0:
212,104,5278,2,0,L|204:16,1,69.9999999999999,2|10,1:2|1:2,0:0:0:0:
124,20,5923,6,0,P|76:72|76:160,1,140,0|2,1:0|1:2,0:0:0:0:
116,208,6891,1,10,1:2:0:0:
76,284,7213,2,0,P|116:292|172:276,1,69.9999999999999,0|10,1:0|1:2,0:0:0:0:
152,372,7858,2,0,P|190:358|231:317,1,69.9999999999999,2|10,1:2|1:2,0:0:0:0:
296,340,8503,6,0,P|360:312|440:324,1,140,4|10,1:2|1:2,0:0:0:0:
496,372,9471,1,10,1:2:0:0:
508,288,9794,2,0,L|516:216,1,69.9999999999999,8|10,1:2|1:2,0:0:0:0:
472,148,10439,2,0,L|480:76,1,69.9999999999999,10|2,1:2|3:2,0:0:0:0:
411,27,11084,6,0,P|362:11|312:25,2,105,2|2|2,1:2|1:2|3:2,0:0:0:0:
360,92,12374,2,0,L|356:216,1,105,4|4,1:2|1:2,0:0:0:0:
272,204,13181,2,0,L|276:80,1,105,4|6,1:2|0:0,0:0:0:0:
228,28,13987,5,10,0:0:0:0:
160,76,14310,2,0,P|124:76|80:64,1,69.9999999999999,0|8,0:0|0:0,0:0:0:0:
20,112,14955,2,0,L|24:196,1,69.9999999999999,0|10,0:0|0:0,0:0:0:0:
104,212,15600,2,0,L|100:300,1,69.9999999999999,2|10,0:0|0:0,0:0:0:0:
48,348,16245,6,0,P|120:364|180:308,1,140,2|0,0:0|0:0,0:0:0:0:
180,244,17213,1,8,0:0:0:0:
284,172,17697,2,0,P|308:172|332:180,1,35,0|4,1:0|1:2,0:0:0:0:
388,280,18342,2,0,P|436:268|480:212,1,105,0|6,1:0|0:0,0:0:0:0:
440,152,19149,5,8,0:0:0:0:
492,88,19471,2,0,P|488:48|468:12,1,69.9999999999999,2|8,0:0|0:0,0:0:0:0:
412,76,20116,2,0,P|388:43|353:22,1,69.9999999999999,2|0,0:0|0:0,0:0:0:0:
336,104,20761,2,0,P|299:87|258:86,1,69.9999999999999,2|10,0:0|0:0,0:0:0:0:
280,168,21407,6,0,P|216:192|124:164,1,140,0|8,1:0|0:0,0:0:0:0:
92,116,22374,1,0,1:0:0:0:
16,156,22697,2,0,L|4:324,2,140,4|0|4,0:0|0:0|0:0,0:0:0:0:
168,232,24632,6,0,L|172:356,1,105,0|4,3:0|0:0,0:0:0:0:
380,360,25923,1,0,3:0:0:0:
460,332,26245,2,0,P|472:300|468:252,1,69.9999999999999,0|4,1:0|0:0,0:0:0:0:
352,148,27213,1,8,0:0:0:0:
472,116,27697,2,0,L|476:72,1,35,4|4,0:0|0:0,0:0:0:0:
192,16,29149,6,0,P|224:80|200:172,1,140,12|8,0:0|0:0,0:0:0:0:
148,192,30116,1,8,0:0:0:0:
64,196,30439,2,0,P|32:260|56:352,1,140,12|12,0:0|0:0,0:0:0:0:
124,340,31407,1,0,3:0:0:0:
208,356,31729,6,0,L|364:348,2,140,0|8|4,1:0|1:2|0:0,0:0:0:0:
184,276,33342,2,0,L|172:220,1,35,4|4,0:0|0:0,0:0:0:0:
76,56,34310,6,0,P|48:124|92:196,1,140,6|2,1:2|1:2,0:0:0:0:
132,120,35278,1,10,1:2:0:0:
196,176,35600,2,0,L|284:172,1,69.9999999999999,2|10,1:2|1:2,0:0:0:0:
300,96,36245,2,0,L|376:104,1,69.9999999999999,2|10,1:2|1:2,0:0:0:0:
448,68,36891,6,0,P|500:116|504:204,1,140,2|2,1:2|1:2,0:0:0:0:
436,220,37858,1,10,1:2:0:0:
504,268,38181,2,0,L|500:360,1,69.9999999999999,2|10,1:2|1:2,0:0:0:0:
416,336,38826,2,0,L|324:332,1,69.9999999999999,2|10,1:2|1:2,0:0:0:0:
292,268,39471,6,0,P|228:256|156:296,1,140,4|2,1:2|1:2,0:0:0:0:
128,364,40439,1,10,1:2:0:0:
80,296,40761,2,0,L|0:292,1,69.9999999999999,2|10,1:2|1:2,0:0:0:0:
40,212,41407,2,0,L|120:216,1,69.9999999999999,2|2,1:2|3:2,0:0:0:0:
188,180,42052,5,4,0:0:0:0:
250,236,42374,1,4,0:0:0:0:
323,194,42697,1,4,0:0:0:0:
305,112,43020,1,4,0:0:0:0:
220,104,43342,2,0,P|240:56|302:29,1,105,4|4,0:0|0:0,0:0:0:0:
368,52,44149,1,4,0:0:0:0:
492,80,44632,6,0,L|488:240,1,140,6|2,1:2|1:2,0:0:0:0:
484,304,45600,1,10,1:2:0:0:
412,260,45923,2,0,L|342:263,1,69.9999999999999,2|10,1:2|1:2,0:0:0:0:
284,324,46568,2,0,L|214:316,1,69.9999999999999,2|10,1:2|1:2,0:0:0:0:
136,348,47213,6,0,B|100:324|100:324|88:216,1,140,2|2,1:2|1:2,0:0:0:0:
144,164,48181,1,10,1:2:0:0:
60,148,48503,2,0,P|40:120|32:68,1,69.9999999999999,2|10,1:2|1:2,0:0:0:0:
116,84,49149,2,0,P|112:49|131:0,1,69.9999999999999,2|2,1:2|3:2,0:0:0:0:
196,56,49794,6,0,P|260:44|332:84,1,140,6|2,1:2|1:2,0:0:0:0:
352,156,50761,1,10,0:0:0:0:
412,96,51084,2,0,L|416:16,1,69.9999999999999,2|10,1:2|2:2,0:0:0:0:
496,48,51729,2,0,L|492:128,1,69.9999999999999,2|10,2:0|0:0,0:0:0:0:
436,180,52374,5,8,0:0:0:0:
457,262,52697,1,8,0:0:0:0:
376,284,53020,1,8,0:0:0:0:
354,202,53342,1,8,0:0:0:0:
272,228,53665,2,0,P|148:180|152:68,1,245,2|4,0:0|0:0,0:0:0:0:
240,128,55923,6,0,L|244:93,1,35,4|4,0:0|0:0,0:0:0:0:
324,128,56407,2,0,L|328:93,1,35,4|4,0:0|0:0,0:0:0:0:
464,120,57536,6,0,P|496:188|480:272,1,140,2|0,0:0|0:0,0:0:0:0:
380,336,58826,2,0,P|348:268|364:184,1,140,2|0,0:0|0:0,0:0:0:0:
256,108,60116,6,0,L|100:100,1,140,2|2,0:0|0:0,0:0:0:0:
48,224,61407,2,0,L|204:232,1,140,2|0,0:0|0:0,0:0:0:0:
284,332,62697,6,0,P|352:344|420:288,1,140,2|0,0:0|0:0,0:0:0:0:
448,172,63987,2,0,P|424:107|341:76,1,140,2|0,0:0|0:0,0:0:0:0:
228,108,65278,6,0,B|128:100|128:100|96:60,1,140,2|0,0:0|0:0,0:0:0:0:
36,192,66568,2,0,L|32:324,2,105,2|2|2,0:0|0:0|0:0,0:0:0:0:
112,156,67858,5,4,0:0:0:0:
464,312,73020,6,0,L|312:304,1,140,12|8,0:0|0:0,0:0:0:0:
256,256,73987,1,8,0:0:0:0:
332,220,74310,2,0,P|364:156|340:64,1,140,12|8,0:0|0:0,0:0:0:0:
288,40,75278,1,0,3:0:0:0:
220,88,75600,6,0,B|120:84|120:84|76:52,2,140,0|8|4,1:0|1:2|0:0,0:0:0:0:
288,40,77213,2,0,L|292:-12,1,35,4|4,0:0|0:0,0:0:0:0:
444,92,78181,5,4,0:0:0:0:
344,168,78665,1,8,0:0:0:0:
460,340,79471,2,0,B|451:267|451:267|420:236,1,105,4|0,0:0|0:0,0:0:0:0:
372,308,80278,2,0,L|320:300,1,35,0|8,0:0|0:0,0:0:0:0:
256,288,80761,6,0,P|208:340|120:344,1,140,6|2,1:2|1:2,0:0:0:0:
64,320,81729,1,10,1:2:0:0:
128,268,82052,2,0,L|131:198,1,69.9999999999999,2|10,1:2|0:0,0:0:0:0:
56,164,82697,2,0,L|52:72,1,69.9999999999999,2|10,1:2|1:2,0:0:0:0:
120,44,83342,6,0,P|181:75|249:64,1,140,4|2,1:2|1:2,0:0:0:0:
312,8,84310,1,10,1:2:0:0:
376,64,84632,2,0,L|372:144,1,69.9999999999999,2|10,1:2|1:2,0:0:0:0:
448,172,85278,2,0,L|451:241,1,69.9999999999999,2|2,1:2|3:2,0:0:0:0:
368,252,85923,5,4,0:0:0:0:
306,308,86245,1,4,0:0:0:0:
233,266,86568,1,4,0:0:0:0:
251,184,86891,1,4,0:0:0:0:
336,176,87213,2,0,P|316:128|254:101,1,105,4|4,0:0|0:0,0:0:0:0:
188,124,88020,1,4,0:0:0:0:
80,60,88503,6,0,L|76:220,1,140,6|2,1:2|1:2,0:0:0:0:
24,264,89471,1,10,1:2:0:0:
76,328,89794,2,0,L|146:325,1,69.9999999999999,2|10,1:2|1:2,0:0:0:0:
204,264,90439,2,0,L|274:272,1,69.9999999999999,2|10,1:2|1:2,0:0:0:0:
336,328,91084,6,0,B|372:304|372:304|384:196,1,140,2|2,1:2|3:2,0:0:0:0:
340,136,92052,1,10,3:2:0:0:
320,56,92374,2,0,P|292:36|240:28,1,69.9999999999999,2|10,1:2|1:2,0:0:0:0:
256,112,93020,2,0,P|221:108|172:127,1,69.9999999999999,2|2,1:2|3:2,0:0:0:0:
228,192,93665,6,0,P|166:223|98:212,1,140,6|2,1:2|1:2,0:0:0:0:
48,144,94632,1,10,0:0:0:0:
16,220,94955,2,0,L|20:300,1,69.9999999999999,2|2,1:2|1:2,0:0:0:0:
88,340,95600,2,0,L|157:336,1,69.9999999999999,2|10,1:2|0:0,0:0:0:0:
192,260,96245,5,8,0:0:0:0:
171,178,96568,1,8,0:0:0:0:
252,156,96891,1,8,0:0:0:0:
274,238,97213,1,8,0:0:0:0:
356,212,97536,2,0,P|480:260|476:372,1,245,2|4,0:0|0:0,0:0:0:0:
344,100,99794,6,0,L|348:65,1,35,4|4,0:0|0:0,0:0:0:0:
428,100,100278,2,0,L|432:65,1,35,4|4,0:0|0:0,0:0:0:0:
224,100,101407,6,0,L|68:96,1,140,2|2,1:2|1:2,0:0:0:0:
16,144,102374,1,10,1:2:0:0:
92,180,102697,2,0,L|99:267,1,69.9999999999999,0|10,1:0|1:2,0:0:0:0:
20,280,103342,2,0,L|12:368,1,69.9999999999999,2|10,1:2|1:2,0:0:0:0:
96,372,103987,6,0,P|160:344|240:360,1,140,0|2,1:0|1:2,0:0:0:0:
268,280,104955,1,10,1:2:0:0:
344,312,105278,2,0,P|384:320|440:304,1,69.9999999999999,0|10,1:0|1:2,0:0:0:0:
380,240,105923,2,0,P|418:226|459:185,1,69.9999999999999,2|10,1:2|1:2,0:0:0:0:
372,156,106568,6,0,P|400:92|388:12,1,140,4|10,1:2|1:2,0:0:0:0:
308,12,107536,1,10,1:2:0:0:
240,60,107858,2,0,L|168:52,1,69.9999999999999,10|10,1:2|1:2,0:0:0:0:
156,136,108503,2,0,L|84:144,1,69.9999999999999,10|2,1:2|3:2,0:0:0:0:
20,196,109149,6,0,P|4:148|28:84,2,105,2|2|2,1:2|1:2|3:2,0:0:0:0:
100,224,110439,2,0,L|96:348,1,105,4|4,1:2|1:2,0:0:0:0:
180,308,111245,1,4,1:2:0:0:
304,336,111729,6,0,L|300:212,1,105,4|2,0:0|0:0,0:0:0:0:
384,252,112536,1,2,0:0:0:0:
452,204,112858,6,0,P|420:59|273:38,1,315,2|2,0:0|0:0,0:0:0:0:
184,128,114794,1,2,0:0:0:0:
60,104,115278,1,2,0:0:0:0:
256,192,115654,12,0,118181,0:0:0:0:
