osu file format v14

[General]
AudioFilename: audio.mp3
AudioLeadIn: 0
PreviewTime: 34229
Countdown: 0
SampleSet: Soft
StackLeniency: 0.6
Mode: 0
LetterboxInBreaks: 0
WidescreenStoryboard: 1

[Editor]
DistanceSpacing: 1.1
BeatDivisor: 2
GridSize: 4
TimelineZoom: 1.5

[Metadata]
Title:Mono Logic
TitleUnicode:Mono Logic
Artist:DJ NAGAI feat. Ayumi Nomiya
ArtistUnicode:DJ NAGAI feat. Ayumi Nomiya
Creator:Narcissu
Version:Collab Normal
Source:jubeat saucer fulfill
Tags:ALiCE'S EMOTION HARDCORE TANO*C yoshikazu akai hito redalice Lavender Vick Kibbleru Koiyuki Gaia chucentry Minakami Yuki Garden
BeatmapID:1166111
BeatmapSetID:549745

[Difficulty]
HPDrainRate:3
CircleSize:3.5
OverallDifficulty:4
ApproachRate:5.5
SliderMultiplier:0.899999999999999
SliderTickRate:1

[Events]
//Background and Video events
0,0,"BG.jpg",0,0
//Break Periods
2,68058,71895
//Storyboard Layer 0 (Background)
//Storyboard Layer 1 (Fail)
//Storyboard Layer 2 (Pass)
//Storyboard Layer 3 (Foreground)
//Storyboard Sound Samples

[TimingPoints]
762,322.58064516129,4,2,1,60,1,0
13665,-111.111111111111,4,2,1,60,0,0
34310,-100,4,2,1,60,0,1
44149,-100,4,2,1,60,0,0
44632,-100,4,2,1,60,0,1
54794,-100,4,2,1,60,0,0
57052,-111.111111111111,4,2,1,40,0,0
80761,-100,4,2,1,60,0,1
88020,-100,4,2,1,60,0,0
88503,-100,4,2,1,60,0,1
98665,-100,4,2,1,60,0,0
111729,-100,4,2,1,40,0,0
113020,-111.111111111111,4,2,1,40,0,0
116891,-111.111111111111,4,2,1,30,0,0
117536,-111.111111111111,4,2,1,20,0,0
118181,-111.111111111111,4,2,1,10,0,0

[Colours]
Combo1 : 255,128,255
Combo2 : 128,255,255
Combo3 : 255,255,128
Combo4 : 128,128,255

[HitObjects]
100,252,762,6,0,P|128:292|180:308,1,89.9999999999999,6|10,1:2|0:0,0:0:0:0:
256,272,1407,1,6,1:2:0:0:
348,308,1729,1,10,0:0:0:0:
348,308,1891,1,6,0:0:0:0:
444,288,2213,6,0,B|468:252|468:252|463:195,1,89.9999999999999,6|0,0:0|3:2,0:0:0:0:
456,156,2697,1,0,3:0:0:0:
403,71,3020,1,8,0:0:0:0:
329,137,3342,6,0,L|233:133,1,89.9999999999999,2|10,1:2|1:2,0:0:0:0:
201,41,3987,2,0,L|105:37,1,89.9999999999999,2|10,1:2|1:2,0:0:0:0:
38,104,4632,1,0,1:0:0:0:
38,104,4794,2,0,L|36:165,1,45,2|10,0:2|1:2,0:2:0:0:
66,187,5116,1,2,0:2:0:0:
66,187,5278,2,0,L|63:304,1,89.9999999999999,2|10,1:2|1:2,0:2:0:0:
159,300,5923,6,0,P|214:282|269:295,1,89.9999999999999,0|10,1:0|0:2,0:0:0:0:
311,358,6568,2,0,P|355:362|411:342,1,89.9999999999999,2|10,1:2|1:2,0:0:0:0:
475,286,7213,1,0,1:0:0:0:
475,286,7374,2,0,L|470:220,1,45,2|10,0:0|1:2,0:0:0:0:
435,215,7697,1,2,0:0:0:0:
435,215,7858,2,0,L|429:103,1,89.9999999999999,2|10,1:2|0:2,0:2:0:0:
393,33,8503,6,0,P|353:61|333:121,1,89.9999999999999,4|10,1:2|1:2,0:0:0:0:
237,85,9149,2,0,P|241:134|283:181,1,89.9999999999999,10|10,1:2|1:2,0:0:0:0:
357,192,9794,1,8,1:2:0:0:
428,124,10116,1,10,1:2:0:0:
335,97,10439,1,10,1:2:0:0:
263,167,10761,1,2,3:2:0:0:
171,129,11084,6,0,P|130:117|65:129,1,89.9999999999999,2|2,1:2|0:2,0:2:0:0:
37,140,11568,2,0,P|65:185|63:231,1,89.9999999999999,2|2,1:2|0:0,0:0:0:0:
40,263,12052,1,2,3:2:0:0:
87,349,12374,1,4,1:2:0:0:
153,275,12697,1,4,1:2:0:0:
153,275,12858,1,4,1:2:0:0:
202,360,13181,2,0,L|316:366,1,89.9999999999999,4|0,1:2|0:0,0:0:0:0:
333,381,13665,6,0,P|300:336|319:234,1,161.999995056152,6|0,0:0|0:0,0:0:0:0:
404,249,14632,1,8,0:0:0:0:
462,181,14955,2,0,L|466:85,1,80.9999975280762,0|10,0:0|0:0,0:0:0:0:
378,85,15600,2,0,L|374:181,1,80.9999975280762,2|10,0:0|0:0,0:0:0:0:
286,153,16245,6,0,P|206:141|126:177,1,161.999995056152,2|0,0:0|0:0,0:0:0:0:
87,247,17213,1,8,0:0:0:0:
71,379,17697,2,0,L|75:338,1,40.4999987640381,2|4,1:2|1:2,0:0:0:0:
207,322,18342,2,0,L|219:226,1,80.9999975280762,0|8,1:0|1:2,0:0:0:0:
247,209,18826,6,0,P|319:177|419:205,1,161.999995056152,6|2,0:0|0:0,0:0:0:0:
408,280,19794,1,8,0:0:0:0:
486,237,20116,2,0,P|494:197|486:137,1,80.9999975280762,2|8,0:0|0:0,0:0:0:0:
444,80,20761,1,2,0:0:0:0:
362,115,21084,1,10,0:0:0:0:
295,55,21407,6,0,L|301:9,2,40.4999987640381,0|0|0,1:0|1:0|1:0,0:0:0:0:
277,145,22052,1,8,0:0:0:0:
277,145,22213,2,0,L|167:132,1,80.9999975280762,2|8,0:0|0:0,0:0:0:0:
157,113,22697,6,0,B|97:105|97:105|29:141|5:229|73:309,1,283.499991348267,6|2,0:0|0:0,0:0:0:0:
99,321,23987,1,4,0:0:0:0:
251,229,24632,6,0,L|171:225,1,80.9999975280762,0|0,3:0|1:0,0:0:0:0:
127,225,25116,1,4,0:0:0:0:
258,104,25761,6,0,L|260:144,1,40.4999987640381,0|8,0:0|3:2,0:0:0:0:
334,194,26245,1,0,1:0:0:0:
420,172,26568,2,0,P|464:108|456:12,1,161.999995056152,4|8,0:0|0:0,0:0:0:0:
334,65,27697,5,4,0:0:0:0:
334,65,27858,1,4,0:0:0:0:
257,18,28181,2,0,L|216:13,1,40.4999987640381,0|2,0:0|0:0,0:0:0:0:
12,140,29149,6,0,L|4:220,1,80.9999975280762,12|8,0:0|0:0,0:0:0:0:
16,308,29794,1,8,0:0:0:0:
89,257,30116,2,0,L|144:264,1,40.4999987640381,8|8,0:0|0:0,0:0:0:0:
159,294,30439,2,0,L|267:306,1,80.9999975280762,12|8,0:0|0:0,0:0:0:0:
297,370,31084,1,12,0:0:0:0:
378,332,31407,2,0,L|381:291,1,40.4999987640381,8|8,3:2|3:2,0:0:0:0:
364,250,31729,6,0,P|423:281|499:264,1,121.499996292114,6|0,1:2|1:0,0:0:0:0:
506,243,32374,2,0,L|509:119,1,121.499996292114,6|0,1:2|1:0,0:0:0:0:
510,76,33020,1,4,0:0:0:0:
451,14,33342,1,4,0:0:0:0:
451,14,33503,1,4,0:0:0:0:
291,203,34310,6,0,P|275:158|288:99,1,89.9999999999999,6|10,1:2|1:2,0:0:0:0:
308,76,34794,2,0,L|208:80,1,89.9999999999999,2|2,0:0|0:0,0:0:0:0:
174,58,35278,2,0,L|100:61,1,45,10|0,1:2|0:0,0:0:0:0:
85,37,35600,1,2,1:2:0:0:
28,118,35923,1,10,1:2:0:0:
28,118,36084,2,0,P|15:166|36:223,1,89.9999999999999,2|0,0:2|0:2,0:2:0:0:
57,241,36568,1,10,1:2:0:0:
133,303,36891,6,0,L|235:296,1,89.9999999999999,2|10,1:2|1:2,0:0:0:0:
266,273,37374,1,2,0:0:0:0:
365,270,37697,1,2,0:2:0:0:
365,270,37858,2,0,L|368:326,1,45,10|0,1:2|0:0,0:0:0:0:
391,358,38181,2,0,P|439:363|486:340,1,89.9999999999999,2|10,1:2|1:2,0:0:0:0:
503,305,38665,2,0,L|492:199,1,89.9999999999999,2|0,0:0|0:0,0:0:0:0:
489,166,39149,1,10,1:2:0:0:
390,154,39471,6,0,B|366:174|366:174|290:182,1,89.9999999999999,4|10,1:2|1:2,0:0:0:0:
274,217,39955,2,0,L|174:225,1,89.9999999999999,2|2,0:0|0:0,0:0:0:0:
149,260,40439,2,0,L|74:266,1,45,10|0,1:2|0:0,0:0:0:0:
72,225,40761,1,2,1:2:0:0:
43,134,41084,1,10,1:2:0:0:
43,134,41245,2,0,L|144:127,1,89.9999999999999,2|0,0:0|0:0,0:0:0:0:
175,152,41729,1,10,1:2:0:0:
241,78,42052,5,4,0:0:0:0:
336,104,42374,1,4,0:0:0:0:
390,20,42697,1,4,0:0:0:0:
486,45,43020,1,4,0:0:0:0:
491,145,43342,1,4,0:0:0:0:
399,180,43665,1,4,0:0:0:0:
399,180,43826,1,4,0:0:0:0:
472,248,44149,2,0,L|480:360,1,89.9999999999999,4|0,0:0|0:0,0:0:0:0:
434,359,44632,5,6,1:2:0:0:
366,286,44955,1,10,1:2:0:0:
366,286,45116,2,0,P|322:271|259:285,1,89.9999999999999,2|0,0:0|0:0,0:0:0:0:
231,288,45600,2,0,L|226:343,1,45,10|0,1:2|0:2,0:2:0:0:
191,366,45922,2,0,P|145:370|85:340,1,89.9999999999999,2|10,1:2|1:2,0:0:0:0:
66,323,46407,1,2,0:0:0:0:
107,233,46729,1,2,0:0:0:0:
107,233,46891,2,0,L|105:169,1,45,10|0,1:2|0:0,0:0:0:0:
104,138,47213,6,0,P|146:144|192:126,1,89.9999999999999,2|10,1:2|1:2,0:0:0:0:
218,86,47697,1,2,0:0:0:0:
313,51,48020,1,2,0:0:0:0:
313,51,48181,2,0,L|319:120,1,45,10|0,1:2|0:0,0:0:0:0:
362,113,48503,2,0,P|383:155|374:221,1,89.9999999999999,2|10,1:2|1:2,0:0:0:0:
369,245,48987,2,0,P|417:228|463:238,1,89.9999999999999,2|0,0:0|0:0,0:0:0:0:
497,259,49471,1,10,1:2:0:0:
426,329,49794,6,0,B|373:341|373:341|337:337,1,89.9999999999999,6|10,1:2|1:2,0:0:0:0:
293,314,50278,2,0,B|232:308|232:308|192:326,1,89.9999999999999,0|2,0:0|0:2,0:0:0:0:
167,350,50761,2,0,L|100:352,1,45,10|0,1:2|0:0,0:0:0:0:
74,337,51084,1,2,1:2:0:0:
17,262,51407,1,10,1:2:0:0:
17,262,51568,2,0,P|6:215|25:159,1,89.9999999999999,2|0,0:0|0:0,0:0:0:0:
42,133,52052,1,10,1:2:0:0:
105,57,52374,5,8,0:0:0:0:
201,31,52697,1,8,0:0:0:0:
227,127,53020,1,8,0:0:0:0:
131,153,53342,1,8,0:0:0:0:
85,241,53665,2,0,P|221:295|308:178,1,315,2|4,0:0|3:2,0:0:0:0:
484,41,55923,5,4,0:0:0:0:
484,41,56084,1,4,0:0:0:0:
395,84,56407,1,4,0:0:0:0:
395,84,56568,1,4,0:0:0:0:
136,24,57536,6,0,L|140:212,1,161.999995056152,2|0,0:0|0:0,0:0:0:0:
60,328,58826,2,0,L|248:324,1,161.999995056152,2|0,0:0|0:0,0:0:0:0:
380,360,60116,2,0,L|376:172,1,161.999995056152,2|2,0:0|0:0,0:0:0:0:
456,56,61406,2,0,L|268:60,1,161.999995056152,2|0,0:0|0:0,0:0:0:0:
200,192,62697,5,2,0:0:0:0:
52,95,63342,1,0,0:0:0:0:
116,261,63987,1,2,0:0:0:0:
163,91,64632,1,0,0:0:0:0:
23,202,65278,2,0,P|12:296|72:364,1,161.999995056152,2|0,0:0|0:0,0:0:0:0:
204,300,66568,2,0,B|288:308|288:308|328:344,2,121.499996292114,2|2|2,0:0|0:0|0:0,0:0:0:0:
128,324,67858,1,4,0:0:0:0:
448,148,73020,6,0,P|455:193|444:231,1,80.9999975280762,12|8,0:0|0:0,0:0:0:0:
383,290,73665,1,8,0:0:0:0:
310,238,73987,2,0,L|261:235,1,40.4999987640381,8|8,0:0|0:0,0:0:0:0:
236,265,74310,2,0,L|138:258,1,80.9999975280762,12|8,0:0|0:0,0:0:0:0:
73,295,74955,1,8,0:0:0:0:
3,238,75278,2,0,L|11:180,1,40.4999987640381,8|8,3:2|3:2,0:0:0:0:
6,153,75600,6,0,P|62:171|128:151,1,121.499996292114,6|0,1:2|1:0,0:0:0:0:
147,119,76245,2,0,P|191:92|276:97,1,121.499996292114,6|0,1:2|1:0,0:0:0:0:
301,106,76891,1,4,0:0:0:0:
349,31,77213,1,4,0:0:0:0:
349,31,77374,1,4,0:0:0:0:
327,190,78181,5,4,0:0:0:0:
431,254,78665,1,8,0:0:0:0:
234,197,79471,2,0,P|251:140|300:105,2,121.499996292114,4|0|8,0:0|1:0|0:0,0:0:0:0:
289,279,80762,6,0,P|250:295|196:288,1,89.9999999999999,6|10,1:2|1:2,0:0:0:0:
161,265,81245,1,2,0:2:0:0:
94,338,81568,1,2,0:0:0:0:
94,338,81729,2,0,L|24:332,1,45,10|0,1:2|0:0,0:0:0:0:
5,309,82052,2,0,L|9:211,1,89.9999999999999,2|10,1:2|0:0,0:0:0:0:
47,188,82536,2,0,L|52:78,1,89.9999999999999,2|0,0:0|0:0,0:0:0:0:
21,58,83020,1,10,1:2:0:0:
108,12,83342,6,0,B|136:32|136:32|211:36,1,89.9999999999999,4|10,1:2|1:2,0:0:0:0:
240,29,83826,2,0,B|220:63|220:63|218:134,1,89.9999999999999,2|2,0:0|0:0,0:0:0:0:
226,162,84310,2,0,L|288:165,1,45,10|0,1:2|0:0,0:0:0:0:
317,147,84632,1,2,1:2:0:0:
420,141,84955,1,10,1:2:0:0:
420,141,85116,2,0,P|434:190|418:248,1,89.9999999999999,2|0,0:0|0:0,0:0:0:0:
393,263,85600,1,10,1:2:0:0:
326,336,85923,5,4,0:0:0:0:
233,300,86245,1,4,0:0:0:0:
179,384,86568,1,4,0:0:0:0:
83,359,86891,1,4,0:0:0:0:
78,259,87213,1,4,0:0:0:0:
170,224,87536,1,4,0:0:0:0:
170,224,87697,1,4,0:0:0:0:
97,156,88020,2,0,L|89:44,1,89.9999999999999,4|0,0:0|0:0,0:0:0:0:
107,19,88503,5,6,1:2:0:0:
201,64,88826,1,10,1:2:0:0:
201,64,88987,2,0,L|320:55,1,89.9999999999999,2|0,0:0|0:0,0:0:0:0:
328,90,89471,2,0,L|333:157,1,45,10|0,1:2|0:0,0:0:0:0:
302,175,89793,2,0,L|184:186,1,89.9999999999999,2|10,1:2|1:2,0:0:0:0:
165,165,90278,1,2,0:2:0:0:
77,211,90600,1,2,0:2:0:0:
77,211,90761,2,0,L|83:272,1,45,10|0,1:2|0:0,0:0:0:0:
76,305,91084,6,0,P|123:292|165:298,1,89.9999999999999,2|10,1:2|1:2,0:0:0:0:
210,314,91568,1,2,0:2:0:0:
297,369,91891,1,2,0:0:0:0:
297,369,92052,2,0,L|360:359,1,45,10|0,1:2|0:0,0:0:0:0:
372,323,92374,2,0,L|470:331,1,89.9999999999999,2|10,1:2|1:2,0:0:0:0:
509,344,92858,2,0,P|490:303|496:248,1,89.9999999999999,2|0,0:0|0:0,0:0:0:0:
508,212,93342,1,10,1:2:0:0:
491,114,93665,6,0,P|448:131|415:178,1,89.9999999999999,6|10,1:2|1:2,0:0:0:0:
401,209,94149,2,0,L|295:200,1,89.9999999999999,2|2,0:0|0:2,0:0:0:0:
264,216,94632,2,0,L|258:275,1,45,10|0,1:2|0:0,0:0:0:0:
292,297,94955,1,2,1:2:0:0:
208,350,95278,1,10,1:2:0:0:
208,350,95439,2,0,P|156:354|106:323,1,89.9999999999999,2|0,0:0|0:0,0:0:0:0:
87,303,95923,1,10,1:2:0:0:
60,207,96245,5,8,0:0:0:0:
86,111,96568,1,8,0:0:0:0:
182,137,96891,1,8,0:0:0:0:
156,233,97213,1,8,0:0:0:0:
206,314,97536,2,0,P|323:227|269:91,1,315,2|4,0:0|3:2,0:0:0:0:
123,175,99794,5,4,0:0:0:0:
123,175,99955,1,4,0:0:0:0:
218,199,100278,1,4,0:0:0:0:
218,199,100439,1,4,0:0:0:0:
408,112,101407,6,0,P|416:160|392:224,1,89.9999999999999,2|10,1:2|1:2,0:0:0:0:
504,212,102052,2,0,P|486:257|434:300,1,89.9999999999999,2|10,1:2|1:2,0:0:0:0:
358,285,102697,1,0,1:0:0:0:
358,285,102858,2,0,L|285:278,1,45,2|10,0:2|1:2,0:2:0:0:
276,314,103181,1,2,0:2:0:0:
276,314,103342,2,0,L|173:305,1,89.9999999999999,2|10,1:2|1:2,0:0:0:0:
89,327,103987,6,0,L|84:371,2,45,0|2|10,1:2|1:2|1:2,0:0:0:0:
23,252,104632,2,0,L|32:147,1,89.9999999999999,2|10,1:2|1:2,0:0:0:0:
109,101,105278,1,2,1:2:0:0:
114,201,105601,1,10,1:2:0:0:
210,226,105923,1,2,1:2:0:0:
265,142,106245,1,10,1:2:0:0:
201,66,106568,5,4,1:2:0:0:
201,66,106729,2,0,L|150:61,1,45,2|10,1:2|1:2,0:0:0:0:
111,61,107052,1,2,1:2:0:0:
111,61,107213,2,0,B|120:107|120:107|102:161,1,89.9999999999999,2|2,1:2|1:2,0:0:0:0:
84,192,107697,1,2,1:2:0:0:
8,256,108020,1,2,1:2:0:0:
8,256,108181,2,0,L|17:323,1,45,10|2,1:2|1:2,0:0:0:0:
52,331,108503,2,0,L|59:386,2,45,2|2|10,1:2|1:2|1:2,0:0:0:0:
135,277,109149,6,0,L|246:267,1,89.9999999999999,2|2,1:2|1:2,0:0:0:0:
266,294,109632,2,0,P|310:308|362:293,1,89.9999999999999,2|2,1:2|1:2,0:0:0:0:
389,266,110116,2,0,L|386:205,1,45,2|2,1:2|1:2,0:0:0:0:
384,171,110439,1,4,1:2:0:0:
462,110,110762,1,4,1:2:0:0:
462,110,110923,1,4,1:2:0:0:
412,24,111246,2,0,P|368:18|306:50,1,89.9999999999999,4|0,1:2|0:0,0:0:0:0:
283,58,111729,6,0,P|219:42|131:62,1,135,4|2,0:0|0:0,0:0:0:0:
77,116,112536,1,2,0:0:0:0:
125,204,112858,1,2,0:0:0:0:
125,204,113020,6,0,P|109:260|45:296,2,121.499996292114,2|2|2,0:0|0:0|0:0,0:0:0:0:
37,208,114310,2,0,B|25:132|25:132|49:84,2,121.499996292114,2|0|2,0:0|0:0|0:0,0:0:0:0:
57,310,115654,5,2,0:0:0:0:
256,192,115761,12,0,118181,0:0:0:0:
