osu file format v14

[General]
AudioFilename: audio.mp3
AudioLeadIn: 0
PreviewTime: 34310
Countdown: 0
SampleSet: Soft
StackLeniency: 0.7
Mode: 3
LetterboxInBreaks: 0
SpecialStyle: 0
WidescreenStoryboard: 0

[Editor]
DistanceSpacing: 0.6
BeatDivisor: 4
GridSize: 4
TimelineZoom: 1.3

[Metadata]
Title:Mono Logic
TitleUnicode:Mono Logic
Artist:DJ NAGAI feat. Ayumi Nomiya
ArtistUnicode:DJ NAGAI feat. Ayumi Nomiya
Creator:Critical_Star
Version:Collab 4K EXTRA
Source:jubeat saucer fulfill
Tags:victorica_db [emiria] -[ AmiShici ]- MeowPaz Dellvangel DixonBlackwing ALiCE'S EMOTION HARDCORE TANO*C yoshikazu akai hito redalice
BeatmapID:1044811
BeatmapSetID:490166

[Difficulty]
HPDrainRate:8.5
CircleSize:4
OverallDifficulty:8.5
ApproachRate:5
SliderMultiplier:1.4
SliderTickRate:1

[Events]
//Background and Video events
0,0,"abc.png",0,0
//Break Periods
//Storyboard Layer 0 (Background)
//Storyboard Layer 1 (Fail)
//Storyboard Layer 2 (Pass)
//Storyboard Layer 3 (Foreground)
//Storyboard Sound Samples

[TimingPoints]
762,322.58064516129,4,2,1,30,1,0
34310,-100,4,2,1,30,0,1
42052,-100,4,2,1,30,0,0
44632,-100,4,2,1,30,0,1
56891,-100,4,2,1,30,0,0
80761,-100,4,2,1,30,0,1
87213,-100,4,2,1,30,0,0
88503,-100,4,2,1,30,0,1
98665,-100,4,2,1,30,0,0

[HitObjects]
448,192,762,5,2,0:0:0:0:
64,192,762,1,4,0:0:0:0:
320,192,762,1,0,0:0:0:0:
192,192,923,128,0,1084:0:0:0:0:
448,192,1084,128,8,1245:0:0:0:0:
64,192,1084,1,0,0:0:0:0:
320,192,1245,128,0,1407:0:0:0:0:
64,192,1407,128,2,1568:0:0:0:0:
192,192,1407,1,4,0:0:0:0:
448,192,1407,1,0,0:0:0:0:
192,192,1568,128,0,1729:0:0:0:0:
320,192,1729,128,8,1891:0:0:0:0:
448,192,1729,1,0,0:0:0:0:
64,192,1891,128,2,2052:0:0:0:0:
192,192,1891,1,4,0:0:0:0:
448,192,1891,1,0,0:0:0:0:
64,192,2213,1,2,0:0:0:0:
320,192,2213,1,4,0:0:0:0:
448,192,2213,128,0,2294:0:0:0:0:
64,192,2374,1,2,0:0:0:0:
320,192,2374,1,4,0:0:0:0:
448,192,2374,128,0,2536:0:0:0:0:
192,192,2455,1,8,0:0:0:0:
64,192,2536,1,8,0:0:0:0:
192,192,2616,1,8,0:0:0:0:
320,192,2697,1,8,0:0:0:0:
448,192,2697,1,0,0:0:0:0:
64,192,3020,1,2,0:0:0:0:
192,192,3020,1,4,0:0:0:0:
448,192,3020,1,8,0:0:0:0:
64,192,3342,1,2,0:0:0:0:
320,192,3342,1,0,0:0:0:0:
448,192,3503,128,0,3665:0:0:0:0:
192,192,3665,128,8,3826:0:0:0:0:
64,192,3665,1,0,0:0:0:0:
320,192,3826,128,0,3987:0:0:0:0:
64,192,3987,128,2,4149:0:0:0:0:
448,192,3987,1,0,0:0:0:0:
192,192,4149,128,0,4310:0:0:0:0:
448,192,4310,128,8,4471:0:0:0:0:
64,192,4310,1,0,0:0:0:0:
320,192,4471,128,0,4632:0:0:0:0:
64,192,4632,1,2,0:0:0:0:
192,192,4794,1,0,0:0:0:0:
64,192,4874,1,0,0:0:0:0:
448,192,4955,128,8,5116:0:0:0:0:
320,192,4955,1,0,0:0:0:0:
320,192,5116,128,0,5278:0:0:0:0:
64,192,5278,1,2,0:0:0:0:
192,192,5358,1,0,0:0:0:0:
320,192,5439,128,0,5600:0:0:0:0:
64,192,5600,128,8,5761:0:0:0:0:
192,192,5600,1,0,0:0:0:0:
448,192,5761,128,0,5923:0:0:0:0:
320,192,5923,1,2,0:0:0:0:
64,192,6084,128,0,6245:0:0:0:0:
320,192,6245,128,8,6407:0:0:0:0:
448,192,6245,1,0,0:0:0:0:
192,192,6407,128,0,6568:0:0:0:0:
448,192,6568,128,2,6729:0:0:0:0:
64,192,6568,1,0,0:0:0:0:
192,192,6729,128,0,6891:0:0:0:0:
320,192,6891,128,8,7052:0:0:0:0:
448,192,6891,1,0,0:0:0:0:
64,192,7052,128,0,7213:0:0:0:0:
448,192,7213,1,2,0:0:0:0:
192,192,7374,1,0,0:0:0:0:
64,192,7455,1,0,0:0:0:0:
320,192,7536,128,8,7697:0:0:0:0:
192,192,7536,1,0,0:0:0:0:
448,192,7697,128,0,7858:0:0:0:0:
64,192,7858,1,2,0:0:0:0:
192,192,7858,128,0,8020:0:0:0:0:
320,192,8020,128,0,8181:0:0:0:0:
64,192,8181,1,8,0:0:0:0:
448,192,8181,1,0,0:0:0:0:
192,192,8342,1,2,0:0:0:0:
448,192,8342,1,0,0:0:0:0:
64,192,8503,1,2,0:0:0:0:
192,192,8503,1,0,0:0:0:0:
320,192,8503,1,4,0:0:0:0:
448,192,8665,128,0,8826:0:0:0:0:
192,192,8826,128,2,8987:0:0:0:0:
64,192,8826,1,8,0:0:0:0:
320,192,8987,128,0,9149:0:0:0:0:
64,192,9149,128,2,9310:0:0:0:0:
448,192,9149,1,8,0:0:0:0:
448,192,9310,128,0,9471:0:0:0:0:
192,192,9471,128,2,9632:0:0:0:0:
64,192,9471,1,8,0:0:0:0:
320,192,9632,128,0,9794:0:0:0:0:
448,192,9794,1,10,0:0:0:0:
192,192,9955,128,8,10116:0:0:0:0:
320,192,9955,1,0,0:0:0:0:
320,192,10116,128,2,10278:0:0:0:0:
448,192,10116,1,8,0:0:0:0:
64,192,10278,128,8,10439:0:0:0:0:
192,192,10278,1,0,0:0:0:0:
448,192,10439,128,2,10600:0:0:0:0:
320,192,10439,1,8,0:0:0:0:
320,192,10600,128,8,10761:0:0:0:0:
192,192,10600,1,0,0:0:0:0:
64,192,10761,1,10,0:0:0:0:
448,192,10842,1,8,0:0:0:0:
192,192,10923,1,8,0:0:0:0:
320,192,11003,1,8,0:0:0:0:
64,192,11084,1,2,0:0:0:0:
448,192,11084,1,4,0:0:0:0:
192,192,11165,1,0,0:0:0:0:
64,192,11245,1,0,0:0:0:0:
320,192,11407,1,0,0:0:0:0:
448,192,11407,1,0,0:0:0:0:
64,192,11568,1,0,0:0:0:0:
192,192,11649,1,0,0:0:0:0:
64,192,11729,1,0,0:0:0:0:
320,192,11891,1,0,0:0:0:0:
448,192,11891,1,0,0:0:0:0:
64,192,12052,1,8,0:0:0:0:
320,192,12052,1,0,0:0:0:0:
192,192,12132,1,8,0:0:0:0:
64,192,12213,1,8,0:0:0:0:
448,192,12213,1,0,0:0:0:0:
320,192,12294,1,8,0:0:0:0:
64,192,12374,1,2,0:0:0:0:
448,192,12374,1,0,0:0:0:0:
192,192,12374,1,4,0:0:0:0:
448,192,12697,1,2,0:0:0:0:
192,192,12697,1,0,0:0:0:0:
320,192,12697,1,4,0:0:0:0:
64,192,12858,1,2,0:0:0:0:
192,192,12858,1,4,0:0:0:0:
320,192,12858,1,0,0:0:0:0:
448,192,13181,1,2,0:0:0:0:
192,192,13181,1,0,0:0:0:0:
64,192,13181,128,4,13503:0:0:0:0:
448,192,13665,1,2,0:0:0:0:
64,192,13665,1,4,0:0:0:0:
320,192,13665,1,0,0:0:0:0:
320,192,13826,1,0,0:0:0:0:
64,192,13987,1,8,0:0:0:0:
192,192,13987,1,0,0:0:0:0:
320,192,14149,1,0,0:0:0:0:
448,192,14310,1,2,0:0:0:0:
64,192,14310,1,0,0:0:0:0:
320,192,14471,1,0,0:0:0:0:
64,192,14552,1,0,0:0:0:0:
448,192,14632,1,8,0:0:0:0:
320,192,14632,1,0,0:0:0:0:
192,192,14794,1,0,0:0:0:0:
64,192,14955,1,2,0:0:0:0:
320,192,14955,1,0,0:0:0:0:
448,192,15116,1,0,0:0:0:0:
320,192,15197,1,0,0:0:0:0:
192,192,15278,1,8,0:0:0:0:
64,192,15278,1,0,0:0:0:0:
448,192,15439,1,0,0:0:0:0:
64,192,15600,1,2,0:0:0:0:
320,192,15600,1,0,0:0:0:0:
448,192,15761,1,0,0:0:0:0:
64,192,15842,1,0,0:0:0:0:
320,192,15923,1,8,0:0:0:0:
448,192,15923,1,0,0:0:0:0:
192,192,16084,1,0,0:0:0:0:
64,192,16245,1,2,0:0:0:0:
320,192,16245,1,0,0:0:0:0:
192,192,16407,1,0,0:0:0:0:
320,192,16487,1,0,0:0:0:0:
64,192,16568,1,8,0:0:0:0:
448,192,16568,1,0,0:0:0:0:
192,192,16729,1,0,0:0:0:0:
320,192,16891,1,2,0:0:0:0:
448,192,16891,1,0,0:0:0:0:
192,192,17052,1,0,0:0:0:0:
448,192,17132,1,0,0:0:0:0:
192,192,17213,1,8,0:0:0:0:
64,192,17213,1,0,0:0:0:0:
320,192,17374,1,0,0:0:0:0:
448,192,17697,1,2,0:0:0:0:
192,192,17697,1,0,0:0:0:0:
64,192,17778,1,2,0:0:0:0:
320,192,17778,1,0,0:0:0:0:
448,192,17858,1,2,0:0:0:0:
192,192,17858,128,4,18181:0:0:0:0:
448,192,18342,1,2,0:0:0:0:
64,192,18342,1,0,0:0:0:0:
64,192,18503,1,2,0:0:0:0:
448,192,18503,1,0,0:0:0:0:
320,192,18665,1,8,0:0:0:0:
192,192,18826,1,2,0:0:0:0:
64,192,18826,1,4,0:0:0:0:
448,192,18826,128,0,19149:0:0:0:0:
192,192,18987,1,0,0:0:0:0:
64,192,19149,1,8,0:0:0:0:
320,192,19149,1,0,0:0:0:0:
192,192,19310,1,0,0:0:0:0:
64,192,19471,1,2,0:0:0:0:
320,192,19471,1,0,0:0:0:0:
320,192,19632,1,0,0:0:0:0:
192,192,19632,1,0,0:0:0:0:
64,192,19794,1,8,0:0:0:0:
448,192,19794,1,0,0:0:0:0:
448,192,19955,128,0,20439:0:0:0:0:
192,192,19955,1,0,0:0:0:0:
64,192,20116,1,2,0:0:0:0:
320,192,20278,1,0,0:0:0:0:
192,192,20439,1,8,0:0:0:0:
64,192,20439,1,0,0:0:0:0:
320,192,20600,1,0,0:0:0:0:
448,192,20761,1,2,0:0:0:0:
64,192,20761,1,0,0:0:0:0:
192,192,21084,1,8,0:0:0:0:
320,192,21084,1,0,0:0:0:0:
64,192,21407,1,2,0:0:0:0:
448,192,21407,1,0,0:0:0:0:
192,192,21407,1,4,0:0:0:0:
64,192,21568,1,2,0:0:0:0:
448,192,21568,1,0,0:0:0:0:
192,192,21729,1,2,0:0:0:0:
448,192,21729,1,0,0:0:0:0:
320,192,22052,1,8,0:0:0:0:
448,192,22052,1,0,0:0:0:0:
64,192,22213,1,0,0:0:0:0:
192,192,22374,1,2,0:0:0:0:
320,192,22374,1,0,0:0:0:0:
448,192,22536,128,8,23342:0:0:0:0:
64,192,22697,1,2,0:0:0:0:
320,192,22697,1,4,0:0:0:0:
192,192,22858,1,0,0:0:0:0:
64,192,23020,1,0,0:0:0:0:
320,192,23181,1,0,0:0:0:0:
64,192,23342,1,0,0:0:0:0:
192,192,23503,1,0,0:0:0:0:
320,192,23665,1,0,0:0:0:0:
448,192,23826,1,0,0:0:0:0:
320,192,23987,1,2,0:0:0:0:
64,192,23987,128,0,25116:0:0:0:0:
192,192,23987,1,4,0:0:0:0:
192,192,24632,1,8,0:0:0:0:
448,192,24794,1,2,0:0:0:0:
320,192,24955,1,2,0:0:0:0:
448,192,25116,1,2,0:0:0:0:
192,192,25116,128,0,26568:0:0:0:0:
320,192,25116,1,4,0:0:0:0:
320,192,25761,1,2,0:0:0:0:
448,192,25923,1,8,0:0:0:0:
64,192,26245,1,2,0:0:0:0:
320,192,26407,1,2,0:0:0:0:
448,192,26568,128,2,27374:0:0:0:0:
320,192,26568,1,4,0:0:0:0:
64,192,26568,1,0,0:0:0:0:
64,192,27052,1,2,0:0:0:0:
320,192,27213,1,8,0:0:0:0:
192,192,27213,1,0,0:0:0:0:
192,192,27697,1,2,0:0:0:0:
320,192,27697,1,4,0:0:0:0:
64,192,27858,1,2,0:0:0:0:
448,192,27858,1,0,0:0:0:0:
192,192,27858,1,4,0:0:0:0:
448,192,28181,1,0,0:0:0:0:
320,192,28342,1,0,0:0:0:0:
64,192,28342,128,0,28826:0:0:0:0:
320,192,28826,128,0,29149:0:0:0:0:
448,192,29149,1,2,0:0:0:0:
64,192,29149,1,0,0:0:0:0:
192,192,29149,1,4,0:0:0:0:
192,192,29471,1,8,0:0:0:0:
448,192,29471,1,0,0:0:0:0:
64,192,29632,1,0,0:0:0:0:
192,192,29794,1,8,0:0:0:0:
448,192,29794,1,0,0:0:0:0:
64,192,29955,1,0,0:0:0:0:
192,192,30116,1,8,0:0:0:0:
448,192,30116,1,0,0:0:0:0:
64,192,30278,1,2,0:0:0:0:
320,192,30278,1,8,0:0:0:0:
64,192,30439,1,2,0:0:0:0:
320,192,30439,1,4,0:0:0:0:
448,192,30439,1,0,0:0:0:0:
64,192,30761,1,8,0:0:0:0:
448,192,30761,1,0,0:0:0:0:
320,192,30923,1,0,0:0:0:0:
64,192,31084,1,8,0:0:0:0:
448,192,31084,1,0,0:0:0:0:
320,192,31245,1,0,0:0:0:0:
64,192,31407,1,8,0:0:0:0:
448,192,31407,1,0,0:0:0:0:
320,192,31487,1,8,0:0:0:0:
192,192,31568,1,8,0:0:0:0:
320,192,31649,1,8,0:0:0:0:
64,192,31729,1,2,0:0:0:0:
448,192,31729,1,0,0:0:0:0:
192,192,31729,1,4,0:0:0:0:
64,192,31891,1,8,0:0:0:0:
192,192,31971,1,2,0:0:0:0:
448,192,31971,1,0,0:0:0:0:
320,192,31971,1,0,0:0:0:0:
448,192,32213,1,2,0:0:0:0:
320,192,32213,1,0,0:0:0:0:
64,192,32374,1,2,0:0:0:0:
192,192,32374,1,0,0:0:0:0:
320,192,32374,1,0,0:0:0:0:
448,192,32536,1,8,0:0:0:0:
320,192,32616,1,2,0:0:0:0:
64,192,32616,1,0,0:0:0:0:
192,192,32616,1,0,0:0:0:0:
64,192,32858,1,2,0:0:0:0:
192,192,32858,1,0,0:0:0:0:
64,192,33020,1,2,0:0:0:0:
448,192,33020,1,0,0:0:0:0:
320,192,33020,1,4,0:0:0:0:
192,192,33342,1,4,0:0:0:0:
320,192,33342,1,2,0:0:0:0:
448,192,33342,1,0,0:0:0:0:
192,192,33503,1,4,0:0:0:0:
320,192,33503,1,2,0:0:0:0:
448,192,33503,1,0,0:0:0:0:
64,192,33665,1,0,0:0:0:0:
192,192,33826,1,0,0:0:0:0:
320,192,33987,1,0,0:0:0:0:
64,192,34310,1,2,0:0:0:0:
448,192,34310,1,4,0:0:0:0:
320,192,34310,1,0,0:0:0:0:
192,192,34391,1,0,0:0:0:0:
320,192,34471,1,0,0:0:0:0:
192,192,34552,1,0,0:0:0:0:
448,192,34632,1,8,0:0:0:0:
64,192,34632,1,0,0:0:0:0:
192,192,34794,1,0,0:0:0:0:
320,192,34874,1,0,0:0:0:0:
448,192,34955,1,2,0:0:0:0:
64,192,34955,1,0,0:0:0:0:
320,192,35036,1,0,0:0:0:0:
192,192,35116,1,0,0:0:0:0:
64,192,35278,1,8,0:0:0:0:
448,192,35278,1,0,0:0:0:0:
320,192,35358,1,0,0:0:0:0:
192,192,35439,1,0,0:0:0:0:
64,192,35520,1,0,0:0:0:0:
448,192,35600,1,2,0:0:0:0:
320,192,35600,1,0,0:0:0:0:
192,192,35681,1,0,0:0:0:0:
64,192,35761,1,0,0:0:0:0:
320,192,35842,1,0,0:0:0:0:
448,192,35923,1,8,0:0:0:0:
192,192,35923,1,0,0:0:0:0:
64,192,36084,1,0,0:0:0:0:
320,192,36165,1,0,0:0:0:0:
64,192,36245,1,2,0:0:0:0:
448,192,36245,1,0,0:0:0:0:
192,192,36326,1,0,0:0:0:0:
320,192,36407,1,0,0:0:0:0:
192,192,36568,1,8,0:0:0:0:
448,192,36568,1,0,0:0:0:0:
64,192,36649,1,0,0:0:0:0:
320,192,36729,1,0,0:0:0:0:
192,192,36810,1,0,0:0:0:0:
448,192,36891,1,2,0:0:0:0:
320,192,36891,1,0,0:0:0:0:
64,192,36971,1,0,0:0:0:0:
192,192,37052,1,0,0:0:0:0:
320,192,37132,1,0,0:0:0:0:
192,192,37213,1,8,0:0:0:0:
448,192,37213,1,0,0:0:0:0:
320,192,37374,1,0,0:0:0:0:
192,192,37455,1,0,0:0:0:0:
64,192,37536,1,2,0:0:0:0:
448,192,37536,1,0,0:0:0:0:
320,192,37616,1,0,0:0:0:0:
192,192,37697,1,0,0:0:0:0:
320,192,37858,1,8,0:0:0:0:
448,192,37858,1,0,0:0:0:0:
64,192,37939,1,0,0:0:0:0:
192,192,38020,1,0,0:0:0:0:
320,192,38100,1,0,0:0:0:0:
448,192,38181,1,2,0:0:0:0:
64,192,38181,1,0,0:0:0:0:
192,192,38261,1,0,0:0:0:0:
320,192,38342,1,0,0:0:0:0:
192,192,38423,1,0,0:0:0:0:
64,192,38503,1,8,0:0:0:0:
448,192,38503,1,0,0:0:0:0:
320,192,38584,1,0,0:0:0:0:
192,192,38665,1,0,0:0:0:0:
320,192,38745,1,0,0:0:0:0:
64,192,38826,1,2,0:0:0:0:
192,192,38826,1,0,0:0:0:0:
448,192,38907,1,0,0:0:0:0:
320,192,38987,1,0,0:0:0:0:
64,192,39149,1,8,0:0:0:0:
192,192,39229,1,0,0:0:0:0:
320,192,39310,1,0,0:0:0:0:
192,192,39391,1,0,0:0:0:0:
448,192,39471,1,2,0:0:0:0:
64,192,39471,1,4,0:0:0:0:
320,192,39471,1,0,0:0:0:0:
192,192,39552,1,0,0:0:0:0:
320,192,39632,1,0,0:0:0:0:
448,192,39713,1,0,0:0:0:0:
320,192,39794,1,8,0:0:0:0:
64,192,39794,1,0,0:0:0:0:
192,192,39874,1,0,0:0:0:0:
320,192,39955,1,0,0:0:0:0:
448,192,40036,1,0,0:0:0:0:
192,192,40116,1,2,0:0:0:0:
64,192,40116,1,0,0:0:0:0:
320,192,40197,1,0,0:0:0:0:
192,192,40278,1,0,0:0:0:0:
320,192,40358,1,0,0:0:0:0:
64,192,40439,1,8,0:0:0:0:
448,192,40439,1,0,0:0:0:0:
192,192,40600,1,0,0:0:0:0:
320,192,40681,1,0,0:0:0:0:
192,192,40761,1,2,0:0:0:0:
448,192,40761,1,0,0:0:0:0:
64,192,40842,1,0,0:0:0:0:
192,192,40923,1,0,0:0:0:0:
320,192,41003,1,0,0:0:0:0:
448,192,41084,1,8,0:0:0:0:
192,192,41084,1,0,0:0:0:0:
64,192,41165,1,0,0:0:0:0:
192,192,41245,1,0,0:0:0:0:
320,192,41326,1,0,0:0:0:0:
448,192,41407,1,2,0:0:0:0:
64,192,41407,1,0,0:0:0:0:
320,192,41487,1,0,0:0:0:0:
192,192,41568,1,0,0:0:0:0:
64,192,41729,1,8,0:0:0:0:
320,192,41729,1,0,0:0:0:0:
448,192,42052,1,2,0:0:0:0:
64,192,42052,1,4,0:0:0:0:
320,192,42052,1,0,0:0:0:0:
320,192,42374,1,8,0:0:0:0:
448,192,42374,1,0,0:0:0:0:
320,192,42697,1,8,0:0:0:0:
448,192,42697,1,0,0:0:0:0:
320,192,43020,1,8,0:0:0:0:
192,192,43100,1,8,0:0:0:0:
320,192,43181,1,8,0:0:0:0:
192,192,43261,1,8,0:0:0:0:
64,192,43342,1,2,0:0:0:0:
320,192,43342,1,4,0:0:0:0:
448,192,43342,1,0,0:0:0:0:
64,192,43665,1,2,0:0:0:0:
320,192,43665,1,0,0:0:0:0:
192,192,43665,1,4,0:0:0:0:
192,192,43826,1,2,0:0:0:0:
448,192,43826,1,0,0:0:0:0:
320,192,43826,1,4,0:0:0:0:
64,192,44149,1,2,0:0:0:0:
448,192,44149,1,0,0:0:0:0:
192,192,44149,1,4,0:0:0:0:
448,192,44632,1,2,0:0:0:0:
64,192,44632,1,0,0:0:0:0:
192,192,44632,1,4,0:0:0:0:
320,192,44713,1,0,0:0:0:0:
192,192,44794,1,0,0:0:0:0:
320,192,44874,1,0,0:0:0:0:
64,192,44955,1,8,0:0:0:0:
448,192,44955,1,0,0:0:0:0:
320,192,45116,1,0,0:0:0:0:
192,192,45197,1,0,0:0:0:0:
64,192,45278,1,2,0:0:0:0:
448,192,45278,1,0,0:0:0:0:
192,192,45358,1,0,0:0:0:0:
320,192,45439,1,0,0:0:0:0:
448,192,45600,1,8,0:0:0:0:
64,192,45600,1,0,0:0:0:0:
192,192,45681,1,0,0:0:0:0:
320,192,45761,1,0,0:0:0:0:
448,192,45842,1,0,0:0:0:0:
64,192,45923,1,2,0:0:0:0:
192,192,45923,1,0,0:0:0:0:
320,192,46003,1,0,0:0:0:0:
448,192,46084,1,0,0:0:0:0:
192,192,46165,1,0,0:0:0:0:
64,192,46245,1,8,0:0:0:0:
320,192,46245,1,0,0:0:0:0:
448,192,46407,1,0,0:0:0:0:
192,192,46487,1,0,0:0:0:0:
448,192,46568,1,2,0:0:0:0:
64,192,46568,1,0,0:0:0:0:
320,192,46649,1,0,0:0:0:0:
192,192,46729,1,0,0:0:0:0:
320,192,46891,1,8,0:0:0:0:
64,192,46891,1,0,0:0:0:0:
448,192,46971,1,0,0:0:0:0:
192,192,47052,1,0,0:0:0:0:
320,192,47132,1,0,0:0:0:0:
64,192,47213,1,2,0:0:0:0:
192,192,47213,1,0,0:0:0:0:
448,192,47294,1,0,0:0:0:0:
320,192,47374,1,0,0:0:0:0:
192,192,47455,1,0,0:0:0:0:
320,192,47536,1,8,0:0:0:0:
64,192,47536,1,0,0:0:0:0:
192,192,47697,1,0,0:0:0:0:
320,192,47778,1,0,0:0:0:0:
448,192,47858,1,2,0:0:0:0:
64,192,47858,1,0,0:0:0:0:
192,192,47939,1,0,0:0:0:0:
320,192,48020,1,0,0:0:0:0:
192,192,48181,1,8,0:0:0:0:
64,192,48181,1,0,0:0:0:0:
448,192,48261,1,0,0:0:0:0:
320,192,48342,1,0,0:0:0:0:
192,192,48423,1,0,0:0:0:0:
64,192,48503,1,2,0:0:0:0:
448,192,48503,1,0,0:0:0:0:
320,192,48584,1,0,0:0:0:0:
192,192,48665,1,0,0:0:0:0:
320,192,48745,1,0,0:0:0:0:
448,192,48826,1,8,0:0:0:0:
64,192,48826,1,0,0:0:0:0:
192,192,48907,1,0,0:0:0:0:
320,192,48987,1,0,0:0:0:0:
64,192,49068,1,0,0:0:0:0:
448,192,49149,1,2,0:0:0:0:
320,192,49149,1,0,0:0:0:0:
192,192,49229,1,0,0:0:0:0:
320,192,49310,1,0,0:0:0:0:
448,192,49471,1,8,0:0:0:0:
64,192,49471,1,0,0:0:0:0:
320,192,49552,1,8,0:0:0:0:
192,192,49552,1,0,0:0:0:0:
64,192,49632,1,8,0:0:0:0:
448,192,49632,1,0,0:0:0:0:
320,192,49713,1,8,0:0:0:0:
192,192,49713,1,0,0:0:0:0:
64,192,49794,1,2,0:0:0:0:
448,192,49794,1,4,0:0:0:0:
320,192,49874,1,0,0:0:0:0:
192,192,49955,1,0,0:0:0:0:
64,192,50036,1,0,0:0:0:0:
192,192,50116,1,2,0:0:0:0:
448,192,50116,1,8,0:0:0:0:
320,192,50197,1,0,0:0:0:0:
192,192,50278,1,0,0:0:0:0:
64,192,50358,1,0,0:0:0:0:
192,192,50439,1,2,0:0:0:0:
448,192,50439,1,8,0:0:0:0:
320,192,50520,1,0,0:0:0:0:
192,192,50600,1,0,0:0:0:0:
64,192,50681,1,0,0:0:0:0:
448,192,50761,1,2,0:0:0:0:
320,192,50761,1,8,0:0:0:0:
64,192,50923,1,8,0:0:0:0:
448,192,50923,1,0,0:0:0:0:
192,192,51003,1,0,0:0:0:0:
320,192,51084,1,2,0:0:0:0:
64,192,51084,1,8,0:0:0:0:
448,192,51165,1,0,0:0:0:0:
320,192,51245,1,0,0:0:0:0:
192,192,51326,1,0,0:0:0:0:
64,192,51407,1,2,0:0:0:0:
320,192,51407,1,8,0:0:0:0:
448,192,51487,1,0,0:0:0:0:
320,192,51568,1,0,0:0:0:0:
192,192,51649,1,0,0:0:0:0:
64,192,51729,1,2,0:0:0:0:
448,192,51729,1,8,0:0:0:0:
192,192,51810,1,0,0:0:0:0:
320,192,51891,1,0,0:0:0:0:
192,192,51971,1,0,0:0:0:0:
64,192,52052,1,2,0:0:0:0:
448,192,52052,1,8,0:0:0:0:
320,192,52132,1,0,0:0:0:0:
192,192,52213,1,8,0:0:0:0:
64,192,52294,1,0,0:0:0:0:
320,192,52374,1,2,0:0:0:0:
448,192,52374,1,4,0:0:0:0:
192,192,52455,1,0,0:0:0:0:
320,192,52536,1,8,0:0:0:0:
64,192,52536,1,0,0:0:0:0:
448,192,52616,1,0,0:0:0:0:
192,192,52697,1,8,0:0:0:0:
64,192,52697,1,0,0:0:0:0:
320,192,52778,1,0,0:0:0:0:
448,192,52858,1,8,0:0:0:0:
192,192,52858,1,0,0:0:0:0:
320,192,52939,1,0,0:0:0:0:
64,192,53020,1,8,0:0:0:0:
448,192,53020,1,0,0:0:0:0:
192,192,53100,1,0,0:0:0:0:
64,192,53181,1,8,0:0:0:0:
320,192,53181,1,0,0:0:0:0:
192,192,53261,1,0,0:0:0:0:
64,192,53342,1,8,0:0:0:0:
448,192,53342,1,0,0:0:0:0:
320,192,53423,1,0,0:0:0:0:
192,192,53503,1,8,0:0:0:0:
448,192,53503,1,0,0:0:0:0:
64,192,53584,1,0,0:0:0:0:
320,192,53665,1,8,0:0:0:0:
448,192,53665,1,0,0:0:0:0:
192,192,53745,1,8,0:0:0:0:
64,192,53745,1,0,0:0:0:0:
448,192,53826,1,8,0:0:0:0:
320,192,53826,1,0,0:0:0:0:
64,192,53907,1,8,0:0:0:0:
192,192,53907,1,0,0:0:0:0:
320,192,53987,1,8,0:0:0:0:
448,192,53987,1,0,0:0:0:0:
192,192,54068,1,8,0:0:0:0:
64,192,54068,1,0,0:0:0:0:
320,192,54149,1,8,0:0:0:0:
448,192,54149,1,0,0:0:0:0:
192,192,54229,1,8,0:0:0:0:
64,192,54229,1,0,0:0:0:0:
320,192,54310,1,8,0:0:0:0:
448,192,54310,1,0,0:0:0:0:
192,192,54391,1,8,0:0:0:0:
64,192,54391,1,0,0:0:0:0:
320,192,54471,1,8,0:0:0:0:
448,192,54471,1,0,0:0:0:0:
64,192,54552,1,8,0:0:0:0:
192,192,54552,1,0,0:0:0:0:
320,192,54632,1,8,0:0:0:0:
448,192,54632,1,0,0:0:0:0:
192,192,54713,1,8,0:0:0:0:
64,192,54713,1,0,0:0:0:0:
448,192,54794,1,2,0:0:0:0:
320,192,54794,1,4,0:0:0:0:
64,192,54794,1,0,0:0:0:0:
64,192,55923,1,2,0:0:0:0:
320,192,55923,1,4,0:0:0:0:
448,192,55923,1,0,0:0:0:0:
64,192,56084,1,2,0:0:0:0:
320,192,56084,1,4,0:0:0:0:
448,192,56084,1,0,0:0:0:0:
64,192,56407,1,2,0:0:0:0:
192,192,56407,1,0,0:0:0:0:
448,192,56407,1,4,0:0:0:0:
64,192,56568,1,2,0:0:0:0:
320,192,56568,1,4,0:0:0:0:
448,192,56568,1,0,0:0:0:0:
64,192,57052,128,0,57213:0:0:0:0:
192,192,57213,128,0,57374:0:0:0:0:
320,192,57374,128,0,57536:0:0:0:0:
192,192,57536,128,2,57697:0:0:0:0:
64,192,57536,1,0,0:0:0:0:
448,192,57536,1,4,0:0:0:0:
320,192,57697,128,0,57858:0:0:0:0:
64,192,57858,128,0,58020:0:0:0:0:
448,192,58020,128,0,58181:0:0:0:0:
64,192,58181,1,0,0:0:0:0:
192,192,58342,128,0,58503:0:0:0:0:
448,192,58342,1,0,0:0:0:0:
320,192,58503,128,0,58665:0:0:0:0:
448,192,58665,128,0,58826:0:0:0:0:
64,192,58826,128,0,58987:0:0:0:0:
320,192,58826,1,0,0:0:0:0:
192,192,58987,128,0,59149:0:0:0:0:
448,192,59149,128,0,59310:0:0:0:0:
320,192,59310,128,0,59471:0:0:0:0:
64,192,59471,1,0,0:0:0:0:
192,192,59632,128,0,59794:0:0:0:0:
448,192,59632,1,0,0:0:0:0:
64,192,59794,128,0,59955:0:0:0:0:
320,192,59955,128,0,60116:0:0:0:0:
448,192,60116,128,0,60278:0:0:0:0:
192,192,60116,1,0,0:0:0:0:
64,192,60278,128,0,60439:0:0:0:0:
192,192,60439,128,0,60600:0:0:0:0:
448,192,60761,128,0,60923:0:0:0:0:
64,192,60761,1,0,0:0:0:0:
192,192,60923,1,0,0:0:0:0:
320,192,61084,128,0,61245:0:0:0:0:
448,192,61407,128,0,61568:0:0:0:0:
320,192,61407,1,0,0:0:0:0:
64,192,61729,128,0,61891:0:0:0:0:
192,192,61891,128,0,62052:0:0:0:0:
448,192,62052,1,0,0:0:0:0:
320,192,62213,128,0,62374:0:0:0:0:
64,192,62213,1,0,0:0:0:0:
64,192,62697,128,0,62858:0:0:0:0:
448,192,62697,1,0,0:0:0:0:
320,192,63020,128,0,63181:0:0:0:0:
448,192,63181,128,0,63342:0:0:0:0:
64,192,63342,1,0,0:0:0:0:
192,192,63503,128,0,63665:0:0:0:0:
320,192,63503,1,0,0:0:0:0:
64,192,63665,128,0,63826:0:0:0:0:
448,192,63665,1,0,0:0:0:0:
320,192,63987,128,0,64149:0:0:0:0:
448,192,63987,1,0,0:0:0:0:
192,192,64310,128,0,64471:0:0:0:0:
448,192,64471,128,0,64632:0:0:0:0:
64,192,64632,1,0,0:0:0:0:
192,192,64794,128,0,64955:0:0:0:0:
320,192,64955,128,0,65116:0:0:0:0:
448,192,65116,128,0,65278:0:0:0:0:
64,192,65278,128,0,65439:0:0:0:0:
320,192,65278,1,0,0:0:0:0:
192,192,65439,128,0,65600:0:0:0:0:
448,192,65761,128,0,65923:0:0:0:0:
64,192,65923,1,0,0:0:0:0:
320,192,66084,128,0,66245:0:0:0:0:
192,192,66245,128,0,66407:0:0:0:0:
64,192,66407,128,0,66568:0:0:0:0:
448,192,66568,1,0,0:0:0:0:
64,192,66891,1,0,0:0:0:0:
192,192,67052,1,0,0:0:0:0:
448,192,67213,1,0,0:0:0:0:
320,192,67213,1,0,0:0:0:0:
192,192,67536,128,0,67858:0:0:0:0:
64,192,67858,1,2,0:0:0:0:
320,192,67858,1,4,0:0:0:0:
448,192,67858,1,0,0:0:0:0:
192,192,68181,1,0,0:0:0:0:
448,192,68342,1,0,0:0:0:0:
64,192,68665,1,0,0:0:0:0:
320,192,68987,128,0,69310:0:0:0:0:
192,192,69310,1,0,0:0:0:0:
320,192,69471,1,0,0:0:0:0:
448,192,69632,128,0,70116:0:0:0:0:
64,192,69794,128,0,70116:0:0:0:0:
192,192,70278,1,0,0:0:0:0:
64,192,70278,1,0,0:0:0:0:
448,192,70439,1,0,0:0:0:0:
320,192,70439,128,0,70761:0:0:0:0:
448,192,70761,1,0,0:0:0:0:
192,192,70923,1,0,0:0:0:0:
64,192,70923,1,0,0:0:0:0:
64,192,71407,1,0,0:0:0:0:
192,192,71487,1,0,0:0:0:0:
448,192,71568,1,0,0:0:0:0:
320,192,71649,1,0,0:0:0:0:
192,192,71729,128,0,72052:0:0:0:0:
64,192,71729,1,0,0:0:0:0:
64,192,72052,1,0,0:0:0:0:
448,192,72213,128,0,72697:0:0:0:0:
320,192,72213,1,0,0:0:0:0:
192,192,72697,128,0,73020:0:0:0:0:
448,192,73020,1,2,0:0:0:0:
320,192,73020,1,4,0:0:0:0:
64,192,73020,1,0,0:0:0:0:
448,192,73342,1,8,0:0:0:0:
64,192,73342,1,0,0:0:0:0:
320,192,73423,1,0,0:0:0:0:
192,192,73503,1,0,0:0:0:0:
320,192,73584,1,0,0:0:0:0:
448,192,73665,1,8,0:0:0:0:
64,192,73665,1,0,0:0:0:0:
320,192,73745,1,0,0:0:0:0:
192,192,73826,1,0,0:0:0:0:
320,192,73907,1,0,0:0:0:0:
448,192,73987,1,8,0:0:0:0:
64,192,73987,1,0,0:0:0:0:
192,192,74068,1,0,0:0:0:0:
320,192,74149,1,2,0:0:0:0:
448,192,74149,1,8,0:0:0:0:
192,192,74229,1,0,0:0:0:0:
320,192,74310,1,2,0:0:0:0:
448,192,74310,1,4,0:0:0:0:
64,192,74310,1,0,0:0:0:0:
64,192,74632,1,8,0:0:0:0:
448,192,74632,1,0,0:0:0:0:
192,192,74713,1,0,0:0:0:0:
320,192,74794,1,0,0:0:0:0:
192,192,74874,1,0,0:0:0:0:
64,192,74955,1,8,0:0:0:0:
448,192,74955,1,0,0:0:0:0:
192,192,75036,1,0,0:0:0:0:
320,192,75116,1,0,0:0:0:0:
192,192,75197,1,0,0:0:0:0:
64,192,75278,1,8,0:0:0:0:
448,192,75278,1,0,0:0:0:0:
320,192,75358,1,8,0:0:0:0:
192,192,75358,1,0,0:0:0:0:
64,192,75439,1,8,0:0:0:0:
448,192,75439,1,0,0:0:0:0:
320,192,75520,1,8,0:0:0:0:
448,192,75600,1,2,0:0:0:0:
64,192,75600,1,0,0:0:0:0:
192,192,75600,1,0,0:0:0:0:
320,192,75761,1,8,0:0:0:0:
192,192,75842,1,2,0:0:0:0:
448,192,75842,1,0,0:0:0:0:
64,192,75842,1,0,0:0:0:0:
320,192,76084,1,2,0:0:0:0:
192,192,76084,1,0,0:0:0:0:
64,192,76084,1,0,0:0:0:0:
64,192,76245,1,2,0:0:0:0:
320,192,76245,1,0,0:0:0:0:
448,192,76245,1,4,0:0:0:0:
192,192,76407,1,8,0:0:0:0:
320,192,76487,1,2,0:0:0:0:
64,192,76487,1,0,0:0:0:0:
448,192,76487,1,0,0:0:0:0:
320,192,76729,1,2,0:0:0:0:
448,192,76729,1,0,0:0:0:0:
192,192,76729,1,0,0:0:0:0:
64,192,76891,128,2,77052:0:0:0:0:
320,192,76891,128,4,77052:0:0:0:0:
448,192,76891,128,0,77052:0:0:0:0:
64,192,77213,1,6,0:0:0:0:
448,192,77213,1,0,0:0:0:0:
320,192,77213,1,0,0:0:0:0:
64,192,77374,128,2,77536:0:0:0:0:
192,192,77374,128,4,77536:0:0:0:0:
448,192,77374,128,0,77536:0:0:0:0:
320,192,77536,1,0,0:0:0:0:
192,192,77697,1,0,0:0:0:0:
448,192,77858,1,0,0:0:0:0:
192,192,78181,1,2,0:0:0:0:
448,192,78181,1,0,0:0:0:0:
64,192,78181,128,4,78665:0:0:0:0:
192,192,78665,128,2,79310:0:0:0:0:
320,192,78665,1,4,0:0:0:0:
448,192,78665,1,0,0:0:0:0:
320,192,79310,1,2,0:0:0:0:
448,192,79310,1,0,0:0:0:0:
192,192,79391,1,2,0:0:0:0:
64,192,79391,1,0,0:0:0:0:
448,192,79471,128,2,79794:0:0:0:0:
320,192,79471,1,4,0:0:0:0:
192,192,79794,1,2,0:0:0:0:
64,192,79794,1,0,0:0:0:0:
64,192,79955,1,2,0:0:0:0:
448,192,79955,1,0,0:0:0:0:
320,192,79955,1,4,0:0:0:0:
448,192,80278,1,2,0:0:0:0:
64,192,80278,1,0,0:0:0:0:
192,192,80278,1,4,0:0:0:0:
448,192,80439,1,8,0:0:0:0:
64,192,80439,1,0,0:0:0:0:
320,192,80439,1,0,0:0:0:0:
192,192,80439,1,0,0:0:0:0:
448,192,80761,1,2,0:0:0:0:
64,192,80761,1,0,0:0:0:0:
192,192,80842,1,0,0:0:0:0:
320,192,80923,1,0,0:0:0:0:
448,192,81003,1,0,0:0:0:0:
192,192,81084,1,8,0:0:0:0:
64,192,81084,1,0,0:0:0:0:
320,192,81084,1,0,0:0:0:0:
448,192,81245,1,0,0:0:0:0:
320,192,81326,1,0,0:0:0:0:
64,192,81407,1,2,0:0:0:0:
448,192,81407,1,0,0:0:0:0:
192,192,81487,1,0,0:0:0:0:
320,192,81568,1,0,0:0:0:0:
192,192,81649,1,0,0:0:0:0:
64,192,81729,1,8,0:0:0:0:
448,192,81729,1,0,0:0:0:0:
320,192,81729,1,0,0:0:0:0:
192,192,81891,1,0,0:0:0:0:
320,192,81971,1,0,0:0:0:0:
448,192,82052,1,2,0:0:0:0:
64,192,82052,1,0,0:0:0:0:
192,192,82132,1,0,0:0:0:0:
320,192,82213,1,0,0:0:0:0:
64,192,82294,1,0,0:0:0:0:
448,192,82374,1,8,0:0:0:0:
192,192,82374,1,0,0:0:0:0:
320,192,82374,1,0,0:0:0:0:
64,192,82455,1,0,0:0:0:0:
320,192,82536,1,0,0:0:0:0:
448,192,82616,1,0,0:0:0:0:
64,192,82697,1,2,0:0:0:0:
192,192,82697,1,0,0:0:0:0:
320,192,82778,1,0,0:0:0:0:
192,192,82858,1,0,0:0:0:0:
64,192,82939,1,0,0:0:0:0:
448,192,83020,1,8,0:0:0:0:
320,192,83020,1,0,0:0:0:0:
192,192,83020,1,0,0:0:0:0:
64,192,83100,1,0,0:0:0:0:
192,192,83181,1,0,0:0:0:0:
320,192,83261,1,0,0:0:0:0:
64,192,83342,1,2,0:0:0:0:
448,192,83342,1,0,0:0:0:0:
192,192,83342,1,4,0:0:0:0:
320,192,83423,1,0,0:0:0:0:
64,192,83503,1,0,0:0:0:0:
192,192,83584,1,0,0:0:0:0:
448,192,83665,1,8,0:0:0:0:
64,192,83665,1,0,0:0:0:0:
320,192,83665,1,0,0:0:0:0:
192,192,83745,1,0,0:0:0:0:
448,192,83826,1,0,0:0:0:0:
320,192,83907,1,0,0:0:0:0:
64,192,83987,1,2,0:0:0:0:
192,192,83987,1,0,0:0:0:0:
320,192,84068,1,0,0:0:0:0:
448,192,84149,1,0,0:0:0:0:
192,192,84229,1,0,0:0:0:0:
448,192,84310,1,8,0:0:0:0:
320,192,84310,1,0,0:0:0:0:
64,192,84310,1,0,0:0:0:0:
192,192,84391,1,0,0:0:0:0:
320,192,84471,1,0,0:0:0:0:
192,192,84552,1,0,0:0:0:0:
448,192,84632,1,2,0:0:0:0:
64,192,84632,1,0,0:0:0:0:
320,192,84713,1,0,0:0:0:0:
192,192,84794,1,0,0:0:0:0:
320,192,84874,1,0,0:0:0:0:
192,192,84955,1,8,0:0:0:0:
448,192,84955,1,0,0:0:0:0:
64,192,84955,1,0,0:0:0:0:
320,192,85036,1,0,0:0:0:0:
64,192,85116,1,0,0:0:0:0:
192,192,85197,1,0,0:0:0:0:
448,192,85278,1,2,0:0:0:0:
320,192,85278,1,0,0:0:0:0:
64,192,85358,1,0,0:0:0:0:
320,192,85439,1,0,0:0:0:0:
192,192,85520,1,0,0:0:0:0:
320,192,85600,1,8,0:0:0:0:
448,192,85600,1,0,0:0:0:0:
64,192,85600,1,0,0:0:0:0:
192,192,85681,1,0,0:0:0:0:
320,192,85761,1,0,0:0:0:0:
64,192,85842,1,0,0:0:0:0:
448,192,85923,1,2,0:0:0:0:
320,192,85923,1,0,0:0:0:0:
192,192,85923,1,4,0:0:0:0:
64,192,86084,1,0,0:0:0:0:
192,192,86165,1,0,0:0:0:0:
448,192,86245,1,8,0:0:0:0:
320,192,86245,1,0,0:0:0:0:
64,192,86407,1,0,0:0:0:0:
192,192,86487,1,0,0:0:0:0:
320,192,86568,1,8,0:0:0:0:
448,192,86568,1,0,0:0:0:0:
64,192,86729,1,0,0:0:0:0:
192,192,86810,1,0,0:0:0:0:
448,192,86891,1,8,0:0:0:0:
320,192,86891,1,0,0:0:0:0:
192,192,86971,1,8,0:0:0:0:
64,192,86971,1,0,0:0:0:0:
320,192,87052,1,8,0:0:0:0:
448,192,87052,1,0,0:0:0:0:
192,192,87132,1,8,0:0:0:0:
448,192,87213,1,2,0:0:0:0:
320,192,87213,1,4,0:0:0:0:
64,192,87213,1,0,0:0:0:0:
192,192,87536,1,2,0:0:0:0:
64,192,87536,1,0,0:0:0:0:
320,192,87536,1,4,0:0:0:0:
448,192,87697,1,2,0:0:0:0:
320,192,87697,1,4,0:0:0:0:
192,192,87697,1,0,0:0:0:0:
64,192,88020,128,2,88342:0:0:0:0:
448,192,88020,128,4,88342:0:0:0:0:
192,192,88181,128,0,88342:0:0:0:0:
320,192,88181,128,0,88342:0:0:0:0:
448,192,88503,1,2,0:0:0:0:
192,192,88503,1,4,0:0:0:0:
64,192,88503,1,0,0:0:0:0:
320,192,88665,1,0,0:0:0:0:
448,192,88745,1,0,0:0:0:0:
320,192,88826,1,8,0:0:0:0:
192,192,88826,1,0,0:0:0:0:
64,192,88826,1,0,0:0:0:0:
64,192,88987,1,0,0:0:0:0:
192,192,89068,1,0,0:0:0:0:
448,192,89149,1,2,0:0:0:0:
320,192,89149,1,0,0:0:0:0:
192,192,89229,1,0,0:0:0:0:
320,192,89310,1,0,0:0:0:0:
192,192,89391,1,0,0:0:0:0:
64,192,89471,1,8,0:0:0:0:
448,192,89471,1,0,0:0:0:0:
320,192,89471,1,0,0:0:0:0:
192,192,89552,1,0,0:0:0:0:
320,192,89632,1,0,0:0:0:0:
448,192,89713,1,0,0:0:0:0:
64,192,89794,1,2,0:0:0:0:
192,192,89794,1,0,0:0:0:0:
320,192,89874,1,0,0:0:0:0:
448,192,89955,1,0,0:0:0:0:
192,192,90036,1,0,0:0:0:0:
320,192,90116,1,8,0:0:0:0:
448,192,90116,1,0,0:0:0:0:
64,192,90116,1,0,0:0:0:0:
192,192,90278,1,0,0:0:0:0:
320,192,90358,1,0,0:0:0:0:
448,192,90439,1,2,0:0:0:0:
64,192,90439,1,0,0:0:0:0:
320,192,90520,1,0,0:0:0:0:
192,192,90600,1,0,0:0:0:0:
320,192,90681,1,0,0:0:0:0:
64,192,90761,1,8,0:0:0:0:
192,192,90761,1,0,0:0:0:0:
448,192,90761,1,0,0:0:0:0:
320,192,90842,1,0,0:0:0:0:
192,192,90923,1,0,0:0:0:0:
64,192,91003,1,0,0:0:0:0:
192,192,91084,1,2,0:0:0:0:
448,192,91084,1,0,0:0:0:0:
320,192,91165,1,0,0:0:0:0:
64,192,91245,1,0,0:0:0:0:
192,192,91326,1,0,0:0:0:0:
64,192,91407,1,8,0:0:0:0:
320,192,91407,1,0,0:0:0:0:
448,192,91407,1,0,0:0:0:0:
320,192,91568,1,0,0:0:0:0:
192,192,91649,1,0,0:0:0:0:
64,192,91729,1,2,0:0:0:0:
448,192,91729,1,0,0:0:0:0:
320,192,91810,1,0,0:0:0:0:
192,192,91891,1,0,0:0:0:0:
320,192,91971,1,0,0:0:0:0:
64,192,92052,1,8,0:0:0:0:
448,192,92052,1,0,0:0:0:0:
192,192,92052,1,0,0:0:0:0:
320,192,92132,1,0,0:0:0:0:
64,192,92213,1,0,0:0:0:0:
192,192,92294,1,0,0:0:0:0:
64,192,92374,1,2,0:0:0:0:
448,192,92374,1,0,0:0:0:0:
320,192,92455,1,0,0:0:0:0:
448,192,92536,1,0,0:0:0:0:
192,192,92616,1,0,0:0:0:0:
64,192,92697,1,8,0:0:0:0:
320,192,92697,1,0,0:0:0:0:
448,192,92697,1,0,0:0:0:0:
192,192,92778,1,0,0:0:0:0:
448,192,92858,1,0,0:0:0:0:
64,192,92939,1,0,0:0:0:0:
192,192,93020,1,2,0:0:0:0:
320,192,93020,1,0,0:0:0:0:
448,192,93100,1,0,0:0:0:0:
192,192,93181,1,0,0:0:0:0:
320,192,93261,1,0,0:0:0:0:
448,192,93342,1,8,0:0:0:0:
64,192,93342,1,0,0:0:0:0:
320,192,93423,1,8,0:0:0:0:
192,192,93423,1,0,0:0:0:0:
64,192,93503,1,8,0:0:0:0:
448,192,93503,1,0,0:0:0:0:
192,192,93584,1,8,0:0:0:0:
320,192,93584,1,0,0:0:0:0:
64,192,93665,1,2,0:0:0:0:
448,192,93665,1,4,0:0:0:0:
320,192,93745,1,0,0:0:0:0:
192,192,93826,1,0,0:0:0:0:
64,192,93907,1,0,0:0:0:0:
320,192,93987,1,2,0:0:0:0:
448,192,93987,1,8,0:0:0:0:
64,192,94068,1,0,0:0:0:0:
320,192,94149,1,0,0:0:0:0:
192,192,94229,1,0,0:0:0:0:
320,192,94310,1,2,0:0:0:0:
448,192,94310,1,8,0:0:0:0:
64,192,94391,1,0,0:0:0:0:
192,192,94471,1,0,0:0:0:0:
64,192,94552,1,0,0:0:0:0:
448,192,94632,1,2,0:0:0:0:
320,192,94632,1,8,0:0:0:0:
192,192,94713,1,0,0:0:0:0:
64,192,94794,1,8,0:0:0:0:
448,192,94794,1,0,0:0:0:0:
320,192,94874,1,0,0:0:0:0:
64,192,94955,1,2,0:0:0:0:
192,192,94955,1,8,0:0:0:0:
448,192,94955,1,0,0:0:0:0:
320,192,95036,1,0,0:0:0:0:
192,192,95116,1,0,0:0:0:0:
448,192,95197,1,0,0:0:0:0:
192,192,95278,1,2,0:0:0:0:
64,192,95278,1,8,0:0:0:0:
320,192,95358,1,0,0:0:0:0:
448,192,95439,1,0,0:0:0:0:
320,192,95520,1,0,0:0:0:0:
192,192,95600,1,2,0:0:0:0:
64,192,95600,1,8,0:0:0:0:
448,192,95681,1,0,0:0:0:0:
320,192,95761,1,0,0:0:0:0:
448,192,95842,1,0,0:0:0:0:
192,192,95923,1,2,0:0:0:0:
64,192,95923,1,8,0:0:0:0:
320,192,96003,1,0,0:0:0:0:
448,192,96084,1,8,0:0:0:0:
64,192,96084,1,0,0:0:0:0:
192,192,96165,1,0,0:0:0:0:
320,192,96245,1,2,0:0:0:0:
448,192,96245,1,4,0:0:0:0:
64,192,96245,1,0,0:0:0:0:
192,192,96326,1,0,0:0:0:0:
448,192,96407,1,8,0:0:0:0:
64,192,96407,1,0,0:0:0:0:
320,192,96487,1,0,0:0:0:0:
192,192,96568,1,8,0:0:0:0:
64,192,96568,1,0,0:0:0:0:
320,192,96649,1,0,0:0:0:0:
448,192,96729,1,8,0:0:0:0:
64,192,96729,1,0,0:0:0:0:
192,192,96810,1,0,0:0:0:0:
320,192,96891,1,8,0:0:0:0:
448,192,96891,1,0,0:0:0:0:
64,192,96971,1,0,0:0:0:0:
192,192,97052,1,8,0:0:0:0:
448,192,97052,1,0,0:0:0:0:
320,192,97132,1,0,0:0:0:0:
192,192,97213,1,8,0:0:0:0:
64,192,97213,1,0,0:0:0:0:
448,192,97294,1,0,0:0:0:0:
320,192,97374,1,8,0:0:0:0:
64,192,97374,1,0,0:0:0:0:
192,192,97455,1,0,0:0:0:0:
64,192,97536,1,8,0:0:0:0:
448,192,97536,1,0,0:0:0:0:
192,192,97616,1,8,0:0:0:0:
320,192,97616,1,0,0:0:0:0:
64,192,97697,1,8,0:0:0:0:
448,192,97697,1,0,0:0:0:0:
192,192,97778,1,8,0:0:0:0:
320,192,97778,1,0,0:0:0:0:
64,192,97858,1,8,0:0:0:0:
448,192,97858,1,0,0:0:0:0:
192,192,97939,1,8,0:0:0:0:
320,192,97939,1,0,0:0:0:0:
448,192,98020,1,8,0:0:0:0:
64,192,98020,1,0,0:0:0:0:
192,192,98100,1,8,0:0:0:0:
320,192,98100,1,0,0:0:0:0:
448,192,98181,1,8,0:0:0:0:
64,192,98181,1,0,0:0:0:0:
320,192,98261,1,8,0:0:0:0:
192,192,98261,1,0,0:0:0:0:
64,192,98342,1,8,0:0:0:0:
448,192,98342,1,0,0:0:0:0:
320,192,98423,1,8,0:0:0:0:
192,192,98423,1,0,0:0:0:0:
448,192,98503,1,8,0:0:0:0:
64,192,98503,1,0,0:0:0:0:
192,192,98584,1,8,0:0:0:0:
320,192,98584,1,0,0:0:0:0:
448,192,98665,128,2,99471:0:0:0:0:
64,192,98665,128,4,99471:0:0:0:0:
320,192,99471,1,0,0:0:0:0:
192,192,99552,1,0,0:0:0:0:
320,192,99632,1,0,0:0:0:0:
192,192,99713,1,0,0:0:0:0:
320,192,99794,1,2,0:0:0:0:
448,192,99794,1,4,0:0:0:0:
64,192,99794,1,0,0:0:0:0:
448,192,99955,128,2,100116:0:0:0:0:
192,192,99955,128,4,100116:0:0:0:0:
64,192,99955,128,0,100116:0:0:0:0:
64,192,100278,1,2,0:0:0:0:
320,192,100278,1,4,0:0:0:0:
448,192,100278,1,0,0:0:0:0:
64,192,100439,128,2,100923:0:0:0:0:
192,192,100439,128,4,100761:0:0:0:0:
448,192,100439,128,0,100600:0:0:0:0:
192,192,101084,1,8,0:0:0:0:
320,192,101165,1,8,0:0:0:0:
192,192,101245,1,8,0:0:0:0:
320,192,101326,1,8,0:0:0:0:
192,192,101407,1,2,0:0:0:0:
64,192,101407,1,4,0:0:0:0:
448,192,101407,1,0,0:0:0:0:
320,192,101568,1,0,0:0:0:0:
64,192,101568,1,0,0:0:0:0:
192,192,101729,1,8,0:0:0:0:
448,192,101729,1,0,0:0:0:0:
192,192,101891,1,0,0:0:0:0:
64,192,101891,1,0,0:0:0:0:
448,192,102052,1,2,0:0:0:0:
64,192,102052,1,0,0:0:0:0:
320,192,102213,1,0,0:0:0:0:
192,192,102213,1,0,0:0:0:0:
64,192,102374,1,8,0:0:0:0:
192,192,102374,1,0,0:0:0:0:
320,192,102536,1,0,0:0:0:0:
448,192,102536,1,0,0:0:0:0:
64,192,102697,1,2,0:0:0:0:
448,192,102697,1,0,0:0:0:0:
192,192,102858,1,0,0:0:0:0:
320,192,102939,1,0,0:0:0:0:
64,192,103020,128,8,103181:0:0:0:0:
192,192,103020,1,0,0:0:0:0:
448,192,103020,1,0,0:0:0:0:
448,192,103181,128,0,103342:0:0:0:0:
192,192,103342,128,2,103503:0:0:0:0:
64,192,103342,1,0,0:0:0:0:
320,192,103503,1,0,0:0:0:0:
320,192,103665,128,8,103826:0:0:0:0:
448,192,103665,1,0,0:0:0:0:
64,192,103665,1,0,0:0:0:0:
192,192,103826,1,0,0:0:0:0:
320,192,103987,1,2,0:0:0:0:
448,192,103987,1,0,0:0:0:0:
320,192,104149,1,2,0:0:0:0:
448,192,104149,1,0,0:0:0:0:
192,192,104310,1,2,0:0:0:0:
64,192,104310,1,4,0:0:0:0:
448,192,104310,1,0,0:0:0:0:
320,192,104471,1,0,0:0:0:0:
448,192,104471,1,0,0:0:0:0:
192,192,104632,1,2,0:0:0:0:
64,192,104632,1,0,0:0:0:0:
320,192,104794,1,0,0:0:0:0:
192,192,104794,1,0,0:0:0:0:
448,192,104955,1,8,0:0:0:0:
320,192,104955,1,0,0:0:0:0:
64,192,105116,1,0,0:0:0:0:
448,192,105116,1,0,0:0:0:0:
192,192,105278,1,2,0:0:0:0:
64,192,105278,1,0,0:0:0:0:
320,192,105439,1,0,0:0:0:0:
192,192,105520,1,0,0:0:0:0:
448,192,105600,128,8,105761:0:0:0:0:
320,192,105600,1,0,0:0:0:0:
64,192,105600,1,0,0:0:0:0:
64,192,105761,128,0,105923:0:0:0:0:
320,192,105923,128,2,106084:0:0:0:0:
448,192,105923,1,0,0:0:0:0:
192,192,106084,128,0,106245:0:0:0:0:
64,192,106245,128,8,106407:0:0:0:0:
320,192,106245,1,0,0:0:0:0:
448,192,106245,1,0,0:0:0:0:
448,192,106407,128,0,106568:0:0:0:0:
320,192,106568,1,2,0:0:0:0:
192,192,106568,1,4,0:0:0:0:
64,192,106568,1,0,0:0:0:0:
64,192,106729,1,2,0:0:0:0:
448,192,106729,1,0,0:0:0:0:
320,192,106891,1,8,0:0:0:0:
192,192,106891,1,0,0:0:0:0:
192,192,107052,1,2,0:0:0:0:
64,192,107052,1,0,0:0:0:0:
320,192,107213,1,8,0:0:0:0:
448,192,107213,1,0,0:0:0:0:
192,192,107374,1,2,0:0:0:0:
320,192,107374,1,0,0:0:0:0:
64,192,107536,1,8,0:0:0:0:
192,192,107536,1,0,0:0:0:0:
320,192,107697,1,2,0:0:0:0:
448,192,107697,1,0,0:0:0:0:
192,192,107778,1,2,0:0:0:0:
64,192,107778,1,0,0:0:0:0:
448,192,107858,1,2,0:0:0:0:
320,192,107858,1,8,0:0:0:0:
64,192,108020,1,2,0:0:0:0:
192,192,108020,1,8,0:0:0:0:
448,192,108181,1,2,0:0:0:0:
64,192,108181,1,8,0:0:0:0:
320,192,108342,1,2,0:0:0:0:
448,192,108342,1,8,0:0:0:0:
192,192,108503,1,2,0:0:0:0:
64,192,108503,1,8,0:0:0:0:
320,192,108665,1,2,0:0:0:0:
64,192,108665,1,8,0:0:0:0:
320,192,108826,1,2,0:0:0:0:
192,192,108826,1,8,0:0:0:0:
192,192,108987,1,2,0:0:0:0:
448,192,108987,1,0,0:0:0:0:
320,192,109068,1,2,0:0:0:0:
192,192,109149,1,2,0:0:0:0:
448,192,109149,1,0,0:0:0:0:
64,192,109149,1,4,0:0:0:0:
320,192,109310,1,2,0:0:0:0:
448,192,109310,1,0,0:0:0:0:
320,192,109471,1,8,0:0:0:0:
192,192,109471,1,0,0:0:0:0:
64,192,109632,1,2,0:0:0:0:
448,192,109632,1,4,0:0:0:0:
320,192,109632,1,0,0:0:0:0:
192,192,109794,1,2,0:0:0:0:
64,192,109794,1,0,0:0:0:0:
192,192,109955,1,8,0:0:0:0:
320,192,109955,1,0,0:0:0:0:
192,192,110116,1,2,0:0:0:0:
64,192,110116,1,8,0:0:0:0:
320,192,110197,1,8,0:0:0:0:
448,192,110197,1,0,0:0:0:0:
192,192,110278,1,8,0:0:0:0:
64,192,110278,1,0,0:0:0:0:
320,192,110358,1,8,0:0:0:0:
448,192,110439,1,2,0:0:0:0:
192,192,110439,1,0,0:0:0:0:
64,192,110439,1,4,0:0:0:0:
320,192,110761,1,4,0:0:0:0:
448,192,110761,1,2,0:0:0:0:
192,192,110761,1,0,0:0:0:0:
320,192,110923,1,4,0:0:0:0:
64,192,110923,1,0,0:0:0:0:
448,192,110923,1,2,0:0:0:0:
192,192,111245,1,2,0:0:0:0:
64,192,111245,128,0,111729:0:0:0:0:
448,192,111245,1,4,0:0:0:0:
192,192,111568,128,0,111729:0:0:0:0:
448,192,111729,1,2,0:0:0:0:
320,192,111729,1,4,0:0:0:0:
64,192,112052,1,0,0:0:0:0:
320,192,112052,1,0,0:0:0:0:
448,192,112213,1,0,0:0:0:0:
192,192,112213,1,0,0:0:0:0:
64,192,112536,1,0,0:0:0:0:
448,192,112536,128,0,112858:0:0:0:0:
192,192,112858,1,0,0:0:0:0:
320,192,113020,1,0,0:0:0:0:
64,192,113181,1,0,0:0:0:0:
320,192,113342,1,0,0:0:0:0:
192,192,113503,1,0,0:0:0:0:
448,192,113665,1,0,0:0:0:0:
320,192,113826,1,0,0:0:0:0:
64,192,113987,1,0,0:0:0:0:
192,192,114149,1,0,0:0:0:0:
448,192,114310,1,0,0:0:0:0:
320,192,114310,1,0,0:0:0:0:
64,192,114632,1,0,0:0:0:0:
192,192,114740,1,0,0:0:0:0:
320,192,114794,1,0,0:0:0:0:
448,192,114794,1,0,0:0:0:0:
64,192,115278,1,0,0:0:0:0:
448,192,115278,1,0,0:0:0:0:
64,192,115600,128,0,118181:0:0:0:0:
192,192,115654,128,0,118181:0:0:0:0:
448,192,115708,128,0,118181:0:0:0:0:
320,192,115761,128,0,118181:0:0:0:0:
