osu file format v14

[General]
AudioFilename: audio.mp3
AudioLeadIn: 0
PreviewTime: 34310
Countdown: 0
SampleSet: Soft
StackLeniency: 0.7
Mode: 3
LetterboxInBreaks: 0
SpecialStyle: 1
WidescreenStoryboard: 0

[Editor]
DistanceSpacing: 0.6
BeatDivisor: 4
GridSize: 4
TimelineZoom: 1.4

[Metadata]
Title:Mono Logic
TitleUnicode:Mono Logic
Artist:DJ NAGAI feat. Ayumi Nomiya
ArtistUnicode:DJ NAGAI feat. Ayumi Nomiya
Creator:Critical_Star
Version:8K Normal
Source:jubeat saucer fulfill
Tags:victorica_db [emiria] -[ AmiShici ]- MeowPaz Dellvangel DixonBlackwing ALiCE'S EMOTION HARDCORE TANO*C yoshikazu akai hito redalice
BeatmapID:1046468
BeatmapSetID:490166

[Difficulty]
HPDrainRate:7
CircleSize:8
OverallDifficulty:7
ApproachRate:5
SliderMultiplier:1.4
SliderTickRate:1

[Events]
//Background and Video events
0,0,"abc.png",0,0
//Break Periods
//Storyboard Layer 0 (Background)
//Storyboard Layer 1 (Fail)
//Storyboard Layer 2 (Pass)
//Storyboard Layer 3 (Foreground)
//Storyboard Sound Samples

[TimingPoints]
762,322.58064516129,4,2,1,30,1,0
34310,-100,4,2,1,30,0,1
42052,-100,4,2,1,30,0,0
44632,-100,4,2,1,30,0,1
56891,-100,4,2,1,30,0,0
80761,-100,4,2,1,30,0,1
87213,-100,4,2,1,30,0,0
88503,-100,4,2,1,30,0,1
98665,-100,4,2,1,30,0,0

[HitObjects]
32,192,762,5,2,0:0:0:0:
480,192,762,1,4,0:0:0:0:
416,192,923,1,0,0:0:0:0:
160,192,1084,1,8,0:0:0:0:
224,192,1245,1,0,0:0:0:0:
32,192,1407,1,2,0:0:0:0:
352,192,1407,1,4,0:0:0:0:
288,192,1568,1,0,0:0:0:0:
416,192,1729,1,8,0:0:0:0:
32,192,1891,1,2,0:0:0:0:
352,192,1891,1,4,0:0:0:0:
32,192,2213,1,2,0:0:0:0:
480,192,2213,1,4,0:0:0:0:
32,192,2374,1,2,0:0:0:0:
480,192,2374,1,4,0:0:0:0:
32,192,3020,1,2,0:0:0:0:
352,192,3020,1,8,0:0:0:0:
160,192,3020,1,4,0:0:0:0:
96,192,3342,1,2,0:0:0:0:
480,192,3342,1,0,0:0:0:0:
416,192,3503,1,0,0:0:0:0:
352,192,3665,1,8,0:0:0:0:
288,192,3826,1,0,0:0:0:0:
160,192,3987,1,2,0:0:0:0:
416,192,4149,1,0,0:0:0:0:
224,192,4310,1,8,0:0:0:0:
352,192,4471,1,0,0:0:0:0:
96,192,4794,1,0,0:0:0:0:
416,192,4955,1,8,0:0:0:0:
96,192,5116,1,0,0:0:0:0:
352,192,5278,1,2,0:0:0:0:
160,192,5439,1,0,0:0:0:0:
480,192,5600,1,8,0:0:0:0:
352,192,5761,1,0,0:0:0:0:
224,192,6084,1,0,0:0:0:0:
288,192,6245,1,8,0:0:0:0:
352,192,6407,1,0,0:0:0:0:
416,192,6568,1,2,0:0:0:0:
224,192,6729,1,0,0:0:0:0:
352,192,6891,1,8,0:0:0:0:
160,192,7052,1,0,0:0:0:0:
416,192,7374,1,0,0:0:0:0:
96,192,7455,1,0,0:0:0:0:
416,192,7536,1,8,0:0:0:0:
224,192,7697,1,0,0:0:0:0:
352,192,7858,1,2,0:0:0:0:
160,192,8020,1,0,0:0:0:0:
416,192,8181,1,8,0:0:0:0:
224,192,8342,1,2,0:0:0:0:
32,192,8503,1,2,0:0:0:0:
480,192,8503,1,0,0:0:0:0:
352,192,8503,1,4,0:0:0:0:
224,192,8665,1,0,0:0:0:0:
96,192,8826,1,10,0:0:0:0:
352,192,8987,1,0,0:0:0:0:
96,192,9149,1,10,0:0:0:0:
224,192,9310,1,0,0:0:0:0:
96,192,9471,1,10,0:0:0:0:
224,192,9632,1,0,0:0:0:0:
352,192,9794,1,10,0:0:0:0:
160,192,9955,1,8,0:0:0:0:
352,192,10116,1,10,0:0:0:0:
96,192,10278,1,8,0:0:0:0:
352,192,10439,1,10,0:0:0:0:
224,192,10600,1,8,0:0:0:0:
352,192,10761,1,10,0:0:0:0:
96,192,10761,1,0,0:0:0:0:
160,192,10923,1,8,0:0:0:0:
32,192,11084,1,2,0:0:0:0:
224,192,11084,1,4,0:0:0:0:
480,192,11084,1,0,0:0:0:0:
416,192,11245,1,0,0:0:0:0:
352,192,11407,1,0,0:0:0:0:
480,192,11568,1,0,0:0:0:0:
416,192,11729,1,0,0:0:0:0:
352,192,11891,1,0,0:0:0:0:
160,192,12052,128,8,12374:0:0:0:0:
32,192,12374,1,2,0:0:0:0:
480,192,12374,1,4,0:0:0:0:
96,192,12697,1,2,0:0:0:0:
416,192,12697,1,2,0:0:0:0:
352,192,12858,1,4,0:0:0:0:
160,192,12858,1,4,0:0:0:0:
288,192,13181,128,6,13665:0:0:0:0:
32,192,13665,1,2,0:0:0:0:
416,192,13665,1,0,0:0:0:0:
160,192,13665,1,4,0:0:0:0:
288,192,13987,1,0,0:0:0:0:
96,192,13987,1,8,0:0:0:0:
352,192,14310,1,2,0:0:0:0:
224,192,14632,1,0,0:0:0:0:
96,192,14632,1,8,0:0:0:0:
480,192,14955,1,2,0:0:0:0:
352,192,15278,1,0,0:0:0:0:
96,192,15278,1,8,0:0:0:0:
160,192,15600,1,2,0:0:0:0:
288,192,15923,1,0,0:0:0:0:
96,192,15923,1,8,0:0:0:0:
480,192,16245,1,2,0:0:0:0:
352,192,16568,1,0,0:0:0:0:
96,192,16568,1,8,0:0:0:0:
224,192,16891,1,2,0:0:0:0:
416,192,17213,1,0,0:0:0:0:
96,192,17213,1,8,0:0:0:0:
160,192,17697,1,2,0:0:0:0:
352,192,17778,1,2,0:0:0:0:
32,192,17858,1,2,0:0:0:0:
480,192,17858,1,4,0:0:0:0:
160,192,18342,1,2,0:0:0:0:
416,192,18503,1,2,0:0:0:0:
352,192,18665,1,8,0:0:0:0:
32,192,18826,1,2,0:0:0:0:
480,192,18826,1,0,0:0:0:0:
288,192,18826,1,4,0:0:0:0:
224,192,19149,1,0,0:0:0:0:
96,192,19149,1,8,0:0:0:0:
352,192,19471,1,2,0:0:0:0:
288,192,19794,1,0,0:0:0:0:
96,192,19794,1,8,0:0:0:0:
416,192,20116,1,2,0:0:0:0:
96,192,20439,1,8,0:0:0:0:
352,192,20439,1,0,0:0:0:0:
480,192,20761,1,2,0:0:0:0:
416,192,21084,1,0,0:0:0:0:
96,192,21084,1,8,0:0:0:0:
32,192,21407,1,2,0:0:0:0:
480,192,21407,1,0,0:0:0:0:
224,192,21407,1,4,0:0:0:0:
352,192,21568,1,2,0:0:0:0:
480,192,21729,1,2,0:0:0:0:
160,192,22052,1,8,0:0:0:0:
416,192,22052,1,0,0:0:0:0:
352,192,22374,1,2,0:0:0:0:
96,192,22536,1,8,0:0:0:0:
224,192,22536,1,0,0:0:0:0:
32,192,22697,1,2,0:0:0:0:
352,192,22697,1,4,0:0:0:0:
480,192,22697,1,0,0:0:0:0:
288,192,22858,1,0,0:0:0:0:
224,192,23020,1,0,0:0:0:0:
160,192,23181,1,0,0:0:0:0:
480,192,23342,1,0,0:0:0:0:
352,192,23503,1,0,0:0:0:0:
224,192,23665,1,0,0:0:0:0:
96,192,23826,1,0,0:0:0:0:
288,192,23987,1,2,0:0:0:0:
480,192,23987,1,4,0:0:0:0:
32,192,23987,1,0,0:0:0:0:
352,192,24632,1,8,0:0:0:0:
480,192,24632,1,0,0:0:0:0:
160,192,24794,1,2,0:0:0:0:
160,192,24955,1,2,0:0:0:0:
32,192,25116,1,2,0:0:0:0:
288,192,25116,1,4,0:0:0:0:
96,192,25761,1,2,0:0:0:0:
288,192,25923,1,8,0:0:0:0:
480,192,25923,1,0,0:0:0:0:
352,192,26245,1,2,0:0:0:0:
352,192,26407,1,2,0:0:0:0:
32,192,26568,1,2,0:0:0:0:
480,192,26568,1,4,0:0:0:0:
96,192,26891,1,0,0:0:0:0:
224,192,27052,1,2,0:0:0:0:
352,192,27213,1,8,0:0:0:0:
480,192,27213,1,0,0:0:0:0:
32,192,27697,1,2,0:0:0:0:
416,192,27697,1,4,0:0:0:0:
32,192,27858,1,2,0:0:0:0:
416,192,27858,1,4,0:0:0:0:
224,192,28181,1,0,0:0:0:0:
480,192,28342,1,0,0:0:0:0:
352,192,28826,128,0,29149:0:0:0:0:
32,192,29149,1,2,0:0:0:0:
480,192,29149,1,0,0:0:0:0:
160,192,29149,1,4,0:0:0:0:
416,192,29471,1,8,0:0:0:0:
416,192,29794,1,8,0:0:0:0:
416,192,30116,1,8,0:0:0:0:
352,192,30278,1,10,0:0:0:0:
32,192,30439,1,2,0:0:0:0:
224,192,30439,1,4,0:0:0:0:
480,192,30439,1,0,0:0:0:0:
224,192,30761,1,8,0:0:0:0:
224,192,31084,1,8,0:0:0:0:
224,192,31407,1,8,0:0:0:0:
352,192,31568,1,8,0:0:0:0:
224,192,31729,1,4,0:0:0:0:
32,192,31729,1,2,0:0:0:0:
352,192,31971,1,2,0:0:0:0:
480,192,31971,1,0,0:0:0:0:
96,192,32213,1,2,0:0:0:0:
224,192,32213,1,0,0:0:0:0:
32,192,32374,1,2,0:0:0:0:
480,192,32374,1,0,0:0:0:0:
416,192,32616,1,2,0:0:0:0:
288,192,32616,1,0,0:0:0:0:
96,192,32858,1,2,0:0:0:0:
224,192,32858,1,0,0:0:0:0:
480,192,33020,1,2,0:0:0:0:
32,192,33020,1,4,0:0:0:0:
32,192,33342,1,2,0:0:0:0:
480,192,33342,1,0,0:0:0:0:
352,192,33342,1,4,0:0:0:0:
32,192,33503,1,2,0:0:0:0:
480,192,33503,1,0,0:0:0:0:
352,192,33503,1,4,0:0:0:0:
32,192,34310,1,2,0:0:0:0:
480,192,34310,1,0,0:0:0:0:
224,192,34310,1,4,0:0:0:0:
416,192,34471,1,0,0:0:0:0:
160,192,34632,1,8,0:0:0:0:
224,192,34794,1,0,0:0:0:0:
416,192,34955,1,2,0:0:0:0:
352,192,35116,1,0,0:0:0:0:
96,192,35278,1,8,0:0:0:0:
224,192,35439,1,0,0:0:0:0:
480,192,35600,1,2,0:0:0:0:
352,192,35761,1,0,0:0:0:0:
96,192,35923,1,8,0:0:0:0:
160,192,36084,1,0,0:0:0:0:
352,192,36245,1,2,0:0:0:0:
480,192,36407,1,0,0:0:0:0:
224,192,36568,1,8,0:0:0:0:
96,192,36729,1,0,0:0:0:0:
480,192,36891,1,2,0:0:0:0:
416,192,37052,1,0,0:0:0:0:
224,192,37213,1,8,0:0:0:0:
288,192,37374,1,0,0:0:0:0:
96,192,37536,1,2,0:0:0:0:
160,192,37697,1,0,0:0:0:0:
352,192,37858,1,8,0:0:0:0:
288,192,38020,1,0,0:0:0:0:
160,192,38181,1,2,0:0:0:0:
416,192,38342,1,0,0:0:0:0:
224,192,38503,5,8,0:0:0:0:
352,192,38665,1,0,0:0:0:0:
96,192,38826,1,2,0:0:0:0:
480,192,38987,1,0,0:0:0:0:
160,192,39149,1,8,0:0:0:0:
288,192,39310,1,0,0:0:0:0:
32,192,39471,5,2,0:0:0:0:
480,192,39471,1,4,0:0:0:0:
352,192,39632,1,0,0:0:0:0:
160,192,39794,1,8,0:0:0:0:
480,192,39955,1,0,0:0:0:0:
288,192,40116,1,2,0:0:0:0:
96,192,40278,1,0,0:0:0:0:
416,192,40439,1,8,0:0:0:0:
160,192,40600,1,0,0:0:0:0:
352,192,40761,1,2,0:0:0:0:
96,192,40923,1,0,0:0:0:0:
224,192,41084,1,8,0:0:0:0:
480,192,41245,1,0,0:0:0:0:
96,192,41407,1,2,0:0:0:0:
352,192,41568,1,0,0:0:0:0:
160,192,41729,1,8,0:0:0:0:
288,192,41891,1,0,0:0:0:0:
32,192,42052,1,2,0:0:0:0:
480,192,42052,1,4,0:0:0:0:
160,192,42374,1,8,0:0:0:0:
352,192,42374,1,0,0:0:0:0:
160,192,42697,1,8,0:0:0:0:
352,192,42697,1,0,0:0:0:0:
288,192,43020,128,8,43342:0:0:0:0:
32,192,43342,1,2,0:0:0:0:
416,192,43342,1,4,0:0:0:0:
32,192,43665,1,4,0:0:0:0:
224,192,43665,1,2,0:0:0:0:
32,192,43826,1,4,0:0:0:0:
352,192,43826,1,2,0:0:0:0:
32,192,44149,1,4,0:0:0:0:
480,192,44149,1,2,0:0:0:0:
32,192,44632,1,2,0:0:0:0:
416,192,44632,1,0,0:0:0:0:
352,192,44632,1,4,0:0:0:0:
288,192,44794,1,0,0:0:0:0:
96,192,44955,1,8,0:0:0:0:
416,192,45116,1,0,0:0:0:0:
224,192,45278,1,2,0:0:0:0:
480,192,45439,1,0,0:0:0:0:
352,192,45600,1,8,0:0:0:0:
96,192,45761,1,0,0:0:0:0:
160,192,45923,1,2,0:0:0:0:
352,192,46084,1,0,0:0:0:0:
480,192,46245,1,8,0:0:0:0:
224,192,46407,1,0,0:0:0:0:
352,192,46568,1,2,0:0:0:0:
96,192,46729,1,0,0:0:0:0:
288,192,46891,1,8,0:0:0:0:
480,192,47052,1,0,0:0:0:0:
160,192,47213,1,2,0:0:0:0:
352,192,47374,1,0,0:0:0:0:
224,192,47536,1,8,0:0:0:0:
416,192,47697,1,0,0:0:0:0:
96,192,47858,1,2,0:0:0:0:
224,192,48020,1,0,0:0:0:0:
480,192,48181,1,8,0:0:0:0:
352,192,48342,1,0,0:0:0:0:
96,192,48503,1,2,0:0:0:0:
224,192,48665,1,0,0:0:0:0:
352,192,48826,5,8,0:0:0:0:
480,192,48987,1,0,0:0:0:0:
288,192,49149,1,2,0:0:0:0:
96,192,49310,1,0,0:0:0:0:
224,192,49471,128,10,49794:0:0:0:0:
32,192,49794,5,2,0:0:0:0:
480,192,49794,1,0,0:0:0:0:
352,192,49794,1,4,0:0:0:0:
416,192,50116,1,2,0:0:0:0:
96,192,50116,1,8,0:0:0:0:
416,192,50439,1,2,0:0:0:0:
96,192,50439,1,8,0:0:0:0:
416,192,50761,1,2,0:0:0:0:
96,192,50761,1,8,0:0:0:0:
224,192,50923,1,8,0:0:0:0:
160,192,51084,1,2,0:0:0:0:
352,192,51084,1,8,0:0:0:0:
160,192,51407,1,2,0:0:0:0:
352,192,51407,1,8,0:0:0:0:
160,192,51729,1,2,0:0:0:0:
352,192,51729,1,8,0:0:0:0:
160,192,52052,1,2,0:0:0:0:
352,192,52052,1,8,0:0:0:0:
288,192,52213,1,8,0:0:0:0:
32,192,52374,1,2,0:0:0:0:
416,192,52374,1,4,0:0:0:0:
480,192,52374,1,0,0:0:0:0:
160,192,52536,1,8,0:0:0:0:
352,192,52697,1,8,0:0:0:0:
160,192,52858,1,8,0:0:0:0:
352,192,53020,1,8,0:0:0:0:
160,192,53181,1,8,0:0:0:0:
352,192,53342,1,8,0:0:0:0:
160,192,53503,1,8,0:0:0:0:
352,192,53665,128,8,54794:0:0:0:0:
32,192,54794,1,2,0:0:0:0:
96,192,54794,1,4,0:0:0:0:
480,192,54794,1,0,0:0:0:0:
32,192,55923,1,4,0:0:0:0:
480,192,55923,1,2,0:0:0:0:
32,192,56084,1,4,0:0:0:0:
352,192,56084,1,2,0:0:0:0:
32,192,56407,1,4,0:0:0:0:
352,192,56407,1,2,0:0:0:0:
32,192,56568,1,4,0:0:0:0:
480,192,56568,1,2,0:0:0:0:
160,192,57052,1,0,0:0:0:0:
224,192,57213,1,0,0:0:0:0:
288,192,57374,1,0,0:0:0:0:
32,192,57536,1,2,0:0:0:0:
352,192,57536,1,4,0:0:0:0:
480,192,57536,1,0,0:0:0:0:
160,192,57697,1,0,0:0:0:0:
288,192,57858,1,0,0:0:0:0:
416,192,58020,1,0,0:0:0:0:
288,192,58342,1,0,0:0:0:0:
160,192,58503,1,0,0:0:0:0:
96,192,58665,1,0,0:0:0:0:
416,192,58826,1,0,0:0:0:0:
352,192,58987,1,0,0:0:0:0:
480,192,59149,1,0,0:0:0:0:
224,192,59310,1,0,0:0:0:0:
160,192,59632,1,0,0:0:0:0:
288,192,59794,1,0,0:0:0:0:
96,192,59955,1,0,0:0:0:0:
480,192,60116,1,0,0:0:0:0:
352,192,60439,1,0,0:0:0:0:
288,192,60761,1,0,0:0:0:0:
160,192,61084,1,0,0:0:0:0:
96,192,61407,1,0,0:0:0:0:
224,192,61729,1,0,0:0:0:0:
352,192,61891,1,0,0:0:0:0:
480,192,62213,1,0,0:0:0:0:
160,192,62697,1,0,0:0:0:0:
352,192,63020,1,0,0:0:0:0:
224,192,63181,1,0,0:0:0:0:
352,192,63503,1,0,0:0:0:0:
480,192,63665,1,0,0:0:0:0:
224,192,63987,1,0,0:0:0:0:
352,192,64310,1,0,0:0:0:0:
160,192,64471,1,0,0:0:0:0:
288,192,64794,1,0,0:0:0:0:
416,192,64955,1,0,0:0:0:0:
224,192,65116,1,0,0:0:0:0:
96,192,65278,1,0,0:0:0:0:
480,192,65439,1,0,0:0:0:0:
416,192,65761,1,0,0:0:0:0:
352,192,66084,1,0,0:0:0:0:
224,192,66245,1,0,0:0:0:0:
96,192,66407,1,0,0:0:0:0:
480,192,66568,1,0,0:0:0:0:
160,192,67052,1,0,0:0:0:0:
352,192,67536,128,0,67858:0:0:0:0:
32,192,67858,5,2,0:0:0:0:
96,192,67858,1,4,0:0:0:0:
480,192,67858,1,0,0:0:0:0:
352,192,68987,1,0,0:0:0:0:
160,192,68987,1,0,0:0:0:0:
160,192,70278,1,0,0:0:0:0:
352,192,70439,1,0,0:0:0:0:
224,192,70761,1,0,0:0:0:0:
416,192,70923,1,0,0:0:0:0:
288,192,71568,1,0,0:0:0:0:
96,192,71729,5,0,0:0:0:0:
160,192,72052,5,0,0:0:0:0:
352,192,72213,1,0,0:0:0:0:
480,192,72697,1,0,0:0:0:0:
32,192,73020,5,2,0:0:0:0:
352,192,73020,1,0,0:0:0:0:
160,192,73020,1,4,0:0:0:0:
224,192,73342,1,8,0:0:0:0:
96,192,73342,1,0,0:0:0:0:
224,192,73665,1,8,0:0:0:0:
96,192,73665,1,0,0:0:0:0:
224,192,73987,1,8,0:0:0:0:
96,192,73987,1,0,0:0:0:0:
352,192,74149,1,10,0:0:0:0:
32,192,74310,1,2,0:0:0:0:
96,192,74310,1,4,0:0:0:0:
480,192,74310,1,0,0:0:0:0:
288,192,74632,1,8,0:0:0:0:
416,192,74632,1,0,0:0:0:0:
288,192,74955,1,8,0:0:0:0:
416,192,74955,1,0,0:0:0:0:
160,192,75278,128,8,75600:0:0:0:0:
32,192,75600,1,2,0:0:0:0:
480,192,75600,1,0,0:0:0:0:
352,192,75842,1,2,0:0:0:0:
224,192,75842,1,0,0:0:0:0:
160,192,76084,1,2,0:0:0:0:
480,192,76084,1,0,0:0:0:0:
32,192,76245,1,2,0:0:0:0:
288,192,76245,1,4,0:0:0:0:
416,192,76487,1,2,0:0:0:0:
96,192,76487,1,0,0:0:0:0:
160,192,76729,1,2,0:0:0:0:
352,192,76729,1,0,0:0:0:0:
32,192,76891,1,2,0:0:0:0:
480,192,76891,1,4,0:0:0:0:
32,192,77213,1,4,0:0:0:0:
224,192,77213,1,2,0:0:0:0:
480,192,77213,1,0,0:0:0:0:
32,192,77374,1,4,0:0:0:0:
224,192,77374,1,2,0:0:0:0:
480,192,77374,1,0,0:0:0:0:
32,192,78181,1,4,0:0:0:0:
160,192,78181,1,2,0:0:0:0:
416,192,78181,1,0,0:0:0:0:
32,192,78665,1,2,0:0:0:0:
288,192,78665,1,4,0:0:0:0:
160,192,79310,1,2,0:0:0:0:
352,192,79391,1,2,0:0:0:0:
96,192,79471,1,2,0:0:0:0:
480,192,79471,1,4,0:0:0:0:
288,192,79794,1,2,0:0:0:0:
32,192,79955,1,4,0:0:0:0:
160,192,79955,1,2,0:0:0:0:
32,192,80278,1,4,0:0:0:0:
160,192,80278,1,2,0:0:0:0:
32,192,80439,1,8,0:0:0:0:
352,192,80439,1,0,0:0:0:0:
480,192,80439,1,0,0:0:0:0:
32,192,80761,1,2,0:0:0:0:
480,192,80761,1,0,0:0:0:0:
416,192,80923,1,0,0:0:0:0:
160,192,81084,1,8,0:0:0:0:
480,192,81245,1,0,0:0:0:0:
224,192,81407,1,2,0:0:0:0:
416,192,81568,1,0,0:0:0:0:
96,192,81729,1,8,0:0:0:0:
224,192,81891,1,0,0:0:0:0:
352,192,82052,1,2,0:0:0:0:
480,192,82213,1,0,0:0:0:0:
160,192,82374,1,8,0:0:0:0:
288,192,82536,1,0,0:0:0:0:
480,192,82697,1,2,0:0:0:0:
352,192,82858,1,0,0:0:0:0:
224,192,83020,1,8,0:0:0:0:
96,192,83181,1,0,0:0:0:0:
32,192,83342,1,2,0:0:0:0:
352,192,83342,1,4,0:0:0:0:
224,192,83503,1,0,0:0:0:0:
416,192,83665,1,8,0:0:0:0:
288,192,83826,1,0,0:0:0:0:
160,192,83987,1,2,0:0:0:0:
352,192,84149,1,0,0:0:0:0:
480,192,84310,1,8,0:0:0:0:
96,192,84471,1,0,0:0:0:0:
224,192,84632,1,2,0:0:0:0:
352,192,84794,1,0,0:0:0:0:
480,192,84955,1,8,0:0:0:0:
96,192,85116,1,0,0:0:0:0:
416,192,85278,1,2,0:0:0:0:
160,192,85439,1,0,0:0:0:0:
352,192,85600,1,8,0:0:0:0:
224,192,85761,1,0,0:0:0:0:
32,192,85923,1,2,0:0:0:0:
480,192,85923,1,4,0:0:0:0:
96,192,86245,1,8,0:0:0:0:
352,192,86245,1,0,0:0:0:0:
96,192,86568,1,8,0:0:0:0:
352,192,86568,1,0,0:0:0:0:
288,192,86891,128,8,87213:0:0:0:0:
32,192,87213,1,2,0:0:0:0:
480,192,87213,1,4,0:0:0:0:
32,192,87536,1,2,0:0:0:0:
352,192,87536,1,4,0:0:0:0:
32,192,87697,1,2,0:0:0:0:
352,192,87697,1,4,0:0:0:0:
32,192,88020,1,2,0:0:0:0:
416,192,88020,1,4,0:0:0:0:
32,192,88503,1,2,0:0:0:0:
160,192,88503,1,4,0:0:0:0:
480,192,88503,1,0,0:0:0:0:
416,192,88665,1,0,0:0:0:0:
352,192,88826,1,8,0:0:0:0:
96,192,88987,1,0,0:0:0:0:
160,192,89149,1,2,0:0:0:0:
224,192,89310,1,0,0:0:0:0:
352,192,89471,1,8,0:0:0:0:
160,192,89632,1,0,0:0:0:0:
416,192,89794,1,2,0:0:0:0:
352,192,89955,1,0,0:0:0:0:
288,192,90116,1,8,0:0:0:0:
96,192,90278,1,0,0:0:0:0:
224,192,90439,1,2,0:0:0:0:
352,192,90600,1,0,0:0:0:0:
96,192,90761,1,8,0:0:0:0:
416,192,90923,1,0,0:0:0:0:
160,192,91084,1,2,0:0:0:0:
288,192,91245,1,0,0:0:0:0:
416,192,91407,1,8,0:0:0:0:
96,192,91568,1,0,0:0:0:0:
480,192,91729,1,2,0:0:0:0:
352,192,91891,1,0,0:0:0:0:
224,192,92052,1,8,0:0:0:0:
416,192,92213,1,0,0:0:0:0:
96,192,92374,1,2,0:0:0:0:
224,192,92536,1,0,0:0:0:0:
480,192,92697,5,8,0:0:0:0:
352,192,92858,1,0,0:0:0:0:
96,192,93020,1,2,0:0:0:0:
224,192,93181,1,0,0:0:0:0:
352,192,93342,128,8,93665:0:0:0:0:
32,192,93665,5,2,0:0:0:0:
480,192,93665,1,0,0:0:0:0:
160,192,93665,1,4,0:0:0:0:
352,192,93987,1,2,0:0:0:0:
96,192,93987,1,8,0:0:0:0:
352,192,94310,1,2,0:0:0:0:
96,192,94310,1,8,0:0:0:0:
352,192,94632,1,2,0:0:0:0:
96,192,94632,1,8,0:0:0:0:
480,192,94794,1,8,0:0:0:0:
224,192,94955,1,8,0:0:0:0:
352,192,94955,1,2,0:0:0:0:
224,192,95278,1,8,0:0:0:0:
352,192,95278,1,2,0:0:0:0:
224,192,95600,1,8,0:0:0:0:
352,192,95600,1,2,0:0:0:0:
224,192,95923,1,8,0:0:0:0:
352,192,95923,1,2,0:0:0:0:
160,192,96084,1,8,0:0:0:0:
32,192,96245,1,2,0:0:0:0:
480,192,96245,1,4,0:0:0:0:
96,192,96407,1,8,0:0:0:0:
416,192,96568,1,8,0:0:0:0:
96,192,96729,1,8,0:0:0:0:
416,192,96891,1,8,0:0:0:0:
96,192,97052,1,8,0:0:0:0:
416,192,97213,1,8,0:0:0:0:
96,192,97374,1,8,0:0:0:0:
480,192,97536,128,8,98665:0:0:0:0:
32,192,98665,1,2,0:0:0:0:
160,192,98665,1,4,0:0:0:0:
352,192,98665,1,0,0:0:0:0:
32,192,99794,1,4,0:0:0:0:
224,192,99794,1,2,0:0:0:0:
32,192,99955,1,4,0:0:0:0:
416,192,99955,1,2,0:0:0:0:
32,192,100278,1,4,0:0:0:0:
416,192,100278,1,2,0:0:0:0:
32,192,100439,1,4,0:0:0:0:
224,192,100439,1,2,0:0:0:0:
32,192,101407,1,2,0:0:0:0:
480,192,101407,1,0,0:0:0:0:
352,192,101407,1,4,0:0:0:0:
160,192,101568,1,0,0:0:0:0:
224,192,101729,1,8,0:0:0:0:
288,192,101891,1,0,0:0:0:0:
352,192,102052,1,2,0:0:0:0:
224,192,102213,1,0,0:0:0:0:
480,192,102374,1,8,0:0:0:0:
352,192,102536,1,0,0:0:0:0:
160,192,102858,1,0,0:0:0:0:
352,192,103020,1,8,0:0:0:0:
224,192,103181,1,0,0:0:0:0:
480,192,103342,1,2,0:0:0:0:
96,192,103503,1,0,0:0:0:0:
416,192,103665,1,8,0:0:0:0:
160,192,103826,1,0,0:0:0:0:
288,192,103987,1,2,0:0:0:0:
288,192,104149,1,2,0:0:0:0:
32,192,104310,1,2,0:0:0:0:
96,192,104310,1,4,0:0:0:0:
160,192,104471,1,0,0:0:0:0:
416,192,104632,1,2,0:0:0:0:
288,192,104794,1,0,0:0:0:0:
96,192,104955,1,8,0:0:0:0:
224,192,105116,1,0,0:0:0:0:
416,192,105439,1,0,0:0:0:0:
160,192,105520,1,0,0:0:0:0:
416,192,105600,1,8,0:0:0:0:
288,192,105761,1,0,0:0:0:0:
96,192,105923,1,2,0:0:0:0:
160,192,106084,1,0,0:0:0:0:
416,192,106245,1,8,0:0:0:0:
352,192,106407,1,0,0:0:0:0:
32,192,106568,1,2,0:0:0:0:
96,192,106568,1,4,0:0:0:0:
288,192,106729,1,2,0:0:0:0:
160,192,106891,1,8,0:0:0:0:
352,192,107052,1,2,0:0:0:0:
160,192,107213,1,8,0:0:0:0:
480,192,107374,1,2,0:0:0:0:
160,192,107536,1,8,0:0:0:0:
416,192,107697,1,2,0:0:0:0:
160,192,107858,1,10,0:0:0:0:
352,192,108020,1,10,0:0:0:0:
160,192,108181,1,10,0:0:0:0:
352,192,108342,1,10,0:0:0:0:
224,192,108503,1,10,0:0:0:0:
416,192,108665,1,10,0:0:0:0:
224,192,108826,1,10,0:0:0:0:
416,192,108987,1,2,0:0:0:0:
32,192,109149,1,2,0:0:0:0:
160,192,109149,1,4,0:0:0:0:
480,192,109310,1,2,0:0:0:0:
352,192,109310,1,0,0:0:0:0:
416,192,109632,1,4,0:0:0:0:
288,192,109632,1,2,0:0:0:0:
96,192,109794,1,2,0:0:0:0:
224,192,109794,1,0,0:0:0:0:
352,192,110116,128,10,110439:0:0:0:0:
32,192,110439,1,2,0:0:0:0:
480,192,110439,1,4,0:0:0:0:
96,192,110761,1,2,0:0:0:0:
352,192,110761,1,4,0:0:0:0:
416,192,110923,1,4,0:0:0:0:
160,192,110923,1,2,0:0:0:0:
224,192,111245,1,2,0:0:0:0:
352,192,111245,1,4,0:0:0:0:
32,192,111729,1,2,0:0:0:0:
288,192,111729,1,4,0:0:0:0:
480,192,111729,1,0,0:0:0:0:
160,192,112052,1,0,0:0:0:0:
352,192,112213,1,0,0:0:0:0:
480,192,112536,1,0,0:0:0:0:
96,192,112858,1,0,0:0:0:0:
416,192,113020,1,0,0:0:0:0:
288,192,113181,1,0,0:0:0:0:
160,192,113342,1,0,0:0:0:0:
352,192,113503,1,0,0:0:0:0:
96,192,113665,1,0,0:0:0:0:
224,192,113826,1,0,0:0:0:0:
352,192,113987,1,0,0:0:0:0:
480,192,114149,1,0,0:0:0:0:
160,192,114310,1,0,0:0:0:0:
288,192,114632,1,0,0:0:0:0:
416,192,114794,1,0,0:0:0:0:
160,192,115278,1,0,0:0:0:0:
352,192,115600,1,0,0:0:0:0:
