osu file format v14

[General]
AudioFilename: audio.mp3
AudioLeadIn: 0
PreviewTime: 34310
Countdown: 0
SampleSet: Soft
StackLeniency: 0.7
Mode: 3
LetterboxInBreaks: 0
SpecialStyle: 0
WidescreenStoryboard: 0

[Editor]
DistanceSpacing: 0.6
BeatDivisor: 4
GridSize: 4
TimelineZoom: 1

[Metadata]
Title:Mono Logic
TitleUnicode:Mono Logic
Artist:DJ NAGAI feat. Ayumi Nomiya
ArtistUnicode:DJ NAGAI feat. Ayumi Nomiya
Creator:Critical_Star
Version:4K BASIC
Source:jubeat saucer fulfill
Tags:victorica_db [emiria] -[ AmiShici ]- MeowPaz Dellvangel DixonBlackwing ALiCE'S EMOTION HARDCORE TANO*C yoshikazu akai hito redalice
BeatmapID:1044810
BeatmapSetID:490166

[Difficulty]
HPDrainRate:6
CircleSize:4
OverallDifficulty:6
ApproachRate:5
SliderMultiplier:1.4
SliderTickRate:1

[Events]
//Background and Video events
0,0,"abc.png",0,0
//Break Periods
//Storyboard Layer 0 (Background)
//Storyboard Layer 1 (Fail)
//Storyboard Layer 2 (Pass)
//Storyboard Layer 3 (Foreground)
//Storyboard Sound Samples

[TimingPoints]
762,322.58064516129,4,2,1,30,1,0
34310,-100,4,2,1,30,0,1
42052,-100,4,2,1,30,0,0
44632,-100,4,2,1,30,0,1
56891,-100,4,2,1,30,0,0
80761,-100,4,2,1,30,0,1
87213,-100,4,2,1,30,0,0
88503,-100,4,2,1,30,0,1
98665,-100,4,2,1,30,0,0

[HitObjects]
64,192,762,5,6,0:0:0:0:
320,192,1084,1,8,0:0:0:0:
64,192,1407,1,6,0:0:0:0:
320,192,1729,1,8,0:0:0:0:
64,192,1891,1,6,0:0:0:0:
448,192,2213,1,6,0:0:0:0:
448,192,2374,1,6,0:0:0:0:
320,192,3020,1,6,0:0:0:0:
192,192,3020,1,8,0:0:0:0:
64,192,3342,1,2,0:0:0:0:
448,192,3342,1,0,0:0:0:0:
192,192,3665,1,8,0:0:0:0:
448,192,3987,1,2,0:0:0:0:
320,192,4310,1,8,0:0:0:0:
64,192,4632,1,2,0:0:0:0:
320,192,4955,1,8,0:0:0:0:
192,192,5278,1,2,0:0:0:0:
448,192,5600,1,8,0:0:0:0:
64,192,5923,1,2,0:0:0:0:
320,192,6245,1,8,0:0:0:0:
448,192,6568,1,2,0:0:0:0:
192,192,6891,1,8,0:0:0:0:
64,192,7213,1,2,0:0:0:0:
320,192,7536,1,8,0:0:0:0:
64,192,7858,1,2,0:0:0:0:
192,192,8181,1,8,0:0:0:0:
320,192,8342,1,2,0:0:0:0:
448,192,8503,1,2,0:0:0:0:
64,192,8503,1,4,0:0:0:0:
192,192,8826,1,10,0:0:0:0:
448,192,9149,1,10,0:0:0:0:
192,192,9471,1,10,0:0:0:0:
320,192,9794,1,10,0:0:0:0:
64,192,10116,1,10,0:0:0:0:
320,192,10439,1,10,0:0:0:0:
64,192,10761,1,10,0:0:0:0:
320,192,11084,1,2,0:0:0:0:
448,192,11084,1,4,0:0:0:0:
192,192,12052,128,8,12374:0:0:0:0:
448,192,12374,1,2,0:0:0:0:
320,192,12374,1,4,0:0:0:0:
64,192,12697,1,6,0:0:0:0:
448,192,12858,1,6,0:0:0:0:
320,192,13181,128,6,13665:0:0:0:0:
64,192,13665,1,2,0:0:0:0:
448,192,13665,1,4,0:0:0:0:
192,192,13987,1,8,0:0:0:0:
320,192,14310,1,2,0:0:0:0:
448,192,14632,1,8,0:0:0:0:
192,192,14955,1,2,0:0:0:0:
64,192,15278,1,8,0:0:0:0:
320,192,15600,1,2,0:0:0:0:
192,192,15923,1,8,0:0:0:0:
448,192,16245,1,2,0:0:0:0:
64,192,16568,1,8,0:0:0:0:
320,192,16891,1,2,0:0:0:0:
192,192,17213,1,8,0:0:0:0:
448,192,17858,1,2,0:0:0:0:
64,192,17858,1,4,0:0:0:0:
64,192,18342,1,2,0:0:0:0:
448,192,18503,1,2,0:0:0:0:
192,192,18665,1,8,0:0:0:0:
320,192,18826,1,2,0:0:0:0:
448,192,18826,1,4,0:0:0:0:
64,192,19149,1,8,0:0:0:0:
320,192,19471,1,2,0:0:0:0:
192,192,19794,1,8,0:0:0:0:
448,192,20116,1,2,0:0:0:0:
64,192,20439,1,8,0:0:0:0:
448,192,20761,1,2,0:0:0:0:
320,192,21084,1,8,0:0:0:0:
64,192,21407,1,2,0:0:0:0:
192,192,21407,1,4,0:0:0:0:
448,192,21568,1,2,0:0:0:0:
192,192,21729,1,2,0:0:0:0:
320,192,22052,1,8,0:0:0:0:
448,192,22374,1,2,0:0:0:0:
64,192,22536,1,8,0:0:0:0:
448,192,22697,1,2,0:0:0:0:
320,192,22697,128,4,23987:0:0:0:0:
448,192,23987,1,2,0:0:0:0:
64,192,23987,1,4,0:0:0:0:
320,192,24632,1,8,0:0:0:0:
64,192,24794,1,2,0:0:0:0:
448,192,24955,1,2,0:0:0:0:
192,192,25116,1,2,0:0:0:0:
64,192,25116,1,4,0:0:0:0:
320,192,25761,1,2,0:0:0:0:
64,192,25923,1,8,0:0:0:0:
320,192,26245,1,2,0:0:0:0:
192,192,26407,1,2,0:0:0:0:
448,192,26568,1,2,0:0:0:0:
64,192,26568,1,4,0:0:0:0:
192,192,26891,1,0,0:0:0:0:
448,192,27052,1,2,0:0:0:0:
64,192,27213,1,8,0:0:0:0:
448,192,27697,1,6,0:0:0:0:
192,192,27858,1,6,0:0:0:0:
64,192,28181,1,0,0:0:0:0:
320,192,28342,1,0,0:0:0:0:
448,192,28826,128,0,29149:0:0:0:0:
64,192,29149,1,2,0:0:0:0:
192,192,29149,1,4,0:0:0:0:
320,192,29471,1,8,0:0:0:0:
64,192,29794,1,8,0:0:0:0:
320,192,30116,1,8,0:0:0:0:
64,192,30278,1,10,0:0:0:0:
448,192,30439,1,2,0:0:0:0:
320,192,30439,1,4,0:0:0:0:
192,192,30761,1,8,0:0:0:0:
448,192,31084,1,8,0:0:0:0:
192,192,31407,128,8,31729:0:0:0:0:
448,192,31729,1,6,0:0:0:0:
64,192,31971,1,2,0:0:0:0:
192,192,32213,1,2,0:0:0:0:
448,192,32374,1,2,0:0:0:0:
320,192,32616,1,2,0:0:0:0:
192,192,32858,1,2,0:0:0:0:
448,192,33020,1,2,0:0:0:0:
320,192,33020,1,4,0:0:0:0:
64,192,33342,1,6,0:0:0:0:
448,192,33503,1,6,0:0:0:0:
64,192,34310,1,2,0:0:0:0:
448,192,34310,1,4,0:0:0:0:
192,192,34632,1,8,0:0:0:0:
320,192,34955,1,2,0:0:0:0:
448,192,35278,1,8,0:0:0:0:
192,192,35600,1,2,0:0:0:0:
320,192,35923,1,8,0:0:0:0:
64,192,36245,1,2,0:0:0:0:
192,192,36568,1,8,0:0:0:0:
448,192,36891,1,2,0:0:0:0:
320,192,37213,1,8,0:0:0:0:
192,192,37536,1,2,0:0:0:0:
64,192,37858,1,8,0:0:0:0:
320,192,38181,1,2,0:0:0:0:
192,192,38503,1,8,0:0:0:0:
448,192,38826,1,2,0:0:0:0:
320,192,39149,1,8,0:0:0:0:
64,192,39471,1,2,0:0:0:0:
448,192,39471,1,4,0:0:0:0:
192,192,39794,1,8,0:0:0:0:
320,192,40116,1,2,0:0:0:0:
448,192,40439,1,8,0:0:0:0:
192,192,40761,1,2,0:0:0:0:
64,192,41084,1,8,0:0:0:0:
320,192,41407,1,2,0:0:0:0:
448,192,41729,1,8,0:0:0:0:
64,192,42052,1,6,0:0:0:0:
192,192,42374,1,8,0:0:0:0:
320,192,42697,1,8,0:0:0:0:
448,192,43020,128,8,43342:0:0:0:0:
64,192,43342,1,2,0:0:0:0:
192,192,43342,1,4,0:0:0:0:
448,192,43665,1,6,0:0:0:0:
64,192,43826,1,6,0:0:0:0:
320,192,44149,128,6,44632:0:0:0:0:
448,192,44632,1,2,0:0:0:0:
64,192,44632,1,4,0:0:0:0:
192,192,44955,1,8,0:0:0:0:
448,192,45278,1,2,0:0:0:0:
64,192,45600,1,8,0:0:0:0:
320,192,45923,1,2,0:0:0:0:
64,192,46245,1,8,0:0:0:0:
448,192,46568,1,2,0:0:0:0:
192,192,46891,1,8,0:0:0:0:
448,192,47213,1,2,0:0:0:0:
64,192,47536,1,8,0:0:0:0:
320,192,47858,1,2,0:0:0:0:
64,192,48181,1,8,0:0:0:0:
448,192,48503,1,2,0:0:0:0:
192,192,48826,1,8,0:0:0:0:
320,192,49149,1,2,0:0:0:0:
448,192,49471,128,10,49794:0:0:0:0:
64,192,49794,1,6,0:0:0:0:
320,192,50116,1,10,0:0:0:0:
64,192,50439,1,10,0:0:0:0:
320,192,50761,1,10,0:0:0:0:
64,192,50923,1,8,0:0:0:0:
192,192,51084,1,10,0:0:0:0:
448,192,51407,1,10,0:0:0:0:
192,192,51729,1,10,0:0:0:0:
448,192,52052,1,10,0:0:0:0:
320,192,52213,1,8,0:0:0:0:
192,192,52374,128,2,53665:0:0:0:0:
64,192,52374,1,4,0:0:0:0:
64,192,53665,128,8,54794:0:0:0:0:
448,192,54794,1,2,0:0:0:0:
320,192,54794,1,4,0:0:0:0:
64,192,55923,1,6,0:0:0:0:
64,192,56084,1,6,0:0:0:0:
448,192,56407,1,6,0:0:0:0:
448,192,56568,1,6,0:0:0:0:
64,192,57536,1,2,0:0:0:0:
448,192,57536,1,4,0:0:0:0:
192,192,58181,1,0,0:0:0:0:
448,192,58826,1,0,0:0:0:0:
64,192,59471,1,0,0:0:0:0:
320,192,60116,1,0,0:0:0:0:
64,192,60761,1,0,0:0:0:0:
192,192,61407,1,0,0:0:0:0:
448,192,62052,1,0,0:0:0:0:
192,192,62697,1,0,0:0:0:0:
320,192,63342,1,0,0:0:0:0:
64,192,63987,1,0,0:0:0:0:
448,192,64632,1,0,0:0:0:0:
192,192,65278,1,0,0:0:0:0:
320,192,65923,1,0,0:0:0:0:
64,192,66568,1,0,0:0:0:0:
448,192,67213,1,0,0:0:0:0:
64,192,67858,128,2,68987:0:0:0:0:
192,192,67858,1,4,0:0:0:0:
320,192,68987,128,0,70278:0:0:0:0:
64,192,70278,1,0,0:0:0:0:
448,192,70439,1,0,0:0:0:0:
320,192,70761,1,0,0:0:0:0:
64,192,70923,1,0,0:0:0:0:
448,192,71568,1,0,0:0:0:0:
64,192,71729,1,0,0:0:0:0:
192,192,72052,1,0,0:0:0:0:
448,192,72213,1,0,0:0:0:0:
448,192,72697,128,0,73020:0:0:0:0:
192,192,73020,1,2,0:0:0:0:
64,192,73020,1,4,0:0:0:0:
448,192,73342,1,8,0:0:0:0:
64,192,73665,1,8,0:0:0:0:
448,192,73987,1,8,0:0:0:0:
320,192,74149,1,10,0:0:0:0:
192,192,74310,1,6,0:0:0:0:
448,192,74632,1,8,0:0:0:0:
192,192,74955,1,8,0:0:0:0:
448,192,75278,128,8,75600:0:0:0:0:
64,192,75600,1,2,0:0:0:0:
192,192,75842,1,2,0:0:0:0:
448,192,76084,1,2,0:0:0:0:
64,192,76245,1,6,0:0:0:0:
320,192,76487,1,2,0:0:0:0:
192,192,76729,1,2,0:0:0:0:
448,192,76891,1,2,0:0:0:0:
64,192,76891,1,4,0:0:0:0:
320,192,77213,1,6,0:0:0:0:
320,192,77374,1,6,0:0:0:0:
448,192,78181,1,2,0:0:0:0:
64,192,78181,1,4,0:0:0:0:
192,192,78665,1,6,0:0:0:0:
320,192,79471,1,6,0:0:0:0:
64,192,79794,1,2,0:0:0:0:
448,192,79955,1,6,0:0:0:0:
320,192,80278,1,6,0:0:0:0:
192,192,80439,1,8,0:0:0:0:
64,192,80439,1,0,0:0:0:0:
448,192,80761,1,2,0:0:0:0:
192,192,81084,1,8,0:0:0:0:
320,192,81407,1,2,0:0:0:0:
448,192,81729,1,8,0:0:0:0:
64,192,82052,1,2,0:0:0:0:
320,192,82374,1,8,0:0:0:0:
192,192,82697,1,2,0:0:0:0:
64,192,83020,1,8,0:0:0:0:
448,192,83342,1,2,0:0:0:0:
320,192,83342,1,4,0:0:0:0:
192,192,83665,1,8,0:0:0:0:
320,192,83987,1,2,0:0:0:0:
64,192,84310,1,8,0:0:0:0:
320,192,84632,1,2,0:0:0:0:
192,192,84955,1,8,0:0:0:0:
448,192,85278,1,2,0:0:0:0:
320,192,85600,1,8,0:0:0:0:
64,192,85923,1,6,0:0:0:0:
192,192,86245,1,8,0:0:0:0:
320,192,86568,1,8,0:0:0:0:
448,192,86891,128,8,87213:0:0:0:0:
64,192,87213,1,2,0:0:0:0:
192,192,87213,1,4,0:0:0:0:
448,192,87536,1,6,0:0:0:0:
64,192,87697,1,6,0:0:0:0:
320,192,88020,128,6,88503:0:0:0:0:
448,192,88503,1,2,0:0:0:0:
64,192,88503,1,4,0:0:0:0:
192,192,88826,1,8,0:0:0:0:
320,192,89149,1,2,0:0:0:0:
64,192,89471,1,8,0:0:0:0:
448,192,89794,1,2,0:0:0:0:
320,192,90116,1,8,0:0:0:0:
192,192,90439,1,2,0:0:0:0:
448,192,90761,1,8,0:0:0:0:
64,192,91084,1,2,0:0:0:0:
192,192,91407,1,8,0:0:0:0:
448,192,91729,1,2,0:0:0:0:
320,192,92052,1,8,0:0:0:0:
64,192,92374,1,2,0:0:0:0:
448,192,92697,1,8,0:0:0:0:
192,192,93020,1,2,0:0:0:0:
320,192,93342,128,8,93665:0:0:0:0:
64,192,93665,1,2,0:0:0:0:
448,192,93665,1,4,0:0:0:0:
192,192,93987,1,10,0:0:0:0:
64,192,94310,1,10,0:0:0:0:
192,192,94632,1,10,0:0:0:0:
320,192,94794,1,8,0:0:0:0:
448,192,94955,1,10,0:0:0:0:
320,192,95278,1,10,0:0:0:0:
448,192,95600,1,10,0:0:0:0:
320,192,95923,1,10,0:0:0:0:
192,192,96084,1,8,0:0:0:0:
64,192,96245,128,2,97536:0:0:0:0:
448,192,96245,1,4,0:0:0:0:
448,192,97536,128,8,98665:0:0:0:0:
192,192,98665,1,2,0:0:0:0:
64,192,98665,1,4,0:0:0:0:
448,192,99794,1,6,0:0:0:0:
448,192,99955,1,6,0:0:0:0:
64,192,100278,1,6,0:0:0:0:
64,192,100439,1,6,0:0:0:0:
320,192,101407,1,2,0:0:0:0:
448,192,101407,1,4,0:0:0:0:
64,192,101729,1,8,0:0:0:0:
448,192,102052,1,2,0:0:0:0:
64,192,102374,1,8,0:0:0:0:
320,192,102697,1,2,0:0:0:0:
192,192,103020,1,8,0:0:0:0:
64,192,103342,1,2,0:0:0:0:
448,192,103665,1,8,0:0:0:0:
192,192,103987,1,2,0:0:0:0:
320,192,104149,1,2,0:0:0:0:
64,192,104310,1,6,0:0:0:0:
448,192,104632,1,2,0:0:0:0:
192,192,104955,1,8,0:0:0:0:
320,192,105278,1,2,0:0:0:0:
64,192,105600,1,8,0:0:0:0:
448,192,105923,1,2,0:0:0:0:
192,192,106245,1,8,0:0:0:0:
320,192,106568,1,2,0:0:0:0:
448,192,106568,1,4,0:0:0:0:
64,192,106729,1,2,0:0:0:0:
448,192,107052,1,2,0:0:0:0:
64,192,107374,1,2,0:0:0:0:
448,192,107697,1,2,0:0:0:0:
192,192,107858,1,10,0:0:0:0:
320,192,108020,1,10,0:0:0:0:
64,192,108181,1,10,0:0:0:0:
448,192,108342,1,10,0:0:0:0:
192,192,108503,1,10,0:0:0:0:
320,192,108665,1,10,0:0:0:0:
64,192,108826,1,10,0:0:0:0:
448,192,108987,1,2,0:0:0:0:
64,192,109149,1,6,0:0:0:0:
320,192,109310,1,2,0:0:0:0:
448,192,109632,1,6,0:0:0:0:
192,192,109794,1,2,0:0:0:0:
320,192,110116,128,10,110439:0:0:0:0:
64,192,110439,1,2,0:0:0:0:
448,192,110439,1,4,0:0:0:0:
192,192,110761,1,6,0:0:0:0:
448,192,110923,1,6,0:0:0:0:
192,192,111245,128,6,111729:0:0:0:0:
320,192,111729,1,2,0:0:0:0:
448,192,111729,1,4,0:0:0:0:
64,192,112052,1,0,0:0:0:0:
448,192,112213,1,0,0:0:0:0:
192,192,112536,1,0,0:0:0:0:
320,192,112858,1,0,0:0:0:0:
448,192,113020,1,0,0:0:0:0:
64,192,113181,1,0,0:0:0:0:
192,192,113342,1,0,0:0:0:0:
448,192,113503,1,0,0:0:0:0:
320,192,113665,1,0,0:0:0:0:
64,192,113826,1,0,0:0:0:0:
192,192,113987,1,0,0:0:0:0:
320,192,114149,1,0,0:0:0:0:
448,192,114310,1,0,0:0:0:0:
64,192,114632,1,0,0:0:0:0:
320,192,114794,1,0,0:0:0:0:
192,192,115278,1,0,0:0:0:0:
64,192,115600,128,0,118181:0:0:0:0:
