osu file format v14

[General]
AudioFilename: Mono Logic - DJ NAGAI (REDALiCE) feat. Ayumi Nomiya in beat mania.MP3
AudioLeadIn: 0
PreviewTime: 33657
Countdown: 0
SampleSet: None
StackLeniency: 0.7
Mode: 3
LetterboxInBreaks: 0
SpecialStyle: 1
WidescreenStoryboard: 0

[Editor]
Bookmarks: 3644,5196,10784,13644,77516,80337,101426,111769,115918
DistanceSpacing: 0.8
BeatDivisor: 4
GridSize: 32
TimelineZoom: 1.5

[Metadata]
Title:Mono Logic
TitleUnicode:Mono Logic
Artist:DJ NAGAI Feat. Ayumi Nomiya
ArtistUnicode:DJ NAGAI Feat. Ayumi Nomiya
Creator:Doraemon
Version:NM
Source:jubeat saucer
Tags:valentrixe redalice
BeatmapID:1030005
BeatmapSetID:482727

[Difficulty]
HPDrainRate:7
CircleSize:4
OverallDifficulty:7
ApproachRate:5
SliderMultiplier:1.4
SliderTickRate:1

[Events]
//Background and Video events
0,0,"1366x768_crevice_reimu-401588.jpg",0,0
//Break Periods
//Storyboard Layer 0 (Background)
//Storyboard Layer 1 (Fail)
//Storyboard Layer 2 (Pass)
//Storyboard Layer 3 (Foreground)
//Storyboard Sound Samples

[TimingPoints]
754,322.58064516129,4,2,1,34,1,0
13818,-100,4,2,1,45,0,0
34302,-100,4,2,1,45,0,1
44624,-100,4,2,1,39,0,1
54786,-100,4,2,1,39,0,0
57447,-100,4,2,1,30,0,0
80592,-100,4,2,1,40,0,0
80753,-100,4,2,1,40,0,1
88495,-100,4,2,1,40,0,1
101399,-100,4,2,1,40,0,0
112689,-100,4,2,1,25,0,0

[HitObjects]
320,192,754,5,8,0:0:0:0:
192,192,754,1,8,0:0:0:0:
64,192,915,1,0,0:0:0:0:
192,192,1076,1,4,0:0:0:0:
320,192,1237,1,0,0:0:0:0:
64,192,1399,1,0,0:0:0:0:
448,192,1399,1,8,0:0:0:0:
320,192,1560,1,8,0:0:0:0:
192,192,1721,1,0,0:0:0:0:
64,192,1883,1,0,0:0:0:0:
448,192,1883,1,8,0:0:0:0:
448,192,2205,1,8,0:0:0:0:
64,192,2205,1,0,0:0:0:0:
192,192,2366,128,0,2689:0:0:0:0:
320,192,2366,128,8,2689:0:0:0:0:
64,192,2689,1,0,0:0:0:0:
448,192,2689,1,2,0:0:0:0:
448,192,3012,128,4,3334:0:0:0:0:
64,192,3012,128,0,3334:0:0:0:0:
192,192,3334,1,0,0:0:0:0:
320,192,3334,1,8,0:0:0:0:
64,192,3495,1,0,0:0:0:0:
448,192,3657,1,4,0:0:0:0:
192,192,3657,1,0,0:0:0:0:
320,192,3818,1,0,0:0:0:0:
448,192,3979,1,0,0:0:0:0:
64,192,3979,1,0,0:0:0:0:
64,192,4141,1,0,0:0:0:0:
64,192,4302,1,4,0:0:0:0:
192,192,4302,1,0,0:0:0:0:
448,192,4463,1,0,0:0:0:0:
448,192,4624,1,8,0:0:0:0:
320,192,4624,1,0,0:0:0:0:
192,192,4786,1,0,0:0:0:0:
192,192,4947,1,4,0:0:0:0:
64,192,4947,1,0,0:0:0:0:
448,192,5108,1,0,0:0:0:0:
64,192,5270,1,8,0:0:0:0:
320,192,5270,1,0,0:0:0:0:
64,192,5431,1,0,0:0:0:0:
320,192,5592,1,4,0:0:0:0:
192,192,5592,1,0,0:0:0:0:
320,192,5753,1,0,0:0:0:0:
64,192,5915,1,8,0:0:0:0:
448,192,5915,1,0,0:0:0:0:
64,192,6076,1,0,0:0:0:0:
192,192,6237,1,4,0:0:0:0:
320,192,6237,1,0,0:0:0:0:
448,192,6399,1,0,0:0:0:0:
64,192,6560,1,0,0:0:0:0:
192,192,6560,1,0,0:0:0:0:
64,192,6721,1,0,0:0:0:0:
192,192,6883,1,4,0:0:0:0:
320,192,6883,1,0,0:0:0:0:
64,192,7044,1,0,0:0:0:0:
320,192,7205,1,8,0:0:0:0:
448,192,7205,1,0,0:0:0:0:
192,192,7366,1,0,0:0:0:0:
64,192,7528,1,4,0:0:0:0:
320,192,7528,1,0,0:0:0:0:
448,192,7689,1,0,0:0:0:0:
192,192,7850,1,8,0:0:0:0:
64,192,7850,1,0,0:0:0:0:
64,192,8012,1,0,0:0:0:0:
448,192,8173,1,4,0:0:0:0:
192,192,8173,1,0,0:0:0:0:
64,192,8334,1,0,0:0:0:0:
192,192,8495,1,0,0:0:0:0:
320,192,8495,1,8,0:0:0:0:
448,192,8657,1,0,0:0:0:0:
64,192,8818,1,4,0:0:0:0:
320,192,8818,1,0,0:0:0:0:
448,192,8979,1,0,0:0:0:0:
64,192,9141,1,0,0:0:0:0:
192,192,9141,1,0,0:0:0:0:
64,192,9302,1,0,0:0:0:0:
448,192,9463,1,4,0:0:0:0:
320,192,9463,1,0,0:0:0:0:
320,192,9624,1,0,0:0:0:0:
192,192,9786,1,8,0:0:0:0:
448,192,9786,1,0,0:0:0:0:
64,192,9947,1,0,0:0:0:0:
320,192,10108,1,4,0:0:0:0:
192,192,10108,1,0,0:0:0:0:
448,192,10270,1,0,0:0:0:0:
64,192,10431,1,8,0:0:0:0:
192,192,10431,1,0,0:0:0:0:
320,192,10592,1,0,0:0:0:0:
448,192,10753,1,4,0:0:0:0:
64,192,10753,1,0,0:0:0:0:
192,192,10915,1,0,0:0:0:0:
320,192,11076,1,0,0:0:0:0:
448,192,11076,1,0,0:0:0:0:
192,192,11237,1,0,0:0:0:0:
64,192,11399,1,8,0:0:0:0:
448,192,11560,1,0,0:0:0:0:
320,192,11721,1,0,0:0:0:0:
192,192,11883,1,0,0:0:0:0:
64,192,12044,1,4,0:0:0:0:
448,192,12205,1,4,0:0:0:0:
320,192,12366,1,4,0:0:0:0:
192,192,12366,1,8,0:0:0:0:
192,192,12689,1,8,0:0:0:0:
320,192,12689,1,8,0:0:0:0:
64,192,12850,1,8,0:0:0:0:
448,192,12850,1,8,0:0:0:0:
64,192,13173,128,8,13657:0:0:0:0:
448,192,13173,128,0,13657:0:0:0:0:
320,192,13657,1,0,0:0:0:0:
192,192,13657,1,8,0:0:0:0:
192,192,13979,1,0,0:0:0:0:
320,192,13979,1,0,0:0:0:0:
448,192,14302,1,0,0:0:0:0:
64,192,14302,1,0,0:0:0:0:
448,192,14624,1,4,0:0:0:0:
192,192,14624,1,0,0:0:0:0:
64,192,14947,1,8,0:0:0:0:
192,192,14947,1,0,0:0:0:0:
448,192,15270,1,4,0:0:0:0:
320,192,15270,1,0,0:0:0:0:
192,192,15592,1,8,0:0:0:0:
448,192,15592,1,0,0:0:0:0:
320,192,15915,1,4,0:0:0:0:
192,192,15915,1,0,0:0:0:0:
64,192,16237,1,8,0:0:0:0:
320,192,16237,1,0,0:0:0:0:
448,192,16560,1,4,0:0:0:0:
320,192,16560,1,0,0:0:0:0:
192,192,16883,1,8,0:0:0:0:
448,192,16883,1,0,0:0:0:0:
320,192,17205,1,4,0:0:0:0:
448,192,17205,1,0,0:0:0:0:
320,192,17689,1,0,0:0:0:0:
192,192,17689,1,8,0:0:0:0:
64,192,17850,128,8,18334:0:0:0:0:
192,192,18334,1,8,0:0:0:0:
320,192,18495,1,8,0:0:0:0:
448,192,18657,1,4,0:0:0:0:
64,192,18657,1,0,0:0:0:0:
192,192,18818,1,8,0:0:0:0:
320,192,18818,1,0,0:0:0:0:
64,192,19141,1,4,0:0:0:0:
320,192,19141,1,0,0:0:0:0:
448,192,19463,1,8,0:0:0:0:
192,192,19463,1,0,0:0:0:0:
64,192,19786,1,4,0:0:0:0:
320,192,19786,1,0,0:0:0:0:
320,192,20108,1,8,0:0:0:0:
192,192,20108,1,0,0:0:0:0:
448,192,20431,1,0,0:0:0:0:
64,192,20431,1,0,0:0:0:0:
320,192,20753,1,8,0:0:0:0:
192,192,20753,1,0,0:0:0:0:
448,192,21076,1,4,0:0:0:0:
64,192,21076,1,0,0:0:0:0:
192,192,21399,1,8,0:0:0:0:
64,192,21399,1,0,0:0:0:0:
320,192,21560,1,8,0:0:0:0:
448,192,21721,1,0,0:0:0:0:
192,192,21883,1,0,0:0:0:0:
64,192,22044,1,4,0:0:0:0:
320,192,22366,1,8,0:0:0:0:
448,192,22528,1,4,0:0:0:0:
192,192,22689,128,8,23979:0:0:0:0:
448,192,23979,128,0,24624:0:0:0:0:
64,192,23979,1,8,0:0:0:0:
320,192,24624,1,4,0:0:0:0:
192,192,24786,1,8,0:0:0:0:
64,192,24947,1,8,0:0:0:0:
320,192,25108,128,8,25753:0:0:0:0:
192,192,25753,1,8,0:0:0:0:
64,192,25915,1,4,0:0:0:0:
448,192,26237,1,8,0:0:0:0:
320,192,26399,1,8,0:0:0:0:
64,192,26560,128,0,27044:0:0:0:0:
192,192,26560,1,8,0:0:0:0:
448,192,27044,1,8,0:0:0:0:
192,192,27205,1,4,0:0:0:0:
320,192,27689,1,2,0:0:0:0:
448,192,27850,1,4,0:0:0:0:
192,192,28173,1,6,0:0:0:0:
64,192,28334,1,2,0:0:0:0:
320,192,28818,1,2,0:0:0:0:
192,192,28979,1,2,0:0:0:0:
64,192,29141,1,0,0:0:0:0:
448,192,29141,1,8,0:0:0:0:
320,192,29463,1,4,0:0:0:0:
448,192,29786,1,4,0:0:0:0:
192,192,30108,1,4,0:0:0:0:
320,192,30270,1,4,0:0:0:0:
448,192,30431,1,8,0:0:0:0:
64,192,30431,1,0,0:0:0:0:
192,192,30753,1,4,0:0:0:0:
64,192,31076,1,4,0:0:0:0:
192,192,31399,128,0,31721:0:0:0:0:
320,192,31399,128,4,31721:0:0:0:0:
64,192,31721,128,0,33012:0:0:0:0:
448,192,31721,128,8,33012:0:0:0:0:
192,192,33012,1,0,0:0:0:0:
320,192,33012,1,8,0:0:0:0:
64,192,33334,1,8,0:0:0:0:
448,192,33334,1,0,0:0:0:0:
64,192,33495,128,0,33899:0:0:0:0:
448,192,33495,128,8,33899:0:0:0:0:
320,192,34302,1,8,0:0:0:0:
192,192,34302,1,8,0:0:0:0:
448,192,34624,1,4,0:0:0:0:
64,192,34947,1,8,0:0:0:0:
320,192,35270,1,4,0:0:0:0:
64,192,35592,1,8,0:0:0:0:
192,192,35592,1,0,0:0:0:0:
448,192,35915,1,4,0:0:0:0:
64,192,36237,1,8,0:0:0:0:
192,192,36560,1,4,0:0:0:0:
64,192,36883,1,8,0:0:0:0:
448,192,36883,1,0,0:0:0:0:
320,192,37205,1,4,0:0:0:0:
192,192,37528,1,8,0:0:0:0:
64,192,37850,1,4,0:0:0:0:
448,192,38173,1,0,0:0:0:0:
192,192,38173,1,8,0:0:0:0:
320,192,38495,1,4,0:0:0:0:
64,192,38818,1,8,0:0:0:0:
192,192,39141,1,4,0:0:0:0:
64,192,39463,1,8,0:0:0:0:
448,192,39463,1,0,0:0:0:0:
320,192,39786,1,4,0:0:0:0:
192,192,40108,1,8,0:0:0:0:
448,192,40431,1,4,0:0:0:0:
320,192,40753,1,8,0:0:0:0:
64,192,40753,1,0,0:0:0:0:
64,192,41076,1,4,0:0:0:0:
192,192,41399,1,8,0:0:0:0:
320,192,41721,1,4,0:0:0:0:
448,192,42044,1,0,0:0:0:0:
192,192,42044,1,8,0:0:0:0:
320,192,42366,1,4,0:0:0:0:
64,192,42689,1,8,0:0:0:0:
320,192,43012,1,4,0:0:0:0:
448,192,43173,1,4,0:0:0:0:
320,192,43334,1,0,0:0:0:0:
64,192,43334,1,8,0:0:0:0:
192,192,43657,1,8,0:0:0:0:
64,185,43818,1,8,0:0:0:0:
192,192,44141,128,8,44624:0:0:0:0:
448,192,44141,128,0,44624:0:0:0:0:
64,192,44624,1,8,0:0:0:0:
320,192,44624,1,0,0:0:0:0:
448,192,44947,1,4,0:0:0:0:
64,192,45270,1,8,0:0:0:0:
192,192,45592,1,4,0:0:0:0:
448,192,45915,1,0,0:0:0:0:
320,192,45915,1,8,0:0:0:0:
192,192,46237,1,4,0:0:0:0:
64,192,46560,1,8,0:0:0:0:
448,192,46883,1,4,0:0:0:0:
320,192,47205,1,8,0:0:0:0:
64,192,47205,1,0,0:0:0:0:
192,192,47528,1,4,0:0:0:0:
448,192,47850,1,8,0:0:0:0:
192,192,48173,1,4,0:0:0:0:
448,192,48495,1,0,0:0:0:0:
64,192,48495,1,8,0:0:0:0:
320,192,48818,1,4,0:0:0:0:
64,192,49141,1,8,0:0:0:0:
320,192,49463,1,4,0:0:0:0:
64,192,49786,1,0,0:0:0:0:
192,192,49786,1,8,0:0:0:0:
448,192,50108,1,4,0:0:0:0:
192,192,50431,1,8,0:0:0:0:
320,192,50753,1,4,0:0:0:0:
64,192,51076,1,8,0:0:0:0:
448,192,51076,1,0,0:0:0:0:
320,192,51399,1,4,0:0:0:0:
192,192,51721,1,8,0:0:0:0:
448,192,52044,1,4,0:0:0:0:
64,192,52366,1,0,0:0:0:0:
192,192,52366,1,8,0:0:0:0:
448,192,52528,1,2,0:0:0:0:
320,192,52689,1,2,0:0:0:0:
192,192,52850,1,2,0:0:0:0:
448,192,53012,1,2,0:0:0:0:
320,192,53173,1,2,0:0:0:0:
192,192,53334,1,0,0:0:0:0:
64,192,53495,1,0,0:0:0:0:
192,192,53657,1,0,0:0:0:0:
320,192,53818,1,0,0:0:0:0:
448,192,53979,1,0,0:0:0:0:
320,192,54141,1,0,0:0:0:0:
192,192,54302,1,0,0:0:0:0:
64,192,54463,1,0,0:0:0:0:
192,192,54624,1,0,0:0:0:0:
64,192,54786,128,8,55471:0:0:0:0:
448,192,54786,128,8,55471:0:0:0:0:
320,192,55915,1,8,0:0:0:0:
64,192,56076,128,8,56399:0:0:0:0:
192,192,56399,1,8,0:0:0:0:
448,192,56560,128,8,56883:0:0:0:0:
320,192,56560,1,0,0:0:0:0:
64,192,57044,1,0,0:0:0:0:
192,192,57205,1,0,0:0:0:0:
320,192,57366,1,0,0:0:0:0:
448,192,57528,1,0,0:0:0:0:
64,192,57528,1,0,0:0:0:0:
192,192,57689,1,0,0:0:0:0:
320,192,57850,1,0,0:0:0:0:
448,192,58012,1,0,0:0:0:0:
192,192,58334,1,0,0:0:0:0:
64,192,58495,1,0,0:0:0:0:
192,192,58657,1,0,0:0:0:0:
320,192,58818,1,0,0:0:0:0:
64,192,58979,1,0,0:0:0:0:
192,192,59141,1,0,0:0:0:0:
448,192,59302,1,0,0:0:0:0:
64,192,59624,1,0,0:0:0:0:
192,192,59786,1,0,0:0:0:0:
320,192,59947,1,0,0:0:0:0:
448,192,60108,1,0,0:0:0:0:
192,192,60270,1,0,0:0:0:0:
320,192,60431,1,0,0:0:0:0:
64,192,60592,1,0,0:0:0:0:
320,192,60753,1,0,0:0:0:0:
192,192,60915,1,0,0:0:0:0:
448,192,61076,1,0,0:0:0:0:
192,192,61237,1,0,0:0:0:0:
320,192,61399,1,0,0:0:0:0:
64,192,61560,1,0,0:0:0:0:
320,192,61721,1,0,0:0:0:0:
192,192,61883,1,0,0:0:0:0:
320,192,62205,1,0,0:0:0:0:
192,192,62366,1,0,0:0:0:0:
64,192,62528,1,0,0:0:0:0:
320,192,62689,1,0,0:0:0:0:
64,192,62850,1,0,0:0:0:0:
192,192,63012,1,0,0:0:0:0:
448,192,63173,1,0,0:0:0:0:
320,192,63495,1,0,0:0:0:0:
192,192,63657,1,0,0:0:0:0:
64,192,63818,1,0,0:0:0:0:
320,192,63979,1,0,0:0:0:0:
64,192,64141,1,0,0:0:0:0:
192,192,64302,1,0,0:0:0:0:
448,192,64463,1,0,0:0:0:0:
64,192,64786,1,0,0:0:0:0:
192,192,64947,1,0,0:0:0:0:
320,192,65108,1,0,0:0:0:0:
448,192,65270,1,0,0:0:0:0:
320,192,65431,1,0,0:0:0:0:
64,192,65592,1,0,0:0:0:0:
192,192,65753,1,0,0:0:0:0:
64,192,65915,1,0,0:0:0:0:
320,192,66076,1,0,0:0:0:0:
448,192,66237,1,0,0:0:0:0:
64,192,66399,1,0,0:0:0:0:
192,192,66560,1,0,0:0:0:0:
320,192,67044,1,0,0:0:0:0:
64,192,67205,1,0,0:0:0:0:
448,192,67528,1,0,0:0:0:0:
192,192,67850,128,0,68798:0:0:0:0:
320,192,67850,128,8,68798:0:0:0:0:
64,192,68979,128,0,70431:0:0:0:0:
448,192,68979,128,0,70431:0:0:0:0:
192,192,70431,128,0,71399:0:0:0:0:
320,192,70431,128,0,71399:0:0:0:0:
64,192,71560,1,0,0:0:0:0:
192,192,71721,1,0,0:0:0:0:
448,192,72044,1,0,0:0:0:0:
320,192,72205,1,0,0:0:0:0:
448,192,72689,128,0,73012:0:0:0:0:
64,192,73012,1,8,0:0:0:0:
192,192,73012,1,0,0:0:0:0:
64,192,73334,1,4,0:0:0:0:
320,192,73657,1,4,0:0:0:0:
192,192,73979,1,4,0:0:0:0:
320,192,74141,1,8,0:0:0:0:
64,192,74302,1,0,0:0:0:0:
448,192,74302,1,8,0:0:0:0:
320,192,74624,1,4,0:0:0:0:
64,192,74947,1,4,0:0:0:0:
192,192,75270,128,4,75592:0:0:0:0:
64,192,75592,1,0,0:0:0:0:
448,192,75592,1,8,0:0:0:0:
320,192,75834,1,8,0:0:0:0:
192,192,76076,1,8,0:0:0:0:
64,192,76237,1,8,0:0:0:0:
448,192,76237,1,0,0:0:0:0:
192,192,76479,1,8,0:0:0:0:
320,192,76721,1,8,0:0:0:0:
448,192,76883,1,0,0:0:0:0:
64,192,76883,1,8,0:0:0:0:
320,192,77205,1,8,0:0:0:0:
192,192,77205,1,0,0:0:0:0:
64,192,77366,128,0,77971:0:0:0:0:
448,192,77366,128,8,77971:0:0:0:0:
192,192,78173,1,8,0:0:0:0:
320,192,78173,1,8,0:0:0:0:
320,192,78657,1,8,0:0:0:0:
448,192,78657,1,8,0:0:0:0:
448,192,79302,128,8,79463:0:0:0:0:
192,192,79463,1,0,0:0:0:0:
320,192,79786,1,8,0:0:0:0:
192,192,79947,1,8,0:0:0:0:
64,192,79947,1,0,0:0:0:0:
320,192,80270,1,8,0:0:0:0:
192,192,80270,1,0,0:0:0:0:
64,192,80431,1,0,0:0:0:0:
448,192,80431,1,4,0:0:0:0:
448,192,80753,1,8,0:0:0:0:
192,192,80753,1,0,0:0:0:0:
448,192,81076,1,4,0:0:0:0:
64,192,81399,1,8,0:0:0:0:
192,192,81721,1,4,0:0:0:0:
448,192,82044,1,0,0:0:0:0:
320,192,82044,1,8,0:0:0:0:
320,192,82366,1,4,0:0:0:0:
64,192,82689,1,8,0:0:0:0:
192,192,83012,1,4,0:0:0:0:
320,192,83334,1,8,0:0:0:0:
64,192,83334,1,0,0:0:0:0:
448,192,83657,1,4,0:0:0:0:
64,192,83979,1,8,0:0:0:0:
320,192,84302,1,4,0:0:0:0:
64,192,84624,1,0,0:0:0:0:
448,192,84624,1,8,0:0:0:0:
192,192,84947,1,4,0:0:0:0:
320,192,85270,1,8,0:0:0:0:
448,192,85592,1,4,0:0:0:0:
192,192,85915,1,8,0:0:0:0:
64,192,85915,1,0,0:0:0:0:
320,192,86237,1,4,0:0:0:0:
64,192,86560,1,4,0:0:0:0:
192,192,86883,1,4,0:0:0:0:
448,192,87044,1,2,0:0:0:0:
64,192,87205,128,8,87528:0:0:0:0:
192,192,87528,1,8,0:0:0:0:
320,192,87689,1,8,0:0:0:0:
448,192,88012,128,8,88495:0:0:0:0:
320,192,88495,1,0,0:0:0:0:
192,192,88495,1,8,0:0:0:0:
448,192,88818,1,4,0:0:0:0:
64,192,89141,1,8,0:0:0:0:
192,192,89463,1,4,0:0:0:0:
448,192,89786,1,0,0:0:0:0:
320,192,89786,1,8,0:0:0:0:
192,192,90108,1,4,0:0:0:0:
64,192,90431,1,8,0:0:0:0:
320,192,90753,1,4,0:0:0:0:
64,192,91076,1,0,0:0:0:0:
192,192,91076,1,8,0:0:0:0:
320,192,91399,1,4,0:0:0:0:
64,192,91721,1,8,0:0:0:0:
448,192,92044,1,4,0:0:0:0:
192,192,92366,1,8,0:0:0:0:
448,192,92366,1,0,0:0:0:0:
320,192,92689,1,4,0:0:0:0:
64,192,93012,1,8,0:0:0:0:
448,192,93334,1,4,0:0:0:0:
64,192,93657,1,0,0:0:0:0:
192,192,93657,1,8,0:0:0:0:
320,192,93979,1,4,0:0:0:0:
192,192,94302,1,8,0:0:0:0:
448,192,94624,1,4,0:0:0:0:
320,192,94947,1,0,0:0:0:0:
192,192,94947,1,8,0:0:0:0:
64,192,95270,1,4,0:0:0:0:
192,192,95592,1,8,0:0:0:0:
320,192,95915,1,4,0:0:0:0:
64,192,96237,1,8,0:0:0:0:
448,192,96399,1,4,0:0:0:0:
192,192,96560,1,4,0:0:0:0:
320,192,96721,1,4,0:0:0:0:
192,192,96883,1,4,0:0:0:0:
64,192,97044,1,4,0:0:0:0:
448,192,97205,1,0,0:0:0:0:
320,192,97366,1,0,0:0:0:0:
192,192,97528,1,0,0:0:0:0:
64,192,97689,1,0,0:0:0:0:
192,192,97850,1,0,0:0:0:0:
320,192,98012,1,0,0:0:0:0:
448,192,98173,1,0,0:0:0:0:
320,192,98334,1,0,0:0:0:0:
192,192,98495,1,0,0:0:0:0:
64,192,98657,128,0,99463:0:0:0:0:
320,192,98657,128,8,99463:0:0:0:0:
64,192,99786,1,8,0:0:0:0:
192,192,99947,128,8,100270:0:0:0:0:
320,192,100270,1,8,0:0:0:0:
64,192,100431,128,0,100753:0:0:0:0:
448,192,100431,128,8,100753:0:0:0:0:
320,192,101076,128,2,101399:0:0:0:0:
64,192,101399,1,0,0:0:0:0:
192,192,101399,1,8,0:0:0:0:
320,192,101560,1,0,0:0:0:0:
448,192,101721,1,4,0:0:0:0:
320,192,101883,1,0,0:0:0:0:
192,192,102044,1,8,0:0:0:0:
64,192,102205,1,0,0:0:0:0:
192,192,102366,1,4,0:0:0:0:
64,192,102528,1,0,0:0:0:0:
320,192,102850,1,0,0:0:0:0:
64,192,103012,1,4,0:0:0:0:
192,192,103173,1,0,0:0:0:0:
448,192,103334,1,8,0:0:0:0:
192,192,103495,1,0,0:0:0:0:
448,192,103657,1,4,0:0:0:0:
320,192,103818,1,0,0:0:0:0:
64,192,104141,1,8,0:0:0:0:
448,192,104302,1,4,0:0:0:0:
320,192,104463,1,0,0:0:0:0:
192,192,104624,1,8,0:0:0:0:
64,192,104786,1,0,0:0:0:0:
192,192,104947,1,4,0:0:0:0:
320,192,105108,1,0,0:0:0:0:
192,192,105431,1,0,0:0:0:0:
320,192,105592,1,4,0:0:0:0:
448,192,105753,1,0,0:0:0:0:
192,192,105915,1,8,0:0:0:0:
320,192,106076,1,0,0:0:0:0:
448,192,106237,1,4,0:0:0:0:
320,192,106399,1,0,0:0:0:0:
64,192,106721,1,8,0:0:0:0:
448,192,106883,1,4,0:0:0:0:
320,192,107044,1,0,0:0:0:0:
192,192,107205,1,8,0:0:0:0:
320,192,107366,1,0,0:0:0:0:
192,192,107528,1,4,0:0:0:0:
64,192,107689,1,0,0:0:0:0:
192,192,108012,1,0,0:0:0:0:
64,192,108173,1,4,0:0:0:0:
192,192,108334,1,0,0:0:0:0:
320,192,108495,1,8,0:0:0:0:
192,192,108657,1,0,0:0:0:0:
320,192,108818,1,4,0:0:0:0:
448,192,108979,1,0,0:0:0:0:
320,192,109141,1,8,0:0:0:0:
192,192,109302,1,0,0:0:0:0:
64,192,109463,1,4,0:0:0:0:
448,192,109624,1,8,0:0:0:0:
320,192,109786,1,8,0:0:0:0:
192,192,109947,1,8,0:0:0:0:
448,192,110108,128,2,110431:0:0:0:0:
64,192,110431,1,8,0:0:0:0:
320,192,110753,1,8,0:0:0:0:
192,192,110915,1,8,0:0:0:0:
448,192,111278,128,0,111721:0:0:0:0:
64,192,111278,128,0,111721:0:0:0:0:
192,192,111721,1,0,0:0:0:0:
320,192,111721,1,0,0:0:0:0:
320,192,112044,1,0,0:0:0:0:
64,192,112205,1,0,0:0:0:0:
192,192,112528,1,0,0:0:0:0:
320,192,112850,1,0,0:0:0:0:
448,192,113012,1,0,0:0:0:0:
192,192,113173,1,0,0:0:0:0:
320,192,113334,1,0,0:0:0:0:
64,192,113495,1,0,0:0:0:0:
192,192,113657,1,0,0:0:0:0:
448,192,113818,1,0,0:0:0:0:
64,192,113979,1,0,0:0:0:0:
320,192,114141,1,0,0:0:0:0:
192,192,114302,1,0,0:0:0:0:
448,192,114624,1,0,0:0:0:0:
192,192,114786,1,0,0:0:0:0:
64,192,115270,1,0,0:0:0:0:
448,192,115673,128,0,118173:0:0:0:0:
