osu file format v14

[General]
AudioFilename: audio.mp3
AudioLeadIn: 0
PreviewTime: 87675
Countdown: 1
SampleSet: Soft
StackLeniency: 0.7
Mode: 3
LetterboxInBreaks: 0
SpecialStyle: 0
WidescreenStoryboard: 0

[Editor]
DistanceSpacing: 0.7
BeatDivisor: 4
GridSize: 4
TimelineZoom: 1.8

[Metadata]
Title:HELL FLAME
TitleUnicode:HELL FLAME
Artist:DJ Myosuke
ArtistUnicode:DJ Myosuke
Creator:Wonki
Version:HYPER FLAME
Source:
Tags:
BeatmapID:2109047
BeatmapSetID:1007702

[Difficulty]
HPDrainRate:8
CircleSize:7
OverallDifficulty:8
ApproachRate:5
SliderMultiplier:1.4
SliderTickRate:1

[Events]
//Background and Video events
0,0,"F8JPDd.jpg",0,0
//Break Periods
//Storyboard Layer 0 (Background)
//Storyboard Layer 1 (Fail)
//Storyboard Layer 2 (Pass)
//Storyboard Layer 3 (Foreground)
//Storyboard Sound Samples

[TimingPoints]
1275,300,4,2,0,0,1,0

[HitObjects]
475,192,150,128,0,1275:0:0:0:0:
36,192,1275,1,0,0:0:0:0:
182,192,1275,1,0,0:0:0:0:
329,192,1275,1,0,0:0:0:0:
182,192,1425,1,0,0:0:0:0:
109,192,1575,1,0,0:0:0:0:
402,192,1575,1,0,0:0:0:0:
402,192,1725,1,0,0:0:0:0:
182,192,1875,1,0,0:0:0:0:
256,192,1875,1,0,0:0:0:0:
182,192,2025,1,0,0:0:0:0:
256,192,2025,1,0,0:0:0:0:
329,192,2175,1,0,0:0:0:0:
475,192,2175,1,0,0:0:0:0:
256,192,2325,1,0,0:0:0:0:
182,192,2475,1,0,0:0:0:0:
36,192,2475,1,0,0:0:0:0:
182,192,2625,1,0,0:0:0:0:
109,192,2775,1,0,0:0:0:0:
402,192,2775,1,0,0:0:0:0:
402,192,2925,1,0,0:0:0:0:
109,192,2925,1,0,0:0:0:0:
182,192,3075,1,0,0:0:0:0:
475,192,3075,1,0,0:0:0:0:
182,192,3225,1,0,0:0:0:0:
475,192,3225,1,0,0:0:0:0:
402,192,3262,1,0,0:0:0:0:
329,192,3300,1,0,0:0:0:0:
256,192,3337,1,0,0:0:0:0:
182,192,3375,1,0,0:0:0:0:
36,192,3375,1,0,0:0:0:0:
329,192,3525,1,0,0:0:0:0:
475,192,3525,1,0,0:0:0:0:
402,192,3675,1,0,0:0:0:0:
256,192,3675,1,0,0:0:0:0:
109,192,3675,1,0,0:0:0:0:
256,192,3825,1,0,0:0:0:0:
36,192,3975,1,0,0:0:0:0:
329,192,3975,1,0,0:0:0:0:
329,192,4125,1,0,0:0:0:0:
182,192,4275,1,0,0:0:0:0:
402,192,4275,1,0,0:0:0:0:
182,192,4425,1,0,0:0:0:0:
402,192,4425,1,0,0:0:0:0:
109,192,4575,1,0,0:0:0:0:
329,192,4575,1,0,0:0:0:0:
182,192,4725,1,0,0:0:0:0:
256,192,4725,1,0,0:0:0:0:
329,192,4875,1,0,0:0:0:0:
475,192,4875,1,0,0:0:0:0:
109,192,4875,128,0,5175:0:0:0:0:
36,192,5025,128,0,5175:0:0:0:0:
329,192,5025,128,0,5175:0:0:0:0:
182,192,5175,1,0,0:0:0:0:
256,192,5175,1,0,0:0:0:0:
475,192,5175,128,0,5475:0:0:0:0:
402,192,5325,128,0,5475:0:0:0:0:
182,192,5325,128,0,5475:0:0:0:0:
36,192,5475,128,0,5775:0:0:0:0:
109,192,5475,1,0,0:0:0:0:
256,192,5475,1,0,0:0:0:0:
329,192,5475,1,0,0:0:0:0:
182,192,5775,1,0,0:0:0:0:
329,192,5775,1,0,0:0:0:0:
402,192,5775,1,0,0:0:0:0:
475,192,5775,1,0,0:0:0:0:
36,192,6075,1,0,0:0:0:0:
109,192,6075,1,0,0:0:0:0:
256,192,6075,1,0,0:0:0:0:
109,192,6225,1,0,0:0:0:0:
256,192,6225,1,0,0:0:0:0:
182,192,6375,1,0,0:0:0:0:
402,192,6375,1,0,0:0:0:0:
329,192,6375,1,0,0:0:0:0:
182,192,6525,1,0,0:0:0:0:
329,192,6525,1,0,0:0:0:0:
109,192,6675,1,0,0:0:0:0:
256,192,6675,1,0,0:0:0:0:
402,192,6675,1,0,0:0:0:0:
109,192,6825,1,0,0:0:0:0:
402,192,6825,1,0,0:0:0:0:
182,192,6975,1,0,0:0:0:0:
256,192,6975,1,0,0:0:0:0:
475,192,6975,1,0,0:0:0:0:
182,192,7125,1,0,0:0:0:0:
256,192,7125,1,0,0:0:0:0:
329,192,7200,1,0,0:0:0:0:
402,192,7200,1,0,0:0:0:0:
475,192,7275,1,0,0:0:0:0:
182,192,7275,1,0,0:0:0:0:
109,192,7275,1,0,0:0:0:0:
109,192,7425,1,0,0:0:0:0:
182,192,7425,1,0,0:0:0:0:
36,192,7575,1,0,0:0:0:0:
256,192,7575,1,0,0:0:0:0:
402,192,7575,1,0,0:0:0:0:
256,192,7725,1,0,0:0:0:0:
402,192,7725,1,0,0:0:0:0:
109,192,7875,1,0,0:0:0:0:
329,192,7875,1,0,0:0:0:0:
36,192,7875,1,0,0:0:0:0:
182,192,7950,1,0,0:0:0:0:
109,192,8025,1,0,0:0:0:0:
329,192,8025,1,0,0:0:0:0:
182,192,8100,1,0,0:0:0:0:
256,192,8100,1,0,0:0:0:0:
109,192,8175,1,0,0:0:0:0:
329,192,8175,1,0,0:0:0:0:
402,192,8175,1,0,0:0:0:0:
329,192,8325,1,0,0:0:0:0:
402,192,8325,1,0,0:0:0:0:
36,192,8475,1,0,0:0:0:0:
182,192,8475,1,0,0:0:0:0:
475,192,8475,1,0,0:0:0:0:
256,192,8550,1,0,0:0:0:0:
329,192,8550,1,0,0:0:0:0:
402,192,8625,1,0,0:0:0:0:
475,192,8625,1,0,0:0:0:0:
182,192,8700,1,0,0:0:0:0:
256,192,8700,1,0,0:0:0:0:
109,192,8775,1,0,0:0:0:0:
36,192,8775,1,0,0:0:0:0:
402,192,8775,1,0,0:0:0:0:
182,192,8850,1,0,0:0:0:0:
256,192,8850,1,0,0:0:0:0:
329,192,8925,1,0,0:0:0:0:
475,192,8925,1,0,0:0:0:0:
182,192,9000,1,0,0:0:0:0:
36,192,9000,1,0,0:0:0:0:
402,192,9075,1,0,0:0:0:0:
475,192,9075,1,0,0:0:0:0:
329,192,9075,1,0,0:0:0:0:
256,192,9150,1,0,0:0:0:0:
109,192,9150,1,0,0:0:0:0:
402,192,9225,1,0,0:0:0:0:
475,192,9225,1,0,0:0:0:0:
329,192,9225,1,0,0:0:0:0:
256,192,9300,1,0,0:0:0:0:
109,192,9300,1,0,0:0:0:0:
182,192,9375,1,0,0:0:0:0:
36,192,9375,1,0,0:0:0:0:
329,192,9375,1,0,0:0:0:0:
402,192,9450,1,0,0:0:0:0:
475,192,9450,1,0,0:0:0:0:
329,192,9525,1,0,0:0:0:0:
182,192,9525,1,0,0:0:0:0:
36,192,9525,1,0,0:0:0:0:
402,192,9600,1,0,0:0:0:0:
475,192,9600,1,0,0:0:0:0:
36,192,9675,1,0,0:0:0:0:
109,192,9675,1,0,0:0:0:0:
182,192,9675,1,0,0:0:0:0:
256,192,9675,1,0,0:0:0:0:
329,192,9675,1,0,0:0:0:0:
109,192,10575,1,0,0:0:0:0:
256,192,10575,1,0,0:0:0:0:
402,192,10575,1,0,0:0:0:0:
36,192,10875,1,0,0:0:0:0:
182,192,10875,1,0,0:0:0:0:
402,192,10875,1,0,0:0:0:0:
329,192,10875,1,0,0:0:0:0:
36,192,11025,1,0,0:0:0:0:
182,192,11025,1,0,0:0:0:0:
329,192,11025,1,0,0:0:0:0:
402,192,11025,1,0,0:0:0:0:
329,192,11175,1,0,0:0:0:0:
402,192,11175,1,0,0:0:0:0:
182,192,11175,1,0,0:0:0:0:
36,192,11175,1,0,0:0:0:0:
256,192,11325,1,0,0:0:0:0:
182,192,11475,1,0,0:0:0:0:
109,192,11475,1,0,0:0:0:0:
329,192,11475,1,0,0:0:0:0:
475,192,11475,1,0,0:0:0:0:
256,192,11625,1,0,0:0:0:0:
402,192,11775,1,0,0:0:0:0:
475,192,11775,1,0,0:0:0:0:
36,192,11775,1,0,0:0:0:0:
182,192,11775,1,0,0:0:0:0:
329,192,11925,1,0,0:0:0:0:
256,192,12075,1,0,0:0:0:0:
109,192,12075,1,0,0:0:0:0:
402,192,12075,1,0,0:0:0:0:
36,192,12075,1,0,0:0:0:0:
329,192,12225,1,0,0:0:0:0:
402,192,12375,1,0,0:0:0:0:
475,192,12375,1,0,0:0:0:0:
256,192,12375,1,0,0:0:0:0:
182,192,12375,1,0,0:0:0:0:
329,192,12525,1,0,0:0:0:0:
182,192,12675,1,0,0:0:0:0:
36,192,12675,1,0,0:0:0:0:
109,192,12675,1,0,0:0:0:0:
402,192,12675,1,0,0:0:0:0:
109,192,12825,1,0,0:0:0:0:
182,192,12825,1,0,0:0:0:0:
402,192,12825,1,0,0:0:0:0:
36,192,12900,1,0,0:0:0:0:
256,192,12900,1,0,0:0:0:0:
109,192,12975,1,0,0:0:0:0:
182,192,12975,1,0,0:0:0:0:
329,192,12975,1,0,0:0:0:0:
475,192,12975,1,0,0:0:0:0:
402,192,12975,1,0,0:0:0:0:
475,192,13275,1,0,0:0:0:0:
329,192,13275,1,0,0:0:0:0:
109,192,13275,1,0,0:0:0:0:
182,192,13275,1,0,0:0:0:0:
256,192,13425,1,0,0:0:0:0:
182,192,13575,1,0,0:0:0:0:
109,192,13575,1,0,0:0:0:0:
329,192,13575,1,0,0:0:0:0:
475,192,13575,1,0,0:0:0:0:
256,192,13725,1,0,0:0:0:0:
329,192,13875,1,0,0:0:0:0:
402,192,13875,1,0,0:0:0:0:
182,192,13875,1,0,0:0:0:0:
36,192,13875,1,0,0:0:0:0:
256,192,14025,1,0,0:0:0:0:
109,192,14175,1,0,0:0:0:0:
36,192,14175,1,0,0:0:0:0:
475,192,14175,1,0,0:0:0:0:
329,192,14175,1,0,0:0:0:0:
182,192,14325,1,0,0:0:0:0:
256,192,14475,1,0,0:0:0:0:
402,192,14475,1,0,0:0:0:0:
109,192,14475,1,0,0:0:0:0:
475,192,14475,1,0,0:0:0:0:
109,192,14625,1,0,0:0:0:0:
256,192,14625,1,0,0:0:0:0:
402,192,14625,1,0,0:0:0:0:
475,192,14625,1,0,0:0:0:0:
109,192,14775,1,0,0:0:0:0:
256,192,14775,1,0,0:0:0:0:
402,192,14775,1,0,0:0:0:0:
475,192,14775,1,0,0:0:0:0:
182,192,14925,1,0,0:0:0:0:
329,192,15075,1,0,0:0:0:0:
475,192,15075,1,0,0:0:0:0:
402,192,15075,1,0,0:0:0:0:
109,192,15075,1,0,0:0:0:0:
36,192,15075,1,0,0:0:0:0:
182,192,15375,1,0,0:0:0:0:
109,192,15375,1,0,0:0:0:0:
36,192,15375,1,0,0:0:0:0:
402,192,15375,1,0,0:0:0:0:
475,192,15375,1,0,0:0:0:0:
256,192,15675,1,0,0:0:0:0:
109,192,15975,1,0,0:0:0:0:
182,192,15975,1,0,0:0:0:0:
329,192,15975,1,0,0:0:0:0:
402,192,15975,1,0,0:0:0:0:
109,192,16125,1,0,0:0:0:0:
182,192,16125,1,0,0:0:0:0:
329,192,16125,1,0,0:0:0:0:
402,192,16125,1,0,0:0:0:0:
182,192,16275,1,0,0:0:0:0:
109,192,16275,1,0,0:0:0:0:
329,192,16275,1,0,0:0:0:0:
402,192,16275,1,0,0:0:0:0:
256,192,16425,1,0,0:0:0:0:
182,192,16575,1,0,0:0:0:0:
36,192,16575,1,0,0:0:0:0:
329,192,16575,1,0,0:0:0:0:
475,192,16575,1,0,0:0:0:0:
109,192,16725,1,0,0:0:0:0:
36,192,16875,1,0,0:0:0:0:
182,192,16875,1,0,0:0:0:0:
329,192,16875,1,0,0:0:0:0:
475,192,16875,1,0,0:0:0:0:
402,192,17025,1,0,0:0:0:0:
329,192,17175,1,0,0:0:0:0:
256,192,17175,1,0,0:0:0:0:
109,192,17175,1,0,0:0:0:0:
36,192,17175,1,0,0:0:0:0:
475,192,17325,1,0,0:0:0:0:
402,192,17475,1,0,0:0:0:0:
109,192,17475,1,0,0:0:0:0:
256,192,17475,1,0,0:0:0:0:
182,192,17550,1,0,0:0:0:0:
329,192,17550,1,0,0:0:0:0:
109,192,17625,1,0,0:0:0:0:
402,192,17625,1,0,0:0:0:0:
256,192,17700,1,0,0:0:0:0:
109,192,17775,1,0,0:0:0:0:
402,192,17775,1,0,0:0:0:0:
475,192,17775,1,0,0:0:0:0:
36,192,17775,1,0,0:0:0:0:
329,192,18075,128,0,18375:0:0:0:0:
36,192,18075,1,0,0:0:0:0:
182,192,18075,1,0,0:0:0:0:
475,192,18225,128,0,18375:0:0:0:0:
402,192,18375,128,0,18675:0:0:0:0:
182,192,18375,1,0,0:0:0:0:
36,192,18375,1,0,0:0:0:0:
475,192,18525,128,0,18675:0:0:0:0:
329,192,18675,128,0,18975:0:0:0:0:
36,192,18675,1,0,0:0:0:0:
182,192,18675,1,0,0:0:0:0:
402,192,18825,128,0,18975:0:0:0:0:
475,192,18975,128,0,19275:0:0:0:0:
182,192,18975,1,0,0:0:0:0:
36,192,18975,1,0,0:0:0:0:
329,192,19125,128,0,19275:0:0:0:0:
36,192,19275,1,0,0:0:0:0:
182,192,19275,1,0,0:0:0:0:
256,192,19275,1,0,0:0:0:0:
402,192,19275,1,0,0:0:0:0:
109,192,19575,1,0,0:0:0:0:
256,192,19575,1,0,0:0:0:0:
329,192,19575,1,0,0:0:0:0:
475,192,19575,1,0,0:0:0:0:
36,192,19575,1,0,0:0:0:0:
256,192,19725,1,0,0:0:0:0:
182,192,19875,1,0,0:0:0:0:
329,192,19875,1,0,0:0:0:0:
329,192,20175,1,0,0:0:0:0:
182,192,20175,1,0,0:0:0:0:
36,192,20475,1,0,0:0:0:0:
109,192,20475,1,0,0:0:0:0:
182,192,20475,1,0,0:0:0:0:
329,192,20475,1,0,0:0:0:0:
402,192,20475,1,0,0:0:0:0:
475,192,20475,1,0,0:0:0:0:
36,192,20775,1,0,0:0:0:0:
109,192,20775,1,0,0:0:0:0:
329,192,20775,1,0,0:0:0:0:
402,192,20775,1,0,0:0:0:0:
256,192,20850,1,0,0:0:0:0:
109,192,20925,1,0,0:0:0:0:
36,192,20925,1,0,0:0:0:0:
329,192,20925,1,0,0:0:0:0:
402,192,20925,1,0,0:0:0:0:
109,192,21075,1,0,0:0:0:0:
182,192,21075,1,0,0:0:0:0:
329,192,21150,1,0,0:0:0:0:
402,192,21150,1,0,0:0:0:0:
475,192,21150,1,0,0:0:0:0:
109,192,21225,1,0,0:0:0:0:
182,192,21225,1,0,0:0:0:0:
182,192,21375,1,0,0:0:0:0:
256,192,21375,1,0,0:0:0:0:
36,192,21375,1,0,0:0:0:0:
402,192,21375,1,0,0:0:0:0:
475,192,21375,1,0,0:0:0:0:
182,192,21525,1,0,0:0:0:0:
256,192,21525,1,0,0:0:0:0:
36,192,21525,128,0,21675:0:0:0:0:
256,192,21675,1,0,0:0:0:0:
329,192,21675,1,0,0:0:0:0:
256,192,21825,1,0,0:0:0:0:
329,192,21825,1,0,0:0:0:0:
36,192,21900,1,0,0:0:0:0:
182,192,21900,1,0,0:0:0:0:
329,192,21975,1,0,0:0:0:0:
402,192,21975,1,0,0:0:0:0:
36,192,22050,1,0,0:0:0:0:
182,192,22050,1,0,0:0:0:0:
329,192,22125,1,0,0:0:0:0:
402,192,22125,1,0,0:0:0:0:
402,192,22275,1,0,0:0:0:0:
475,192,22275,1,0,0:0:0:0:
109,192,22275,1,0,0:0:0:0:
256,192,22275,1,0,0:0:0:0:
402,192,22425,1,0,0:0:0:0:
475,192,22425,1,0,0:0:0:0:
182,192,22425,1,0,0:0:0:0:
36,192,22425,1,0,0:0:0:0:
329,192,22425,1,0,0:0:0:0:
256,192,22575,1,0,0:0:0:0:
402,192,22650,1,0,0:0:0:0:
475,192,22650,1,0,0:0:0:0:
109,192,22650,1,0,0:0:0:0:
36,192,22650,1,0,0:0:0:0:
36,192,22875,1,0,0:0:0:0:
109,192,22875,1,0,0:0:0:0:
182,192,22875,1,0,0:0:0:0:
402,192,22875,1,0,0:0:0:0:
329,192,22875,1,0,0:0:0:0:
475,192,22875,1,0,0:0:0:0:
402,192,23100,1,0,0:0:0:0:
475,192,23100,1,0,0:0:0:0:
36,192,23175,1,0,0:0:0:0:
182,192,23175,1,0,0:0:0:0:
329,192,23175,1,0,0:0:0:0:
36,192,23325,1,0,0:0:0:0:
182,192,23325,1,0,0:0:0:0:
329,192,23325,1,0,0:0:0:0:
109,192,23475,1,0,0:0:0:0:
256,192,23475,1,0,0:0:0:0:
402,192,23550,1,0,0:0:0:0:
475,192,23550,1,0,0:0:0:0:
109,192,23625,1,0,0:0:0:0:
256,192,23625,1,0,0:0:0:0:
402,192,23700,1,0,0:0:0:0:
475,192,23700,1,0,0:0:0:0:
182,192,23775,1,0,0:0:0:0:
329,192,23775,1,0,0:0:0:0:
36,192,23775,1,0,0:0:0:0:
182,192,23925,1,0,0:0:0:0:
329,192,23925,1,0,0:0:0:0:
36,192,23925,1,0,0:0:0:0:
109,192,23925,1,0,0:0:0:0:
256,192,24075,1,0,0:0:0:0:
402,192,24075,1,0,0:0:0:0:
256,192,24225,1,0,0:0:0:0:
402,192,24225,1,0,0:0:0:0:
109,192,24225,1,0,0:0:0:0:
36,192,24225,1,0,0:0:0:0:
329,192,24375,1,0,0:0:0:0:
475,192,24375,1,0,0:0:0:0:
109,192,24375,1,0,0:0:0:0:
182,192,24375,1,0,0:0:0:0:
36,192,24450,1,0,0:0:0:0:
329,192,24525,1,0,0:0:0:0:
475,192,24525,1,0,0:0:0:0:
182,192,24525,1,0,0:0:0:0:
256,192,24675,1,0,0:0:0:0:
329,192,24750,1,0,0:0:0:0:
475,192,24750,1,0,0:0:0:0:
182,192,24750,1,0,0:0:0:0:
36,192,24750,1,0,0:0:0:0:
36,192,24975,1,0,0:0:0:0:
182,192,24975,1,0,0:0:0:0:
329,192,24975,1,0,0:0:0:0:
475,192,24975,1,0,0:0:0:0:
256,192,24975,1,0,0:0:0:0:
36,192,25275,1,0,0:0:0:0:
109,192,25275,1,0,0:0:0:0:
182,192,25275,1,0,0:0:0:0:
402,192,25275,1,0,0:0:0:0:
329,192,25275,1,0,0:0:0:0:
475,192,25275,1,0,0:0:0:0:
36,192,25575,1,0,0:0:0:0:
109,192,25575,1,0,0:0:0:0:
402,192,25575,1,0,0:0:0:0:
256,192,25575,1,0,0:0:0:0:
329,192,25650,1,0,0:0:0:0:
109,192,25725,1,0,0:0:0:0:
36,192,25725,1,0,0:0:0:0:
402,192,25725,1,0,0:0:0:0:
256,192,25725,1,0,0:0:0:0:
109,192,25875,1,0,0:0:0:0:
182,192,25875,1,0,0:0:0:0:
475,192,25950,1,0,0:0:0:0:
256,192,25950,1,0,0:0:0:0:
329,192,25950,1,0,0:0:0:0:
109,192,26025,1,0,0:0:0:0:
182,192,26025,1,0,0:0:0:0:
182,192,26175,1,0,0:0:0:0:
256,192,26175,1,0,0:0:0:0:
36,192,26175,1,0,0:0:0:0:
475,192,26175,1,0,0:0:0:0:
329,192,26175,1,0,0:0:0:0:
182,192,26325,1,0,0:0:0:0:
256,192,26325,1,0,0:0:0:0:
36,192,26325,128,0,26475:0:0:0:0:
256,192,26475,1,0,0:0:0:0:
329,192,26475,1,0,0:0:0:0:
256,192,26625,1,0,0:0:0:0:
329,192,26625,1,0,0:0:0:0:
36,192,26700,1,0,0:0:0:0:
109,192,26700,1,0,0:0:0:0:
329,192,26775,1,0,0:0:0:0:
402,192,26775,1,0,0:0:0:0:
36,192,26850,1,0,0:0:0:0:
109,192,26850,1,0,0:0:0:0:
329,192,26925,1,0,0:0:0:0:
402,192,26925,1,0,0:0:0:0:
402,192,27075,1,0,0:0:0:0:
475,192,27075,1,0,0:0:0:0:
109,192,27075,1,0,0:0:0:0:
182,192,27075,1,0,0:0:0:0:
402,192,27225,1,0,0:0:0:0:
475,192,27225,1,0,0:0:0:0:
36,192,27225,1,0,0:0:0:0:
329,192,27225,1,0,0:0:0:0:
256,192,27225,1,0,0:0:0:0:
109,192,27375,1,0,0:0:0:0:
402,192,27450,1,0,0:0:0:0:
475,192,27450,1,0,0:0:0:0:
182,192,27450,1,0,0:0:0:0:
256,192,27450,1,0,0:0:0:0:
36,192,27675,1,0,0:0:0:0:
109,192,27675,1,0,0:0:0:0:
402,192,27675,1,0,0:0:0:0:
475,192,27675,1,0,0:0:0:0:
329,192,27750,1,0,0:0:0:0:
182,192,27750,1,0,0:0:0:0:
109,192,27825,1,0,0:0:0:0:
36,192,27825,1,0,0:0:0:0:
402,192,27825,1,0,0:0:0:0:
475,192,27825,1,0,0:0:0:0:
182,192,27975,1,0,0:0:0:0:
256,192,27975,1,0,0:0:0:0:
329,192,27975,1,0,0:0:0:0:
182,192,28125,1,0,0:0:0:0:
256,192,28125,1,0,0:0:0:0:
329,192,28125,1,0,0:0:0:0:
109,192,28275,1,0,0:0:0:0:
36,192,28275,1,0,0:0:0:0:
402,192,28275,1,0,0:0:0:0:
182,192,28312,1,0,0:0:0:0:
256,192,28350,1,0,0:0:0:0:
329,192,28425,1,0,0:0:0:0:
475,192,28425,1,0,0:0:0:0:
109,192,28425,1,0,0:0:0:0:
182,192,28500,1,0,0:0:0:0:
256,192,28500,1,0,0:0:0:0:
36,192,28575,1,0,0:0:0:0:
402,192,28575,1,0,0:0:0:0:
475,192,28575,1,0,0:0:0:0:
182,192,28650,1,0,0:0:0:0:
256,192,28650,1,0,0:0:0:0:
109,192,28725,1,0,0:0:0:0:
36,192,28725,1,0,0:0:0:0:
329,192,28725,1,0,0:0:0:0:
475,192,28725,1,0,0:0:0:0:
36,192,28875,1,0,0:0:0:0:
182,192,28875,1,0,0:0:0:0:
256,192,28875,1,0,0:0:0:0:
402,192,28875,1,0,0:0:0:0:
475,192,28875,1,0,0:0:0:0:
109,192,29175,128,0,29625:0:0:0:0:
182,192,29175,128,0,29625:0:0:0:0:
329,192,29175,128,0,29625:0:0:0:0:
36,192,29775,1,0,0:0:0:0:
109,192,29775,1,0,0:0:0:0:
182,192,29775,1,0,0:0:0:0:
329,192,29775,1,0,0:0:0:0:
402,192,29775,1,0,0:0:0:0:
475,192,29775,1,0,0:0:0:0:
36,192,30075,1,0,0:0:0:0:
256,192,30075,1,0,0:0:0:0:
402,192,30075,1,0,0:0:0:0:
36,192,30225,1,0,0:0:0:0:
109,192,30375,1,0,0:0:0:0:
182,192,30375,1,0,0:0:0:0:
475,192,30375,1,0,0:0:0:0:
329,192,30375,1,0,0:0:0:0:
36,192,30525,1,0,0:0:0:0:
256,192,30525,1,0,0:0:0:0:
402,192,30525,1,0,0:0:0:0:
36,192,30675,1,0,0:0:0:0:
109,192,30825,1,0,0:0:0:0:
182,192,30825,1,0,0:0:0:0:
402,192,30825,1,0,0:0:0:0:
475,192,30825,1,0,0:0:0:0:
36,192,30975,1,0,0:0:0:0:
402,192,30975,1,0,0:0:0:0:
329,192,30975,1,0,0:0:0:0:
182,192,31125,1,0,0:0:0:0:
109,192,31200,1,0,0:0:0:0:
182,192,31275,1,0,0:0:0:0:
256,192,31275,1,0,0:0:0:0:
475,192,31275,1,0,0:0:0:0:
36,192,31425,1,0,0:0:0:0:
329,192,31425,1,0,0:0:0:0:
402,192,31425,1,0,0:0:0:0:
36,192,31575,1,0,0:0:0:0:
109,192,31725,1,0,0:0:0:0:
182,192,31725,1,0,0:0:0:0:
256,192,31725,1,0,0:0:0:0:
475,192,31725,1,0,0:0:0:0:
329,192,31875,1,0,0:0:0:0:
402,192,31875,1,0,0:0:0:0:
36,192,31875,1,0,0:0:0:0:
109,192,32025,1,0,0:0:0:0:
182,192,32025,1,0,0:0:0:0:
109,192,32175,1,0,0:0:0:0:
182,192,32175,1,0,0:0:0:0:
256,192,32175,1,0,0:0:0:0:
402,192,32175,1,0,0:0:0:0:
329,192,32325,1,0,0:0:0:0:
475,192,32325,1,0,0:0:0:0:
109,192,32475,1,0,0:0:0:0:
256,192,32475,1,0,0:0:0:0:
402,192,32475,1,0,0:0:0:0:
109,192,32625,1,0,0:0:0:0:
329,192,32625,1,0,0:0:0:0:
475,192,32625,1,0,0:0:0:0:
36,192,32775,1,0,0:0:0:0:
182,192,32775,1,0,0:0:0:0:
402,192,32775,1,0,0:0:0:0:
256,192,32775,1,0,0:0:0:0:
109,192,32925,1,0,0:0:0:0:
109,192,33075,1,0,0:0:0:0:
329,192,33075,1,0,0:0:0:0:
402,192,33075,1,0,0:0:0:0:
36,192,33225,1,0,0:0:0:0:
182,192,33225,1,0,0:0:0:0:
256,192,33225,1,0,0:0:0:0:
475,192,33225,1,0,0:0:0:0:
109,192,33375,1,0,0:0:0:0:
36,192,33525,1,0,0:0:0:0:
402,192,33525,1,0,0:0:0:0:
329,192,33525,1,0,0:0:0:0:
182,192,33600,1,0,0:0:0:0:
36,192,33675,1,0,0:0:0:0:
256,192,33675,1,0,0:0:0:0:
475,192,33675,1,0,0:0:0:0:
182,192,33750,1,0,0:0:0:0:
109,192,33825,1,0,0:0:0:0:
182,192,33975,1,0,0:0:0:0:
36,192,33975,1,0,0:0:0:0:
402,192,33975,1,0,0:0:0:0:
475,192,33975,1,0,0:0:0:0:
329,192,34125,1,0,0:0:0:0:
402,192,34125,1,0,0:0:0:0:
109,192,34125,1,0,0:0:0:0:
109,192,34275,1,0,0:0:0:0:
182,192,34425,1,0,0:0:0:0:
36,192,34425,1,0,0:0:0:0:
475,192,34425,1,0,0:0:0:0:
402,192,34425,1,0,0:0:0:0:
329,192,34575,1,0,0:0:0:0:
256,192,34575,1,0,0:0:0:0:
109,192,34575,1,0,0:0:0:0:
182,192,34650,1,0,0:0:0:0:
402,192,34650,1,0,0:0:0:0:
109,192,34725,1,0,0:0:0:0:
329,192,34725,1,0,0:0:0:0:
182,192,34875,1,0,0:0:0:0:
256,192,34875,1,0,0:0:0:0:
475,192,34875,1,0,0:0:0:0:
36,192,34875,1,0,0:0:0:0:
182,192,35025,1,0,0:0:0:0:
256,192,35025,1,0,0:0:0:0:
109,192,35175,1,0,0:0:0:0:
329,192,35175,1,0,0:0:0:0:
402,192,35175,1,0,0:0:0:0:
256,192,35325,1,0,0:0:0:0:
36,192,35325,1,0,0:0:0:0:
475,192,35475,1,0,0:0:0:0:
182,192,35475,128,0,35625:0:0:0:0:
109,192,35625,1,0,0:0:0:0:
329,192,35625,1,0,0:0:0:0:
402,192,35625,1,0,0:0:0:0:
256,192,35775,1,0,0:0:0:0:
36,192,35775,1,0,0:0:0:0:
475,192,35925,1,0,0:0:0:0:
182,192,36000,1,0,0:0:0:0:
402,192,36075,1,0,0:0:0:0:
109,192,36075,1,0,0:0:0:0:
329,192,36075,1,0,0:0:0:0:
256,192,36225,1,0,0:0:0:0:
36,192,36225,1,0,0:0:0:0:
475,192,36375,1,0,0:0:0:0:
182,192,36375,128,0,36525:0:0:0:0:
109,192,36525,1,0,0:0:0:0:
402,192,36525,1,0,0:0:0:0:
329,192,36525,1,0,0:0:0:0:
36,192,36675,1,0,0:0:0:0:
256,192,36675,1,0,0:0:0:0:
475,192,36825,1,0,0:0:0:0:
402,192,36825,128,0,36975:0:0:0:0:
109,192,36975,1,0,0:0:0:0:
182,192,36975,1,0,0:0:0:0:
329,192,36975,1,0,0:0:0:0:
36,192,37050,1,0,0:0:0:0:
256,192,37125,1,0,0:0:0:0:
402,192,37125,1,0,0:0:0:0:
36,192,37200,1,0,0:0:0:0:
182,192,37275,1,0,0:0:0:0:
109,192,37275,1,0,0:0:0:0:
329,192,37275,1,0,0:0:0:0:
475,192,37275,1,0,0:0:0:0:
36,192,37425,1,0,0:0:0:0:
256,192,37425,1,0,0:0:0:0:
402,192,37425,1,0,0:0:0:0:
109,192,37575,1,0,0:0:0:0:
182,192,37575,1,0,0:0:0:0:
475,192,37575,1,0,0:0:0:0:
256,192,37725,1,0,0:0:0:0:
329,192,37725,1,0,0:0:0:0:
402,192,37875,1,0,0:0:0:0:
475,192,37875,1,0,0:0:0:0:
109,192,37875,1,0,0:0:0:0:
36,192,38025,1,0,0:0:0:0:
182,192,38025,1,0,0:0:0:0:
329,192,38025,1,0,0:0:0:0:
109,192,38175,1,0,0:0:0:0:
402,192,38175,1,0,0:0:0:0:
182,192,38250,1,0,0:0:0:0:
475,192,38250,1,0,0:0:0:0:
109,192,38325,1,0,0:0:0:0:
402,192,38325,1,0,0:0:0:0:
182,192,38400,1,0,0:0:0:0:
475,192,38400,1,0,0:0:0:0:
109,192,38475,1,0,0:0:0:0:
402,192,38475,1,0,0:0:0:0:
256,192,38475,1,0,0:0:0:0:
329,192,38475,1,0,0:0:0:0:
36,192,38475,1,0,0:0:0:0:
256,192,38925,128,0,39375:0:0:0:0:
109,192,39375,1,0,0:0:0:0:
36,192,39375,1,0,0:0:0:0:
402,192,39375,1,0,0:0:0:0:
475,192,39375,1,0,0:0:0:0:
36,192,39675,1,0,0:0:0:0:
182,192,39675,1,0,0:0:0:0:
256,192,39675,1,0,0:0:0:0:
402,192,39675,1,0,0:0:0:0:
36,192,39825,1,0,0:0:0:0:
182,192,39825,1,0,0:0:0:0:
256,192,39825,1,0,0:0:0:0:
402,192,39825,1,0,0:0:0:0:
109,192,39975,1,0,0:0:0:0:
329,192,39975,1,0,0:0:0:0:
475,192,39975,1,0,0:0:0:0:
182,192,40050,1,0,0:0:0:0:
36,192,40125,1,0,0:0:0:0:
109,192,40125,1,0,0:0:0:0:
402,192,40125,1,0,0:0:0:0:
256,192,40200,1,0,0:0:0:0:
182,192,40275,1,0,0:0:0:0:
329,192,40275,1,0,0:0:0:0:
402,192,40350,1,0,0:0:0:0:
256,192,40425,1,0,0:0:0:0:
475,192,40425,1,0,0:0:0:0:
109,192,40425,1,0,0:0:0:0:
329,192,40500,1,0,0:0:0:0:
402,192,40575,1,0,0:0:0:0:
182,192,40575,1,0,0:0:0:0:
36,192,40575,1,0,0:0:0:0:
109,192,40650,1,0,0:0:0:0:
256,192,40725,1,0,0:0:0:0:
329,192,40725,1,0,0:0:0:0:
182,192,40800,1,0,0:0:0:0:
109,192,40875,1,0,0:0:0:0:
36,192,40875,1,0,0:0:0:0:
402,192,40875,1,0,0:0:0:0:
256,192,40950,1,0,0:0:0:0:
182,192,41025,1,0,0:0:0:0:
402,192,41025,1,0,0:0:0:0:
475,192,41025,1,0,0:0:0:0:
256,192,41100,1,0,0:0:0:0:
329,192,41175,1,0,0:0:0:0:
109,192,41175,1,0,0:0:0:0:
182,192,41250,1,0,0:0:0:0:
256,192,41325,1,0,0:0:0:0:
402,192,41325,1,0,0:0:0:0:
475,192,41325,1,0,0:0:0:0:
329,192,41400,1,0,0:0:0:0:
256,192,41475,1,0,0:0:0:0:
109,192,41475,1,0,0:0:0:0:
36,192,41475,1,0,0:0:0:0:
182,192,41550,1,0,0:0:0:0:
109,192,41625,1,0,0:0:0:0:
402,192,41625,1,0,0:0:0:0:
256,192,41700,1,0,0:0:0:0:
182,192,41775,1,0,0:0:0:0:
329,192,41775,1,0,0:0:0:0:
475,192,41775,1,0,0:0:0:0:
36,192,41775,1,0,0:0:0:0:
109,192,41925,1,0,0:0:0:0:
402,192,41925,1,0,0:0:0:0:
182,192,42075,1,0,0:0:0:0:
256,192,42075,1,0,0:0:0:0:
36,192,42075,1,0,0:0:0:0:
475,192,42075,1,0,0:0:0:0:
329,192,42150,1,0,0:0:0:0:
402,192,42225,1,0,0:0:0:0:
475,192,42225,1,0,0:0:0:0:
109,192,42225,1,0,0:0:0:0:
182,192,42300,1,0,0:0:0:0:
36,192,42375,1,0,0:0:0:0:
109,192,42375,1,0,0:0:0:0:
329,192,42375,1,0,0:0:0:0:
256,192,42450,1,0,0:0:0:0:
182,192,42525,1,0,0:0:0:0:
329,192,42525,1,0,0:0:0:0:
256,192,42600,1,0,0:0:0:0:
182,192,42675,1,0,0:0:0:0:
36,192,42675,1,0,0:0:0:0:
402,192,42675,1,0,0:0:0:0:
475,192,42750,1,0,0:0:0:0:
329,192,42825,1,0,0:0:0:0:
256,192,42825,1,0,0:0:0:0:
109,192,42825,1,0,0:0:0:0:
475,192,42900,1,0,0:0:0:0:
182,192,42975,1,0,0:0:0:0:
329,192,42975,1,0,0:0:0:0:
256,192,43050,1,0,0:0:0:0:
182,192,43125,1,0,0:0:0:0:
329,192,43125,1,0,0:0:0:0:
36,192,43125,1,0,0:0:0:0:
256,192,43200,1,0,0:0:0:0:
329,192,43275,1,0,0:0:0:0:
475,192,43275,1,0,0:0:0:0:
109,192,43275,1,0,0:0:0:0:
36,192,43350,1,0,0:0:0:0:
182,192,43425,1,0,0:0:0:0:
402,192,43425,1,0,0:0:0:0:
36,192,43500,1,0,0:0:0:0:
256,192,43500,1,0,0:0:0:0:
182,192,43575,1,0,0:0:0:0:
402,192,43575,1,0,0:0:0:0:
475,192,43575,1,0,0:0:0:0:
329,192,43650,1,0,0:0:0:0:
256,192,43725,1,0,0:0:0:0:
109,192,43725,1,0,0:0:0:0:
36,192,43725,1,0,0:0:0:0:
329,192,43800,1,0,0:0:0:0:
182,192,43875,1,0,0:0:0:0:
402,192,43875,1,0,0:0:0:0:
475,192,43875,1,0,0:0:0:0:
109,192,43875,1,0,0:0:0:0:
36,192,44025,1,0,0:0:0:0:
109,192,44025,1,0,0:0:0:0:
329,192,44025,1,0,0:0:0:0:
402,192,44025,1,0,0:0:0:0:
182,192,44175,1,0,0:0:0:0:
256,192,44175,1,0,0:0:0:0:
402,192,44175,1,0,0:0:0:0:
475,192,44175,1,0,0:0:0:0:
109,192,44325,1,0,0:0:0:0:
182,192,44325,1,0,0:0:0:0:
329,192,44325,1,0,0:0:0:0:
402,192,44325,1,0,0:0:0:0:
36,192,44475,1,0,0:0:0:0:
109,192,44475,1,0,0:0:0:0:
256,192,44475,1,0,0:0:0:0:
475,192,44475,1,0,0:0:0:0:
182,192,44550,1,0,0:0:0:0:
402,192,44550,1,0,0:0:0:0:
329,192,44625,1,0,0:0:0:0:
109,192,44625,1,0,0:0:0:0:
182,192,44700,1,0,0:0:0:0:
402,192,44700,1,0,0:0:0:0:
256,192,44775,1,0,0:0:0:0:
475,192,44775,1,0,0:0:0:0:
36,192,44775,1,0,0:0:0:0:
182,192,44850,1,0,0:0:0:0:
329,192,44850,1,0,0:0:0:0:
109,192,44925,1,0,0:0:0:0:
402,192,44925,1,0,0:0:0:0:
475,192,44925,1,0,0:0:0:0:
182,192,45000,1,0,0:0:0:0:
329,192,45000,1,0,0:0:0:0:
36,192,45075,1,0,0:0:0:0:
256,192,45075,1,0,0:0:0:0:
109,192,45150,1,0,0:0:0:0:
329,192,45150,1,0,0:0:0:0:
182,192,45225,1,0,0:0:0:0:
402,192,45225,1,0,0:0:0:0:
475,192,45225,1,0,0:0:0:0:
256,192,45300,1,0,0:0:0:0:
329,192,45300,1,0,0:0:0:0:
182,192,45375,1,0,0:0:0:0:
109,192,45375,1,0,0:0:0:0:
402,192,45375,1,0,0:0:0:0:
36,192,45450,1,0,0:0:0:0:
256,192,45450,1,0,0:0:0:0:
182,192,45525,1,0,0:0:0:0:
402,192,45525,1,0,0:0:0:0:
329,192,45600,1,0,0:0:0:0:
109,192,45600,1,0,0:0:0:0:
256,192,45675,1,0,0:0:0:0:
36,192,45675,1,0,0:0:0:0:
475,192,45675,1,0,0:0:0:0:
182,192,45750,1,0,0:0:0:0:
329,192,45750,1,0,0:0:0:0:
402,192,45825,1,0,0:0:0:0:
109,192,45825,1,0,0:0:0:0:
36,192,45825,1,0,0:0:0:0:
182,192,45900,1,0,0:0:0:0:
329,192,45900,1,0,0:0:0:0:
109,192,45975,1,0,0:0:0:0:
402,192,45975,1,0,0:0:0:0:
256,192,46050,1,0,0:0:0:0:
182,192,46125,1,0,0:0:0:0:
329,192,46125,1,0,0:0:0:0:
475,192,46125,1,0,0:0:0:0:
36,192,46200,1,0,0:0:0:0:
402,192,46275,1,0,0:0:0:0:
256,192,46275,1,0,0:0:0:0:
109,192,46275,1,0,0:0:0:0:
475,192,46350,1,0,0:0:0:0:
36,192,46425,1,0,0:0:0:0:
182,192,46425,1,0,0:0:0:0:
329,192,46425,1,0,0:0:0:0:
36,192,46575,1,0,0:0:0:0:
109,192,46575,1,0,0:0:0:0:
256,192,46575,1,0,0:0:0:0:
475,192,46575,1,0,0:0:0:0:
402,192,46575,1,0,0:0:0:0:
256,192,46725,1,0,0:0:0:0:
182,192,46875,1,0,0:0:0:0:
36,192,46875,1,0,0:0:0:0:
402,192,46875,1,0,0:0:0:0:
109,192,46950,1,0,0:0:0:0:
256,192,46950,1,0,0:0:0:0:
182,192,47025,1,0,0:0:0:0:
329,192,47025,1,0,0:0:0:0:
475,192,47025,1,0,0:0:0:0:
36,192,47100,1,0,0:0:0:0:
109,192,47175,1,0,0:0:0:0:
256,192,47175,1,0,0:0:0:0:
402,192,47175,1,0,0:0:0:0:
475,192,47250,1,0,0:0:0:0:
182,192,47325,1,0,0:0:0:0:
36,192,47325,1,0,0:0:0:0:
329,192,47400,1,0,0:0:0:0:
256,192,47475,1,0,0:0:0:0:
475,192,47475,1,0,0:0:0:0:
182,192,47475,1,0,0:0:0:0:
36,192,47625,1,0,0:0:0:0:
182,192,47625,1,0,0:0:0:0:
402,192,47625,1,0,0:0:0:0:
109,192,47775,1,0,0:0:0:0:
36,192,47775,1,0,0:0:0:0:
329,192,47775,1,0,0:0:0:0:
475,192,47775,1,0,0:0:0:0:
256,192,47925,1,0,0:0:0:0:
402,192,47925,1,0,0:0:0:0:
182,192,47925,1,0,0:0:0:0:
109,192,48075,1,0,0:0:0:0:
182,192,48075,1,0,0:0:0:0:
329,192,48075,1,0,0:0:0:0:
256,192,48225,1,0,0:0:0:0:
182,192,48375,1,0,0:0:0:0:
402,192,48375,1,0,0:0:0:0:
475,192,48375,1,0,0:0:0:0:
109,192,48525,1,0,0:0:0:0:
36,192,48525,1,0,0:0:0:0:
329,192,48525,1,0,0:0:0:0:
256,192,48675,1,0,0:0:0:0:
36,192,48825,1,0,0:0:0:0:
109,192,48825,1,0,0:0:0:0:
182,192,48825,1,0,0:0:0:0:
329,192,48975,1,0,0:0:0:0:
402,192,48975,1,0,0:0:0:0:
475,192,48975,1,0,0:0:0:0:
182,192,49125,1,0,0:0:0:0:
109,192,49125,1,0,0:0:0:0:
36,192,49125,1,0,0:0:0:0:
329,192,49125,1,0,0:0:0:0:
402,192,49125,1,0,0:0:0:0:
36,192,49275,1,0,0:0:0:0:
109,192,49275,1,0,0:0:0:0:
256,192,49275,1,0,0:0:0:0:
475,192,49275,1,0,0:0:0:0:
329,192,49275,1,0,0:0:0:0:
256,192,49425,1,0,0:0:0:0:
109,192,49575,1,0,0:0:0:0:
182,192,49575,1,0,0:0:0:0:
329,192,49575,1,0,0:0:0:0:
402,192,49575,1,0,0:0:0:0:
475,192,49575,1,0,0:0:0:0:
182,192,49725,1,0,0:0:0:0:
256,192,49875,1,0,0:0:0:0:
402,192,49875,1,0,0:0:0:0:
109,192,49875,1,0,0:0:0:0:
36,192,49875,1,0,0:0:0:0:
475,192,49875,1,0,0:0:0:0:
256,192,50025,1,0,0:0:0:0:
402,192,50025,1,0,0:0:0:0:
182,192,50175,1,0,0:0:0:0:
109,192,50175,1,0,0:0:0:0:
36,192,50175,1,0,0:0:0:0:
329,192,50175,1,0,0:0:0:0:
475,192,50175,1,0,0:0:0:0:
36,192,50325,1,0,0:0:0:0:
182,192,50475,1,0,0:0:0:0:
256,192,50475,1,0,0:0:0:0:
329,192,50475,1,0,0:0:0:0:
109,192,50475,1,0,0:0:0:0:
402,192,50475,1,0,0:0:0:0:
256,192,50625,1,0,0:0:0:0:
182,192,50775,1,0,0:0:0:0:
36,192,50775,1,0,0:0:0:0:
402,192,50775,1,0,0:0:0:0:
329,192,50775,1,0,0:0:0:0:
475,192,50775,1,0,0:0:0:0:
329,192,50925,1,0,0:0:0:0:
182,192,50925,1,0,0:0:0:0:
109,192,51075,1,0,0:0:0:0:
36,192,51075,1,0,0:0:0:0:
256,192,51075,1,0,0:0:0:0:
402,192,51075,1,0,0:0:0:0:
475,192,51075,1,0,0:0:0:0:
182,192,51225,1,0,0:0:0:0:
109,192,51225,1,0,0:0:0:0:
329,192,51225,1,0,0:0:0:0:
402,192,51225,1,0,0:0:0:0:
36,192,51300,1,0,0:0:0:0:
475,192,51300,1,0,0:0:0:0:
402,192,51375,1,0,0:0:0:0:
329,192,51375,1,0,0:0:0:0:
109,192,51375,1,0,0:0:0:0:
182,192,51375,1,0,0:0:0:0:
182,192,51525,1,0,0:0:0:0:
256,192,51525,1,0,0:0:0:0:
329,192,51525,1,0,0:0:0:0:
36,192,51675,1,0,0:0:0:0:
109,192,51675,1,0,0:0:0:0:
402,192,51675,1,0,0:0:0:0:
475,192,51675,1,0,0:0:0:0:
256,192,51675,1,0,0:0:0:0:
182,192,51825,1,0,0:0:0:0:
329,192,51825,1,0,0:0:0:0:
475,192,51825,1,0,0:0:0:0:
256,192,51975,1,0,0:0:0:0:
109,192,51975,1,0,0:0:0:0:
36,192,51975,1,0,0:0:0:0:
402,192,51975,1,0,0:0:0:0:
182,192,52125,1,0,0:0:0:0:
256,192,52275,1,0,0:0:0:0:
329,192,52275,1,0,0:0:0:0:
475,192,52275,1,0,0:0:0:0:
402,192,52275,1,0,0:0:0:0:
182,192,52425,1,0,0:0:0:0:
109,192,52425,1,0,0:0:0:0:
36,192,52425,1,0,0:0:0:0:
256,192,52575,1,0,0:0:0:0:
329,192,52575,1,0,0:0:0:0:
475,192,52575,1,0,0:0:0:0:
36,192,52725,1,0,0:0:0:0:
109,192,52725,1,0,0:0:0:0:
402,192,52725,1,0,0:0:0:0:
182,192,52875,1,0,0:0:0:0:
256,192,52875,1,0,0:0:0:0:
329,192,52875,1,0,0:0:0:0:
475,192,52875,1,0,0:0:0:0:
182,192,53025,1,0,0:0:0:0:
329,192,53025,1,0,0:0:0:0:
475,192,53025,1,0,0:0:0:0:
109,192,53175,1,0,0:0:0:0:
36,192,53175,1,0,0:0:0:0:
256,192,53175,1,0,0:0:0:0:
402,192,53175,1,0,0:0:0:0:
475,192,53175,1,0,0:0:0:0:
182,192,53325,1,0,0:0:0:0:
329,192,53325,1,0,0:0:0:0:
256,192,53475,1,0,0:0:0:0:
475,192,53625,1,0,0:0:0:0:
329,192,53775,1,0,0:0:0:0:
475,192,53925,1,0,0:0:0:0:
36,192,54075,1,0,0:0:0:0:
109,192,54075,1,0,0:0:0:0:
182,192,54075,1,0,0:0:0:0:
329,192,54075,128,0,54225:0:0:0:0:
182,192,54225,1,0,0:0:0:0:
182,192,54375,1,0,0:0:0:0:
109,192,54375,1,0,0:0:0:0:
36,192,54375,1,0,0:0:0:0:
329,192,54375,128,0,54525:0:0:0:0:
36,192,54525,1,0,0:0:0:0:
36,192,54675,1,0,0:0:0:0:
109,192,54675,1,0,0:0:0:0:
182,192,54675,1,0,0:0:0:0:
329,192,54675,1,0,0:0:0:0:
402,192,54675,1,0,0:0:0:0:
182,192,54825,1,0,0:0:0:0:
329,192,54825,1,0,0:0:0:0:
402,192,54825,1,0,0:0:0:0:
182,192,54975,1,0,0:0:0:0:
109,192,54975,1,0,0:0:0:0:
36,192,54975,1,0,0:0:0:0:
402,192,54975,1,0,0:0:0:0:
475,192,54975,1,0,0:0:0:0:
36,192,55125,1,0,0:0:0:0:
256,192,55125,1,0,0:0:0:0:
36,192,55275,1,0,0:0:0:0:
182,192,55275,1,0,0:0:0:0:
402,192,55275,1,0,0:0:0:0:
329,192,55275,1,0,0:0:0:0:
475,192,55275,1,0,0:0:0:0:
36,192,55425,1,0,0:0:0:0:
182,192,55425,1,0,0:0:0:0:
329,192,55425,1,0,0:0:0:0:
402,192,55425,1,0,0:0:0:0:
475,192,55425,1,0,0:0:0:0:
256,192,55500,1,0,0:0:0:0:
182,192,55575,1,0,0:0:0:0:
36,192,55575,1,0,0:0:0:0:
329,192,55575,1,0,0:0:0:0:
402,192,55575,1,0,0:0:0:0:
475,192,55575,1,0,0:0:0:0:
182,192,55725,1,0,0:0:0:0:
36,192,55725,1,0,0:0:0:0:
329,192,55725,1,0,0:0:0:0:
475,192,55725,1,0,0:0:0:0:
402,192,55725,1,0,0:0:0:0:
109,192,55875,1,0,0:0:0:0:
182,192,55875,1,0,0:0:0:0:
256,192,55875,1,0,0:0:0:0:
329,192,55875,1,0,0:0:0:0:
329,192,56025,1,0,0:0:0:0:
256,192,56025,1,0,0:0:0:0:
182,192,56025,1,0,0:0:0:0:
109,192,56025,1,0,0:0:0:0:
36,192,56175,1,0,0:0:0:0:
109,192,56175,1,0,0:0:0:0:
329,192,56175,1,0,0:0:0:0:
402,192,56175,1,0,0:0:0:0:
475,192,56175,1,0,0:0:0:0:
256,192,56325,1,0,0:0:0:0:
182,192,56475,1,0,0:0:0:0:
36,192,56475,1,0,0:0:0:0:
402,192,56475,1,0,0:0:0:0:
329,192,56475,1,0,0:0:0:0:
182,192,56625,1,0,0:0:0:0:
329,192,56625,1,0,0:0:0:0:
402,192,56625,1,0,0:0:0:0:
256,192,56775,1,0,0:0:0:0:
109,192,56775,1,0,0:0:0:0:
475,192,56775,1,0,0:0:0:0:
475,192,56925,1,0,0:0:0:0:
256,192,56925,1,0,0:0:0:0:
109,192,56925,1,0,0:0:0:0:
329,192,57075,1,0,0:0:0:0:
402,192,57075,1,0,0:0:0:0:
36,192,57075,1,0,0:0:0:0:
182,192,57150,1,0,0:0:0:0:
36,192,57225,1,0,0:0:0:0:
329,192,57225,1,0,0:0:0:0:
402,192,57225,1,0,0:0:0:0:
256,192,57300,1,0,0:0:0:0:
182,192,57375,1,0,0:0:0:0:
109,192,57375,1,0,0:0:0:0:
475,192,57375,1,0,0:0:0:0:
329,192,57450,1,0,0:0:0:0:
475,192,57525,1,0,0:0:0:0:
182,192,57525,1,0,0:0:0:0:
109,192,57525,1,0,0:0:0:0:
256,192,57600,1,0,0:0:0:0:
109,192,57675,1,0,0:0:0:0:
36,192,57675,1,0,0:0:0:0:
329,192,57675,1,0,0:0:0:0:
402,192,57675,1,0,0:0:0:0:
36,192,57825,1,0,0:0:0:0:
109,192,57825,1,0,0:0:0:0:
256,192,57825,1,0,0:0:0:0:
329,192,57825,1,0,0:0:0:0:
182,192,57975,1,0,0:0:0:0:
256,192,57975,1,0,0:0:0:0:
109,192,57975,1,0,0:0:0:0:
36,192,57975,1,0,0:0:0:0:
329,192,58125,1,0,0:0:0:0:
256,192,58125,1,0,0:0:0:0:
402,192,58125,1,0,0:0:0:0:
475,192,58125,1,0,0:0:0:0:
256,192,58275,1,0,0:0:0:0:
182,192,58275,1,0,0:0:0:0:
109,192,58275,1,0,0:0:0:0:
36,192,58275,1,0,0:0:0:0:
256,192,58425,1,0,0:0:0:0:
402,192,58425,1,0,0:0:0:0:
182,192,58500,1,0,0:0:0:0:
109,192,58575,1,0,0:0:0:0:
36,192,58575,1,0,0:0:0:0:
329,192,58725,1,0,0:0:0:0:
402,192,58725,1,0,0:0:0:0:
109,192,58875,1,0,0:0:0:0:
475,192,58875,1,0,0:0:0:0:
36,192,58875,1,0,0:0:0:0:
182,192,58875,1,0,0:0:0:0:
256,192,58875,1,0,0:0:0:0:
402,192,58875,1,0,0:0:0:0:
109,192,60975,1,0,0:0:0:0:
256,192,60975,1,0,0:0:0:0:
402,192,60975,1,0,0:0:0:0:
109,192,61275,1,0,0:0:0:0:
256,192,61275,1,0,0:0:0:0:
402,192,61275,1,0,0:0:0:0:
182,192,62475,1,0,0:0:0:0:
329,192,62475,1,0,0:0:0:0:
475,192,62475,1,0,0:0:0:0:
109,192,62675,1,0,0:0:0:0:
256,192,62675,1,0,0:0:0:0:
402,192,62675,1,0,0:0:0:0:
329,192,62875,1,0,0:0:0:0:
182,192,62875,1,0,0:0:0:0:
36,192,62875,1,0,0:0:0:0:
109,192,63075,1,0,0:0:0:0:
256,192,63075,1,0,0:0:0:0:
402,192,63075,1,0,0:0:0:0:
182,192,63275,1,0,0:0:0:0:
329,192,63275,1,0,0:0:0:0:
475,192,63275,1,0,0:0:0:0:
402,192,63475,1,0,0:0:0:0:
256,192,63475,1,0,0:0:0:0:
109,192,63475,1,0,0:0:0:0:
182,192,63675,1,0,0:0:0:0:
36,192,63675,1,0,0:0:0:0:
329,192,63675,1,0,0:0:0:0:
475,192,63675,1,0,0:0:0:0:
36,192,65775,1,0,0:0:0:0:
256,192,65775,1,0,0:0:0:0:
475,192,65775,1,0,0:0:0:0:
475,192,66075,1,0,0:0:0:0:
256,192,66075,1,0,0:0:0:0:
36,192,66075,1,0,0:0:0:0:
182,192,67275,1,0,0:0:0:0:
329,192,67275,1,0,0:0:0:0:
475,192,67275,1,0,0:0:0:0:
109,192,67475,1,0,0:0:0:0:
256,192,67475,1,0,0:0:0:0:
402,192,67475,1,0,0:0:0:0:
329,192,67675,1,0,0:0:0:0:
182,192,67675,1,0,0:0:0:0:
36,192,67675,1,0,0:0:0:0:
109,192,67875,1,0,0:0:0:0:
256,192,67875,1,0,0:0:0:0:
402,192,67875,1,0,0:0:0:0:
182,192,68075,1,0,0:0:0:0:
329,192,68075,1,0,0:0:0:0:
475,192,68075,1,0,0:0:0:0:
402,192,68275,1,0,0:0:0:0:
256,192,68275,1,0,0:0:0:0:
109,192,68275,1,0,0:0:0:0:
182,192,68475,1,0,0:0:0:0:
36,192,68475,1,0,0:0:0:0:
329,192,68475,1,0,0:0:0:0:
475,192,68475,1,0,0:0:0:0:
182,192,68625,1,0,0:0:0:0:
329,192,68775,1,0,0:0:0:0:
475,192,68775,1,0,0:0:0:0:
182,192,68925,1,0,0:0:0:0:
402,192,69075,1,0,0:0:0:0:
475,192,69075,1,0,0:0:0:0:
329,192,69225,1,0,0:0:0:0:
402,192,69300,1,0,0:0:0:0:
475,192,69300,1,0,0:0:0:0:
329,192,69450,1,0,0:0:0:0:
402,192,69525,1,0,0:0:0:0:
475,192,69525,1,0,0:0:0:0:
256,192,69600,1,0,0:0:0:0:
182,192,69675,1,0,0:0:0:0:
36,192,69675,1,0,0:0:0:0:
329,192,69825,1,0,0:0:0:0:
182,192,69975,1,0,0:0:0:0:
329,192,69975,1,0,0:0:0:0:
182,192,70125,1,0,0:0:0:0:
256,192,70275,1,0,0:0:0:0:
402,192,70275,1,0,0:0:0:0:
329,192,70425,1,0,0:0:0:0:
256,192,70500,1,0,0:0:0:0:
402,192,70500,1,0,0:0:0:0:
329,192,70650,1,0,0:0:0:0:
256,192,70725,1,0,0:0:0:0:
402,192,70725,1,0,0:0:0:0:
182,192,70875,1,0,0:0:0:0:
109,192,70875,1,0,0:0:0:0:
475,192,70875,1,0,0:0:0:0:
256,192,71025,1,0,0:0:0:0:
329,192,71025,1,0,0:0:0:0:
182,192,71175,1,0,0:0:0:0:
36,192,71175,1,0,0:0:0:0:
329,192,71325,1,0,0:0:0:0:
256,192,71475,1,0,0:0:0:0:
182,192,71475,1,0,0:0:0:0:
329,192,71625,1,0,0:0:0:0:
256,192,71700,1,0,0:0:0:0:
182,192,71700,1,0,0:0:0:0:
329,192,71850,1,0,0:0:0:0:
256,192,71925,1,0,0:0:0:0:
182,192,71925,1,0,0:0:0:0:
402,192,72000,1,0,0:0:0:0:
475,192,72000,1,0,0:0:0:0:
109,192,72075,1,0,0:0:0:0:
36,192,72075,1,0,0:0:0:0:
329,192,72075,1,0,0:0:0:0:
109,192,72225,1,0,0:0:0:0:
36,192,72225,1,0,0:0:0:0:
256,192,72225,1,0,0:0:0:0:
182,192,72375,1,0,0:0:0:0:
329,192,72375,1,0,0:0:0:0:
475,192,72375,1,0,0:0:0:0:
109,192,72525,1,0,0:0:0:0:
256,192,72525,1,0,0:0:0:0:
182,192,72675,1,0,0:0:0:0:
329,192,72675,1,0,0:0:0:0:
109,192,72825,1,0,0:0:0:0:
182,192,72900,1,0,0:0:0:0:
329,192,72900,1,0,0:0:0:0:
109,192,73050,1,0,0:0:0:0:
256,192,73125,1,0,0:0:0:0:
402,192,73125,1,0,0:0:0:0:
182,192,73275,1,0,0:0:0:0:
36,192,73275,1,0,0:0:0:0:
329,192,73275,1,0,0:0:0:0:
475,192,73275,1,0,0:0:0:0:
182,192,73425,1,0,0:0:0:0:
329,192,73425,1,0,0:0:0:0:
402,192,73575,1,0,0:0:0:0:
475,192,73575,1,0,0:0:0:0:
109,192,73575,1,0,0:0:0:0:
182,192,73725,1,0,0:0:0:0:
256,192,73725,1,0,0:0:0:0:
329,192,73875,1,0,0:0:0:0:
475,192,73875,1,0,0:0:0:0:
36,192,73875,1,0,0:0:0:0:
182,192,74025,1,0,0:0:0:0:
256,192,74025,1,0,0:0:0:0:
475,192,74100,1,0,0:0:0:0:
329,192,74100,1,0,0:0:0:0:
182,192,74250,1,0,0:0:0:0:
256,192,74250,1,0,0:0:0:0:
329,192,74325,1,0,0:0:0:0:
475,192,74325,1,0,0:0:0:0:
402,192,74475,1,0,0:0:0:0:
182,192,74475,1,0,0:0:0:0:
36,192,74475,1,0,0:0:0:0:
256,192,74475,1,0,0:0:0:0:
109,192,74625,1,0,0:0:0:0:
329,192,74625,1,0,0:0:0:0:
475,192,74625,1,0,0:0:0:0:
182,192,74625,1,0,0:0:0:0:
36,192,74775,1,0,0:0:0:0:
256,192,74775,1,0,0:0:0:0:
402,192,74775,1,0,0:0:0:0:
182,192,74925,1,0,0:0:0:0:
329,192,74925,1,0,0:0:0:0:
329,192,75075,1,0,0:0:0:0:
182,192,75075,1,0,0:0:0:0:
475,192,75075,1,0,0:0:0:0:
109,192,75225,1,0,0:0:0:0:
256,192,75225,1,0,0:0:0:0:
182,192,75300,1,0,0:0:0:0:
329,192,75300,1,0,0:0:0:0:
402,192,75300,1,0,0:0:0:0:
109,192,75450,1,0,0:0:0:0:
256,192,75450,1,0,0:0:0:0:
182,192,75525,1,0,0:0:0:0:
329,192,75525,1,0,0:0:0:0:
402,192,75525,1,0,0:0:0:0:
256,192,75675,1,0,0:0:0:0:
402,192,75675,1,0,0:0:0:0:
475,192,75675,1,0,0:0:0:0:
109,192,75675,1,0,0:0:0:0:
36,192,75825,1,0,0:0:0:0:
182,192,75825,1,0,0:0:0:0:
329,192,75825,1,0,0:0:0:0:
402,192,75825,1,0,0:0:0:0:
109,192,75975,1,0,0:0:0:0:
256,192,75975,1,0,0:0:0:0:
475,192,75975,1,0,0:0:0:0:
182,192,76125,1,0,0:0:0:0:
329,192,76125,1,0,0:0:0:0:
402,192,76125,1,0,0:0:0:0:
182,192,76275,1,0,0:0:0:0:
329,192,76275,1,0,0:0:0:0:
402,192,76275,1,0,0:0:0:0:
109,192,76425,1,0,0:0:0:0:
36,192,76425,1,0,0:0:0:0:
182,192,76500,1,0,0:0:0:0:
329,192,76500,1,0,0:0:0:0:
402,192,76500,1,0,0:0:0:0:
256,192,76575,1,0,0:0:0:0:
36,192,76650,1,0,0:0:0:0:
109,192,76650,1,0,0:0:0:0:
182,192,76725,1,0,0:0:0:0:
329,192,76725,1,0,0:0:0:0:
402,192,76725,1,0,0:0:0:0:
256,192,76800,1,0,0:0:0:0:
36,192,76875,1,0,0:0:0:0:
109,192,76875,1,0,0:0:0:0:
329,192,76875,1,0,0:0:0:0:
402,192,76875,1,0,0:0:0:0:
109,192,77025,1,0,0:0:0:0:
182,192,77025,1,0,0:0:0:0:
402,192,77025,1,0,0:0:0:0:
475,192,77025,1,0,0:0:0:0:
256,192,77175,1,0,0:0:0:0:
109,192,77325,1,0,0:0:0:0:
182,192,77325,1,0,0:0:0:0:
475,192,77325,1,0,0:0:0:0:
402,192,77325,1,0,0:0:0:0:
256,192,77475,1,0,0:0:0:0:
329,192,77475,1,0,0:0:0:0:
36,192,77475,1,0,0:0:0:0:
109,192,77550,1,0,0:0:0:0:
182,192,77550,1,0,0:0:0:0:
475,192,77550,1,0,0:0:0:0:
402,192,77550,1,0,0:0:0:0:
256,192,77625,1,0,0:0:0:0:
329,192,77625,1,0,0:0:0:0:
182,192,77700,1,0,0:0:0:0:
109,192,77700,1,0,0:0:0:0:
36,192,77775,1,0,0:0:0:0:
256,192,77775,1,0,0:0:0:0:
402,192,77775,1,0,0:0:0:0:
475,192,77775,1,0,0:0:0:0:
256,192,77925,1,0,0:0:0:0:
109,192,77925,1,0,0:0:0:0:
36,192,77925,1,0,0:0:0:0:
475,192,77925,1,0,0:0:0:0:
182,192,78075,1,0,0:0:0:0:
329,192,78075,1,0,0:0:0:0:
402,192,78075,1,0,0:0:0:0:
182,192,78225,1,0,0:0:0:0:
329,192,78375,1,0,0:0:0:0:
402,192,78375,1,0,0:0:0:0:
475,192,78375,1,0,0:0:0:0:
109,192,78525,1,0,0:0:0:0:
329,192,78675,1,0,0:0:0:0:
402,192,78675,1,0,0:0:0:0:
475,192,78675,1,0,0:0:0:0:
109,192,78825,1,0,0:0:0:0:
256,192,78825,1,0,0:0:0:0:
182,192,78825,1,0,0:0:0:0:
329,192,78900,1,0,0:0:0:0:
475,192,78900,1,0,0:0:0:0:
402,192,78900,1,0,0:0:0:0:
36,192,78975,1,0,0:0:0:0:
109,192,79050,1,0,0:0:0:0:
182,192,79050,1,0,0:0:0:0:
256,192,79050,1,0,0:0:0:0:
329,192,79125,1,0,0:0:0:0:
402,192,79125,1,0,0:0:0:0:
475,192,79125,1,0,0:0:0:0:
182,192,79200,1,0,0:0:0:0:
109,192,79275,1,0,0:0:0:0:
36,192,79275,1,0,0:0:0:0:
256,192,79275,1,0,0:0:0:0:
256,192,79425,1,0,0:0:0:0:
329,192,79425,1,0,0:0:0:0:
402,192,79425,1,0,0:0:0:0:
182,192,79575,1,0,0:0:0:0:
109,192,79725,1,0,0:0:0:0:
256,192,79725,1,0,0:0:0:0:
402,192,79725,1,0,0:0:0:0:
109,192,79875,1,0,0:0:0:0:
256,192,79875,1,0,0:0:0:0:
402,192,79875,1,0,0:0:0:0:
36,192,80025,1,0,0:0:0:0:
182,192,80025,1,0,0:0:0:0:
329,192,80025,1,0,0:0:0:0:
109,192,80100,1,0,0:0:0:0:
256,192,80100,1,0,0:0:0:0:
402,192,80100,1,0,0:0:0:0:
475,192,80175,1,0,0:0:0:0:
36,192,80250,1,0,0:0:0:0:
182,192,80250,1,0,0:0:0:0:
329,192,80250,1,0,0:0:0:0:
109,192,80325,1,0,0:0:0:0:
256,192,80325,1,0,0:0:0:0:
402,192,80325,1,0,0:0:0:0:
329,192,80400,1,0,0:0:0:0:
182,192,80475,1,0,0:0:0:0:
402,192,80475,1,0,0:0:0:0:
475,192,80475,1,0,0:0:0:0:
329,192,80625,1,0,0:0:0:0:
109,192,80625,1,0,0:0:0:0:
36,192,80625,1,0,0:0:0:0:
256,192,80775,1,0,0:0:0:0:
182,192,80925,1,0,0:0:0:0:
109,192,80925,1,0,0:0:0:0:
329,192,80925,1,0,0:0:0:0:
329,192,81075,1,0,0:0:0:0:
182,192,81075,1,0,0:0:0:0:
109,192,81075,1,0,0:0:0:0:
256,192,81225,1,0,0:0:0:0:
402,192,81225,1,0,0:0:0:0:
36,192,81225,1,0,0:0:0:0:
109,192,81300,1,0,0:0:0:0:
182,192,81300,1,0,0:0:0:0:
329,192,81300,1,0,0:0:0:0:
475,192,81375,1,0,0:0:0:0:
402,192,81450,1,0,0:0:0:0:
256,192,81450,1,0,0:0:0:0:
36,192,81450,1,0,0:0:0:0:
109,192,81525,1,0,0:0:0:0:
182,192,81525,1,0,0:0:0:0:
329,192,81525,1,0,0:0:0:0:
256,192,81600,1,0,0:0:0:0:
36,192,81675,1,0,0:0:0:0:
109,192,81675,1,0,0:0:0:0:
402,192,81675,1,0,0:0:0:0:
329,192,81750,1,0,0:0:0:0:
182,192,81825,1,0,0:0:0:0:
402,192,81825,1,0,0:0:0:0:
256,192,81825,1,0,0:0:0:0:
109,192,81975,1,0,0:0:0:0:
36,192,82125,1,0,0:0:0:0:
182,192,82125,1,0,0:0:0:0:
329,192,82125,1,0,0:0:0:0:
182,192,82275,1,0,0:0:0:0:
329,192,82275,1,0,0:0:0:0:
36,192,82275,1,0,0:0:0:0:
109,192,82425,1,0,0:0:0:0:
256,192,82425,1,0,0:0:0:0:
182,192,82500,1,0,0:0:0:0:
36,192,82500,1,0,0:0:0:0:
329,192,82500,1,0,0:0:0:0:
109,192,82650,1,0,0:0:0:0:
256,192,82650,1,0,0:0:0:0:
329,192,82725,1,0,0:0:0:0:
36,192,82725,1,0,0:0:0:0:
182,192,82800,1,0,0:0:0:0:
109,192,82875,1,0,0:0:0:0:
402,192,82875,1,0,0:0:0:0:
475,192,82875,1,0,0:0:0:0:
256,192,83025,1,0,0:0:0:0:
402,192,83175,1,0,0:0:0:0:
475,192,83175,1,0,0:0:0:0:
182,192,83175,1,0,0:0:0:0:
36,192,83175,1,0,0:0:0:0:
109,192,83325,1,0,0:0:0:0:
402,192,83475,1,0,0:0:0:0:
475,192,83475,1,0,0:0:0:0:
256,192,83475,1,0,0:0:0:0:
109,192,83625,1,0,0:0:0:0:
36,192,83625,1,0,0:0:0:0:
329,192,83700,1,0,0:0:0:0:
402,192,83775,1,0,0:0:0:0:
475,192,83775,1,0,0:0:0:0:
182,192,83775,1,0,0:0:0:0:
329,192,83925,1,0,0:0:0:0:
36,192,83925,1,0,0:0:0:0:
402,192,84000,1,0,0:0:0:0:
475,192,84000,1,0,0:0:0:0:
182,192,84000,1,0,0:0:0:0:
36,192,84075,1,0,0:0:0:0:
329,192,84150,1,0,0:0:0:0:
182,192,84150,1,0,0:0:0:0:
402,192,84225,1,0,0:0:0:0:
475,192,84225,1,0,0:0:0:0:
109,192,84225,1,0,0:0:0:0:
329,192,84375,1,0,0:0:0:0:
36,192,84375,1,0,0:0:0:0:
256,192,84450,1,0,0:0:0:0:
182,192,84450,1,0,0:0:0:0:
36,192,84525,1,0,0:0:0:0:
109,192,84525,1,0,0:0:0:0:
329,192,84600,1,0,0:0:0:0:
402,192,84675,1,0,0:0:0:0:
475,192,84675,1,0,0:0:0:0:
256,192,84675,1,0,0:0:0:0:
182,192,84750,1,0,0:0:0:0:
329,192,84825,1,0,0:0:0:0:
109,192,84825,1,0,0:0:0:0:
36,192,84825,1,0,0:0:0:0:
256,192,84900,1,0,0:0:0:0:
182,192,84900,1,0,0:0:0:0:
36,192,84975,1,0,0:0:0:0:
329,192,85050,1,0,0:0:0:0:
109,192,85050,1,0,0:0:0:0:
182,192,85050,1,0,0:0:0:0:
402,192,85125,1,0,0:0:0:0:
475,192,85125,1,0,0:0:0:0:
182,192,85200,1,0,0:0:0:0:
109,192,85275,1,0,0:0:0:0:
36,192,85275,1,0,0:0:0:0:
329,192,85275,1,0,0:0:0:0:
256,192,85350,1,0,0:0:0:0:
182,192,85350,1,0,0:0:0:0:
329,192,85500,1,0,0:0:0:0:
109,192,85500,1,0,0:0:0:0:
256,192,85575,1,0,0:0:0:0:
402,192,85575,1,0,0:0:0:0:
475,192,85575,1,0,0:0:0:0:
36,192,85575,1,0,0:0:0:0:
182,192,85650,1,0,0:0:0:0:
109,192,85725,1,0,0:0:0:0:
329,192,85725,1,0,0:0:0:0:
256,192,85800,1,0,0:0:0:0:
402,192,85800,1,0,0:0:0:0:
475,192,85800,1,0,0:0:0:0:
36,192,85800,1,0,0:0:0:0:
182,192,85875,1,0,0:0:0:0:
329,192,85950,1,0,0:0:0:0:
109,192,85950,1,0,0:0:0:0:
402,192,86025,1,0,0:0:0:0:
475,192,86025,1,0,0:0:0:0:
256,192,86025,1,0,0:0:0:0:
36,192,86025,1,0,0:0:0:0:
182,192,86100,1,0,0:0:0:0:
109,192,86175,1,0,0:0:0:0:
329,192,86175,1,0,0:0:0:0:
402,192,86175,1,0,0:0:0:0:
256,192,86250,1,0,0:0:0:0:
182,192,86250,1,0,0:0:0:0:
402,192,86325,1,0,0:0:0:0:
475,192,86325,1,0,0:0:0:0:
36,192,86325,1,0,0:0:0:0:
329,192,86400,1,0,0:0:0:0:
109,192,86400,1,0,0:0:0:0:
182,192,86475,1,0,0:0:0:0:
256,192,86475,1,0,0:0:0:0:
36,192,86475,1,0,0:0:0:0:
402,192,86475,1,0,0:0:0:0:
475,192,86475,1,0,0:0:0:0:
182,192,86925,128,0,87375:0:0:0:0:
256,192,86925,128,0,87375:0:0:0:0:
402,192,86925,128,0,87375:0:0:0:0:
109,192,87375,1,0,0:0:0:0:
36,192,87375,1,0,0:0:0:0:
475,192,87375,1,0,0:0:0:0:
329,192,87375,1,0,0:0:0:0:
182,192,87525,1,0,0:0:0:0:
256,192,87675,1,0,0:0:0:0:
329,192,87675,1,0,0:0:0:0:
475,192,87675,1,0,0:0:0:0:
36,192,87675,1,0,0:0:0:0:
182,192,87750,1,0,0:0:0:0:
109,192,87825,1,0,0:0:0:0:
402,192,87825,1,0,0:0:0:0:
256,192,87900,1,0,0:0:0:0:
36,192,87975,1,0,0:0:0:0:
329,192,87975,1,0,0:0:0:0:
475,192,87975,1,0,0:0:0:0:
109,192,87975,1,0,0:0:0:0:
182,192,88050,1,0,0:0:0:0:
256,192,88125,1,0,0:0:0:0:
329,192,88200,1,0,0:0:0:0:
402,192,88275,1,0,0:0:0:0:
475,192,88275,1,0,0:0:0:0:
36,192,88275,1,0,0:0:0:0:
109,192,88275,1,0,0:0:0:0:
256,192,88350,1,0,0:0:0:0:
182,192,88425,1,0,0:0:0:0:
329,192,88425,1,0,0:0:0:0:
109,192,88500,1,0,0:0:0:0:
36,192,88500,1,0,0:0:0:0:
402,192,88500,1,0,0:0:0:0:
475,192,88500,1,0,0:0:0:0:
256,192,88575,1,0,0:0:0:0:
182,192,88650,1,0,0:0:0:0:
329,192,88650,1,0,0:0:0:0:
402,192,88725,1,0,0:0:0:0:
475,192,88725,1,0,0:0:0:0:
109,192,88725,1,0,0:0:0:0:
36,192,88725,1,0,0:0:0:0:
256,192,88800,1,0,0:0:0:0:
36,192,88875,1,0,0:0:0:0:
109,192,88875,1,0,0:0:0:0:
402,192,88875,1,0,0:0:0:0:
475,192,88875,1,0,0:0:0:0:
109,192,89025,1,0,0:0:0:0:
182,192,89025,1,0,0:0:0:0:
329,192,89025,1,0,0:0:0:0:
402,192,89025,1,0,0:0:0:0:
256,192,89100,1,0,0:0:0:0:
36,192,89175,1,0,0:0:0:0:
182,192,89175,1,0,0:0:0:0:
475,192,89175,1,0,0:0:0:0:
329,192,89250,1,0,0:0:0:0:
109,192,89325,1,0,0:0:0:0:
256,192,89325,1,0,0:0:0:0:
402,192,89325,1,0,0:0:0:0:
475,192,89325,1,0,0:0:0:0:
182,192,89400,1,0,0:0:0:0:
109,192,89475,1,0,0:0:0:0:
256,192,89475,1,0,0:0:0:0:
402,192,89475,1,0,0:0:0:0:
475,192,89475,1,0,0:0:0:0:
36,192,89550,1,0,0:0:0:0:
182,192,89625,1,0,0:0:0:0:
329,192,89625,1,0,0:0:0:0:
109,192,89700,1,0,0:0:0:0:
256,192,89700,1,0,0:0:0:0:
402,192,89700,1,0,0:0:0:0:
475,192,89700,1,0,0:0:0:0:
36,192,89775,1,0,0:0:0:0:
182,192,89850,1,0,0:0:0:0:
329,192,89850,1,0,0:0:0:0:
109,192,89925,1,0,0:0:0:0:
256,192,89925,1,0,0:0:0:0:
402,192,89925,1,0,0:0:0:0:
475,192,89925,1,0,0:0:0:0:
182,192,90000,1,0,0:0:0:0:
109,192,90075,1,0,0:0:0:0:
256,192,90075,1,0,0:0:0:0:
402,192,90075,1,0,0:0:0:0:
475,192,90075,1,0,0:0:0:0:
329,192,90150,1,0,0:0:0:0:
182,192,90225,1,0,0:0:0:0:
36,192,90225,1,0,0:0:0:0:
402,192,90225,1,0,0:0:0:0:
109,192,90225,1,0,0:0:0:0:
256,192,90300,1,0,0:0:0:0:
329,192,90375,1,0,0:0:0:0:
475,192,90375,1,0,0:0:0:0:
182,192,90375,1,0,0:0:0:0:
109,192,90450,1,0,0:0:0:0:
36,192,90525,1,0,0:0:0:0:
256,192,90525,1,0,0:0:0:0:
402,192,90525,1,0,0:0:0:0:
182,192,90525,1,0,0:0:0:0:
36,192,90675,1,0,0:0:0:0:
256,192,90675,1,0,0:0:0:0:
182,192,90675,1,0,0:0:0:0:
402,192,90675,1,0,0:0:0:0:
475,192,90750,1,0,0:0:0:0:
109,192,90825,1,0,0:0:0:0:
329,192,90825,1,0,0:0:0:0:
182,192,90900,1,0,0:0:0:0:
256,192,90900,1,0,0:0:0:0:
36,192,90900,1,0,0:0:0:0:
402,192,90900,1,0,0:0:0:0:
475,192,90975,1,0,0:0:0:0:
109,192,91050,1,0,0:0:0:0:
329,192,91050,1,0,0:0:0:0:
256,192,91125,1,0,0:0:0:0:
182,192,91125,1,0,0:0:0:0:
36,192,91125,1,0,0:0:0:0:
402,192,91125,1,0,0:0:0:0:
475,192,91200,1,0,0:0:0:0:
182,192,91275,1,0,0:0:0:0:
256,192,91275,1,0,0:0:0:0:
36,192,91275,1,0,0:0:0:0:
402,192,91275,1,0,0:0:0:0:
329,192,91350,1,0,0:0:0:0:
36,192,91425,1,0,0:0:0:0:
109,192,91425,1,0,0:0:0:0:
256,192,91425,1,0,0:0:0:0:
475,192,91425,1,0,0:0:0:0:
182,192,91500,1,0,0:0:0:0:
329,192,91575,1,0,0:0:0:0:
402,192,91575,1,0,0:0:0:0:
109,192,91575,1,0,0:0:0:0:
182,192,91650,1,0,0:0:0:0:
36,192,91725,1,0,0:0:0:0:
109,192,91725,1,0,0:0:0:0:
256,192,91725,1,0,0:0:0:0:
475,192,91725,1,0,0:0:0:0:
109,192,91875,1,0,0:0:0:0:
36,192,91875,1,0,0:0:0:0:
256,192,91875,1,0,0:0:0:0:
475,192,91875,1,0,0:0:0:0:
182,192,92025,1,0,0:0:0:0:
329,192,92025,1,0,0:0:0:0:
109,192,92100,1,0,0:0:0:0:
36,192,92100,1,0,0:0:0:0:
256,192,92100,1,0,0:0:0:0:
475,192,92100,1,0,0:0:0:0:
182,192,92250,1,0,0:0:0:0:
329,192,92250,1,0,0:0:0:0:
256,192,92325,1,0,0:0:0:0:
475,192,92325,1,0,0:0:0:0:
402,192,92325,1,0,0:0:0:0:
36,192,92325,1,0,0:0:0:0:
182,192,92475,1,0,0:0:0:0:
109,192,92475,1,0,0:0:0:0:
329,192,92475,1,0,0:0:0:0:
475,192,92475,1,0,0:0:0:0:
256,192,92550,1,0,0:0:0:0:
36,192,92625,1,0,0:0:0:0:
402,192,92625,1,0,0:0:0:0:
182,192,92700,1,0,0:0:0:0:
109,192,92775,1,0,0:0:0:0:
256,192,92775,1,0,0:0:0:0:
329,192,92775,1,0,0:0:0:0:
475,192,92775,1,0,0:0:0:0:
182,192,92850,1,0,0:0:0:0:
402,192,92925,1,0,0:0:0:0:
329,192,93000,1,0,0:0:0:0:
256,192,93000,1,0,0:0:0:0:
475,192,93000,1,0,0:0:0:0:
109,192,93000,1,0,0:0:0:0:
36,192,93075,1,0,0:0:0:0:
182,192,93150,1,0,0:0:0:0:
402,192,93150,1,0,0:0:0:0:
329,192,93225,1,0,0:0:0:0:
256,192,93225,1,0,0:0:0:0:
109,192,93225,1,0,0:0:0:0:
475,192,93225,1,0,0:0:0:0:
36,192,93300,1,0,0:0:0:0:
182,192,93375,1,0,0:0:0:0:
402,192,93375,1,0,0:0:0:0:
109,192,93450,1,0,0:0:0:0:
256,192,93450,1,0,0:0:0:0:
329,192,93450,1,0,0:0:0:0:
475,192,93450,1,0,0:0:0:0:
182,192,93525,1,0,0:0:0:0:
402,192,93525,1,0,0:0:0:0:
109,192,93600,1,0,0:0:0:0:
329,192,93600,1,0,0:0:0:0:
256,192,93675,1,0,0:0:0:0:
36,192,93675,1,0,0:0:0:0:
182,192,93675,1,0,0:0:0:0:
475,192,93675,1,0,0:0:0:0:
402,192,93750,1,0,0:0:0:0:
109,192,93825,1,0,0:0:0:0:
256,192,93825,1,0,0:0:0:0:
329,192,93825,1,0,0:0:0:0:
475,192,93825,1,0,0:0:0:0:
182,192,93900,1,0,0:0:0:0:
329,192,93975,1,0,0:0:0:0:
402,192,93975,1,0,0:0:0:0:
36,192,93975,1,0,0:0:0:0:
256,192,94050,1,0,0:0:0:0:
109,192,94125,1,0,0:0:0:0:
182,192,94125,1,0,0:0:0:0:
475,192,94125,1,0,0:0:0:0:
402,192,94125,1,0,0:0:0:0:
329,192,94200,1,0,0:0:0:0:
182,192,94275,1,0,0:0:0:0:
109,192,94275,1,0,0:0:0:0:
402,192,94275,1,0,0:0:0:0:
475,192,94275,1,0,0:0:0:0:
256,192,94350,1,0,0:0:0:0:
36,192,94425,1,0,0:0:0:0:
329,192,94425,1,0,0:0:0:0:
109,192,94500,1,0,0:0:0:0:
182,192,94500,1,0,0:0:0:0:
402,192,94500,1,0,0:0:0:0:
475,192,94500,1,0,0:0:0:0:
256,192,94575,1,0,0:0:0:0:
329,192,94650,1,0,0:0:0:0:
36,192,94650,1,0,0:0:0:0:
109,192,94725,1,0,0:0:0:0:
182,192,94725,1,0,0:0:0:0:
402,192,94725,1,0,0:0:0:0:
475,192,94725,1,0,0:0:0:0:
329,192,94800,1,0,0:0:0:0:
36,192,94800,1,0,0:0:0:0:
109,192,94875,1,0,0:0:0:0:
182,192,94875,1,0,0:0:0:0:
402,192,94875,1,0,0:0:0:0:
475,192,94875,1,0,0:0:0:0:
256,192,94950,1,0,0:0:0:0:
329,192,95025,1,0,0:0:0:0:
402,192,95025,1,0,0:0:0:0:
36,192,95025,1,0,0:0:0:0:
109,192,95025,1,0,0:0:0:0:
182,192,95100,1,0,0:0:0:0:
256,192,95175,1,0,0:0:0:0:
475,192,95175,1,0,0:0:0:0:
36,192,95175,1,0,0:0:0:0:
329,192,95250,1,0,0:0:0:0:
402,192,95325,1,0,0:0:0:0:
182,192,95325,1,0,0:0:0:0:
109,192,95325,1,0,0:0:0:0:
329,192,95400,1,0,0:0:0:0:
256,192,95475,1,0,0:0:0:0:
36,192,95475,1,0,0:0:0:0:
109,192,95475,1,0,0:0:0:0:
475,192,95475,1,0,0:0:0:0:
109,192,95700,1,0,0:0:0:0:
36,192,95700,1,0,0:0:0:0:
475,192,95700,1,0,0:0:0:0:
182,192,95775,1,0,0:0:0:0:
256,192,95775,1,0,0:0:0:0:
402,192,95775,1,0,0:0:0:0:
329,192,95850,1,0,0:0:0:0:
109,192,95925,1,0,0:0:0:0:
36,192,95925,1,0,0:0:0:0:
475,192,95925,1,0,0:0:0:0:
182,192,96000,1,0,0:0:0:0:
256,192,96000,1,0,0:0:0:0:
402,192,96000,1,0,0:0:0:0:
109,192,96075,1,0,0:0:0:0:
36,192,96075,1,0,0:0:0:0:
475,192,96075,1,0,0:0:0:0:
329,192,96075,1,0,0:0:0:0:
36,192,96225,1,0,0:0:0:0:
182,192,96225,1,0,0:0:0:0:
402,192,96225,1,0,0:0:0:0:
475,192,96225,1,0,0:0:0:0:
256,192,96225,1,0,0:0:0:0:
182,192,96525,1,0,0:0:0:0:
256,192,96525,1,0,0:0:0:0:
329,192,96525,1,0,0:0:0:0:
402,192,96525,1,0,0:0:0:0:
475,192,96525,1,0,0:0:0:0:
109,192,96600,1,0,0:0:0:0:
36,192,96675,1,0,0:0:0:0:
109,192,96750,1,0,0:0:0:0:
182,192,96750,1,0,0:0:0:0:
256,192,96750,1,0,0:0:0:0:
329,192,96750,1,0,0:0:0:0:
402,192,96750,1,0,0:0:0:0:
475,192,96825,1,0,0:0:0:0:
402,192,96900,1,0,0:0:0:0:
256,192,96975,1,0,0:0:0:0:
329,192,96975,1,0,0:0:0:0:
182,192,96975,1,0,0:0:0:0:
109,192,96975,1,0,0:0:0:0:
36,192,96975,1,0,0:0:0:0:
109,192,97125,1,0,0:0:0:0:
182,192,97125,1,0,0:0:0:0:
256,192,97125,1,0,0:0:0:0:
329,192,97125,1,0,0:0:0:0:
402,192,97125,1,0,0:0:0:0:
36,192,97275,1,0,0:0:0:0:
256,192,97275,1,0,0:0:0:0:
402,192,97275,1,0,0:0:0:0:
475,192,97275,1,0,0:0:0:0:
109,192,97350,1,0,0:0:0:0:
329,192,97350,1,0,0:0:0:0:
182,192,97425,1,0,0:0:0:0:
256,192,97425,1,0,0:0:0:0:
109,192,97500,1,0,0:0:0:0:
329,192,97500,1,0,0:0:0:0:
402,192,97575,1,0,0:0:0:0:
475,192,97575,1,0,0:0:0:0:
36,192,97575,1,0,0:0:0:0:
109,192,97650,1,0,0:0:0:0:
329,192,97650,1,0,0:0:0:0:
182,192,97725,1,0,0:0:0:0:
475,192,97725,1,0,0:0:0:0:
256,192,97800,1,0,0:0:0:0:
402,192,97800,1,0,0:0:0:0:
109,192,97875,1,0,0:0:0:0:
36,192,97875,1,0,0:0:0:0:
329,192,97875,1,0,0:0:0:0:
182,192,97950,1,0,0:0:0:0:
36,192,98025,1,0,0:0:0:0:
256,192,98025,1,0,0:0:0:0:
402,192,98025,1,0,0:0:0:0:
109,192,98100,1,0,0:0:0:0:
329,192,98100,1,0,0:0:0:0:
475,192,98100,1,0,0:0:0:0:
182,192,98175,1,0,0:0:0:0:
256,192,98250,1,0,0:0:0:0:
36,192,98250,1,0,0:0:0:0:
402,192,98250,1,0,0:0:0:0:
109,192,98325,1,0,0:0:0:0:
329,192,98325,1,0,0:0:0:0:
475,192,98325,1,0,0:0:0:0:
256,192,98400,1,0,0:0:0:0:
402,192,98400,1,0,0:0:0:0:
182,192,98475,1,0,0:0:0:0:
329,192,98475,1,0,0:0:0:0:
36,192,98475,1,0,0:0:0:0:
109,192,98550,1,0,0:0:0:0:
402,192,98550,1,0,0:0:0:0:
182,192,98625,1,0,0:0:0:0:
256,192,98625,1,0,0:0:0:0:
475,192,98625,1,0,0:0:0:0:
109,192,98700,1,0,0:0:0:0:
329,192,98700,1,0,0:0:0:0:
402,192,98775,1,0,0:0:0:0:
475,192,98775,1,0,0:0:0:0:
36,192,98775,1,0,0:0:0:0:
182,192,98850,1,0,0:0:0:0:
329,192,98850,1,0,0:0:0:0:
402,192,98925,1,0,0:0:0:0:
109,192,98925,1,0,0:0:0:0:
36,192,98925,1,0,0:0:0:0:
256,192,99000,1,0,0:0:0:0:
475,192,99000,1,0,0:0:0:0:
36,192,99075,1,0,0:0:0:0:
109,192,99075,1,0,0:0:0:0:
402,192,99075,1,0,0:0:0:0:
182,192,99150,1,0,0:0:0:0:
329,192,99150,1,0,0:0:0:0:
256,192,99225,1,0,0:0:0:0:
109,192,99225,1,0,0:0:0:0:
36,192,99225,1,0,0:0:0:0:
329,192,99300,1,0,0:0:0:0:
402,192,99300,1,0,0:0:0:0:
475,192,99300,1,0,0:0:0:0:
256,192,99375,1,0,0:0:0:0:
182,192,99375,1,0,0:0:0:0:
109,192,99375,1,0,0:0:0:0:
36,192,99375,1,0,0:0:0:0:
329,192,99450,1,0,0:0:0:0:
402,192,99450,1,0,0:0:0:0:
182,192,99525,1,0,0:0:0:0:
109,192,99525,1,0,0:0:0:0:
36,192,99525,1,0,0:0:0:0:
256,192,99675,1,0,0:0:0:0:
109,192,99675,1,0,0:0:0:0:
402,192,99675,1,0,0:0:0:0:
475,192,99675,1,0,0:0:0:0:
329,192,99750,1,0,0:0:0:0:
182,192,99750,1,0,0:0:0:0:
36,192,99825,1,0,0:0:0:0:
402,192,99825,1,0,0:0:0:0:
109,192,99825,1,0,0:0:0:0:
256,192,99900,1,0,0:0:0:0:
329,192,99900,1,0,0:0:0:0:
109,192,99975,1,0,0:0:0:0:
182,192,99975,1,0,0:0:0:0:
36,192,100050,1,0,0:0:0:0:
256,192,100050,1,0,0:0:0:0:
109,192,100125,1,0,0:0:0:0:
329,192,100125,1,0,0:0:0:0:
402,192,100125,1,0,0:0:0:0:
182,192,100200,1,0,0:0:0:0:
256,192,100200,1,0,0:0:0:0:
109,192,100275,1,0,0:0:0:0:
329,192,100275,1,0,0:0:0:0:
402,192,100275,1,0,0:0:0:0:
182,192,100350,1,0,0:0:0:0:
256,192,100425,1,0,0:0:0:0:
475,192,100425,1,0,0:0:0:0:
36,192,100425,1,0,0:0:0:0:
109,192,100500,1,0,0:0:0:0:
329,192,100500,1,0,0:0:0:0:
402,192,100500,1,0,0:0:0:0:
182,192,100575,1,0,0:0:0:0:
36,192,100650,1,0,0:0:0:0:
256,192,100650,1,0,0:0:0:0:
475,192,100650,1,0,0:0:0:0:
109,192,100725,1,0,0:0:0:0:
329,192,100725,1,0,0:0:0:0:
402,192,100725,1,0,0:0:0:0:
256,192,100800,1,0,0:0:0:0:
182,192,100800,1,0,0:0:0:0:
109,192,100875,1,0,0:0:0:0:
329,192,100875,1,0,0:0:0:0:
402,192,100875,1,0,0:0:0:0:
256,192,100950,1,0,0:0:0:0:
36,192,100950,1,0,0:0:0:0:
109,192,101025,1,0,0:0:0:0:
182,192,101025,1,0,0:0:0:0:
475,192,101025,1,0,0:0:0:0:
329,192,101100,1,0,0:0:0:0:
402,192,101100,1,0,0:0:0:0:
256,192,101175,1,0,0:0:0:0:
109,192,101175,1,0,0:0:0:0:
36,192,101175,1,0,0:0:0:0:
329,192,101250,1,0,0:0:0:0:
182,192,101250,1,0,0:0:0:0:
256,192,101325,1,0,0:0:0:0:
402,192,101325,1,0,0:0:0:0:
475,192,101325,1,0,0:0:0:0:
182,192,101400,1,0,0:0:0:0:
36,192,101400,1,0,0:0:0:0:
109,192,101475,1,0,0:0:0:0:
329,192,101475,1,0,0:0:0:0:
402,192,101475,1,0,0:0:0:0:
182,192,101625,1,0,0:0:0:0:
256,192,101625,1,0,0:0:0:0:
475,192,101625,1,0,0:0:0:0:
109,192,101700,1,0,0:0:0:0:
329,192,101700,1,0,0:0:0:0:
402,192,101700,1,0,0:0:0:0:
36,192,101775,1,0,0:0:0:0:
182,192,101850,1,0,0:0:0:0:
256,192,101850,1,0,0:0:0:0:
475,192,101850,1,0,0:0:0:0:
329,192,101925,1,0,0:0:0:0:
402,192,101925,1,0,0:0:0:0:
109,192,101925,1,0,0:0:0:0:
36,192,102000,1,0,0:0:0:0:
109,192,102075,1,0,0:0:0:0:
182,192,102075,1,0,0:0:0:0:
256,192,102075,1,0,0:0:0:0:
475,192,102075,1,0,0:0:0:0:
329,192,102150,1,0,0:0:0:0:
402,192,102150,1,0,0:0:0:0:
36,192,102225,1,0,0:0:0:0:
256,192,102225,1,0,0:0:0:0:
109,192,102300,1,0,0:0:0:0:
329,192,102300,1,0,0:0:0:0:
182,192,102375,1,0,0:0:0:0:
475,192,102375,1,0,0:0:0:0:
402,192,102375,1,0,0:0:0:0:
329,192,102450,1,0,0:0:0:0:
109,192,102450,1,0,0:0:0:0:
36,192,102525,1,0,0:0:0:0:
256,192,102525,1,0,0:0:0:0:
182,192,102600,1,0,0:0:0:0:
329,192,102600,1,0,0:0:0:0:
109,192,102675,1,0,0:0:0:0:
36,192,102675,1,0,0:0:0:0:
402,192,102675,1,0,0:0:0:0:
256,192,102750,1,0,0:0:0:0:
182,192,102825,1,0,0:0:0:0:
329,192,102825,1,0,0:0:0:0:
475,192,102825,1,0,0:0:0:0:
402,192,102900,1,0,0:0:0:0:
109,192,102900,1,0,0:0:0:0:
36,192,102900,1,0,0:0:0:0:
256,192,102975,1,0,0:0:0:0:
182,192,103050,1,0,0:0:0:0:
329,192,103050,1,0,0:0:0:0:
475,192,103050,1,0,0:0:0:0:
402,192,103125,1,0,0:0:0:0:
109,192,103125,1,0,0:0:0:0:
36,192,103125,1,0,0:0:0:0:
256,192,103200,1,0,0:0:0:0:
182,192,103200,1,0,0:0:0:0:
109,192,103275,1,0,0:0:0:0:
36,192,103275,1,0,0:0:0:0:
402,192,103275,1,0,0:0:0:0:
329,192,103350,1,0,0:0:0:0:
182,192,103425,1,0,0:0:0:0:
109,192,103425,1,0,0:0:0:0:
475,192,103425,1,0,0:0:0:0:
402,192,103425,1,0,0:0:0:0:
256,192,103500,1,0,0:0:0:0:
329,192,103575,1,0,0:0:0:0:
402,192,103575,1,0,0:0:0:0:
36,192,103575,1,0,0:0:0:0:
182,192,103650,1,0,0:0:0:0:
36,192,103725,1,0,0:0:0:0:
109,192,103725,1,0,0:0:0:0:
256,192,103725,1,0,0:0:0:0:
475,192,103725,1,0,0:0:0:0:
329,192,103800,1,0,0:0:0:0:
402,192,103875,1,0,0:0:0:0:
475,192,103875,1,0,0:0:0:0:
36,192,103875,1,0,0:0:0:0:
109,192,103875,1,0,0:0:0:0:
329,192,103950,1,0,0:0:0:0:
182,192,103950,1,0,0:0:0:0:
402,192,104025,1,0,0:0:0:0:
475,192,104025,1,0,0:0:0:0:
36,192,104025,1,0,0:0:0:0:
109,192,104025,1,0,0:0:0:0:
329,192,104100,1,0,0:0:0:0:
182,192,104100,1,0,0:0:0:0:
109,192,104175,1,0,0:0:0:0:
36,192,104175,1,0,0:0:0:0:
256,192,104175,1,0,0:0:0:0:
402,192,104175,1,0,0:0:0:0:
475,192,104175,1,0,0:0:0:0:
182,192,104400,1,0,0:0:0:0:
329,192,104400,1,0,0:0:0:0:
36,192,104475,1,0,0:0:0:0:
109,192,104475,1,0,0:0:0:0:
402,192,104475,1,0,0:0:0:0:
475,192,104475,1,0,0:0:0:0:
256,192,104625,1,0,0:0:0:0:
182,192,104700,1,0,0:0:0:0:
109,192,104700,1,0,0:0:0:0:
329,192,104700,1,0,0:0:0:0:
475,192,104700,1,0,0:0:0:0:
256,192,104850,1,0,0:0:0:0:
329,192,104925,1,0,0:0:0:0:
402,192,104925,1,0,0:0:0:0:
182,192,104925,1,0,0:0:0:0:
36,192,104925,1,0,0:0:0:0:
256,192,105075,1,0,0:0:0:0:
109,192,105150,1,0,0:0:0:0:
36,192,105150,1,0,0:0:0:0:
402,192,105150,1,0,0:0:0:0:
475,192,105150,1,0,0:0:0:0:
182,192,105300,1,0,0:0:0:0:
329,192,105300,1,0,0:0:0:0:
402,192,105375,1,0,0:0:0:0:
475,192,105375,1,0,0:0:0:0:
109,192,105375,1,0,0:0:0:0:
36,192,105375,1,0,0:0:0:0:
182,192,105450,1,0,0:0:0:0:
256,192,105450,1,0,0:0:0:0:
329,192,105450,1,0,0:0:0:0:
402,192,105525,1,0,0:0:0:0:
475,192,105525,1,0,0:0:0:0:
109,192,105525,1,0,0:0:0:0:
36,192,105525,1,0,0:0:0:0:
36,192,105675,1,0,0:0:0:0:
109,192,105675,1,0,0:0:0:0:
182,192,105675,1,0,0:0:0:0:
256,192,105925,1,0,0:0:0:0:
329,192,105925,1,0,0:0:0:0:
402,192,105925,1,0,0:0:0:0:
475,192,105925,1,0,0:0:0:0:
256,192,106175,1,0,0:0:0:0:
329,192,106175,1,0,0:0:0:0:
402,192,106175,1,0,0:0:0:0:
475,192,106175,1,0,0:0:0:0:
256,192,106375,1,0,0:0:0:0:
329,192,106375,1,0,0:0:0:0:
402,192,106375,1,0,0:0:0:0:
475,192,106375,1,0,0:0:0:0:
256,192,106575,1,0,0:0:0:0:
329,192,106575,1,0,0:0:0:0:
402,192,106575,1,0,0:0:0:0:
475,192,106575,1,0,0:0:0:0:
182,192,106650,1,0,0:0:0:0:
109,192,106650,1,0,0:0:0:0:
36,192,106650,1,0,0:0:0:0:
256,192,106725,1,0,0:0:0:0:
329,192,106725,1,0,0:0:0:0:
402,192,106725,1,0,0:0:0:0:
475,192,106725,1,0,0:0:0:0:
182,192,106875,1,0,0:0:0:0:
109,192,106875,1,0,0:0:0:0:
36,192,106875,1,0,0:0:0:0:
329,192,106875,1,0,0:0:0:0:
402,192,106875,1,0,0:0:0:0:
475,192,106875,1,0,0:0:0:0:
256,192,107175,1,0,0:0:0:0:
475,192,107175,1,0,0:0:0:0:
256,192,107475,1,0,0:0:0:0:
475,192,107475,1,0,0:0:0:0:
329,192,107625,1,0,0:0:0:0:
402,192,107625,1,0,0:0:0:0:
256,192,107700,1,0,0:0:0:0:
475,192,107700,1,0,0:0:0:0:
329,192,107850,1,0,0:0:0:0:
402,192,107850,1,0,0:0:0:0:
256,192,107925,1,0,0:0:0:0:
475,192,107925,1,0,0:0:0:0:
256,192,108075,1,0,0:0:0:0:
475,192,108075,1,0,0:0:0:0:
402,192,108225,1,0,0:0:0:0:
182,192,108225,1,0,0:0:0:0:
36,192,108375,1,0,0:0:0:0:
182,192,108525,1,0,0:0:0:0:
402,192,108525,1,0,0:0:0:0:
182,192,108675,1,0,0:0:0:0:
402,192,108675,1,0,0:0:0:0:
256,192,108825,1,0,0:0:0:0:
329,192,108825,1,0,0:0:0:0:
402,192,108900,1,0,0:0:0:0:
182,192,108900,1,0,0:0:0:0:
256,192,109050,1,0,0:0:0:0:
329,192,109050,1,0,0:0:0:0:
182,192,109125,1,0,0:0:0:0:
402,192,109125,1,0,0:0:0:0:
182,192,109275,1,0,0:0:0:0:
402,192,109275,1,0,0:0:0:0:
329,192,109425,1,0,0:0:0:0:
109,192,109425,1,0,0:0:0:0:
36,192,109575,1,0,0:0:0:0:
109,192,109725,1,0,0:0:0:0:
329,192,109725,1,0,0:0:0:0:
109,192,109875,1,0,0:0:0:0:
329,192,109875,1,0,0:0:0:0:
182,192,110025,1,0,0:0:0:0:
256,192,110025,1,0,0:0:0:0:
109,192,110100,1,0,0:0:0:0:
329,192,110100,1,0,0:0:0:0:
182,192,110250,1,0,0:0:0:0:
256,192,110250,1,0,0:0:0:0:
109,192,110325,1,0,0:0:0:0:
329,192,110325,1,0,0:0:0:0:
109,192,110475,1,0,0:0:0:0:
329,192,110475,1,0,0:0:0:0:
256,192,110625,1,0,0:0:0:0:
36,192,110625,1,0,0:0:0:0:
402,192,110775,1,0,0:0:0:0:
256,192,110925,1,0,0:0:0:0:
36,192,110925,1,0,0:0:0:0:
256,192,111075,1,0,0:0:0:0:
36,192,111075,1,0,0:0:0:0:
109,192,111225,1,0,0:0:0:0:
182,192,111225,1,0,0:0:0:0:
256,192,111300,1,0,0:0:0:0:
36,192,111300,1,0,0:0:0:0:
109,192,111450,1,0,0:0:0:0:
182,192,111450,1,0,0:0:0:0:
256,192,111525,1,0,0:0:0:0:
36,192,111525,1,0,0:0:0:0:
36,192,111675,1,0,0:0:0:0:
329,192,111675,1,0,0:0:0:0:
402,192,111675,1,0,0:0:0:0:
475,192,111675,1,0,0:0:0:0:
182,192,111675,1,0,0:0:0:0:
109,192,111675,1,0,0:0:0:0:
182,192,111825,1,0,0:0:0:0:
256,192,111975,1,0,0:0:0:0:
475,192,111975,1,0,0:0:0:0:
36,192,112125,1,0,0:0:0:0:
256,192,112275,1,0,0:0:0:0:
475,192,112275,1,0,0:0:0:0:
256,192,112425,1,0,0:0:0:0:
475,192,112425,1,0,0:0:0:0:
329,192,112500,1,0,0:0:0:0:
402,192,112500,1,0,0:0:0:0:
256,192,112650,1,0,0:0:0:0:
475,192,112650,1,0,0:0:0:0:
402,192,112725,1,0,0:0:0:0:
329,192,112725,1,0,0:0:0:0:
256,192,112875,1,0,0:0:0:0:
475,192,112875,1,0,0:0:0:0:
402,192,113025,1,0,0:0:0:0:
182,192,113025,1,0,0:0:0:0:
36,192,113175,1,0,0:0:0:0:
182,192,113325,1,0,0:0:0:0:
402,192,113325,1,0,0:0:0:0:
182,192,113475,1,0,0:0:0:0:
402,192,113475,1,0,0:0:0:0:
182,192,113625,1,0,0:0:0:0:
402,192,113625,1,0,0:0:0:0:
329,192,113700,1,0,0:0:0:0:
256,192,113700,1,0,0:0:0:0:
36,192,113775,1,0,0:0:0:0:
182,192,113850,1,0,0:0:0:0:
402,192,113850,1,0,0:0:0:0:
109,192,113850,1,0,0:0:0:0:
329,192,113925,1,0,0:0:0:0:
256,192,113925,1,0,0:0:0:0:
36,192,113925,1,0,0:0:0:0:
182,192,114075,1,0,0:0:0:0:
402,192,114075,1,0,0:0:0:0:
36,192,114075,1,0,0:0:0:0:
109,192,114225,1,0,0:0:0:0:
329,192,114225,1,0,0:0:0:0:
36,192,114375,1,0,0:0:0:0:
109,192,114525,1,0,0:0:0:0:
329,192,114525,1,0,0:0:0:0:
109,192,114675,1,0,0:0:0:0:
329,192,114675,1,0,0:0:0:0:
329,192,114825,1,0,0:0:0:0:
109,192,114825,1,0,0:0:0:0:
256,192,114900,1,0,0:0:0:0:
182,192,114900,1,0,0:0:0:0:
109,192,115050,1,0,0:0:0:0:
329,192,115050,1,0,0:0:0:0:
256,192,115125,1,0,0:0:0:0:
182,192,115125,1,0,0:0:0:0:
109,192,115275,1,0,0:0:0:0:
329,192,115275,1,0,0:0:0:0:
256,192,115425,1,0,0:0:0:0:
36,192,115425,1,0,0:0:0:0:
109,192,115575,1,0,0:0:0:0:
329,192,115575,1,0,0:0:0:0:
36,192,115725,1,0,0:0:0:0:
256,192,115725,1,0,0:0:0:0:
182,192,115800,1,0,0:0:0:0:
109,192,115875,1,0,0:0:0:0:
329,192,115875,1,0,0:0:0:0:
36,192,116100,1,0,0:0:0:0:
256,192,116100,1,0,0:0:0:0:
109,192,116175,1,0,0:0:0:0:
329,192,116175,1,0,0:0:0:0:
109,192,116325,1,0,0:0:0:0:
329,192,116325,1,0,0:0:0:0:
182,192,116400,1,0,0:0:0:0:
402,192,116400,1,0,0:0:0:0:
256,192,116475,1,0,0:0:0:0:
475,192,116475,1,0,0:0:0:0:
36,192,116475,1,0,0:0:0:0:
329,192,116475,1,0,0:0:0:0:
109,192,116475,1,0,0:0:0:0:
