osu file format v14

[General]
AudioFilename: audio.mp3
AudioLeadIn: 0
PreviewTime: 103991
Countdown: 1
SampleSet: None
StackLeniency: 0.2
Mode: 0
LetterboxInBreaks: 0
WidescreenStoryboard: 0

[Editor]
DistanceSpacing: 0.2
BeatDivisor: 4
GridSize: 16
TimelineZoom: 4.199998

[Metadata]
Title:Architecture
TitleUnicode:Architecture
Artist:DJ Myosuke & Noizenecio
ArtistUnicode:DJ Myosuke & Noizenecio
Creator:Yonaka-
Version:OVERJOY
Source:
Tags:
BeatmapID:1941715
BeatmapSetID:929707

[Difficulty]
HPDrainRate:3
CircleSize:3.5
OverallDifficulty:10
ApproachRate:10
SliderMultiplier:2.5
SliderTickRate:1

[Events]
//Background and Video events
0,0,"37553529_p0_master1200.jpg",0,0
//Break Periods
2,40191,45741
2,72191,77941
2,78591,90741
//Storyboard Layer 0 (Background)
//Storyboard Layer 1 (Fail)
//Storyboard Layer 2 (Pass)
//Storyboard Layer 3 (Foreground)
//Storyboard Sound Samples

[TimingPoints]
-9,200,4,1,0,53,1,0
14191,-25,4,1,0,53,0,0
14391,-50,4,3,0,53,0,0
20191,-25,4,1,0,53,0,0
20391,-100,4,3,0,53,0,0
20591,-50,4,3,0,53,0,0
24791,-133.333333333333,4,3,0,53,0,0
25191,-66.6666666666667,4,3,0,53,0,0
25591,-133.333333333333,4,3,0,53,0,0
25991,-66.6666666666667,4,3,0,53,0,0
26391,-133.333333333333,4,3,0,53,0,0
26791,-66.6666666666667,4,3,0,53,0,0
27391,-50,4,3,0,53,0,0
32591,-25,4,1,0,53,0,0
32791,-50,4,3,0,53,0,0
33191,-33.3333333333333,4,1,0,53,0,0
33591,-50,4,3,0,53,0,0
63991,-1000,4,3,0,53,0,0
65591,-50,4,3,0,53,0,0
91191,-133.333333333333,4,3,0,53,0,0
103991,-50,4,3,0,53,0,1
115191,-100,4,3,0,53,0,0
116791,-50,4,3,0,53,0,1
122791,-100,4,3,0,53,0,1
122991,-50,4,3,0,53,0,1
135791,-100,4,3,0,53,0,1
135991,-50,4,3,0,53,0,1
142391,-50,4,3,0,53,0,0

[HitObjects]
256,192,1582,5,0,0:0:0:0:
256,192,1632,12,0,7932,0:0:0:0:
256,192,7982,5,0,0:0:0:0:
256,192,8032,12,0,13382,0:0:0:0:
95,257,13582,6,0,L|79:249,8,15.625
416,192,13791,6,0,L|432:184,8,15.625
253,383,13991,5,0,0:0:0:0:
254,375,14041,1,0,0:0:0:0:
256,368,14091,1,0,0:0:0:0:
257,360,14141,1,0,0:0:0:0:
258,352,14191,6,0,B|272:273|272:273|255:189|255:189|271:94,1,250
161,22,14391,5,0,0:0:0:0:
416,192,14491,1,0,0:0:0:0:
95,257,14591,1,0,0:0:0:0:
269,106,14691,6,0,B|204:112|204:112|168:137|168:137|131:120|131:120|25:128,1,250
157,4,14891,1,0,0:0:0:0:
416,192,14991,2,0,P|473:99|364:108,1,250
258,352,15191,5,0,0:0:0:0:
452,293,15291,2,0,B|311:318|360:212|205:248,1,250
80,353,15491,2,0,P|184:284|150:177,1,250
0,291,15691,1,0,0:0:0:0:
216,245,15791,1,0,0:0:0:0:
212,233,15841,1,0,0:0:0:0:
208,221,15891,1,0,0:0:0:0:
31,127,15991,5,0,0:0:0:0:
258,352,16091,1,0,0:0:0:0:
340,43,16191,1,0,0:0:0:0:
208,221,16291,2,0,B|273:227|273:227|309:252|309:252|346:235|346:235|452:243,1,250
318,143,16491,1,0,0:0:0:0:
157,314,16591,2,0,P|107:186|188:118,1,250
445,242,16791,5,0,0:0:0:0:
258,352,16891,2,0,B|296:299|349:266|349:266|408:274|473:304,1,250
381,384,17091,1,0,0:0:0:0:
208,221,17191,1,0,0:0:0:0:
223,219,17241,1,0,0:0:0:0:
238,217,17291,1,0,0:0:0:0:
254,213,17341,1,0,0:0:0:0:
269,209,17391,6,0,B|288:182|297:152|297:152|281:126|241:97,1,125
99,139,17491,2,0,B|82:164|71:196|71:196|89:224|127:251,1,125
467,301,17591,5,0,0:0:0:0:
186,176,17691,1,0,0:0:0:0:
498,66,17791,1,0,0:0:0:0:
381,384,17891,2,0,L|356:122,1,250
483,184,18091,1,0,0:0:0:0:
283,348,18191,2,0,B|142:373|191:267|36:303,1,250
269,209,18391,5,0,0:0:0:0:
41,150,18491,2,0,B|100:177|159:185|159:185|212:152|250:99,1,250
120,35,18691,2,0,P|153:155|169:279,1,250
0,384,18891,1,0,0:0:0:0:
269,209,18991,1,0,0:0:0:0:
265,221,19041,1,0,0:0:0:0:
261,233,19091,1,0,0:0:0:0:
21,267,19191,5,0,0:0:0:0:
283,348,19291,1,0,0:0:0:0:
223,89,19391,1,0,0:0:0:0:
0,384,19491,2,0,B|65:378|65:378|101:353|101:353|138:370|138:370|244:362,1,250
381,384,19691,1,0,0:0:0:0:
4,165,19791,2,0,B|69:171|69:171|105:196|105:196|142:179|142:179|248:187,1,250
499,73,19991,5,0,0:0:0:0:
491,73,20041,1,0,0:0:0:0:
484,76,20091,1,0,0:0:0:0:
476,77,20141,1,0,0:0:0:0:
468,78,20191,6,0,B|389:92|389:92|305:75|305:75|210:91,1,250
4,165,20391,6,0,P|63:230|146:200,1,187.5
83,150,20591,6,0,B|30:351|30:351|21:303,1,250
182,383,20791,5,0,0:0:0:0:
31,84,20891,1,0,0:0:0:0:
359,175,20991,1,0,0:0:0:0:
22,309,21091,2,0,P|142:276|266:260,1,250
508,329,21291,1,0,0:0:0:0:
359,175,21391,2,0,P|414:151|371:251,1,250
22,309,21591,5,0,0:0:0:0:
217,15,21691,2,0,P|232:138|266:259,1,250
152,384,21891,2,0,P|167:261|201:140,1,250
335,6,22091,1,0,0:0:0:0:
92,149,22191,2,0,P|20:78|120:64,1,250
445,188,22391,6,0,P|321:172|200:138,1,250
22,309,22591,1,0,0:0:0:0:
36,303,22641,1,0,0:0:0:0:
51,298,22691,1,0,0:0:0:0:
66,293,22741,1,0,0:0:0:0:
81,288,22791,1,0,0:0:0:0:
312,383,22891,1,0,0:0:0:0:
92,149,22991,2,0,P|168:242|83:285,1,250
12,55,23191,5,0,0:0:0:0:
335,6,23291,2,0,P|302:126|286:250,1,250
473,357,23491,1,0,0:0:0:0:
471,341,23541,1,0,0:0:0:0:
470,325,23591,1,0,0:0:0:0:
467,310,23641,1,0,0:0:0:0:
465,294,23691,2,0,P|454:243|433:174,1,125
74,361,23791,2,0,B|139:367|139:367|175:392|175:392|212:375|212:375|318:383,1,250
92,149,23991,5,0,0:0:0:0:
432,195,24091,1,0,0:0:0:0:
178,344,24191,1,0,0:0:0:0:
382,0,24291,2,0,B|407:141|301:92|337:247,1,250
473,357,24491,1,0,0:0:0:0:
178,344,24591,2,0,P|259:256|377:358,1,250
276,351,24791,6,0,B|290:298|259:258|222:240|222:240|202:192|201:145|254:76,1,281.250010728836
443,197,25191,6,0,B|476:157|476:157|342:177,1,187.500007152558
9,32,25391,2,0,B|-24:71|-24:71|109:51,1,187.500007152558
341,177,25591,6,0,B|186:102|219:239|44:146,1,281.250010728836
110,50,25991,6,0,B|161:103|161:103|136:230,1,187.500007152558
0,365,26191,2,0,B|53:314|53:314|180:339,1,187.500007152558
352,367,26391,6,0,P|260:277|341:177,1,281.250010728836
437,286,26791,6,0,B|395:261|395:261|351:269,1,93.7500035762788
52,197,26891,2,0,B|94:222|94:222|138:214,1,93.7500035762788
327,7,26991,2,0,B|368:55|368:55|340:177,1,187.500007152558
340,177,27391,5,0,0:0:0:0:
39,27,27491,1,0,0:0:0:0:
327,7,27591,5,0,0:0:0:0:
52,197,27691,1,0,0:0:0:0:
261,338,27791,5,0,0:0:0:0:
191,103,27891,1,0,0:0:0:0:
405,347,27991,5,0,0:0:0:0:
482,100,28091,1,0,0:0:0:0:
189,208,28191,5,0,0:0:0:0:
397,325,28291,1,0,0:0:0:0:
130,333,28391,5,0,0:0:0:0:
344,182,28491,1,0,0:0:0:0:
78,141,28591,6,0,B|67:119|59:84|59:84|74:57|99:33,1,125
481,99,28691,2,0,B|492:121|500:156|500:156|485:183|460:207,1,125
261,338,28791,5,0,0:0:0:0:
386,65,28891,1,0,0:0:0:0:
397,325,28991,5,0,0:0:0:0:
242,79,29091,1,0,0:0:0:0:
460,206,29191,5,0,0:0:0:0:
155,309,29291,1,0,0:0:0:0:
357,305,29391,5,0,0:0:0:0:
78,141,29491,1,0,0:0:0:0:
322,289,29591,6,0,B|348:267|366:241|366:241|361:206|352:183,1,125
0,214,29691,2,0,B|-7:237|-8:273|-8:273|10:297|39:316,1,125
259,219,29791,6,0,P|152:198|153:307,1,250
244,78,29991,2,0,B|193:43|132:28|132:28|96:76|78:141,1,250
345,136,30191,2,0,B|397:172|458:187|458:187|494:139|512:74,1,250
405,27,30391,5,0,0:0:0:0:
496,300,30491,1,0,0:0:0:0:
345,136,30591,5,0,0:0:0:0:
507,344,30691,1,0,0:0:0:0:
242,357,30791,5,0,0:0:0:0:
410,225,30891,1,0,0:0:0:0:
147,265,30991,5,0,0:0:0:0:
378,351,31091,1,0,0:0:0:0:
221,122,31191,5,0,0:0:0:0:
140,384,31291,1,0,0:0:0:0:
92,46,31391,5,0,0:0:0:0:
147,265,31491,1,0,0:0:0:0:
203,0,31591,5,0,0:0:0:0:
70,169,31691,1,0,0:0:0:0:
291,204,31791,6,0,B|317:182|335:156|335:156|330:121|321:98,1,125
92,46,31891,2,0,B|66:68|48:94|48:94|53:129|62:152,1,125
368,173,31991,6,0,B|379:140|382:109|382:109|360:81|340:66,1,125
19,80,32091,2,0,B|7:112|4:143|4:143|26:171|46:186,1,125
291,204,32191,5,0,0:0:0:0:
159,125,32291,1,0,0:0:0:0:
94,317,32391,5,0,0:0:0:0:
102,317,32441,1,0,0:0:0:0:
109,314,32491,1,0,0:0:0:0:
117,313,32541,1,0,0:0:0:0:
125,312,32591,6,0,B|204:298|204:298|288:315|288:315|383:299,1,250
417,58,32791,6,0,P|499:41|441:134,1,250
97,59,32991,2,0,P|15:42|73:135,1,250
512,242,33191,6,0,B|398:256|398:256|323:169|323:169|163:182,1,375.000014305115
12,323,33391,2,0,B|126:309|126:309|201:396|201:396|361:383,1,375.000014305115
447,136,33591,5,0,0:0:0:0:
264,289,33691,1,0,0:0:0:0:
368,47,33791,5,0,0:0:0:0:
286,271,33891,1,0,0:0:0:0:
188,26,33991,5,0,0:0:0:0:
288,242,34091,1,0,0:0:0:0:
46,138,34191,5,0,0:0:0:0:
270,220,34291,1,0,0:0:0:0:
75,274,34391,5,0,0:0:0:0:
258,121,34491,1,0,0:0:0:0:
154,363,34591,5,0,0:0:0:0:
236,139,34691,1,0,0:0:0:0:
334,384,34791,5,0,0:0:0:0:
234,168,34891,1,0,0:0:0:0:
484,311,34991,6,0,B|458:252|458:252|475:185,1,125
257,120,35091,2,0,B|316:136|316:136|375:111,1,125
498,59,35191,5,0,0:0:0:0:
350,259,35291,1,0,0:0:0:0:
303,12,35391,5,0,0:0:0:0:
474,193,35491,1,0,0:0:0:0:
202,217,35591,5,0,0:0:0:0:
375,111,35691,1,0,0:0:0:0:
378,384,35791,5,0,0:0:0:0:
331,221,35891,1,0,0:0:0:0:
488,174,35991,5,0,0:0:0:0:
311,257,36091,1,8,0:0:0:0:
221,91,36191,5,0,0:0:0:0:
350,259,36291,1,0,0:0:0:0:
473,69,36391,5,0,0:0:0:0:
331,221,36491,1,0,0:0:0:0:
137,199,36591,5,0,0:0:0:0:
311,257,36691,1,0,0:0:0:0:
394,22,36791,6,0,B|333:42|333:42|271:19,1,125
10,130,36891,2,0,B|23:67|23:67|74:24,1,125
395,192,36991,2,0,B|332:178|332:178|289:127,1,125
20,160,37091,2,0,B|62:112|62:112|128:101,1,125
318,375,37191,2,0,B|270:332|270:332|259:266,1,125
19,198,37291,2,0,B|80:178|80:178|142:201,1,125
65,384,37391,2,0,P|52:325|84:260,1,125
481,244,37491,2,0,P|436:283|364:288,1,125
394,22,37591,5,0,0:0:0:0:
386,31,37641,1,0,0:0:0:0:
379,40,37691,1,0,0:0:0:0:
374,50,37741,1,0,0:0:0:0:
369,61,37791,1,0,0:0:0:0:
365,72,37841,1,0,0:0:0:0:
363,84,37891,1,0,0:0:0:0:
361,95,37941,1,0,0:0:0:0:
361,107,37991,1,0,0:0:0:0:
361,119,38041,1,0,0:0:0:0:
363,130,38091,1,0,0:0:0:0:
366,142,38141,1,0,0:0:0:0:
370,153,38191,1,0,0:0:0:0:
374,163,38241,1,0,0:0:0:0:
380,173,38291,1,0,0:0:0:0:
387,183,38341,1,0,0:0:0:0:
395,192,38391,6,0,B|488:127|481:31|481:31|474:68|442:97,1,250
394,22,38591,1,0,0:0:0:0:
117,192,38691,6,0,B|24:127|31:31|31:31|38:68|70:97,1,250
118,22,38891,1,0,0:0:0:0:
439,185,38991,6,0,B|512:98|480:7|480:7|483:44|459:81,1,250
325,97,39191,1,0,0:0:0:0:
73,185,39291,6,0,B|0:98|31:7|31:7|28:44|52:81,1,250
219,200,39491,1,0,0:0:0:0:
0,334,39591,1,0,0:0:0:0:
227,210,39691,1,0,0:0:0:0:
0,0,39791,6,0,P|6:136|90:228,1,250
512,0,39991,5,0,0:0:0:0:
76,219,46191,5,0,0:0:0:0:
91,221,46241,1,0,0:0:0:0:
106,224,46291,1,0,0:0:0:0:
122,227,46341,1,0,0:0:0:0:
141,230,46391,5,0,0:0:0:0:
166,133,46591,1,0,0:0:0:0:
69,107,46791,1,0,0:0:0:0:
42,203,46991,1,0,0:0:0:0:
371,230,47191,5,0,0:0:0:0:
346,133,47391,1,0,0:0:0:0:
443,107,47591,1,0,0:0:0:0:
299,353,47791,1,0,0:0:0:0:
256,0,47991,5,0,0:0:0:0:
256,0,48191,1,0,0:0:0:0:
256,0,48391,1,0,0:0:0:0:
256,0,48591,1,0,0:0:0:0:
256,0,48791,1,0,0:0:0:0:
256,0,48991,1,0,0:0:0:0:
256,0,49191,1,0,0:0:0:0:
256,0,49391,1,0,0:0:0:0:
141,230,49591,5,0,0:0:0:0:
236,201,49691,1,0,0:0:0:0:
140,204,49791,5,0,0:0:0:0:
236,226,49891,1,0,0:0:0:0:
151,181,49991,5,0,0:0:0:0:
224,249,50091,1,0,0:0:0:0:
173,167,50191,5,0,0:0:0:0:
202,261,50291,1,0,0:0:0:0:
199,166,50391,5,0,0:0:0:0:
176,263,50491,1,0,0:0:0:0:
222,179,50591,5,0,0:0:0:0:
155,251,50691,1,0,0:0:0:0:
235,200,50791,5,0,0:0:0:0:
140,229,50891,1,0,0:0:0:0:
236,226,50991,5,0,0:0:0:0:
140,204,51091,1,0,0:0:0:0:
328,0,51991,5,0,0:0:0:0:
324,15,52041,1,0,0:0:0:0:
321,30,52091,1,0,0:0:0:0:
317,45,52141,1,0,0:0:0:0:
314,61,52191,6,0,L|305:97,12,31.25
57,13,52391,5,0,0:0:0:0:
57,13,52591,5,0,0:0:0:0:
85,29,52791,5,0,0:0:0:0:
204,167,52891,1,0,0:0:0:0:
37,230,52991,5,0,0:0:0:0:
97,57,53091,1,0,0:0:0:0:
235,171,53191,5,0,0:0:0:0:
55,205,53291,1,0,0:0:0:0:
126,24,53391,5,0,0:0:0:0:
190,194,53491,1,0,0:0:0:0:
12,196,53591,5,0,0:0:0:0:
127,54,53691,1,0,0:0:0:0:
218,209,53791,5,0,0:0:0:0:
37,179,53891,1,0,0:0:0:0:
166,33,53991,5,0,0:0:0:0:
168,216,54091,1,0,0:0:0:0:
0,157,54191,5,0,0:0:0:0:
157,63,54291,2,0,B|215:31|215:31|248:88,1,125
427,32,54391,5,0,0:0:0:0:
308,170,54491,1,0,0:0:0:0:
475,233,54591,5,0,0:0:0:0:
415,60,54691,1,0,0:0:0:0:
277,174,54791,5,0,0:0:0:0:
457,208,54891,1,0,0:0:0:0:
386,27,54991,5,0,0:0:0:0:
322,197,55091,1,0,0:0:0:0:
500,199,55191,5,0,0:0:0:0:
385,57,55291,1,0,0:0:0:0:
294,212,55391,5,0,0:0:0:0:
475,182,55491,1,0,0:0:0:0:
346,36,55591,5,0,0:0:0:0:
344,219,55691,1,0,0:0:0:0:
512,160,55791,5,0,0:0:0:0:
483,148,55841,1,0,0:0:0:0:
456,161,55891,1,0,0:0:0:0:
446,190,55941,1,0,0:0:0:0:
461,217,55991,5,0,0:0:0:0:
310,338,56091,1,0,0:0:0:0:
188,186,56191,1,0,0:0:0:0:
463,254,56291,5,0,0:0:0:0:
285,332,56391,1,0,0:0:0:0:
207,153,56491,1,0,0:0:0:0:
457,291,56591,5,0,0:0:0:0:
264,321,56691,1,0,0:0:0:0:
235,127,56791,1,0,0:0:0:0:
440,325,56891,5,0,0:0:0:0:
247,304,56991,1,0,0:0:0:0:
269,110,57091,1,0,0:0:0:0:
278,287,57191,5,0,0:0:0:0:
457,68,57291,1,0,0:0:0:0:
267,151,57391,1,0,0:0:0:0:
282,154,57441,1,0,0:0:0:0:
297,157,57491,1,0,0:0:0:0:
312,160,57541,1,0,0:0:0:0:
328,164,57591,1,0,0:0:0:0:
343,167,57641,1,0,0:0:0:0:
358,170,57691,1,0,0:0:0:0:
373,173,57741,1,0,0:0:0:0:
389,177,57791,5,0,0:0:0:0:
181,246,57991,6,0,L|195:312,1,62.5
165,242,58041,2,0,L|179:308,1,62.5
149,238,58091,2,0,L|163:304,1,62.5
133,234,58141,2,0,L|147:300,1,62.5
117,230,58191,5,0,0:0:0:0:
348,367,58391,5,0,0:0:0:0:
26,129,58591,5,0,0:0:0:0:
148,104,58691,1,0,0:0:0:0:
49,100,58791,5,0,0:0:0:0:
159,143,58891,1,0,0:0:0:0:
512,0,58991,6,0,B|441:49|441:49|489:364,1,375
491,371,59191,5,0,0:0:0:0:
266,329,59291,1,0,0:0:0:0:
414,155,59391,1,0,0:0:0:0:
368,384,59491,5,0,0:0:0:0:
300,197,59591,1,0,0:0:0:0:
465,344,59691,1,0,0:0:0:0:
246,317,59791,5,0,0:0:0:0:
436,164,59891,1,0,0:0:0:0:
186,208,59991,1,0,0:0:0:0:
394,268,60091,5,0,0:0:0:0:
231,93,60191,1,0,0:0:0:0:
448,55,60291,1,0,0:0:0:0:
254,307,60391,5,0,0:0:0:0:
344,70,60491,1,0,0:0:0:0:
365,378,60591,5,0,0:0:0:0:
231,93,60691,1,0,0:0:0:0:
231,93,60741,1,0,0:0:0:0:
231,93,60791,5,0,0:0:0:0:
436,164,60891,1,0,0:0:0:0:
263,294,60991,1,0,0:0:0:0:
353,55,61091,5,0,0:0:0:0:
178,212,61191,1,0,0:0:0:0:
436,180,61341,1,0,0:0:0:0:
221,81,61491,5,0,0:0:0:0:
273,306,61591,1,0,0:0:0:0:
46,242,61691,1,0,0:0:0:0:
312,179,61791,5,0,0:0:0:0:
149,342,61891,1,0,0:0:0:0:
193,80,61991,5,0,0:0:0:0:
128,367,62091,1,0,0:0:0:0:
52,99,62191,5,0,0:0:0:0:
55,130,62241,1,0,0:0:0:0:
59,161,62291,1,0,0:0:0:0:
63,192,62341,1,0,0:0:0:0:
67,223,62391,6,0,B|106:30|106:30|78:75,1,250
110,338,62591,6,0,B|78:353|78:353|47:350,4,62.5
318,321,62791,5,0,0:0:0:0:
179,193,62891,1,0,0:0:0:0:
420,248,62991,1,0,0:0:0:0:
208,293,63091,5,0,0:0:0:0:
384,142,63191,1,0,0:0:0:0:
311,350,63291,1,0,0:0:0:0:
275,113,63391,5,0,0:0:0:0:
441,268,63491,1,0,0:0:0:0:
360,39,63591,5,0,0:0:0:0:
311,232,63691,1,0,0:0:0:0:
263,5,63791,5,0,0:0:0:0:
311,350,63891,1,0,0:0:0:0:
0,176,63991,6,0,L|189:202,1,187.5
512,0,65591,5,0,0:0:0:0:
256,192,65641,12,0,71941,0:0:0:0:
256,192,71991,5,0,0:0:0:0:
256,192,78391,5,0,0:0:0:0:
60,275,91191,6,0,L|155:286,1,93.7500035762788
255,282,91391,2,0,L|160:271,1,93.7500035762788
98,374,91591,2,0,L|193:385,1,93.7500035762788
293,381,91791,2,0,L|198:370,1,93.7500035762788
488,176,91991,6,0,L|393:187,1,93.7500035762788
293,183,92191,2,0,L|388:172,1,93.7500035762788
450,275,92391,2,0,L|355:286,1,93.7500035762788
255,282,92591,2,0,L|350:271,1,93.7500035762788
60,109,92791,6,0,L|155:98,1,93.7500035762788
255,102,92991,2,0,L|160:113,1,93.7500035762788
98,10,93191,2,0,L|193:-1,1,93.7500035762788
293,3,93391,2,0,L|198:14,1,93.7500035762788
488,208,93591,6,0,L|393:197,1,93.7500035762788
293,201,93791,2,0,L|388:212,1,93.7500035762788
450,109,93991,2,0,L|355:98,1,93.7500035762788
255,102,94191,2,0,L|350:113,1,93.7500035762788
20,188,94391,5,0,0:0:0:0:
217,97,94591,1,0,0:0:0:0:
73,43,94791,5,0,0:0:0:0:
164,241,94991,1,0,0:0:0:0:
492,196,95191,5,0,0:0:0:0:
295,287,95391,1,0,0:0:0:0:
439,340,95591,5,0,0:0:0:0:
348,142,95791,1,0,0:0:0:0:
0,240,95991,5,0,0:0:0:0:
197,331,96191,1,0,0:0:0:0:
53,384,96391,5,0,0:0:0:0:
144,186,96591,1,0,0:0:0:0:
472,232,96791,5,0,0:0:0:0:
370,183,96991,1,0,0:0:0:0:
419,88,97191,5,0,0:0:0:0:
328,285,97391,1,0,0:0:0:0:
279,86,97591,6,0,L|262:179,1,93.7500035762788
129,334,97791,2,0,L|145:240,1,93.7500035762788
328,285,97991,2,0,L|234:268,1,93.7500035762788
78,135,98191,2,0,L|171:151,1,93.7500035762788
308,109,98391,6,0,L|268:195,1,93.7500035762788
99,310,98591,2,0,L|139:224,1,93.7500035762788
304,314,98791,2,0,L|218:274,1,93.7500035762788
101,105,98991,2,0,L|187:145,1,93.7500035762788
330,140,99191,6,0,L|269:213,1,93.7500035762788
76,280,99391,2,0,L|138:207,1,93.7500035762788
273,337,99591,2,0,L|201:276,1,93.7500035762788
132,82,99791,2,0,L|205:143,1,93.7500035762788
344,175,99991,6,0,L|266:230,1,93.7500035762788
63,245,100191,2,0,L|140:190,1,93.7500035762788
238,351,100391,2,0,L|184:273,1,93.7500035762788
167,68,100591,2,0,L|222:146,1,93.7500035762788
364,269,100791,5,0,0:0:0:0:
448,216,100891,1,0,0:0:0:0:
356,244,100991,5,0,0:0:0:0:
454,240,101091,1,0,0:0:0:0:
360,219,101191,5,0,0:0:0:0:
449,265,101291,1,0,0:0:0:0:
378,199,101391,5,0,0:0:0:0:
430,283,101491,1,0,0:0:0:0:
148,269,101591,5,0,0:0:0:0:
64,216,101691,1,0,0:0:0:0:
156,244,101791,5,0,0:0:0:0:
58,240,101891,1,0,0:0:0:0:
152,219,101991,5,0,0:0:0:0:
63,265,102091,1,0,0:0:0:0:
134,199,102191,5,0,0:0:0:0:
82,283,102291,1,0,0:0:0:0:
262,27,102391,6,0,P|318:9|453:0,1,187.500007152558
506,77,102691,1,0,0:0:0:0:
244,129,102791,6,0,P|188:111|53:102,1,187.500007152558
0,179,103091,1,0,0:0:0:0:
294,222,103191,5,0,0:0:0:0:
294,222,103791,6,0,P|272:278|274:324,1,93.7500035762788
512,358,103991,6,0,P|466:253|359:290,1,250
194,384,104191,2,0,P|182:259|231:146,1,250
414,28,104391,1,0,0:0:0:0:
294,222,104491,2,0,B|220:237|220:237|161:207|161:207|38:220,1,250
437,46,104691,1,0,0:0:0:0:
270,203,104791,2,0,B|195:198|195:198|146:154|146:154|24:134,1,250
454,70,104991,1,0,0:0:0:0:
253,179,105091,2,0,B|181:154|181:154|145:99|145:99|32:49,1,250
264,56,105291,1,0,0:0:0:0:
61,211,105391,5,0,0:0:0:0:
465,96,105491,1,0,0:0:0:0:
6,358,105591,6,0,P|52:253|159:290,1,250
324,384,105791,2,0,P|336:259|287:146,1,250
104,28,105991,1,0,0:0:0:0:
224,222,106091,2,0,B|298:237|298:237|357:207|357:207|480:220,1,250
81,46,106291,1,0,0:0:0:0:
248,203,106391,2,0,B|323:198|323:198|372:154|372:154|494:134,1,250
270,58,106591,5,0,0:0:0:0:
441,265,106691,1,0,0:0:0:0:
148,320,106791,2,0,P|146:263|151:325,1,375
65,354,106991,2,0,P|86:196|292:163,1,375
441,265,107191,6,0,L|404:4,1,250
270,58,107391,2,0,L|307:319,1,250
512,384,107591,5,0,0:0:0:0:
305,305,107691,2,0,P|346:206|441:265,1,250
0,384,107891,5,8,0:0:0:0:
206,305,107991,2,8,P|166:206|71:265,1,250
396,364,108191,5,0,0:0:0:0:
175,167,108291,2,0,B|232:112|351:116|351:116|335:137|295:153,1,250
70,266,108491,5,0,0:0:0:0:
3,40,108591,1,0,0:0:0:0:
206,305,108691,1,0,0:0:0:0:
0,20,108791,2,0,B|59:58|142:58|142:58|177:27|260:18,1,250
409,168,108991,2,0,B|350:130|267:130|267:130|232:161|149:170,1,250
0,20,109191,5,0,0:0:0:0:
7,384,109291,2,0,P|42:280|67:120,1,250
409,168,109591,5,0,0:0:0:0:
7,384,109691,1,0,0:0:0:0:
66,97,109791,5,0,0:0:0:0:
271,382,109891,1,0,0:0:0:0:
0,0,109991,5,0,0:0:0:0:
0,0,110191,6,0,P|83:60|352:32,1,375
375,11,110391,5,0,0:0:0:0:
157,294,110491,1,0,0:0:0:0:
433,179,110591,2,0,B|359:141|231:192|231:192|339:247,1,250
447,345,110791,5,0,0:0:0:0:
375,11,110891,2,0,P|470:62|434:179,1,250
65,345,111091,5,0,0:0:0:0:
137,11,111191,2,0,P|42:62|78:179,1,250
389,103,111391,5,0,0:0:0:0:
65,345,111491,2,0,P|185:312|309:295,1,250
78,179,111691,1,0,0:0:0:0:
429,232,111791,5,0,0:0:0:0:
137,11,111891,1,0,0:0:0:0:
146,21,111941,1,0,0:0:0:0:
156,31,111991,2,0,L|423:9,1,250
309,295,112191,5,0,0:0:0:0:
56,204,112291,1,0,0:0:0:0:
389,103,112391,1,0,0:0:0:0:
143,364,112491,5,0,0:0:0:0:
33,117,112591,2,0,P|138:168|104:281,1,250
0,344,112791,5,0,0:0:0:0:
309,295,112891,1,0,0:0:0:0:
56,204,112991,1,0,0:0:0:0:
316,328,113091,1,0,0:0:0:0:
33,117,113191,6,0,P|156:92|56:203,1,375
510,0,113391,5,0,0:0:0:0:
159,45,113591,5,0,0:0:0:0:
391,124,113691,1,0,0:0:0:0:
188,130,113791,5,0,0:0:0:0:
342,34,113891,1,0,0:0:0:0:
257,237,113991,5,0,0:0:0:0:
268,85,114091,1,0,0:0:0:0:
369,237,114191,5,0,0:0:0:0:
317,159,114291,1,0,0:0:0:0:
467,204,114391,5,0,0:0:0:0:
384,206,114491,1,0,0:0:0:0:
487,123,114591,5,0,0:0:0:0:
460,165,114691,1,0,0:0:0:0:
430,101,114791,5,0,0:0:0:0:
434,131,114891,1,0,0:0:0:0:
381,113,114991,5,0,0:0:0:0:
391,124,115091,1,0,0:0:0:0:
369,237,115191,5,0,0:0:0:0:
256,192,115241,12,0,116291,0:0:0:0:
132,67,116791,5,0,0:0:0:0:
171,288,116891,1,0,0:0:0:0:
262,158,116991,5,0,0:0:0:0:
41,197,117091,1,0,0:0:0:0:
161,65,117191,5,0,0:0:0:0:
141,289,117291,1,0,0:0:0:0:
263,187,117391,5,0,0:0:0:0:
39,167,117491,1,0,0:0:0:0:
189,72,117591,5,0,0:0:0:0:
113,282,117691,1,0,0:0:0:0:
256,215,117791,5,0,0:0:0:0:
46,139,117891,1,0,0:0:0:0:
215,85,117991,5,0,0:0:0:0:
87,269,118091,1,0,0:0:0:0:
243,241,118191,5,0,0:0:0:0:
59,113,118291,1,0,0:0:0:0:
63,124,118341,1,0,0:0:0:0:
67,135,118391,5,0,0:0:0:0:
238,93,118491,1,0,0:0:0:0:
67,89,118591,5,0,0:0:0:0:
237,138,118691,1,0,0:0:0:0:
91,50,118791,5,0,0:0:0:0:
213,177,118891,1,0,0:0:0:0:
131,28,118991,5,0,0:0:0:0:
173,199,119091,1,0,0:0:0:0:
164,190,119141,1,0,0:0:0:0:
155,181,119191,5,0,0:0:0:0:
331,136,119291,1,0,0:0:0:0:
179,93,119391,5,0,0:0:0:0:
306,223,119491,1,0,0:0:0:0:
163,203,119591,5,0,0:0:0:0:
322,113,119691,1,0,0:0:0:0:
131,28,119791,6,0,L|100:21,8,31.25
405,339,119991,5,0,0:0:0:0:
366,118,120091,1,0,0:0:0:0:
275,248,120191,5,0,0:0:0:0:
496,209,120291,1,0,0:0:0:0:
376,341,120391,5,0,0:0:0:0:
396,117,120491,1,0,0:0:0:0:
274,219,120591,5,0,0:0:0:0:
498,239,120691,1,0,0:0:0:0:
348,334,120791,5,0,0:0:0:0:
424,124,120891,1,0,0:0:0:0:
281,191,120991,5,0,0:0:0:0:
491,267,121091,1,0,0:0:0:0:
322,321,121191,5,0,0:0:0:0:
450,137,121291,1,0,0:0:0:0:
294,165,121391,5,0,0:0:0:0:
478,293,121491,1,0,0:0:0:0:
474,282,121541,1,0,0:0:0:0:
470,271,121591,5,0,0:0:0:0:
299,313,121691,1,0,0:0:0:0:
470,317,121791,5,0,0:0:0:0:
300,268,121891,1,0,0:0:0:0:
446,356,121991,5,0,0:0:0:0:
324,229,122091,1,0,0:0:0:0:
406,378,122191,5,0,0:0:0:0:
364,207,122291,1,0,0:0:0:0:
220,346,122391,6,0,L|215:308,8,31.25
70,229,122591,5,0,0:0:0:0:
382,297,122691,1,0,0:0:0:0:
38,47,122791,6,0,P|68:133|64:257,1,187.5
58,337,122991,6,0,P|142:204|251:174,1,250
382,297,123191,5,0,0:0:0:0:
193,364,123291,1,0,0:0:0:0:
351,164,123391,1,0,0:0:0:0:
303,380,123491,5,0,0:0:0:0:
223,174,123591,1,0,0:0:0:0:
445,213,123691,1,0,0:0:0:0:
258,277,123791,5,0,0:0:0:0:
450,119,123891,1,0,0:0:0:0:
240,21,123991,1,0,0:0:0:0:
382,297,124091,5,0,0:0:0:0:
217,157,124191,1,0,0:0:0:0:
302,374,124291,1,0,0:0:0:0:
351,164,124391,5,0,0:0:0:0:
191,360,124491,1,0,0:0:0:0:
112,237,124591,5,0,0:0:0:0:
382,297,124691,1,0,0:0:0:0:
390,288,124741,1,0,0:0:0:0:
398,279,124791,5,0,0:0:0:0:
217,157,124891,1,0,0:0:0:0:
421,59,124991,1,0,0:0:0:0:
258,277,125091,5,0,0:0:0:0:
292,45,125191,1,0,0:0:0:0:
112,237,125291,1,0,0:0:0:0:
174,21,125391,5,0,0:0:0:0:
338,184,125491,1,0,0:0:0:0:
334,172,125541,1,0,0:0:0:0:
330,159,125591,5,0,0:0:0:0:
89,224,125691,1,0,0:0:0:0:
382,297,125791,1,0,0:0:0:0:
207,136,125891,5,0,0:0:0:0:
213,368,125991,1,0,0:0:0:0:
91,102,126091,1,0,0:0:0:0:
108,356,126191,6,0,L|115:317,8,31.25
2,304,126391,5,0,0:0:0:0:
260,253,126491,1,0,0:0:0:0:
0,158,126591,1,0,0:0:0:0:
200,360,126691,5,0,0:0:0:0:
96,119,126791,1,0,0:0:0:0:
353,183,126891,1,0,0:0:0:0:
141,237,126991,5,0,0:0:0:0:
334,77,127091,1,0,0:0:0:0:
53,21,127191,1,0,0:0:0:0:
274,242,127291,5,0,0:0:0:0:
203,2,127391,1,0,0:0:0:0:
438,133,127491,1,0,0:0:0:0:
33,214,127591,5,0,0:0:0:0:
434,17,127691,1,0,0:0:0:0:
53,21,127791,5,0,0:0:0:0:
404,248,127891,1,0,0:0:0:0:
400,236,127941,1,0,0:0:0:0:
396,224,127991,5,0,0:0:0:0:
116,160,128391,5,0,0:0:0:0:
396,224,128791,5,0,0:0:0:0:
396,224,128991,1,0,0:0:0:0:
116,160,129191,6,0,B|145:95|204:69|204:69|248:154|228:229,1,250
223,225,129391,2,0,B|193:289|134:315|134:315|90:230|110:155,1,250
215,34,129591,5,0,0:0:0:0:
256,192,129641,12,0,131591,0:0:0:0:
256,192,131641,12,0,132291,0:0:0:0:
111,116,132591,6,0,P|195:138|94:129,1,375
252,69,132791,5,0,0:0:0:0:
278,107,132841,1,0,0:0:0:0:
292,151,132891,1,0,0:0:0:0:
291,198,132941,1,0,0:0:0:0:
277,242,132991,1,0,0:0:0:0:
249,280,133041,1,0,0:0:0:0:
211,308,133091,1,0,0:0:0:0:
167,322,133141,1,0,0:0:0:0:
120,323,133191,5,0,0:0:0:0:
139,280,133241,1,0,0:0:0:0:
171,246,133291,1,0,0:0:0:0:
212,223,133341,1,0,0:0:0:0:
258,214,133391,1,0,0:0:0:0:
304,219,133441,1,0,0:0:0:0:
347,238,133491,1,0,0:0:0:0:
381,269,133541,1,0,0:0:0:0:
405,309,133591,5,0,0:0:0:0:
358,312,133641,1,0,0:0:0:0:
312,302,133691,1,0,0:0:0:0:
272,278,133741,1,0,0:0:0:0:
241,243,133791,1,0,0:0:0:0:
222,201,133841,1,0,0:0:0:0:
218,154,133891,1,0,0:0:0:0:
227,108,133941,1,0,0:0:0:0:
250,68,133991,5,0,0:0:0:0:
287,40,134041,1,0,0:0:0:0:
332,25,134091,1,0,0:0:0:0:
378,25,134141,1,0,0:0:0:0:
423,38,134191,2,0,B|401:60|401:60|366:50,6,62.5
420,172,134391,5,0,0:0:0:0:
392,202,134441,1,0,0:0:0:0:
355,221,134491,1,0,0:0:0:0:
313,225,134541,1,0,0:0:0:0:
273,214,134591,1,0,0:0:0:0:
240,189,134641,1,0,0:0:0:0:
218,154,134691,1,0,0:0:0:0:
196,119,134741,1,0,0:0:0:0:
163,94,134791,5,0,0:0:0:0:
123,83,134841,1,0,0:0:0:0:
81,87,134891,1,0,0:0:0:0:
44,106,134941,1,0,0:0:0:0:
16,136,134991,1,0,0:0:0:0:
0,178,135041,1,0,0:0:0:0:
3,223,135091,1,0,0:0:0:0:
23,264,135141,1,0,0:0:0:0:
57,293,135191,5,0,0:0:0:0:
100,306,135241,1,0,0:0:0:0:
145,302,135291,1,0,0:0:0:0:
185,280,135341,1,0,0:0:0:0:
213,245,135391,1,0,0:0:0:0:
225,202,135441,1,0,0:0:0:0:
219,157,135491,1,0,0:0:0:0:
196,118,135541,1,0,0:0:0:0:
163,94,135591,6,0,P|196:79|223:89,6,62.5
277,35,135791,6,0,P|295:104|284:128,1,62.5
371,116,135891,2,0,P|320:166|293:168,1,62.5
364,240,135991,5,0,0:0:0:0:
340,205,136041,1,0,0:0:0:0:
304,186,136091,1,0,0:0:0:0:
263,184,136141,1,0,0:0:0:0:
225,202,136191,1,0,0:0:0:0:
187,220,136241,1,0,0:0:0:0:
146,218,136291,1,0,0:0:0:0:
110,199,136341,1,0,0:0:0:0:
86,164,136391,5,0,0:0:0:0:
84,117,136441,1,0,0:0:0:0:
106,77,136491,1,0,0:0:0:0:
146,53,136541,1,0,0:0:0:0:
192,54,136591,1,0,0:0:0:0:
232,78,136641,1,0,0:0:0:0:
253,119,136691,1,0,0:0:0:0:
251,165,136741,1,0,0:0:0:0:
225,203,136791,5,0,0:0:0:0:
199,241,136841,1,0,0:0:0:0:
196,287,136891,1,0,0:0:0:0:
217,328,136941,1,0,0:0:0:0:
257,352,136991,1,0,0:0:0:0:
303,353,137041,1,0,0:0:0:0:
343,329,137091,1,0,0:0:0:0:
365,289,137141,1,0,0:0:0:0:
364,242,137191,5,0,0:0:0:0:
340,207,137241,1,0,0:0:0:0:
304,188,137291,1,0,0:0:0:0:
263,186,137341,1,0,0:0:0:0:
225,203,137391,2,0,B|234:170|234:170|258:151,6,62.5
196,287,137591,5,0,0:0:0:0:
156,308,137641,1,0,0:0:0:0:
111,313,137691,1,0,0:0:0:0:
68,300,137741,1,0,0:0:0:0:
34,270,137791,1,0,0:0:0:0:
14,230,137841,1,0,0:0:0:0:
11,185,137891,1,0,0:0:0:0:
27,143,137941,1,0,0:0:0:0:
58,110,137991,1,0,0:0:0:0:
99,92,138041,1,0,0:0:0:0:
144,92,138091,1,0,0:0:0:0:
186,109,138141,1,0,0:0:0:0:
214,139,138191,1,0,0:0:0:0:
242,169,138241,1,0,0:0:0:0:
284,186,138291,1,0,0:0:0:0:
329,186,138341,1,0,0:0:0:0:
370,168,138391,1,0,0:0:0:0:
401,135,138441,1,0,0:0:0:0:
417,93,138491,1,0,0:0:0:0:
398,50,138541,1,0,0:0:0:0:
359,24,138591,1,0,0:0:0:0:
313,23,138641,1,0,0:0:0:0:
273,47,138691,1,0,0:0:0:0:
252,88,138741,1,0,0:0:0:0:
257,134,138791,6,0,B|298:163|298:163|278:253,1,125
208,361,138891,2,0,B|167:332|167:332|187:242,1,125
456,329,138991,2,0,L|157:367,1,250
71,232,139191,6,0,B|31:248|31:248|49:231,1,62.5
70,196,139241,2,0,B|27:190|27:190|51:184,1,62.5
86,165,139291,2,0,B|52:138|52:138|75:146,1,62.5
116,147,139341,2,0,B|99:107|99:107|116:125,1,62.5
150,146,139391,2,0,B|155:103|155:103|161:127,1,62.5
181,164,139441,2,0,B|207:130|207:130|199:153,1,62.5
199,193,139491,2,0,B|238:176|238:176|220:193,1,62.5
200,228,139541,2,0,B|242:233|242:233|218:239,1,62.5
183,259,139591,6,0,B|178:275|178:275|184:288,28,31.25
441,232,139991,6,0,B|480:248|480:248|462:231,1,62.5
442,196,140041,2,0,B|484:190|484:190|460:184,1,62.5
426,165,140091,2,0,B|459:138|459:138|436:146,1,62.5
396,147,140141,2,0,B|412:107|412:107|395:125,1,62.5
362,146,140191,2,0,B|356:103|356:103|350:127,1,62.5
331,164,140241,2,0,B|304:130|304:130|312:153,1,62.5
313,193,140291,2,0,B|273:176|273:176|291:193,1,62.5
312,228,140341,2,0,B|269:233|269:233|293:239,1,62.5
329,259,140391,6,0,B|334:275|334:275|328:288,28,31.25
256,384,140791,6,0,L|256:352,120,31.25
256,0,142391,5,0,0:0:0:0:
